osu file format v14

[General]
AudioFilename: audio.mp3
AudioLeadIn: 0
PreviewTime: -1
Countdown: 0
SampleSet: Soft
StackLeniency: 0.7
Mode: 0
LetterboxInBreaks: 0
WidescreenStoryboard: 0

[Editor]
DistanceSpacing: 0.8
BeatDivisor: 4
GridSize: 4
TimelineZoom: 1.8

[Metadata]
Title:Pretty Girl Rock
TitleUnicode:Pretty Girl Rock
Artist:Speedmaster ft.Cindy
ArtistUnicode:Speedmaster ft.Cindy
Creator:Sensokaku
Version:No Boys Allowed
Source:
Tags:eurobeats
BeatmapID:2065921
BeatmapSetID:987591

[Difficulty]
HPDrainRate:5.5
CircleSize:4.2
OverallDifficulty:8
ApproachRate:9.4
SliderMultiplier:1.6
SliderTickRate:1

[Events]
//Background and Video events
0,0,"__hatsune_miku_vocaloid_drawn_by_cait__881e7949ded977fef84b188ff94e5bea.jpg",0,0
//Break Periods
2,33665,44143
2,155743,166085
2,244401,254744
//Storyboard Layer 0 (Background)
//Storyboard Layer 1 (Fail)
//Storyboard Layer 2 (Pass)
//Storyboard Layer 3 (Foreground)
//Storyboard Layer 4 (Overlay)
//Storyboard Sound Samples

[TimingPoints]
392,346.320809248555,4,2,0,100,1,0
392,-500,4,2,0,100,0,0
11291,-100,4,2,0,100,0,0
11637,-250,4,2,0,100,0,0
47480,-500,4,2,0,100,0,0
66885,-100,4,2,0,100,0,1
72085,-100,4,2,0,100,0,1
77611,-200,4,2,0,100,0,1
83159,-100,4,2,0,100,0,1
89050,-100,4,2,0,100,0,0
100992,-200,4,2,0,100,0,0
102897,-100,4,2,0,100,0,0
123158,-200,4,2,0,100,0,0
125063,-100,4,2,0,100,0,0
127314,-200,4,2,0,100,0,0
127855,-100,4,2,0,100,0,0
133379,-100,4,2,0,100,0,1
135803,-100,4,2,0,100,0,1
136149,-100,4,2,0,100,0,1
138574,-500,4,2,0,100,0,1
138833,-500,4,2,0,5,0,1
138920,-100,4,2,0,100,0,1
140305,-500,4,2,0,100,0,1
140565,-500,4,2,0,5,0,1
140651,-500,4,2,0,100,0,1
140738,-500,4,2,0,5,0,1
140825,-100,4,2,0,100,0,1
141257,-100,4,2,0,5,0,1
141344,-500,4,2,0,100,0,1
141604,-500,4,2,0,5,0,1
141690,-100,4,2,0,100,0,1
143076,-500,4,2,0,100,0,1
143335,-500,4,2,0,5,0,1
143422,-500,4,2,0,100,0,1
143509,-500,4,2,0,5,0,1
143595,-100,4,2,0,100,0,1
144634,-100,4,2,0,100,0,1
145327,-100,4,2,0,100,0,1
147232,-100,4,2,0,100,0,1
149656,-500,4,2,0,100,0,1
149916,-500,4,2,0,5,0,1
150002,-100,4,2,0,100,0,1
151387,-500,4,2,0,100,0,1
151647,-500,4,2,0,5,0,1
151734,-500,4,2,0,100,0,1
151820,-500,4,2,0,5,0,1
151907,-100,4,2,0,100,0,1
152253,-100,4,2,0,5,0,1
152426,-500,4,2,0,100,0,1
152686,-500,4,2,0,5,0,1
152773,-100,4,2,0,100,0,1
155543,-100,4,2,0,100,0,0
166625,-66.6666666666667,4,2,0,100,0,0
177708,-100,4,2,0,100,0,0
178747,-200,4,2,0,100,0,0
179093,-100,4,2,0,100,0,0
182383,-200,4,2,0,100,0,0
183076,-100,4,2,0,100,0,0
185500,-250,4,2,0,100,0,0
186019,-100,4,2,0,100,0,0
187058,-333.333333333333,4,2,0,100,0,0
188790,-100,4,2,0,100,0,0
192946,-200,4,2,0,100,0,0
194331,-100,4,2,0,100,0,0
196929,-333.333333333333,4,2,0,100,0,0
197621,-200,4,2,0,100,0,0
197968,-133.333333333333,4,2,0,100,0,0
198314,-100,4,2,0,100,0,0
199872,-66.6666666666667,4,2,0,100,0,1
200392,-100,4,2,0,100,0,1
202297,-100,4,2,0,100,0,1
203509,-100,4,2,0,100,0,1
205067,-500,4,2,0,100,0,1
205327,-500,4,2,0,5,0,1
205413,-100,4,2,0,100,0,1
206799,-500,4,2,0,100,0,1
207058,-500,4,2,0,5,0,1
207145,-500,4,2,0,100,0,1
207232,-500,4,2,0,5,0,1
207318,-100,4,2,0,100,0,1
207838,-500,4,2,0,100,0,1
208097,-500,4,2,0,5,0,1
208184,-100,4,2,0,100,0,1
209569,-500,4,2,0,100,0,1
209829,-500,4,2,0,5,0,1
209916,-500,4,2,0,100,0,1
210002,-500,4,2,0,5,0,1
210089,-100,4,2,0,100,0,1
210955,-100,4,2,0,100,0,1
216149,-500,4,2,0,100,0,1
216409,-500,4,2,0,5,0,1
216496,-100,4,2,0,100,0,1
217881,-500,4,2,0,100,0,1
218141,-500,4,2,0,5,0,1
218227,-500,4,2,0,100,0,1
218314,-500,4,2,0,5,0,1
218400,-100,4,2,0,100,0,1
218920,-500,4,2,0,100,0,1
219180,-500,4,2,0,5,0,1
219266,-100,4,2,0,100,0,1
244201,-66.6666666666667,4,2,0,100,0,0
255629,-200,4,2,0,100,0,0
266193,-200,4,2,0,5,0,0
266366,-66.6666666666667,4,2,0,100,0,1
310695,-66.6666666666667,4,2,0,100,0,0
313119,-200,4,2,0,100,0,0
333033,-250,4,2,0,100,0,0
360911,-500,4,2,0,100,0,0

[HitObjects]
108,132,392,6,0,L|138:154,1,32
247,168,1084,2,0,L|228:197,1,32
251,286,1777,2,0,L|282:283,1,32
363,165,2469,2,0,L|340:196,1,32
287,109,3162,2,0,L|276:75,1,32
189,164,3855,2,0,L|208:191,1,32
355,237,4547,2,0,L|389:254,1,32
379,340,5240,2,0,L|350:319,1,32
299,285,5933,5,0,0:0:0:0:
299,285,6279,1,0,0:0:0:0:
146,216,6625,1,0,0:0:0:0:
146,216,6972,1,0,0:0:0:0:
389,157,7318,1,0,0:0:0:0:
389,157,7664,1,0,0:0:0:0:
206,60,8011,1,0,0:0:0:0:
206,60,8357,1,0,0:0:0:0:
296,124,8703,6,0,L|328:141,3,32
290,203,10088,1,0,0:0:0:0:
341,232,10262,1,2,0:0:0:0:
341,232,10348,1,2,0:0:0:0:
341,232,10435,1,2,0:0:0:0:
206,290,10608,1,2,0:0:0:0:
206,290,10695,1,2,0:0:0:0:
206,290,10781,1,2,0:0:0:0:
215,151,10954,1,2,0:0:0:0:
215,151,11041,1,2,0:0:0:0:
215,151,11127,1,2,0:0:0:0:
310,77,11301,6,0,L|355:115,1,40
394,147,11474,1,0,0:0:0:0:
408,250,11647,2,0,L|370:268,3,32,8|0|8|0,0:0|0:0|0:0|0:0,0:0:0:0:
278,288,12340,2,0,L|316:308,3,32,8|0|8|0,0:0|0:0|0:0|0:0,0:0:0:0:
415,295,13032,2,0,L|386:311,3,32,8|0|8|0,0:0|0:0|0:0|0:0,0:0:0:0:
309,316,13725,1,8,0:0:0:0:
236,271,13898,1,0,0:0:0:0:
189,201,14071,1,8,0:0:0:0:
154,128,14244,1,0,0:0:0:0:
83,99,14417,6,0,L|44:84,3,32,8|0|8|0,0:0|0:0|0:0|0:0,0:0:0:0:
98,30,15110,2,0,L|137:10,3,32,8|0|8|0,0:0|0:0|0:0|0:0,0:0:0:0:
204,31,15803,2,0,L|184:70,3,32,8|0|8|0,0:0|0:0|0:0|0:0,0:0:0:0:
173,126,16495,1,8,0:0:0:0:
247,104,16669,1,0,0:0:0:0:
324,129,16842,1,8,0:0:0:0:
401,135,17015,1,0,0:0:0:0:
367,70,17188,6,0,L|342:36,3,32,8|0|8|0,0:0|0:0|0:0|0:0,0:0:0:0:
454,105,17881,2,0,L|494:96,3,32,8|0|8|0,0:0|0:0|0:0|0:0,0:0:0:0:
413,185,18573,2,0,L|381:217,3,32,8|0|8|0,0:0|0:0|0:0|0:0,0:0:0:0:
330,248,19266,1,8,0:0:0:0:
255,276,19439,1,0,0:0:0:0:
178,278,19612,1,8,0:0:0:0:
112,235,19785,1,0,0:0:0:0:
87,301,19959,6,0,L|73:341,3,32,8|0|8|0,0:0|0:0|0:0|0:0,0:0:0:0:
24,260,20651,2,0,L|43:227,3,32,8|0|8|0,0:0|0:0|0:0|0:0,0:0:0:0:
115,222,21344,2,0,L|137:250,3,32,8|0|8|0,0:0|0:0|0:0|0:0,0:0:0:0:
80,150,22037,1,8,0:0:0:0:
157,123,22210,1,0,0:0:0:0:
233,121,22383,1,8,0:0:0:0:
310,143,22556,1,0,0:0:0:0:
376,196,22729,5,8,0:0:0:0:
323,238,22902,1,0,0:0:0:0:
376,196,23076,1,8,0:0:0:0:
323,238,23249,1,0,0:0:0:0:
249,200,23422,5,8,0:0:0:0:
188,157,23595,1,0,0:0:0:0:
249,200,23768,1,8,0:0:0:0:
188,157,23941,1,0,0:0:0:0:
256,90,24114,5,8,0:0:0:0:
331,53,24288,1,0,0:0:0:0:
256,90,24461,1,8,0:0:0:0:
331,53,24634,1,0,0:0:0:0:
375,108,24807,1,8,0:0:0:0:
335,178,24980,1,0,0:0:0:0:
268,220,25153,1,8,0:0:0:0:
189,233,25327,1,0,0:0:0:0:
152,158,25500,5,8,0:0:0:0:
115,71,25673,1,0,0:0:0:0:
152,158,25846,1,8,0:0:0:0:
115,71,26019,1,0,0:0:0:0:
200,78,26192,5,8,0:0:0:0:
299,124,26366,1,0,0:0:0:0:
200,78,26539,1,8,0:0:0:0:
299,124,26712,1,0,0:0:0:0:
256,197,26885,5,8,0:0:0:0:
208,307,27058,1,0,0:0:0:0:
256,197,27231,1,8,0:0:0:0:
208,307,27405,1,0,0:0:0:0:
289,320,27578,1,8,0:0:0:0:
354,275,27751,1,0,0:0:0:0:
405,216,27924,1,8,0:0:0:0:
402,138,28097,1,0,0:0:0:0:
351,74,28270,5,8,0:0:0:0:
218,84,28443,1,0,0:0:0:0:
351,74,28617,1,8,0:0:0:0:
218,84,28790,1,0,0:0:0:0:
206,164,28963,5,8,0:0:0:0:
180,319,29136,1,0,0:0:0:0:
206,164,29309,1,8,0:0:0:0:
180,319,29482,1,0,0:0:0:0:
131,250,29656,5,8,0:0:0:0:
82,87,29829,1,0,0:0:0:0:
131,250,30002,1,8,0:0:0:0:
82,87,30175,1,0,0:0:0:0:
161,90,30348,1,8,0:0:0:0:
240,119,30521,1,0,0:0:0:0:
263,196,30695,1,8,0:0:0:0:
263,276,30868,1,0,0:0:0:0:
187,291,31041,6,0,L|155:300,3,32,8|0|8|0,0:0|0:0|0:0|0:0,0:0:0:0:
106,237,31734,2,0,L|114:200,3,32,8|0|8|0,0:0|0:0|0:0|0:0,0:0:0:0:
190,191,32426,2,0,L|224:184,3,32,8|0|8|0,0:0|0:0|0:0|0:0,0:0:0:0:
311,191,33119,1,2,0:0:0:0:
311,191,33292,1,2,0:0:0:0:
311,191,33465,1,2,0:0:0:0:
423,78,44721,5,0,0:0:0:0:
423,78,45067,1,8,0:0:0:0:
304,111,45413,1,0,0:0:0:0:
304,111,45760,1,8,0:0:0:0:
232,238,46106,1,0,0:0:0:0:
232,238,46452,1,8,0:0:0:0:
120,122,46798,1,0,0:0:0:0:
120,122,47145,1,8,0:0:0:0:
283,164,47491,6,0,L|311:142,2,32,0|8|0,0:0|0:0|0:0,0:0:0:0:
324,259,48530,2,0,L|293:271,2,32,8|0|8,0:0|0:0|0:0,0:0:0:0:
405,322,49569,2,0,L|430:298,2,32,0|8|0,0:0|0:0|0:0,0:0:0:0:
250,306,50608,2,0,L|224:289,1,32,8|0,0:0|0:0,0:0:0:0:
217,176,51301,2,0,L|243:193,1,32,8|0,0:0|0:0,0:0:0:0:
411,159,51993,2,0,L|380:150,1,32,8|0,0:0|0:0,0:0:0:0:
194,66,52686,2,0,L|230:67,1,32,8|0,0:0|0:0,0:0:0:0:
293,189,53379,5,8,0:0:0:0:
293,189,53725,1,0,0:0:0:0:
117,221,54071,1,8,0:0:0:0:
117,221,54418,1,0,0:0:0:0:
365,279,54764,1,8,0:0:0:0:
365,279,55110,1,0,0:0:0:0:
325,102,55457,1,8,0:0:0:0:
325,102,55630,1,0,0:0:0:0:
325,102,55803,1,8,0:0:0:0:
259,196,56149,5,8,0:0:0:0:
275,267,56322,1,0,0:0:0:0:
278,273,56409,1,8,0:0:0:0:
280,279,56495,1,0,0:0:0:0:
367,282,56842,1,8,0:0:0:0:
367,282,57015,1,0,0:0:0:0:
367,282,57188,1,8,0:0:0:0:
173,245,57534,5,8,0:0:0:0:
142,174,57708,1,0,0:0:0:0:
138,167,57794,1,0,0:0:0:0:
135,160,57881,1,8,0:0:0:0:
242,98,58227,1,8,0:0:0:0:
242,98,58400,1,0,0:0:0:0:
242,98,58573,1,8,0:0:0:0:
399,103,58920,5,8,0:0:0:0:
329,62,59093,1,0,0:0:0:0:
322,58,59179,1,8,0:0:0:0:
315,54,59266,1,0,0:0:0:0:
292,153,59612,1,8,0:0:0:0:
292,153,59786,1,0,0:0:0:0:
292,153,59959,1,8,0:0:0:0:
194,308,60305,5,8,0:0:0:0:
121,226,60478,1,0,0:0:0:0:
125,220,60565,1,8,0:0:0:0:
129,214,60651,1,0,0:0:0:0:
342,112,60998,1,8,0:0:0:0:
314,103,61171,1,0,0:0:0:0:
286,95,61344,1,8,0:0:0:0:
81,119,61690,5,8,0:0:0:0:
158,202,61863,1,0,0:0:0:0:
163,206,61950,1,8,0:0:0:0:
168,210,62037,1,0,0:0:0:0:
359,103,62383,1,8,0:0:0:0:
345,128,62556,1,0,0:0:0:0:
331,153,62729,1,8,0:0:0:0:
92,273,63076,5,8,0:0:0:0:
110,168,63249,1,0,0:0:0:0:
115,163,63335,1,8,0:0:0:0:
118,156,63422,1,0,0:0:0:0:
393,159,63768,5,8,0:0:0:0:
367,145,63941,1,0,0:0:0:0:
339,136,64115,1,8,0:0:0:0:
310,132,64288,1,0,0:0:0:0:
281,131,64461,1,8,0:0:0:0:
253,139,64634,1,0,0:0:0:0:
229,154,64807,1,8,0:0:0:0:
207,173,64980,1,0,0:0:0:0:
189,195,65153,1,8,0:0:0:0:
177,221,65327,1,0,0:0:0:0:
173,249,65500,1,8,0:0:0:0:
394,207,66019,5,8,0:0:0:0:
287,177,66366,1,8,0:0:0:0:
394,207,66539,1,2,0:0:0:0:
394,207,66885,1,2,0:0:0:0:
406,334,67231,1,2,0:0:0:0:
282,299,67578,1,2,0:0:0:0:
326,179,67924,1,2,0:0:0:0:
200,154,68270,1,2,0:0:0:0:
230,210,68444,1,2,0:0:0:0:
284,94,68790,1,2,0:0:0:0:
351,85,69309,5,2,0:0:0:0:
222,85,69656,1,2,0:0:0:0:
288,194,70002,1,2,0:0:0:0:
167,149,70348,1,2,0:0:0:0:
195,273,70695,1,2,0:0:0:0:
234,151,71041,1,2,0:0:0:0:
294,130,71214,1,2,0:0:0:0:
417,161,71560,1,2,0:0:0:0:
469,143,72080,5,8,0:0:0:0:
393,199,72426,2,0,P|383:159|288:89,1,160,8|0,0:0|0:0,0:0:0:0:
237,127,73119,2,0,P|166:132|115:203,1,160,8|0,0:0|0:0,0:0:0:0:
187,244,73812,2,0,P|225:271|339:231,1,160,8|0,0:0|0:0,0:0:0:0:
389,166,74331,1,8,0:0:0:0:
334,293,74850,5,8,0:0:0:0:
244,310,75197,2,0,P|190:259|163:175,1,160,8|0,0:0|0:0,0:0:0:0:
229,96,75889,2,0,P|239:143|314:227,1,160,8|0,0:0|0:0,0:0:0:0:
401,220,76582,2,0,P|324:266|240:264,1,160,8|0,0:0|0:0,0:0:0:0:
142,237,77102,1,8,0:0:0:0:
397,88,77448,5,2,0:0:0:0:
280,151,77621,1,2,0:0:0:0:
392,167,77794,1,2,0:0:0:0:
294,63,77967,1,2,0:0:0:0:
241,244,78314,2,2,L|328:225,1,80
351,68,79006,2,0,L|401:142,1,80,8|0,0:0|0:0,0:0:0:0:
434,217,79526,1,8,0:0:0:0:
443,325,79872,1,8,0:0:0:0:
96,217,80392,6,2,L|179:245,1,80
244,140,81084,2,2,L|163:118,1,80
61,233,81777,2,0,L|141:218,1,80,8|0,0:0|0:0,0:0:0:0:
235,195,82296,1,8,0:0:0:0:
352,160,82643,1,8,0:0:0:0:
83,70,83162,5,8,0:0:0:0:
179,71,83508,2,0,P|153:123|55:145,1,160,8|0,0:0|0:0,0:0:0:0:
47,219,84201,2,0,P|133:234|222:194,1,160,8|0,0:0|0:0,0:0:0:0:
241,134,84894,2,0,P|294:164|331:256,1,160,8|0,0:0|0:0,0:0:0:0:
322,341,85413,1,8,0:0:0:0:
418,58,85933,5,8,0:0:0:0:
317,60,86279,2,0,B|270:110|227:121|204:185,1,160,8|0,0:0|0:0,0:0:0:0:
244,271,86972,2,8,B|150:238|118:206|68:211,1,160,8|0,0:0|0:0,0:0:0:0:
278,173,87664,2,8,P|325:180|339:212,1,80,8|0,0:0|0:0,0:0:0:0:
344,277,88011,1,8,0:0:0:0:
274,294,88184,1,8,0:0:0:0:
202,285,88357,5,0,0:0:0:0:
175,260,88444,1,0,0:0:0:0:
155,229,88530,1,0,0:0:0:0:
142,195,88617,1,0,0:0:0:0:
143,158,88703,1,0,0:0:0:0:
157,125,88790,1,0,0:0:0:0:
183,100,88876,1,0,0:0:0:0:
214,83,88963,1,0,0:0:0:0:
250,80,89050,5,8,0:0:0:0:
408,175,89223,1,0,0:0:0:0:
258,170,89396,1,0,0:0:0:0:
389,69,89569,1,0,0:0:0:0:
319,215,89742,1,8,0:0:0:0:
217,258,89915,2,0,L|163:324,2,80
285,76,90435,1,8,0:0:0:0:
139,145,90608,1,0,0:0:0:0:
261,247,90781,2,0,P|289:277|358:288,1,80
484,272,91128,1,8,0:0:0:0:
397,137,91301,5,0,0:0:0:0:
244,89,91474,2,0,P|191:100|161:126,1,80
83,248,91820,1,8,0:0:0:0:
212,153,91993,1,0,0:0:0:0:
225,313,92167,1,0,0:0:0:0:
368,167,92340,1,0,0:0:0:0:
368,167,92513,2,0,P|385:223|386:255,1,80,8|0,0:0|0:0,0:0:0:0:
294,379,92859,1,0,0:0:0:0:
158,294,93032,1,0,0:0:0:0:
264,174,93205,1,8,0:0:0:0:
312,20,93379,6,0,P|252:9|203:14,1,80
99,96,93725,1,0,0:0:0:0:
224,195,93898,2,0,L|300:261,2,80,8|0|0,0:0|0:0|0:0,0:0:0:0:
214,182,94418,1,0,0:0:0:0:
190,154,94504,1,0,0:0:0:0:
165,127,94591,1,8,0:0:0:0:
371,129,94764,5,0,0:0:0:0:
172,124,94937,1,0,0:0:0:0:
312,48,95110,1,0,0:0:0:0:
205,220,95283,1,8,0:0:0:0:
365,220,95457,2,0,P|338:283|303:298,1,80
180,341,95803,1,0,0:0:0:0:
145,184,95976,1,8,0:0:0:0:
298,226,96149,1,0,0:0:0:0:
142,262,96322,2,0,L|48:286,2,80,0|0|8,0:0|0:0|0:0,0:0:0:0:
281,227,96842,2,0,L|360:203,2,80
209,255,97361,5,8,0:0:0:0:
288,110,97534,1,0,0:0:0:0:
148,137,97708,1,0,0:0:0:0:
403,165,97881,1,0,0:0:0:0:
162,202,98054,1,8,0:0:0:0:
374,252,98227,1,0,0:0:0:0:
408,188,98400,2,0,P|424:140|410:90,1,80
369,33,98747,2,0,P|336:64|316:121,1,80,8|0,0:0|0:0,0:0:0:0:
316,254,99093,1,0,0:0:0:0:
184,163,99266,1,0,0:0:0:0:
305,225,99439,1,8,0:0:0:0:
176,262,99612,1,0,0:0:0:0:
145,325,99786,2,0,L|62:273,1,80
56,264,100045,1,2,0:0:0:0:
46,221,100132,1,2,0:0:0:0:
143,66,100305,5,2,0:0:0:0:
208,235,100478,1,2,0:0:0:0:
41,177,100651,1,2,0:0:0:0:
266,108,100825,1,2,0:0:0:0:
301,291,100998,2,2,L|315:248,1,40,2|0,0:0|0:0,0:0:0:0:
372,56,101517,5,2,0:0:0:0:
160,158,101690,1,2,0:0:0:0:
375,202,101863,1,2,0:0:0:0:
221,42,102037,1,2,0:0:0:0:
267,218,102210,1,2,0:0:0:0:
177,245,102383,2,2,L|200:286,1,40,2|0,0:0|0:0,0:0:0:0:
438,69,102902,5,8,0:0:0:0:
408,166,103076,1,0,0:0:0:0:
327,76,103249,1,8,0:0:0:0:
255,219,103422,2,0,L|193:240,2,40,0|0|8,0:0|0:0|0:0,0:0:0:0:
206,90,103768,1,0,0:0:0:0:
53,103,103941,1,8,0:0:0:0:
72,250,104115,1,0,0:0:0:0:
219,196,104288,2,0,L|273:219,2,40,8|0|0,0:0|0:0|0:0,0:0:0:0:
119,357,104634,1,8,0:0:0:0:
269,346,104807,1,0,0:0:0:0:
423,275,104980,1,8,0:0:0:0:
367,103,105154,1,8,0:0:0:0:
84,328,105673,6,2,P|138:320|180:283,1,80
402,249,106019,2,2,P|343:244|308:218,1,80
149,109,106366,2,2,P|205:146|216:171,1,80
337,322,106712,2,2,P|393:300|426:258,1,80
169,286,107058,2,2,P|121:307|68:298,1,80
418,100,107405,2,2,P|381:65|344:48,1,80
177,100,107751,1,2,0:0:0:0:
97,189,107924,1,0,0:0:0:0:
399,317,108444,6,0,L|328:260,1,80,8|0,0:0|0:0,0:0:0:0:
334,157,108790,2,0,L|412:215,1,80
460,250,109136,1,8,0:0:0:0:
334,157,109309,1,0,0:0:0:0:
194,215,109483,1,0,0:0:0:0:
323,275,109656,1,0,0:0:0:0:
239,126,109829,2,0,L|176:57,1,80,8|0,0:0|0:0,0:0:0:0:
212,181,110175,2,0,L|151:115,1,80
215,66,110522,1,8,0:0:0:0:
287,65,110695,1,0,0:0:0:0:
267,95,110781,1,0,0:0:0:0:
247,125,110868,1,0,0:0:0:0:
225,154,110954,1,0,0:0:0:0:
207,185,111041,1,0,0:0:0:0:
175,203,111128,1,0,0:0:0:0:
140,212,111214,5,8,0:0:0:0:
60,309,111387,1,0,0:0:0:0:
166,336,111560,1,0,0:0:0:0:
244,251,111734,1,0,0:0:0:0:
305,336,111907,1,8,0:0:0:0:
383,274,112080,2,0,P|422:243|445:196,1,80
442,97,112426,1,0,0:0:0:0:
328,57,112599,6,0,P|278:65|233:94,1,80,8|0,0:0|0:0,0:0:0:0:
222,194,112946,1,0,0:0:0:0:
151,290,113119,1,0,0:0:0:0:
73,198,113292,2,0,P|77:136|104:89,1,80,8|0,0:0|0:0,0:0:0:0:
180,49,113638,2,0,P|199:105|204:141,1,80
126,219,113985,1,8,0:0:0:0:
165,332,114158,1,0,0:0:0:0:
220,225,114331,5,0,0:0:0:0:
261,96,114504,1,0,0:0:0:0:
359,164,114677,2,0,P|412:201|435:243,1,80,8|0,0:0|0:0,0:0:0:0:
350,311,115024,2,0,P|287:282|273:267,1,80
203,183,115370,1,8,0:0:0:0:
265,80,115543,1,0,0:0:0:0:
310,186,115716,1,0,0:0:0:0:
202,289,115889,1,0,0:0:0:0:
316,290,116063,1,8,0:0:0:0:
260,189,116236,1,0,0:0:0:0:
384,191,116409,1,0,0:0:0:0:
441,293,116582,1,0,0:0:0:0:
465,150,116755,6,0,P|445:95|412:71,1,80,8|0,0:0|0:0,0:0:0:0:
323,136,117102,2,0,P|250:114|216:114,1,80
231,232,117448,2,0,P|159:235|117:240,1,80,8|0,0:0|0:0,0:0:0:0:
78,330,117794,1,0,0:0:0:0:
197,325,117967,1,0,0:0:0:0:
144,216,118141,2,0,P|202:191|241:187,1,80,8|0,0:0|0:0,0:0:0:0:
215,68,118487,2,0,P|275:68|322:85,1,80
358,173,118833,2,0,P|298:166|255:173,1,80,8|0,0:0|0:0,0:0:0:0:
164,205,119180,1,0,0:0:0:0:
238,298,119353,1,0,0:0:0:0:
349,253,119526,1,8,0:0:0:0:
284,190,119699,1,0,0:0:0:0:
211,198,119872,5,0,0:0:0:0:
238,135,120045,1,0,0:0:0:0:
358,127,120219,2,0,P|302:83|279:72,1,80,8|0,0:0|0:0,0:0:0:0:
238,135,120565,2,0,B|224:129|227:132|188:106|151:107,1,80
158,227,120911,2,0,P|102:232|65:239,1,80,8|0,0:0|0:0,0:0:0:0:
180,299,121257,1,0,0:0:0:0:
297,325,121431,1,0,0:0:0:0:
291,205,121604,1,8,0:0:0:0:
388,275,121777,1,0,0:0:0:0:
366,164,121950,1,0,0:0:0:0:
364,127,122037,1,0,0:0:0:0:
355,91,122123,1,0,0:0:0:0:
336,60,122210,1,0,0:0:0:0:
305,41,122296,5,2,0:0:0:0:
244,79,122470,1,2,0:0:0:0:
208,142,122643,1,2,0:0:0:0:
271,175,122816,1,2,0:0:0:0:
304,111,122989,1,2,0:0:0:0:
304,111,123162,2,0,L|337:69,1,40,2|0,0:0|0:0,0:0:0:0:
89,274,123682,5,2,0:0:0:0:
142,225,123855,1,2,0:0:0:0:
198,271,124028,1,2,0:0:0:0:
152,326,124201,1,2,0:0:0:0:
97,280,124374,1,2,0:0:0:0:
98,279,124548,2,2,L|67:251,1,40,2|0,0:0|0:0,0:0:0:0:
400,74,125067,6,0,L|327:134,1,80,8|0,0:0|0:0,0:0:0:0:
173,86,125413,2,0,L|246:158,1,80,8|0,0:0|0:0,0:0:0:0:
286,277,125760,2,0,L|322:205,1,80,8|0,0:0|0:0,0:0:0:0:
338,124,126106,2,0,L|247:162,1,80,8|0,0:0|0:0,0:0:0:0:
149,192,126452,1,8,0:0:0:0:
225,329,126625,1,0,0:0:0:0:
78,316,126799,1,8,0:0:0:0:
264,215,126972,1,0,0:0:0:0:
233,116,127145,1,8,0:0:0:0:
233,116,127318,2,8,L|274:78,1,40,8|0,0:0|0:0,0:0:0:0:
239,87,127838,5,8,0:0:0:0:
181,130,128011,1,0,0:0:0:0:
224,187,128184,1,0,0:0:0:0:
283,147,128357,1,0,0:0:0:0:
323,206,128530,1,8,0:0:0:0:
265,248,128703,1,0,0:0:0:0:
298,311,128877,1,0,0:0:0:0:
358,270,129050,1,0,0:0:0:0:
369,213,129223,6,0,L|450:184,2,80,8|0|0,0:0|0:0|0:0,0:0:0:0:
333,139,129742,2,0,L|245:168,2,80,0|8|0,0:0|0:0|0:0,0:0:0:0:
423,69,130608,5,8,0:0:0:0:
339,180,130781,1,0,0:0:0:0:
190,114,130954,1,8,0:0:0:0:
88,223,131128,1,0,0:0:0:0:
296,332,131301,1,8,0:0:0:0:
418,180,131474,1,0,0:0:0:0:
245,206,131647,1,8,0:0:0:0:
110,110,131820,1,0,0:0:0:0:
110,110,131993,6,0,L|49:43,2,80,8|0|8,0:0|0:0|0:0,0:0:0:0:
173,72,132513,1,8,0:0:0:0:
233,41,132686,5,0,0:0:0:0:
255,68,132773,1,0,0:0:0:0:
265,102,132859,1,0,0:0:0:0:
252,135,132946,1,0,0:0:0:0:
247,170,133032,1,0,0:0:0:0:
266,200,133119,1,0,0:0:0:0:
291,225,133206,1,0,0:0:0:0:
318,248,133292,1,0,0:0:0:0:
327,282,133379,5,2,0:0:0:0:
212,317,133552,1,0,0:0:0:0:
111,252,133725,1,0,0:0:0:0:
218,199,133898,1,0,0:0:0:0:
212,317,134071,1,2,0:0:0:0:
311,249,134244,1,0,0:0:0:0:
427,279,134418,1,0,0:0:0:0:
337,358,134591,1,0,0:0:0:0:
311,249,134764,1,2,0:0:0:0:
370,144,134937,1,2,0:0:0:0:
250,146,135110,1,0,0:0:0:0:
311,43,135283,1,2,0:0:0:0:
131,55,135803,6,0,L|185:133,1,80
243,265,136149,1,2,0:0:0:0:
272,107,136322,1,0,0:0:0:0:
351,241,136496,1,0,0:0:0:0:
199,188,136669,1,0,0:0:0:0:
338,110,136842,1,2,0:0:0:0:
265,252,137015,1,0,0:0:0:0:
136,347,137188,1,0,0:0:0:0:
91,193,137361,1,0,0:0:0:0:
251,190,137535,1,2,0:0:0:0:
171,51,137708,1,2,0:0:0:0:
155,210,137881,1,0,0:0:0:0:
106,57,138054,1,2,0:0:0:0:
433,48,138574,6,2,L|423:71,1,24
415,76,138920,2,2,B|366:122|302:124|286:145|272:201|272:202,1,160
190,237,139439,1,0,0:0:0:0:
180,352,139612,1,0,0:0:0:0:
152,218,139786,1,0,0:0:0:0:
142,333,139959,1,0,0:0:0:0:
272,294,140132,1,0,0:0:0:0:
311,338,140305,2,2,L|326:312,1,24
324,283,140651,2,2,L|321:270,1,8
323,246,140825,2,2,B|356:207|346:185|389:167|325:153|309:108|307:100|339:90|344:51,1,200,2|0,0:0|0:0,0:0:0:0:
168,84,141344,6,2,L|178:110,1,24
182,131,141690,2,2,B|161:172|157:196|171:218|206:242|236:270|246:295|247:298,1,160
337,151,142210,1,0,0:0:0:0:
380,343,142383,1,0,0:0:0:0:
386,183,142556,1,0,0:0:0:0:
326,340,142729,1,0,0:0:0:0:
223,280,142903,1,0,0:0:0:0:
202,343,143076,2,2,L|179:334,1,24
157,319,143422,2,2,L|157:305,1,8
147,291,143595,2,2,B|130:247|98:231|74:190|87:147,1,160,2|0,0:0|0:0,0:0:0:0:
235,48,144115,5,0,0:0:0:0:
358,103,144288,1,0,0:0:0:0:
245,178,144461,2,0,L|244:262,1,80,2|0,0:0|0:0,0:0:0:0:
110,234,144807,1,0,0:0:0:0:
174,114,144980,1,0,0:0:0:0:
307,86,145154,2,0,P|346:80|386:85,1,80,2|0,0:0|0:0,0:0:0:0:
391,221,145500,1,0,0:0:0:0:
261,260,145673,1,0,0:0:0:0:
187,145,145846,1,2,0:0:0:0:
317,184,146019,1,2,0:0:0:0:
260,308,146193,1,0,0:0:0:0:
124,310,146366,1,2,0:0:0:0:
445,102,146885,6,0,P|442:156|420:201,1,80
308,237,147232,2,0,P|308:276|319:314,1,80,2|0,0:0|0:0,0:0:0:0:
269,143,147578,1,0,0:0:0:0:
209,291,147751,1,0,0:0:0:0:
85,189,147924,1,2,0:0:0:0:
234,133,148097,1,0,0:0:0:0:
405,70,148270,1,0,0:0:0:0:
406,206,148444,1,0,0:0:0:0:
273,201,148617,1,2,0:0:0:0:
326,92,148790,1,2,0:0:0:0:
493,180,148963,1,0,0:0:0:0:
336,299,149136,1,2,0:0:0:0:
140,329,149656,6,2,L|125:303,1,24
117,284,150002,2,2,B|134:242|121:210|184:171|169:108,1,160
308,51,150522,1,0,0:0:0:0:
363,200,150695,1,0,0:0:0:0:
204,176,150868,1,0,0:0:0:0:
353,118,151041,1,0,0:0:0:0:
288,264,151214,1,0,0:0:0:0:
266,105,151387,2,2,L|236:111,1,24
225,121,151734,2,2,L|220:127,1,8
205,148,151907,2,2,B|164:158|155:171|130:207|104:252|83:283,1,160
226,330,152426,6,2,L|241:305,1,24
256,299,152773,2,2,B|299:283|311:271|328:223|381:215|420:221,1,160
453,72,153292,1,0,0:0:0:0:
296,105,153465,1,0,0:0:0:0:
422,202,153638,1,0,0:0:0:0:
381,46,153812,1,0,0:0:0:0:
318,193,153985,1,0,0:0:0:0:
462,125,154158,5,0,0:0:0:0:
462,125,154331,1,0,0:0:0:0:
422,194,154504,1,0,0:0:0:0:
422,194,154677,1,0,0:0:0:0:
441,271,154851,1,0,0:0:0:0:
401,268,154937,1,0,0:0:0:0:
362,255,155024,1,0,0:0:0:0:
329,231,155110,1,0,0:0:0:0:
302,200,155197,1,0,0:0:0:0:
280,166,155283,1,0,0:0:0:0:
253,136,155370,1,0,0:0:0:0:
218,115,155457,1,0,0:0:0:0:
178,114,155543,1,0,0:0:0:0:
414,154,166625,6,0,B|400:202|359:222|311:226,7,120.000004577637,8|0|0|0|8|0|0|0,0:0|0:0|0:0|0:0|0:0|0:0|0:0|0:0,0:0:0:0:
158,294,168011,2,0,P|151:222|203:186,7,120.000004577637,8|0|0|0|8|0|0|0,0:0|0:0|0:0|0:0|0:0|0:0|0:0|0:0,0:0:0:0:
312,68,169396,2,0,P|246:51|182:59,7,120.000004577637,8|0|0|0|8|0|0|0,0:0|0:0|0:0|0:0|0:0|0:0|0:0|0:0,0:0:0:0:
300,200,170781,1,8,0:0:0:0:
309,223,170954,1,0,0:0:0:0:
142,289,171128,1,0,0:0:0:0:
151,320,171301,1,0,0:0:0:0:
176,145,171474,1,8,0:0:0:0:
177,107,171647,1,0,0:0:0:0:
273,213,171820,1,0,0:0:0:0:
272,249,171993,1,0,0:0:0:0:
443,307,172167,6,0,P|366:348|322:341,7,120.000004577637,8|0|0|0|8|0|0|0,0:0|0:0|0:0|0:0|0:0|0:0|0:0|0:0,0:0:0:0:
419,185,173552,2,0,P|355:170|288:198,7,120.000004577637,8|0|0|0|8|0|0|0,0:0|0:0|0:0|0:0|0:0|0:0|0:0|0:0,0:0:0:0:
304,266,174937,2,0,L|430:258,8,120.000004577637,8|0|0|0|8|0|0|0|8,0:0|0:0|0:0|0:0|0:0|0:0|0:0|0:0|0:0,0:0:0:0:
243,267,176582,1,0,0:0:0:0:
183,267,176842,1,0,0:0:0:0:
139,225,177102,1,0,0:0:0:0:
182,81,177361,5,0,0:0:0:0:
182,81,177534,1,0,0:0:0:0:
342,86,177708,6,0,P|351:134|338:176,1,80,8|0,0:0|0:0,0:0:0:0:
264,167,178054,2,0,P|251:223|270:250,1,80
181,255,178400,2,0,P|193:312|173:349,1,80,8|0,0:0|0:0,0:0:0:0:
114,294,178747,2,0,P|107:262|112:239,1,40
141,98,179093,1,8,0:0:0:0:
252,212,179266,1,0,0:0:0:0:
94,185,179439,1,0,0:0:0:0:
241,121,179613,1,0,0:0:0:0:
268,278,179786,1,8,0:0:0:0:
170,151,179959,1,0,0:0:0:0:
54,41,180132,6,0,P|74:102|96:126,1,80
194,68,180478,2,0,P|214:116|206:151,1,80,8|0,0:0|0:0,0:0:0:0:
104,201,180825,2,0,P|127:245|167:271,1,80
267,240,181171,2,0,P|248:196|214:175,1,80,8|0,0:0|0:0,0:0:0:0:
203,336,181517,1,0,0:0:0:0:
355,289,181690,1,0,0:0:0:0:
236,179,181864,1,8,0:0:0:0:
391,143,182037,1,0,0:0:0:0:
488,269,182210,1,0,0:0:0:0:
449,339,182383,2,0,P|407:340|395:340,1,40,0|8,0:0|0:0,0:0:0:0:
394,268,182729,2,0,P|367:269|336:266,1,40
384,110,183249,6,0,P|340:106|306:63,1,80,8|0,0:0|0:0,0:0:0:0:
314,82,183595,2,0,P|266:62|217:67,1,80
239,61,183942,2,0,P|203:95|141:118,1,80,8|0,0:0|0:0,0:0:0:0:
175,108,184288,2,0,P|160:185|167:221,1,80
303,256,184634,1,8,0:0:0:0:
429,158,184807,1,0,0:0:0:0:
303,256,184980,1,0,0:0:0:0:
429,158,185154,1,0,0:0:0:0:
429,158,185500,2,0,L|360:169,1,64,8|0,0:0|0:0,0:0:0:0:
304,94,186019,6,0,B|256:138|256:138|255:190,1,80,8|0,0:0|0:0,0:0:0:0:
343,287,186366,1,0,0:0:0:0:
198,219,186539,1,8,0:0:0:0:
232,63,186712,1,0,0:0:0:0:
285,213,186885,1,0,0:0:0:0:
345,66,187058,1,8,0:0:0:0:
397,212,187232,1,0,0:0:0:0:
444,71,187405,2,8,B|477:127|498:181|406:238,1,191.999994140625,8|10,0:0|0:0,0:0:0:0:
161,179,188963,5,0,0:0:0:0:
295,265,189136,1,0,0:0:0:0:
158,350,189310,1,0,0:0:0:0:
24,262,189483,1,8,0:0:0:0:
295,265,189656,1,0,0:0:0:0:
368,122,189829,1,0,0:0:0:0:
450,258,190002,1,0,0:0:0:0:
309,181,190175,1,8,0:0:0:0:
335,338,190348,1,0,0:0:0:0:
227,185,190522,1,0,0:0:0:0:
194,341,190695,1,0,0:0:0:0:
151,151,190868,1,8,0:0:0:0:
55,279,191041,1,0,0:0:0:0:
404,108,191561,6,0,L|304:56,1,80,8|0,0:0|0:0,0:0:0:0:
335,194,191907,2,0,L|283:114,1,80
215,219,192253,2,0,L|219:128,1,80,8|0,0:0|0:0,0:0:0:0:
80,224,192600,2,0,L|116:134,1,80
17,103,192946,2,0,B|54:88|60:85|88:73|106:71|142:82|169:85|213:86,1,200,8|0,0:0|0:0,0:0:0:0:
360,267,194331,5,8,0:0:0:0:
212,132,194504,1,0,0:0:0:0:
366,5,194677,1,0,0:0:0:0:
302,195,194851,1,0,0:0:0:0:
102,195,195024,1,8,0:0:0:0:
246,332,195197,1,0,0:0:0:0:
426,245,195370,1,0,0:0:0:0:
246,332,195543,1,0,0:0:0:0:
426,245,195716,1,8,0:0:0:0:
316,76,195890,5,0,0:0:0:0:
156,195,196063,1,0,0:0:0:0:
316,76,196236,1,0,0:0:0:0:
156,195,196409,1,8,0:0:0:0:
326,299,196582,1,0,0:0:0:0:
131,69,196929,6,0,L|113:96,1,23.9999992675781,0|8,0:0|0:0,0:0:0:0:
91,184,197275,2,0,P|119:194|119:194,1,23.9999992675781
91,184,197621,2,0,L|139:203,1,40,0|8,0:0|0:0,0:0:0:0:
91,184,197968,2,0,L|155:210,1,60.0000022888184
91,184,198314,2,0,L|199:228,1,80,0|8,0:0|0:0,0:0:0:0:
289,57,198660,1,0,0:0:0:0:
317,291,198833,1,0,0:0:0:0:
215,32,199006,1,0,0:0:0:0:
237,293,199180,1,0,0:0:0:0:
197,295,199266,1,0,0:0:0:0:
163,272,199353,1,0,0:0:0:0:
155,233,199439,1,0,0:0:0:0:
125,206,199526,1,0,0:0:0:0:
87,192,199613,1,0,0:0:0:0:
66,158,199699,1,0,0:0:0:0:
66,117,199786,1,0,0:0:0:0:
106,73,199872,5,2,0:0:0:0:
233,63,200045,1,0,0:0:0:0:
334,128,200219,1,0,0:0:0:0:
392,276,200392,2,0,P|366:293|293:274,1,80,0|2,0:0|0:0,0:0:0:0:
211,172,200738,1,0,0:0:0:0:
58,124,200911,1,0,0:0:0:0:
166,240,201084,1,0,0:0:0:0:
326,225,201258,2,0,P|359:195|377:144,1,80,2|2,0:0|0:0,0:0:0:0:
259,51,201604,1,0,0:0:0:0:
139,155,201776,1,2,0:0:0:0:
327,339,202297,6,0,L|358:256,1,80
481,165,202643,1,2,0:0:0:0:
331,109,202816,1,0,0:0:0:0:
254,249,202989,1,0,0:0:0:0:
411,219,203162,1,0,0:0:0:0:
292,111,203335,1,2,0:0:0:0:
173,219,203509,1,0,0:0:0:0:
294,322,203682,1,0,0:0:0:0:
355,174,203855,2,0,P|348:160|281:115,1,80,0|2,0:0|0:0,0:0:0:0:
154,186,204201,1,2,0:0:0:0:
241,319,204374,1,0,0:0:0:0:
92,257,204548,1,2,0:0:0:0:
132,342,205067,6,2,L|142:319,1,24
150,314,205413,2,2,B|199:268|263:266|279:245|293:189|293:188,1,160
375,153,205933,1,0,0:0:0:0:
445,23,206106,1,0,0:0:0:0:
316,193,206279,1,0,0:0:0:0:
343,20,206452,1,0,0:0:0:0:
291,98,206626,1,0,0:0:0:0:
254,52,206799,2,2,L|239:78,1,24
241,107,207145,2,2,L|244:120,1,8
242,144,207318,2,2,B|209:183|219:205|176:223|240:237|256:282|258:290|226:300|221:339,1,200,2|0,0:0|0:0,0:0:0:0:
277,296,207838,6,2,L|267:270,1,24
263,249,208184,2,2,B|284:208|288:184|274:162|239:138|209:110|199:85|198:82,1,160
111,158,208703,1,0,0:0:0:0:
50,37,208877,1,0,0:0:0:0:
142,26,209050,1,0,0:0:0:0:
108,163,209223,1,0,0:0:0:0:
208,94,209396,1,0,0:0:0:0:
243,37,209569,2,2,L|266:46,1,24
288,61,209916,2,2,L|288:75,1,8
298,89,210089,2,2,B|315:133|347:149|371:190|358:233,1,160,2|0,0:0|0:0,0:0:0:0:
210,332,210608,5,0,0:0:0:0:
87,277,210781,1,0,0:0:0:0:
233,211,210955,2,0,P|256:173|248:127,1,80,2|0,0:0|0:0,0:0:0:0:
239,35,211301,1,0,0:0:0:0:
103,120,211474,1,0,0:0:0:0:
144,274,211647,2,0,P|181:306|214:310,1,80,2|0,0:0|0:0,0:0:0:0:
359,294,211994,1,0,0:0:0:0:
311,142,212167,1,0,0:0:0:0:
217,271,212340,1,2,0:0:0:0:
139,132,212513,1,2,0:0:0:0:
277,49,212686,1,0,0:0:0:0:
270,209,212859,1,2,0:0:0:0:
87,314,213379,6,0,L|96:211,1,80
116,76,213725,2,0,L|161:175,1,80,2|0,0:0|0:0,0:0:0:0:
174,306,214071,1,0,0:0:0:0:
207,148,214245,1,0,0:0:0:0:
360,191,214418,2,0,P|312:242|290:248,1,80,2|0,0:0|0:0,0:0:0:0:
326,359,214764,1,0,0:0:0:0:
166,358,214937,1,0,0:0:0:0:
65,235,215110,1,2,0:0:0:0:
224,213,215284,1,2,0:0:0:0:
220,54,215457,1,0,0:0:0:0:
93,151,215630,1,2,0:0:0:0:
305,51,216149,6,2,L|320:77,1,24
328,96,216496,2,2,B|311:138|324:170|261:209|276:272,1,160
137,329,217015,1,0,0:0:0:0:
82,180,217188,1,0,0:0:0:0:
241,204,217361,1,0,0:0:0:0:
92,262,217535,1,0,0:0:0:0:
157,116,217708,1,0,0:0:0:0:
179,275,217881,2,2,L|209:269,1,24
220,259,218227,2,2,L|225:253,1,8
240,232,218400,2,2,B|281:222|290:209|315:173|341:128|362:97,1,160
219,50,218920,6,2,L|204:75,1,24
189,81,219266,2,2,B|146:97|134:109|117:157|64:165|25:159,1,160
59,312,219786,1,0,0:0:0:0:
216,279,219959,1,0,0:0:0:0:
90,182,220132,1,0,0:0:0:0:
131,338,220306,1,0,0:0:0:0:
194,191,220479,1,0,0:0:0:0:
50,259,220652,5,0,0:0:0:0:
50,259,220825,1,0,0:0:0:0:
90,190,220998,1,0,0:0:0:0:
90,190,221171,1,0,0:0:0:0:
71,113,221345,1,0,0:0:0:0:
111,116,221431,1,0,0:0:0:0:
150,129,221518,1,0,0:0:0:0:
183,153,221604,1,0,0:0:0:0:
210,184,221691,1,0,0:0:0:0:
232,218,221777,1,0,0:0:0:0:
259,248,221864,1,0,0:0:0:0:
294,269,221951,1,0,0:0:0:0:
334,270,222037,5,2,0:0:0:0:
431,95,222383,1,2,0:0:0:0:
420,294,222729,1,2,0:0:0:0:
354,105,223076,1,2,0:0:0:0:
97,92,223422,1,2,0:0:0:0:
189,269,223595,1,2,0:0:0:0:
43,196,223942,1,2,0:0:0:0:
422,293,224461,5,2,0:0:0:0:
50,146,224807,1,2,0:0:0:0:
442,65,225154,1,2,0:0:0:0:
72,216,225500,1,2,0:0:0:0:
471,200,225846,1,2,0:0:0:0:
99,50,226193,1,2,0:0:0:0:
157,241,226366,1,2,0:0:0:0:
463,340,226712,1,2,0:0:0:0:
224,48,227232,5,8,0:0:0:0:
57,321,227578,2,0,P|141:353|211:329,1,160,8|0,0:0|0:0,0:0:0:0:
427,102,228271,2,0,P|378:72|276:83,1,160,8|0,0:0|0:0,0:0:0:0:
448,352,228963,2,0,P|460:264|425:204,1,160,8|0,0:0|0:0,0:0:0:0:
290,55,229483,1,8,0:0:0:0:
135,110,230002,5,8,0:0:0:0:
295,114,230349,2,0,P|337:171|300:249,1,160,8|0,0:0|0:0,0:0:0:0:
166,327,231041,2,0,P|98:252|105:198,1,160,8|0,0:0|0:0,0:0:0:0:
69,43,231734,2,0,P|172:65|214:110,1,160,8|0,0:0|0:0,0:0:0:0:
256,165,232253,1,8,0:0:0:0:
469,285,232600,5,2,0:0:0:0:
300,177,232773,1,2,0:0:0:0:
412,342,232946,1,2,0:0:0:0:
373,145,233119,1,2,0:0:0:0:
130,127,233465,5,2,0:0:0:0:
467,343,233812,1,2,0:0:0:0:
67,335,234158,1,2,0:0:0:0:
341,44,234504,1,2,0:0:0:0:
457,207,234678,1,2,0:0:0:0:
74,323,235024,1,2,0:0:0:0:
322,35,235543,5,2,0:0:0:0:
64,341,235890,1,2,0:0:0:0:
335,47,236236,1,2,0:0:0:0:
325,353,236582,1,2,0:0:0:0:
294,32,236929,1,2,0:0:0:0:
465,334,237275,1,2,0:0:0:0:
457,134,237448,1,2,0:0:0:0:
60,187,237794,1,2,0:0:0:0:
255,192,238314,5,8,0:0:0:0:
255,72,238660,2,0,P|306:119|363:195,1,160,8|0,0:0|0:0,0:0:0:0:
255,312,239353,2,0,P|306:265|363:189,1,160,8|0,0:0|0:0,0:0:0:0:
151,192,240046,2,0,P|198:257|256:311,1,160,8|0,0:0|0:0,0:0:0:0:
256,192,240565,1,8,0:0:0:0:
436,315,241084,5,8,0:0:0:0:
434,74,241431,2,0,P|358:51|274:60,1,160,8|0,0:0|0:0,0:0:0:0:
39,63,242123,2,0,P|51:139|111:205,1,160,8|0,0:0|0:0,0:0:0:0:
259,239,242816,2,8,L|163:270,1,80
103,272,243162,1,8,0:0:0:0:
54,208,243336,1,8,0:0:0:0:
98,141,243509,1,0,0:0:0:0:
131,120,243595,1,0,0:0:0:0:
171,116,243682,1,0,0:0:0:0:
209,124,243768,1,0,0:0:0:0:
245,140,243855,1,0,0:0:0:0:
277,164,243942,1,0,0:0:0:0:
306,190,244028,1,0,0:0:0:0:
344,202,244115,1,0,0:0:0:0:
403,197,244201,1,0,0:0:0:0:
284,177,255284,5,2,0:0:0:0:
339,234,255630,2,2,L|399:306,1,80
363,265,256149,2,2,L|284:322,1,80
332,290,256669,2,2,L|277:215,1,80
309,257,257188,2,2,L|380:207,1,80
406,187,257708,1,2,0:0:0:0:
175,119,258401,5,2,0:0:0:0:
120,177,258920,2,2,L|50:245,1,80
91,205,259439,2,2,L|151:268,1,80
118,234,259959,2,2,L|184:175,1,80
149,208,260478,2,2,L|91:148,1,80
238,315,261171,5,2,0:0:0:0:
271,242,261691,2,2,L|325:168,1,80
356,189,262210,2,2,L|395:265,1,80
364,289,262730,2,2,L|282:316,1,80
248,315,263249,1,2,0:0:0:0:
187,166,263942,6,2,L|101:133,1,80
316,228,264461,2,2,L|396:276,1,80
256,192,264981,12,2,266193,0:0:0:0:
422,42,266366,5,0,0:0:0:0:
390,221,266539,1,0,0:0:0:0:
168,311,266712,1,0,0:0:0:0:
68,92,266885,2,0,P|121:55|182:45,1,120.000004577637,0|2,0:0|0:0,0:0:0:0:
415,61,267232,1,0,0:0:0:0:
201,169,267405,1,0,0:0:0:0:
32,339,267578,2,0,P|91:353|154:338,1,120.000004577637,0|2,0:0|0:0,0:0:0:0:
364,238,267924,1,2,0:0:0:0:
477,26,268097,1,0,0:0:0:0:
237,51,268271,1,2,0:0:0:0:
42,60,268790,6,0,P|104:100|135:133,1,120.000004577637
31,349,269136,2,0,P|70:353|164:321,1,120.000004577637,2|0,0:0|0:0,0:0:0:0:
352,206,269483,1,0,0:0:0:0:
168,52,269656,1,0,0:0:0:0:
81,275,269829,1,2,0:0:0:0:
315,324,270002,2,0,P|390:318|455:284,1,120.000004577637
401,61,270349,2,0,P|292:34|239:39,1,120.000004577637,0|2,0:0|0:0,0:0:0:0:
221,265,270695,1,2,0:0:0:0:
92,62,270868,1,0,0:0:0:0:
318,139,271041,1,2,0:0:0:0:
400,326,271561,6,0,B|331:315|245:269|221:232|215:206|206:196,1,240.000009155274,0|2,0:0|0:0,0:0:0:0:
354,93,272080,1,0,0:0:0:0:
424,258,272253,1,0,0:0:0:0:
247,292,272426,2,0,P|148:263|97:212,1,120.000004577637,0|2,0:0|0:0,0:0:0:0:
102,76,272773,1,0,0:0:0:0:
265,151,272946,1,0,0:0:0:0:
412,254,273119,2,0,P|464:346|463:369,1,120.000004577637,0|2,0:0|0:0,0:0:0:0:
285,360,273465,1,0,0:0:0:0:
103,364,273639,1,2,0:0:0:0:
79,309,273725,1,2,0:0:0:0:
60,251,273812,1,2,0:0:0:0:
436,77,274331,6,0,B|366:72|286:105|223:147|199:166|197:168,1,240.000009155274,0|2,0:0|0:0,0:0:0:0:
52,335,274851,1,0,0:0:0:0:
282,269,275024,1,0,0:0:0:0:
420,73,275197,1,0,0:0:0:0:
181,98,275370,2,0,P|119:164|81:235,1,120.000004577637,2|0,0:0|0:0,0:0:0:0:
295,333,275717,2,0,P|313:218|306:159,1,120.000004577637
156,33,276063,1,2,0:0:0:0:
63,254,276236,1,0,0:0:0:0:
301,273,276409,1,2,0:0:0:0:
356,248,276496,1,2,0:0:0:0:
410,223,276582,1,2,0:0:0:0:
349,118,276756,6,0,L|278:122,2,60.0000022888184
254,192,277102,2,0,L|173:196,2,60.0000022888184
219,306,277448,2,0,P|136:269|104:227,1,120.000004577637,2|0,0:0|0:0,0:0:0:0:
38,22,277794,1,0,0:0:0:0:
270,85,277968,1,0,0:0:0:0:
43,163,278141,1,2,0:0:0:0:
194,349,278314,2,0,P|307:322|313:295,1,120.000004577637
419,127,278660,1,0,0:0:0:0:
186,66,278833,1,2,0:0:0:0:
327,261,279007,1,2,0:0:0:0:
295,23,279180,1,0,0:0:0:0:
72,112,279353,1,2,0:0:0:0:
423,168,279872,6,0,P|380:261|361:277,1,120.000004577637
130,310,280219,2,0,P|81:257|71:204,1,120.000004577637,2|0,0:0|0:0,0:0:0:0:
250,52,280565,1,0,0:0:0:0:
395,242,280738,1,0,0:0:0:0:
319,14,280911,1,2,0:0:0:0:
320,255,281085,1,0,0:0:0:0:
155,80,281258,2,0,P|108:174|123:233,1,120.000004577637
305,321,281604,2,0,P|355:231|337:166,1,120.000004577637,2|2,0:0|0:0,0:0:0:0:
486,17,281950,1,0,0:0:0:0:
467,256,282123,1,2,0:0:0:0:
113,324,282643,6,0,B|117:232|136:192|185:149|223:86|225:75,1,240.000009155274,0|2,0:0|0:0,0:0:0:0:
306,257,283162,1,0,0:0:0:0:
376,82,283336,1,0,0:0:0:0:
464,238,283509,1,0,0:0:0:0:
306,324,283682,2,0,P|215:333|150:315,1,120.000004577637,2|0,0:0|0:0,0:0:0:0:
54,207,284028,1,0,0:0:0:0:
157,59,284201,1,0,0:0:0:0:
337,55,284375,2,0,P|384:136|363:198,1,120.000004577637,2|0,0:0|0:0,0:0:0:0:
206,198,284721,1,2,0:0:0:0:
239,247,284807,1,2,0:0:0:0:
269,298,284894,1,2,0:0:0:0:
475,164,285414,6,0,B|432:110|379:93|341:93|328:100|311:128|299:141|264:152|234:143|231:145,1,240.000009155274,0|2,0:0|0:0,0:0:0:0:
51,256,285933,1,0,0:0:0:0:
284,309,286106,1,0,0:0:0:0:
130,125,286279,1,0,0:0:0:0:
253,330,286452,1,2,0:0:0:0:
269,89,286626,1,0,0:0:0:0:
211,321,286799,1,0,0:0:0:0:
390,162,286972,1,0,0:0:0:0:
183,283,287145,5,0,0:0:0:0:
183,283,287318,1,0,0:0:0:0:
187,163,287491,1,0,0:0:0:0:
187,163,287665,1,0,0:0:0:0:
364,190,287838,1,0,0:0:0:0:
336,228,287924,1,0,0:0:0:0:
301,261,288011,1,0,0:0:0:0:
239,285,288098,1,0,0:0:0:0:
174,273,288184,1,0,0:0:0:0:
135,219,288271,1,0,0:0:0:0:
134,135,288357,1,0,0:0:0:0:
187,69,288444,1,0,0:0:0:0:
268,51,288530,5,2,0:0:0:0:
268,51,288704,1,0,0:0:0:0:
389,114,288877,2,0,P|433:174|443:228,1,120.000004577637
208,338,289223,2,2,P|140:306|110:256,1,120.000004577637,2|0,0:0|0:0,0:0:0:0:
235,35,289569,1,0,0:0:0:0:
376,259,289743,1,0,0:0:0:0:
126,173,289916,1,2,0:0:0:0:
365,183,290089,2,0,L|488:204,2,120.000004577637,2|0|2,0:0|0:0|0:0,0:0:0:0:
151,72,290608,1,0,0:0:0:0:
301,258,290781,2,0,P|292:284|197:322,1,120.000004577637
20,181,291128,1,0,0:0:0:0:
217,44,291301,5,2,0:0:0:0:
441,128,291474,1,0,0:0:0:0:
206,177,291647,1,0,0:0:0:0:
370,351,291820,1,0,0:0:0:0:
308,117,291994,1,2,0:0:0:0:
200,331,292167,1,0,0:0:0:0:
197,91,292340,1,0,0:0:0:0:
267,320,292513,1,0,0:0:0:0:
342,92,292686,1,2,0:0:0:0:
350,331,292859,1,2,0:0:0:0:
257,153,293033,2,0,P|187:116|117:117,1,120.000004577637,0|2,0:0|0:0,0:0:0:0:
139,264,293379,1,0,0:0:0:0:
294,81,293552,6,0,P|344:102|407:175,1,120.000004577637
153,170,293898,1,0,0:0:0:0:
366,281,294072,2,0,P|309:256|259:217,1,120.000004577637,2|0,0:0|0:0,0:0:0:0:
424,43,294418,1,0,0:0:0:0:
165,54,294591,1,0,0:0:0:0:
280,264,294764,1,2,0:0:0:0:
40,265,294937,1,0,0:0:0:0:
242,134,295111,1,0,0:0:0:0:
130,346,295284,1,0,0:0:0:0:
369,344,295457,1,2,0:0:0:0:
446,117,295630,2,0,P|403:70|339:50,1,120.000004577637,0|2,0:0|0:0,0:0:0:0:
286,64,295890,1,2,0:0:0:0:
222,79,295976,1,2,0:0:0:0:
91,280,296149,5,0,0:0:0:0:
332,281,296323,1,0,0:0:0:0:
139,138,296496,1,0,0:0:0:0:
276,334,296669,1,0,0:0:0:0:
261,94,296842,1,2,0:0:0:0:
199,325,297015,1,0,0:0:0:0:
386,174,297188,1,0,0:0:0:0:
158,253,297362,1,0,0:0:0:0:
258,35,297535,2,0,P|337:97|362:129,1,120.000004577637,2|0,0:0|0:0,0:0:0:0:
355,351,297881,1,0,0:0:0:0:
195,172,298054,1,0,0:0:0:0:
432,139,298227,1,2,0:0:0:0:
290,334,298401,2,0,P|179:303|130:275,1,120.000004577637,0|2,0:0|0:0,0:0:0:0:
134,249,298660,1,2,0:0:0:0:
97,193,298747,1,2,0:0:0:0:
287,47,298920,6,0,P|317:108|325:179,1,120.000004577637
125,291,299266,2,0,P|147:199|172:153,1,120.000004577637
364,301,299613,1,2,0:0:0:0:
217,111,299786,1,0,0:0:0:0:
179,347,299959,1,0,0:0:0:0:
278,128,300132,1,0,0:0:0:0:
403,332,300305,1,2,0:0:0:0:
228,167,300478,1,0,0:0:0:0:
35,312,300652,2,0,P|35:197|46:172,1,120.000004577637
237,64,300998,2,0,P|315:100|344:126,1,120.000004577637,2|2,0:0|0:0,0:0:0:0:
433,342,301344,1,0,0:0:0:0:
193,344,301517,2,0,P|179:248|182:208,1,120.000004577637,2|0,0:0|0:0,0:0:0:0:
349,54,301864,6,0,P|327:123|292:164,1,120.000004577637
114,314,302210,1,0,0:0:0:0:
340,235,302383,1,2,0:0:0:0:
119,140,302556,1,0,0:0:0:0:
344,55,302730,2,0,P|384:129|392:178,1,120.000004577637
203,312,303076,1,2,0:0:0:0:
58,121,303249,1,0,0:0:0:0:
297,137,303422,1,0,0:0:0:0:
129,308,303595,6,0,P|102:232|108:188,1,120.000004577637,0|2,0:0|0:0,0:0:0:0:
316,75,303942,1,2,0:0:0:0:
414,293,304115,1,0,0:0:0:0:
176,326,304288,1,2,0:0:0:0:
125,92,304461,1,0,0:0:0:0:
353,166,304634,1,0,0:0:0:0:
132,261,304807,6,0,P|140:155|170:102,1,120.000004577637
370,59,305154,1,2,0:0:0:0:
335,296,305327,1,0,0:0:0:0:
153,139,305500,1,0,0:0:0:0:
392,139,305673,6,0,P|338:216|266:249,1,120.000004577637,0|2,0:0|0:0,0:0:0:0:
97,327,306020,1,0,0:0:0:0:
109,87,306193,1,0,0:0:0:0:
337,159,306366,1,0,0:0:0:0:
164,325,306539,2,0,P|129:239|133:198,1,120.000004577637,2|0,0:0|0:0,0:0:0:0:
307,52,306885,1,2,0:0:0:0:
333,112,306972,1,2,0:0:0:0:
357,173,307059,1,2,0:0:0:0:
227,322,307232,2,0,P|130:274|112:250,1,120.000004577637
106,27,307578,5,0,0:0:0:0:
239,226,307751,1,0,0:0:0:0:
367,23,307924,1,2,0:0:0:0:
434,254,308098,2,0,P|333:286|295:279,1,120.000004577637
115,162,308444,1,0,0:0:0:0:
350,118,308617,1,2,0:0:0:0:
409,350,308790,1,0,0:0:0:0:
217,205,308963,2,0,P|270:109|297:91,1,120.000004577637
344,335,309310,5,0,0:0:0:0:
344,335,309483,1,0,0:0:0:0:
110,279,309656,1,0,0:0:0:0:
110,279,309829,1,0,0:0:0:0:
144,102,310002,1,0,0:0:0:0:
189,86,310089,1,0,0:0:0:0:
236,91,310175,1,0,0:0:0:0:
292,125,310262,1,0,0:0:0:0:
319,185,310349,1,0,0:0:0:0:
307,261,310435,1,0,0:0:0:0:
250,315,310522,1,0,0:0:0:0:
172,321,310608,1,0,0:0:0:0:
112,269,310695,5,2,0:0:0:0:
310,133,311041,1,2,0:0:0:0:
73,169,311388,1,2,0:0:0:0:
319,185,311734,1,2,0:0:0:0:
106,73,312080,1,2,0:0:0:0:
116,312,312253,1,2,0:0:0:0:
445,97,312600,1,0,0:0:0:0:
303,290,313119,6,2,L|220:288,3,80
90,197,314504,1,2,0:0:0:0:
226,113,314851,1,2,0:0:0:0:
283,168,315024,1,2,0:0:0:0:
215,312,315370,1,2,0:0:0:0:
364,124,315890,5,8,0:0:0:0:
316,60,316236,2,0,P|258:74|232:90,1,80,8|0,0:0|0:0,0:0:0:0:
136,205,316929,2,0,P|183:214|221:238,1,80,8|0,0:0|0:0,0:0:0:0:
368,257,317621,2,0,P|316:281|289:308,1,80,8|0,0:0|0:0,0:0:0:0:
240,350,318141,1,8,0:0:0:0:
110,277,318660,5,8,0:0:0:0:
269,265,319007,2,0,P|321:244|340:229,1,80,8|0,0:0|0:0,0:0:0:0:
485,164,319699,2,0,P|432:144|397:137,1,80,8|0,0:0|0:0,0:0:0:0:
263,73,320392,2,0,P|327:62|356:63,1,80,8|0,0:0|0:0,0:0:0:0:
418,84,320911,1,8,0:0:0:0:
329,307,321431,5,2,0:0:0:0:
250,293,321604,1,2,0:0:0:0:
301,231,321777,2,2,L|328:148,4,80
246,290,323336,1,2,0:0:0:0:
90,254,323682,1,2,0:0:0:0:
294,129,324201,6,2,L|250:58,4,80
344,281,325933,1,2,0:0:0:0:
266,261,326106,1,2,0:0:0:0:
284,338,326453,1,2,0:0:0:0:
130,153,326972,5,0,0:0:0:0:
203,122,327145,1,0,0:0:0:0:
282,124,327318,2,0,L|373:128,3,80
220,204,328704,2,0,L|159:270,3,80
324,286,330089,2,0,L|404:312,3,80
325,168,331474,2,0,L|373:102,3,80
372,103,332686,1,0,0:0:0:0:
305,58,332859,1,0,0:0:0:0:
166,95,333033,6,0,L|200:119,3,32,8|0|8|0,0:0|0:0|0:0|0:0,0:0:0:0:
179,208,333725,2,0,L|149:233,3,32,8|0|8|0,0:0|0:0|0:0|0:0,0:0:0:0:
209,307,334418,2,0,L|223:341,3,32,8|0|8|0,0:0|0:0|0:0|0:0,0:0:0:0:
308,296,335111,1,8,0:0:0:0:
304,200,335284,1,0,0:0:0:0:
376,137,335457,1,8,0:0:0:0:
323,56,335630,1,0,0:0:0:0:
249,117,335803,6,0,L|208:97,3,32,8|0|8|0,0:0|0:0|0:0|0:0,0:0:0:0:
190,194,336496,2,0,L|159:212,3,32,8|0|8|0,0:0|0:0|0:0|0:0,0:0:0:0:
130,119,337188,2,0,L|165:138,3,32,8|0|8|0,0:0|0:0|0:0|0:0,0:0:0:0:
158,230,337881,1,8,0:0:0:0:
212,309,338054,1,0,0:0:0:0:
305,330,338227,1,8,0:0:0:0:
395,296,338401,1,0,0:0:0:0:
436,209,338574,6,0,L|452:180,3,32,8|0|8|0,0:0|0:0|0:0|0:0,0:0:0:0:
357,202,339266,2,0,L|332:169,3,32,8|0|8|0,0:0|0:0|0:0|0:0,0:0:0:0:
291,261,339959,2,0,L|251:268,3,32,8|0|8|0,0:0|0:0|0:0|0:0,0:0:0:0:
182,208,340652,1,8,0:0:0:0:
276,124,340825,1,0,0:0:0:0:
285,205,340998,1,8,0:0:0:0:
208,147,341171,1,0,0:0:0:0:
178,46,341344,6,0,L|204:16,3,32,8|0|8|0,0:0|0:0|0:0|0:0,0:0:0:0:
112,64,342037,2,0,L|75:52,3,32,8|0|8|0,0:0|0:0|0:0|0:0,0:0:0:0:
72,150,342730,2,0,L|101:176,3,32,8|0|8|0,0:0|0:0|0:0|0:0,0:0:0:0:
180,126,343422,1,8,0:0:0:0:
274,109,343595,1,0,0:0:0:0:
293,203,343769,1,8,0:0:0:0:
321,294,343942,1,0,0:0:0:0:
230,275,344115,5,8,0:0:0:0:
127,230,344288,1,0,0:0:0:0:
230,275,344461,1,8,0:0:0:0:
127,230,344634,1,0,0:0:0:0:
180,131,344807,5,8,0:0:0:0:
304,98,344981,1,0,0:0:0:0:
180,131,345154,1,8,0:0:0:0:
304,98,345327,1,0,0:0:0:0:
344,219,345500,5,8,0:0:0:0:
273,344,345673,1,0,0:0:0:0:
344,219,345847,1,8,0:0:0:0:
273,344,346020,1,0,0:0:0:0:
138,292,346193,1,8,0:0:0:0:
93,155,346366,1,0,0:0:0:0:
235,172,346539,1,8,0:0:0:0:
364,108,346712,1,0,0:0:0:0:
424,220,346885,5,8,0:0:0:0:
456,344,347059,1,0,0:0:0:0:
424,220,347232,1,8,0:0:0:0:
456,344,347405,1,0,0:0:0:0:
328,332,347578,5,8,0:0:0:0:
184,332,347751,1,0,0:0:0:0:
328,332,347924,1,8,0:0:0:0:
184,332,348098,1,0,0:0:0:0:
140,194,348271,5,8,0:0:0:0:
222,56,348444,1,0,0:0:0:0:
140,194,348617,1,8,0:0:0:0:
222,56,348790,1,0,0:0:0:0:
365,126,348963,1,8,0:0:0:0:
389,284,349137,1,0,0:0:0:0:
229,279,349310,1,8,0:0:0:0:
134,150,349483,1,0,0:0:0:0:
80,300,349656,5,8,0:0:0:0:
36,146,349829,1,0,0:0:0:0:
80,300,350002,1,8,0:0:0:0:
36,146,350176,1,0,0:0:0:0:
174,66,350349,5,8,0:0:0:0:
349,60,350522,1,0,0:0:0:0:
174,66,350695,1,8,0:0:0:0:
349,60,350868,1,0,0:0:0:0:
433,213,351041,5,8,0:0:0:0:
264,304,351214,1,0,0:0:0:0:
433,213,351388,1,8,0:0:0:0:
264,304,351561,1,0,0:0:0:0:
127,169,351734,1,8,0:0:0:0:
314,210,351907,1,0,0:0:0:0:
242,32,352080,1,8,0:0:0:0:
50,49,352253,1,0,0:0:0:0:
76,240,352427,6,0,L|98:270,3,32,8|0|8|0,0:0|0:0|0:0|0:0,0:0:0:0:
231,130,353119,2,0,L|248:97,3,32,8|0|8|0,0:0|0:0|0:0|0:0,0:0:0:0:
392,227,353812,5,2,0:0:0:0:
340,247,353898,1,2,0:0:0:0:
286,265,353985,1,2,0:0:0:0:
199,193,354158,1,2,0:0:0:0:
152,160,354245,1,2,0:0:0:0:
110,123,354331,1,2,0:0:0:0:
218,94,354505,1,2,0:0:0:0:
270,76,354591,1,2,0:0:0:0:
324,61,354678,1,2,0:0:0:0:
419,101,354851,1,2,0:0:0:0:
375,135,354937,1,2,0:0:0:0:
334,174,355024,5,8,0:0:0:0:
423,321,355370,1,0,0:0:0:0:
423,321,355717,1,8,0:0:0:0:
206,265,356063,1,0,0:0:0:0:
206,265,356409,1,8,0:0:0:0:
383,128,356756,1,0,0:0:0:0:
383,128,357102,1,8,0:0:0:0:
171,55,357448,1,0,0:0:0:0:
171,55,357795,1,8,0:0:0:0:
125,274,358141,5,0,0:0:0:0:
304,139,358487,1,8,0:0:0:0:
350,358,358834,1,0,0:0:0:0:
304,139,359180,1,8,0:0:0:0:
91,69,359526,1,0,0:0:0:0:
176,276,359873,1,8,0:0:0:0:
91,69,360219,1,0,0:0:0:0:
314,62,360565,1,8,0:0:0:0:
363,210,360911,6,0,L|334:226,2,32,0|8|0,0:0|0:0|0:0,0:0:0:0:
240,106,361950,2,0,L|212:91,2,32,8|0|8,0:0|0:0|0:0,0:0:0:0:
192,259,362989,2,0,L|176:292,2,32,0|8|0,0:0|0:0|0:0,0:0:0:0:
305,145,364028,2,0,L|329:119,2,32,8|0|8,0:0|0:0|0:0,0:0:0:0:
405,295,364894,5,2,0:0:0:0:
381,272,364981,1,2,0:0:0:0:
354,254,365067,1,2,0:0:0:0:
225,259,365240,1,2,0:0:0:0:
202,216,365326,1,2,0:0:0:0:
203,167,365413,1,2,0:0:0:0:
280,110,365586,1,2,0:0:0:0:
312,146,365673,1,2,0:0:0:0:
315,193,365759,1,2,0:0:0:0:
307,289,365933,1,2,0:0:0:0:
