osu file format v14

[General]
AudioFilename: audio.mp3
AudioLeadIn: 0
PreviewTime: 52143
Countdown: 0
SampleSet: Soft
StackLeniency: 0.3
Mode: 0
LetterboxInBreaks: 0
WidescreenStoryboard: 0

[Editor]
Bookmarks: 49661,52971
DistanceSpacing: 1.3
BeatDivisor: 4
GridSize: 32
TimelineZoom: 2.2

[Metadata]
Title:Views
TitleUnicode:Views
Artist:Special Guest
ArtistUnicode:Special Guest
Creator:squirrelpascals
Version:Insane
Source:
Tags:tits future bass electronic
BeatmapID:1185477
BeatmapSetID:556274

[Difficulty]
HPDrainRate:5
CircleSize:4
OverallDifficulty:8
ApproachRate:8.4
SliderMultiplier:1.4
SliderTickRate:1

[Events]
//Background and Video events
0,0,"tit-bird.png",0,0
//Break Periods
2,79654,91591
//Storyboard Layer 0 (Background)
//Storyboard Layer 1 (Fail)
//Storyboard Layer 2 (Pass)
//Storyboard Layer 3 (Foreground)
//Storyboard Sound Samples

[TimingPoints]
6,413.793103448276,4,2,3,30,1,0
6,-200,4,2,3,30,0,0
419,-200,4,2,3,5,0,0
4971,-200,4,2,3,30,0,0
5385,-200,4,2,3,5,0,0
5799,-200,4,2,3,30,0,0
6212,-200,4,2,3,5,0,0
6626,-200,4,2,3,30,0,0
7040,-200,4,2,3,5,0,0
8281,-200,4,2,3,30,0,0
8695,-200,4,2,3,5,0,0
9937,-200,4,2,3,30,0,0
10350,-200,4,2,3,5,0,0
11592,-200,4,2,3,30,0,0
12006,-200,4,2,3,5,0,0
13247,-200,4,2,3,30,0,0
13661,-200,4,2,3,5,0,0
18212,-200,4,2,3,30,0,0
18626,-200,4,2,3,5,0,0
19040,-200,4,2,3,30,0,0
19454,-200,4,2,3,5,0,0
19868,-200,4,2,3,30,0,0
20281,-200,4,2,3,5,0,0
21523,-200,4,2,3,30,0,0
21937,-200,4,2,3,5,0,0
23178,-200,4,2,3,30,0,0
23592,-200,4,2,3,5,0,0
24833,-200,4,2,3,30,0,0
25247,-200,4,2,3,5,0,0
26212,-100,4,2,1,40,0,0
26488,-100,4,2,1,75,0,0
32902,-100,4,2,1,50,0,0
33109,-100,4,2,1,75,0,0
36212,-100,4,2,1,50,0,0
36419,-100,4,2,1,75,0,0
46350,-100,4,2,1,90,0,0
49661,-100,4,2,1,100,0,0
51730,-100,4,2,1,50,0,0
51833,-100,4,2,1,5,0,0
52143,-100,4,2,1,50,0,0
52557,-100,4,2,1,75,0,0
52971,-66.6666666666667,4,2,2,100,0,1
65385,-133.333333333333,4,2,2,100,0,1
65592,-133.333333333333,4,2,2,80,0,1
65799,-133.333333333333,4,2,2,80,0,0
66212,-66.6666666666667,4,2,2,100,0,0
67040,-66.6666666666667,4,2,2,100,0,1
78833,-66.6666666666667,4,2,1,100,0,1
79454,-100,4,2,1,100,0,0
92281,-100,4,2,1,80,0,0
92488,-100,4,2,1,50,0,0
92695,-100,4,2,1,80,0,0
99316,-100,4,2,1,90,0,0
101799,-76.9230769230769,4,2,1,100,0,0
102626,-100,4,2,3,40,0,0
105109,-100,4,2,1,75,0,0
105937,-66.6666666666667,4,2,2,100,0,1
108833,-100,4,2,2,100,0,1
109247,-66.6666666666667,4,2,2,100,0,1
118350,-133.333333333333,4,2,2,100,0,1
118557,-133.333333333333,4,2,2,80,0,1
118764,-133.333333333333,4,2,2,80,0,0
119178,-66.6666666666667,4,2,2,100,0,0
120006,-66.6666666666667,4,2,2,100,0,1
131799,-66.6666666666667,4,2,1,100,0,1
132419,-200,4,2,4,70,0,0
132833,-200,4,2,4,30,0,0
136557,-200,4,2,3,5,0,0
137385,-200,4,2,3,30,0,0
140695,-200,4,2,3,5,0,0
142350,-200,4,2,3,30,0,0
143592,-200,4,2,3,5,0,0

[Colours]
Combo1 : 255,87,34
Combo2 : 0,150,136
Combo3 : 139,195,74
Combo4 : 255,82,82
Combo5 : 255,193,7
Combo6 : 96,125,139

[HitObjects]
210,219,6,6,0,B|192:195|153:139|183:74|245:41|245:41|254:100|300:142|300:142|221:169|106:78|83:189|83:189|118:258|81:311,1,700,4|0,0:0|0:0,0:0:0:0:
180,340,4971,6,0,L|252:329,1,70,2|0,0:0|0:0,0:0:0:0:
359,207,5799,2,0,L|348:279,1,70,2|0,0:0|0:0,0:0:0:0:
433,162,6626,6,0,B|380:100|313:134|313:134|323:45,1,210,4|0,0:0|0:0,0:0:0:0:
213,119,8281,2,0,B|208:169|208:169|241:210|241:210|230:317,1,210
93,226,9937,6,0,B|75:182|97:81|97:81|50:108|52:130,1,210,4|0,0:0|0:0,0:0:0:0:
66,327,11592,2,0,B|104:313|104:313|174:334|241:305|241:305|236:346,1,210,0|0,0:0|0:0,0:0:0:0:
377,68,13247,6,0,B|352:283|352:283|237:231|348:154|219:124|219:124|208:202|208:202|201:255|120:250|129:184|129:184|136:132,1,700,4|0,0:0|0:0,0:0:0:0:
238,50,18212,6,0,P|281:63|311:81,1,70,2|0,0:0|0:0,0:0:0:0:
308,182,19040,2,0,P|351:169|381:151,1,70,2|0,0:0|0:0,0:0:0:0:
145,194,19868,6,0,B|119:173|119:99|119:99|56:129|56:129|51:172,1,210,4|0,0:0|0:0,0:0:0:0:
129,298,21523,2,0,B|106:332|106:332|197:300|198:361|284:322,1,210,0|0,0:0|0:0,0:0:0:0:
339,185,23178,6,0,B|342:138|342:138|410:170|410:170|405:267,1,210,4|0,0:0|0:0,0:0:0:0:
241,253,24833,2,0,B|154:249|85:301|85:301|77:232,1,233.333333333333,0|2,0:0|0:0,0:0:0:0:
73,126,26385,1,0,0:0:0:0:
73,126,26488,6,0,B|77:72|77:72|142:8,1,140,4|0,0:0|0:0,0:0:0:0:
256,36,27109,2,0,L|197:92,1,70,0|8,0:0|0:0,0:0:0:0:
342,99,27523,2,0,L|392:50,1,70
262,162,27937,2,0,L|203:218,1,70,2|0,0:0|0:0,0:0:0:0:
367,209,28350,1,8,0:0:0:0:
276,316,28557,2,0,L|136:304,1,140,2|8,0:0|0:0,0:0:0:0:
69,174,29799,6,0,B|91:125|65:73|65:73|66:49|90:24,1,140,4|0,0:0|0:0,0:0:0:0:
206,59,30419,2,0,L|278:53,1,70,0|8,0:0|0:0,0:0:0:0:
306,148,30833,2,0,L|378:142,1,70,0|0,0:0|0:0,0:0:0:0:
349,256,31247,2,0,L|343:325,1,70,2|0,0:0|0:0,0:0:0:0:
208,254,31661,2,0,L|202:184,1,70,8|2,0:0|0:0,0:0:0:0:
127,298,32074,2,0,P|191:345|257:331,1,140,0|8,0:0|0:0,0:0:0:0:
388,113,32902,5,8,0:0:0:0:
387,127,33006,1,8,0:0:0:0:
385,144,33109,2,0,B|356:175|356:175|245:168,1,140,4|0,0:0|0:0,0:0:0:0:
176,100,33730,2,0,L|205:24,1,70,0|8,0:0|0:0,0:0:0:0:
160,220,34143,2,0,L|184:285,1,70,0|0,0:0|0:0,0:0:0:0:
13,110,34557,2,0,P|47:75|84:67,1,70,2|0,0:0|0:0,0:0:0:0:
94,160,34971,1,8,0:0:0:0:
45,274,35178,2,0,L|188:285,1,140,2|8,0:0|0:0,0:0:0:0:
449,200,36212,5,8,0:0:0:0:
448,186,36316,1,8,0:0:0:0:
446,172,36419,2,0,B|400:168|400:168|355:155|355:155|278:151,1,140,4|0,0:0|0:0,0:0:0:0:
146,169,37040,2,0,L|96:104,1,70,0|8,0:0|0:0,0:0:0:0:
151,13,37454,2,0,L|193:68,1,70,0|0,0:0|0:0,0:0:0:0:
240,220,37868,2,0,L|219:297,1,70,2|0,0:0|0:0,0:0:0:0:
297,375,38281,2,0,L|315:307,1,70,8|2,0:0|0:0,0:0:0:0:
123,302,38695,2,0,L|88:149,1,140,0|8,0:0|0:0,0:0:0:0:
280,211,39523,1,0,0:0:0:0:
230,299,39730,6,0,L|399:303,1,140,2|0,0:0|0:0,0:0:0:0:
494,100,40557,1,4,0:0:0:0:
255,101,40971,2,0,P|266:64|258:23,1,70,8|0,0:0|0:0,0:0:0:0:
181,156,41385,5,0,0:0:0:0:
264,191,41592,1,8,0:0:0:0:
187,245,41799,2,0,L|102:240,1,70,2|0,0:0|0:0,0:0:0:0:
30,151,42212,2,0,P|61:136|85:111,2,70,12|0|0,0:0|0:0|0:0,0:0:0:0:
182,314,43040,5,2,0:0:0:0:
267,297,43247,1,0,0:0:0:0:
352,280,43454,2,0,P|358:217|345:183,1,70,0|0,0:0|0:0,0:0:0:0:
237,103,43868,2,0,L|312:114,1,70,4|0,0:0|0:0,0:0:0:0:
421,78,44281,5,8,0:0:0:0:
459,206,44488,2,0,L|448:281,1,70,2|0,0:0|0:0,0:0:0:0:
352,352,44902,1,8,0:0:0:0:
281,238,45109,2,0,L|211:227,1,70,2|0,0:0|0:0,0:0:0:0:
99,154,45523,2,0,P|139:138|163:118,2,70,4|0|0,0:0|0:0|0:0,0:0:0:0:
375,93,46350,5,2,0:0:0:0:
92,69,46764,1,2,0:0:0:0:
300,34,47178,5,4,0:0:0:0:
169,309,47592,1,2,0:0:0:0:
347,173,48006,69,2,0:0:0:0:
286,245,48213,1,8,0:0:0:0:
387,258,48419,1,2,0:0:0:0:
79,221,48833,2,0,P|116:263|121:302,2,70,12|0|2,0:0|0:0|0:0,0:0:0:0:
436,161,49661,37,2,0:0:0:0:
263,146,49868,1,2,0:0:0:0:
350,256,50074,1,2,0:0:0:0:
365,54,50281,1,2,0:0:0:0:
208,234,50488,5,2,0:0:0:0:
184,238,50592,1,0,0:0:0:0:
160,238,50695,1,2,0:0:0:0:
136,234,50799,1,0,0:0:0:0:
104,211,50902,5,2,0:0:0:0:
97,174,51006,1,0,0:0:0:0:
90,137,51109,1,2,0:0:0:0:
84,100,51212,1,0,0:0:0:0:
373,101,51730,38,0,L|358:54,1,35
430,296,52143,2,0,P|442:286|448:300,1,35
101,333,52557,5,2,0:0:0:0:
287,351,52764,1,2,0:0:0:0:
94,325,52971,6,0,L|136:274,1,52.5000020027161,6|0,0:0|0:0,0:0:0:0:
250,258,53178,2,0,L|221:188,1,52.5000020027161
124,184,53385,2,0,L|143:44,1,105.000004005432,0|0,0:0|0:0,0:0:0:0:
315,33,53799,2,0,L|329:137,1,105.000004005432,8|0,0:0|0:0,0:0:0:0:
413,327,54212,6,0,L|476:313,1,52.5000020027161,0|0,0:0|0:0,0:0:0:0:
426,226,54419,2,0,L|489:212,1,52.5000020027161
441,124,54626,1,0,0:0:0:0:
313,233,54833,1,2,0:0:0:0:
313,233,54937,1,2,0:0:0:0:
313,233,55040,2,0,P|258:258|203:250,1,105.000004005432,2|0,0:0|0:0,0:0:0:0:
25,191,55454,6,0,L|16:242,1,52.5000020027161,8|0,0:0|0:0,0:0:0:0:
120,330,55661,2,0,L|128:270,1,52.5000020027161
140,174,55868,1,0,0:0:0:0:
14,93,56074,1,2,0:0:0:0:
145,34,56281,6,0,L|213:17,1,52.5000020027161,2|0,0:0|0:0,0:0:0:0:
301,105,56488,2,0,L|250:117,1,52.5000020027161,0|0,0:0|0:0,0:0:0:0:
140,174,56695,2,0,L|124:307,1,105.000004005432
298,305,57109,2,0,P|229:321|205:362,1,105.000004005432,8|0,0:0|0:0,0:0:0:0:
405,333,57523,5,0,0:0:0:0:
347,197,57730,1,2,0:0:0:0:
486,248,57937,2,0,B|493:229|493:229|497:192,1,52.5000020027161
482,83,58143,1,8,0:0:0:0:
347,197,58350,2,0,P|276:162|217:162,1,105.000004005432,2|0,0:0|0:0,0:0:0:0:
81,106,58764,6,0,L|74:170,1,52.5000020027161,8|0,0:0|0:0,0:0:0:0:
156,278,58971,2,0,L|161:225,1,52.5000020027161
251,159,59178,1,0,0:0:0:0:
330,278,59385,1,2,0:0:0:0:
447,132,59592,5,2,0:0:0:0:
384,216,59799,2,0,B|415:153|415:153|419:77,1,105.000004005432
285,38,60212,5,2,0:0:0:0:
270,143,60419,2,0,B|265:72|265:72|230:6,1,105.000004005432,8|0,0:0|0:0,0:0:0:0:
83,30,60833,5,2,0:0:0:0:
121,128,61040,2,0,B|81:69|81:69|18:28,1,105.000004005432,0|0,0:0|0:0,0:0:0:0:
44,233,61454,1,2,0:0:0:0:
44,233,61557,1,2,0:0:0:0:
44,233,61661,2,0,B|83:291|83:291|146:332,1,105.000004005432,2|0,0:0|0:0,0:0:0:0:
358,335,62074,6,0,L|366:282,1,52.5000020027161,12|0,0:0|0:0,0:0:0:0:
279,147,62281,2,0,L|270:199,1,52.5000020027161
252,294,62488,1,0,0:0:0:0:
385,188,62695,1,2,0:0:0:0:
295,58,62902,6,4,P|273:43|248:39,1,52.5000020027161,6|0,0:0|0:0,0:0:0:0:
168,109,63109,2,4,P|134:100|112:78,1,52.5000020027161,0|0,0:0|0:0,0:0:0:0:
42,162,63316,2,0,L|56:299,1,105.000004005432
216,323,63730,2,0,L|285:295,1,52.5000020027161,8|0,0:0|0:0,0:0:0:0:
365,262,63937,1,2,0:0:0:0:
234,179,64143,5,2,0:0:0:0:
368,234,64350,1,0,0:0:0:0:
347,86,64557,2,0,P|402:85|469:119,1,105.000004005432,0|8,0:0|0:0,0:0:0:0:
475,308,64971,2,0,L|492:186,1,105.000004005432,2|0,0:0|0:0,0:0:0:0:
249,296,65385,6,0,B|288:288|288:288|321:300,1,52.5000020027161,8|0,0:0|0:0,0:0:0:0:
170,302,65799,1,0,0:0:0:0:
149,290,65902,1,0,0:0:0:0:
131,273,66006,1,0,0:0:0:0:
120,252,66109,1,0,0:0:0:0:
123,214,66212,6,0,L|132:147,1,52.5000020027161,2|0,0:0|0:0,0:0:0:0:
202,26,66419,2,0,L|195:78,1,52.5000020027161
238,180,66626,1,0,0:0:0:0:
490,84,67040,2,0,L|496:275,1,157.500006008148,12|0,0:0|0:0,0:0:0:0:
432,327,67454,6,0,P|393:331|342:311,1,52.5000020027161
307,254,67661,2,0,P|268:250|217:270,1,52.5000020027161
170,319,67868,1,0,0:0:0:0:
100,161,68074,1,2,0:0:0:0:
100,161,68178,1,2,0:0:0:0:
100,161,68281,2,0,P|121:89|164:49,1,105.000004005432,2|0,0:0|0:0,0:0:0:0:
290,162,68695,6,0,L|229:169,1,52.5000020027161,12|0,0:0|0:0,0:0:0:0:
166,274,68902,2,0,L|105:281,1,52.5000020027161
14,196,69109,1,0,0:0:0:0:
37,346,69316,1,2,0:0:0:0:
19,166,69523,6,0,L|33:95,1,52.5000020027161,6|0,0:0|0:0,0:0:0:0:
146,54,69730,2,0,L|136:106,1,52.5000020027161,0|0,0:0|0:0,0:0:0:0:
224,220,69937,2,0,L|238:149,1,52.5000020027161,0|0,0:0|0:0,0:0:0:0:
352,102,70144,2,0,L|342:154,1,52.5000020027161,0|0,0:0|0:0,0:0:0:0:
297,302,70350,2,0,P|369:323|424:304,1,105.000004005432,8|0,0:0|0:0,0:0:0:0:
455,58,70764,6,0,L|475:140,1,52.5000020027161
499,234,70971,1,2,0:0:0:0:
359,235,71178,1,0,0:0:0:0:
417,57,71385,1,8,0:0:0:0:
306,115,71592,2,0,P|240:125|178:112,1,105.000004005432,2|0,0:0|0:0,0:0:0:0:
65,45,72006,6,0,L|92:101,1,52.5000020027161,8|0,0:0|0:0,0:0:0:0:
113,193,72212,2,0,P|61:184|9:189,1,105.000004005432
117,359,72626,1,2,0:0:0:0:
34,282,72834,1,2,0:0:0:0:
178,270,73040,6,0,L|234:261,1,52.5000020027161
312,320,73247,2,0,L|368:311,1,52.5000020027161
434,239,73454,1,2,0:0:0:0:
267,177,73661,2,0,B|317:157|317:157|368:164,1,105.000004005432,8|0,0:0|0:0,0:0:0:0:
511,184,74074,5,2,0:0:0:0:
432,65,74281,2,0,L|374:68,1,52.5000020027161
282,75,74488,2,0,L|224:78,1,52.5000020027161
136,90,74694,1,2,0:0:0:0:
136,90,74798,1,2,0:0:0:0:
136,90,74902,2,0,L|31:95,1,105.000004005432,2|0,0:0|0:0,0:0:0:0:
29,361,75316,6,0,P|62:346|82:314,1,52.5000020027161,12|0,0:0|0:0,0:0:0:0:
95,175,75523,2,0,P|82:208|90:245,1,52.5000020027161
166,288,75730,1,0,0:0:0:0:
249,183,75937,1,2,0:0:0:0:
319,321,76143,6,0,L|313:388,1,52.5000020027161,6|0,0:0|0:0,0:0:0:0:
381,221,76350,2,0,L|368:170,1,52.5000020027161
441,327,76557,2,0,L|435:394,1,52.5000020027161
497,226,76764,2,0,L|484:175,1,52.5000020027161
461,85,76971,1,8,0:0:0:0:
296,114,77178,1,2,0:0:0:0:
368,20,77385,5,2,0:0:0:0:
196,0,77592,1,0,0:0:0:0:
284,127,77799,2,0,P|295:196|279:247,1,105.000004005432,0|8,0:0|0:0,0:0:0:0:
169,310,78212,2,0,B|139:286|139:286|52:278,1,105.000004005432,2|0,0:0|0:0,0:0:0:0:
50,98,78626,5,8,0:0:0:0:
136,154,78833,1,2,0:0:0:0:
209,14,79040,1,2,0:0:0:0:
210,114,79247,1,2,0:0:0:0:
46,197,79454,5,4,0:0:0:0:
250,336,92281,5,2,0:0:0:0:
124,246,92488,1,8,0:0:0:0:
140,244,92592,1,8,0:0:0:0:
158,243,92695,6,0,B|248:235|248:235|283:188,1,140,4|0,0:0|0:0,0:0:0:0:
176,56,93523,1,4,0:0:0:0:
379,155,93937,6,0,L|373:253,2,70,8|0|2,0:0|0:0|0:0,0:0:0:0:
442,93,94557,2,0,P|400:71|365:68,1,70,0|8,0:0|0:0,0:0:0:0:
138,155,95178,2,0,P|103:157|69:148,2,70,4|0|8,0:0|0:0|0:0,0:0:0:0:
392,305,96006,6,0,L|402:157,1,140,2|8,0:0|0:0,0:0:0:0:
196,62,96833,1,4,0:0:0:0:
101,310,97247,2,0,L|58:239,1,70,8|0,0:0|0:0,0:0:0:0:
164,254,97661,6,0,P|225:238|301:271,1,140,2|8,0:0|0:0,0:0:0:0:
401,67,98488,2,0,P|374:130|389:197,1,140,4|8,0:0|0:0,0:0:0:0:
412,320,99316,5,2,0:0:0:0:
239,112,99730,1,2,0:0:0:0:
47,277,100143,5,12,0:0:0:0:
305,245,100557,1,2,0:0:0:0:
73,115,100971,6,0,L|63:37,2,70,2|8|2,0:0|0:0|0:0,0:0:0:0:
130,303,101592,2,0,L|134:268,1,35
165,184,101799,6,0,P|210:160|260:159,1,90.9999958343508,4|0,0:0|0:0,0:0:0:0:
357,214,102109,1,0,0:0:0:0:
357,214,102212,2,0,L|372:152,1,45.4999979171754,2|0,0:0|0:0,0:0:0:0:
456,104,102419,1,2,0:0:0:0:
468,142,102523,1,2,0:0:0:0:
480,187,102626,5,4,0:0:0:0:
467,220,103454,1,4,0:0:0:0:
451,254,104281,1,4,0:0:0:0:
451,254,105109,6,0,P|433:221|415:206,1,35,2|0,0:0|0:0,0:0:0:0:
358,158,105316,2,0,P|321:147|294:146,1,35,2|0,0:0|0:0,0:0:0:0:
217,193,105523,5,2,0:0:0:0:
178,188,105626,1,2,0:0:0:0:
139,183,105730,1,2,0:0:0:0:
100,179,105833,1,2,0:0:0:0:
73,154,105937,6,0,P|65:125|64:81,1,52.5000020027161,2|0,0:0|0:0,0:0:0:0:
173,16,106143,2,0,P|181:44|179:68,1,52.5000020027161,0|0,0:0|0:0,0:0:0:0:
217,193,106350,2,0,B|253:209|253:209|359:203,1,105.000004005432,0|0,0:0|0:0,0:0:0:0:
472,103,106764,2,0,L|457:227,1,105.000004005432,8|0,0:0|0:0,0:0:0:0:
358,333,107178,6,0,P|312:337|284:330,1,52.5000020027161
212,275,107385,2,0,P|166:271|138:278,1,52.5000020027161
58,333,107592,1,0,0:0:0:0:
54,146,107799,1,2,0:0:0:0:
54,146,107902,1,2,0:0:0:0:
54,146,108006,2,0,P|105:159|177:144,1,105.000004005432,2|0,0:0|0:0,0:0:0:0:
279,46,108419,6,0,L|263:113,1,52.5000020027161,8|0,0:0|0:0,0:0:0:0:
325,227,108626,2,0,L|337:175,1,52.5000020027161
432,52,108833,6,0,B|452:89|422:90|437:129,1,70,0|2,0:0|0:0,0:0:0:0:
374,275,109247,6,0,L|303:269,1,52.5000020027161,6|0,0:0|0:0,0:0:0:0:
195,171,109454,2,0,L|247:175,1,52.5000020027161
214,294,109661,2,0,B|164:343|164:343|123:351,1,105.000004005432
0,192,110074,2,0,B|0:262|0:262|24:296,1,105.000004005432,8|0,0:0|0:0,0:0:0:0:
195,171,110488,5,0,0:0:0:0:
114,250,110695,1,2,0:0:0:0:
214,294,110902,2,0,P|247:302|274:301,1,52.5000020027161
398,284,111109,1,8,0:0:0:0:
337,108,111316,2,0,L|325:235,1,105.000004005432,2|0,0:0|0:0,0:0:0:0:
498,26,111730,6,0,L|445:30,1,52.5000020027161,8|0,0:0|0:0,0:0:0:0:
352,127,111937,2,0,L|404:131,1,52.5000020027161
263,42,112143,1,0,0:0:0:0:
200,158,112350,1,2,0:0:0:0:
78,98,112557,5,2,0:0:0:0:
178,57,112764,2,0,L|43:75,1,105.000004005432,0|0,0:0|0:0,0:0:0:0:
75,225,113178,5,2,0:0:0:0:
184,206,113385,2,0,L|53:193,1,105.000004005432,8|0,0:0|0:0,0:0:0:0:
49,355,113799,5,2,0:0:0:0:
153,324,114006,2,0,L|29:326,1,105.000004005432,0|0,0:0|0:0,0:0:0:0:
285,286,114419,1,2,0:0:0:0:
285,286,114523,1,2,0:0:0:0:
285,286,114626,2,0,P|320:212|311:169,1,105.000004005432,2|0,0:0|0:0,0:0:0:0:
215,69,115040,6,0,P|151:71|110:90,2,105.000004005432,12|0|0,0:0|0:0|0:0,0:0:0:0:
186,222,115661,1,2,0:0:0:0:
332,119,115868,6,0,P|354:146|362:170,1,52.5000020027161,6|0,0:0|0:0,0:0:0:0:
449,233,116074,2,2,P|444:258|432:282,1,52.5000020027161,0|0,0:0|0:0,3:0:0:0:
326,309,116281,2,0,P|246:308|193:337,1,105.000004005432
65,241,116695,1,8,0:0:0:0:
145,362,116902,1,2,0:0:0:0:
235,222,117109,6,0,L|243:153,1,52.5000020027161,2|0,0:0|0:0,0:0:0:0:
254,54,117316,2,0,L|262:-15,1,52.5000020027161
339,122,117523,1,0,0:0:0:0:
147,145,117730,1,8,0:0:0:0:
336,238,117937,2,0,P|356:285|351:337,1,105.000004005432,2|0,0:0|0:0,0:0:0:0:
125,310,118350,6,0,B|86:305|86:305|58:314,1,52.5000020027161,8|0,0:0|0:0,0:0:0:0:
205,312,118764,1,0,0:0:0:0:
226,301,118868,1,0,0:0:0:0:
242,284,118971,1,0,0:0:0:0:
251,262,119074,1,0,0:0:0:0:
251,231,119178,6,0,L|245:173,1,52.5000020027161,2|0,0:0|0:0,0:0:0:0:
232,78,119385,2,0,L|186:41,1,52.5000020027161
87,36,119592,1,0,0:0:0:0:
56,304,120006,2,0,P|127:330|232:292,1,157.500006008148,12|0,0:0|0:0,0:0:0:0:
252,212,120419,6,0,L|291:262,1,52.5000020027161,0|0,0:0|0:0,0:0:0:0:
362,130,120626,2,0,L|348:201,1,52.5000020027161,0|0,0:0|0:0,0:0:0:0:
456,76,120833,1,0,0:0:0:0:
486,220,121040,1,2,0:0:0:0:
486,220,121143,1,2,0:0:0:0:
486,220,121247,2,0,B|489:274|489:274|454:346,1,105.000004005432,2|0,0:0|0:0,0:0:0:0:
263,339,121661,6,0,L|183:335,1,52.5000020027161,8|0,0:0|0:0,0:0:0:0:
335,236,121868,2,0,L|399:233,1,52.5000020027161
235,153,122074,1,0,0:0:0:0:
163,256,122281,1,2,0:0:0:0:
81,160,122488,6,0,P|68:130|69:99,1,52.5000020027161,2|0,0:0|0:0,0:0:0:0:
149,10,122695,2,0,P|162:40|161:71,1,52.5000020027161,0|0,0:0|0:0,0:0:0:0:
250,157,122902,2,0,P|253:124|270:98,1,52.5000020027161,0|0,0:0|0:0,0:0:0:0:
383,48,123109,2,0,P|379:80|362:106,1,52.5000020027161,0|0,0:0|0:0,0:0:0:0:
307,245,123316,2,0,B|279:264|279:264|186:271,1,105.000004005432,8|0,0:0|0:0,0:0:0:0:
50,271,123730,5,0,0:0:0:0:
176,348,123937,1,2,0:0:0:0:
148,168,124143,2,0,P|160:144|179:126,1,52.5000020027161,0|0,0:0|0:0,0:0:0:0:
265,66,124350,1,8,0:0:0:0:
371,182,124557,2,0,L|500:185,1,105.000004005432,2|0,0:0|0:0,0:0:0:0:
328,303,124971,6,0,P|338:328|337:363,1,52.5000020027161,8|0,0:0|0:0,0:0:0:0:
249,262,125178,2,0,L|120:265,1,105.000004005432,0|0,0:0|0:0,0:0:0:0:
29,162,125592,1,2,0:0:0:0:
164,142,125799,1,2,0:0:0:0:
75,46,126006,6,0,P|147:38|162:40,1,52.5000020027161,0|0,0:0|0:0,0:0:0:0:
223,45,126212,2,0,P|291:68|304:76,1,52.5000020027161
353,117,126419,1,2,0:0:0:0:
256,267,126626,2,0,P|245:201|275:148,1,105.000004005432,8|0,0:0|0:0,0:0:0:0:
371,223,127040,5,2,0:0:0:0:
464,325,127247,2,0,L|400:315,1,52.5000020027161
315,367,127454,2,0,L|251:357,1,52.5000020027161
170,296,127661,1,2,0:0:0:0:
170,296,127764,1,2,0:0:0:0:
170,296,127868,2,0,P|116:282|51:299,1,105.000004005432,2|0,0:0|0:0,0:0:0:0:
166,103,128281,6,0,L|234:87,1,52.5000020027161,12|0,0:0|0:0,0:0:0:0:
69,184,128488,2,0,L|5:166,1,52.5000020027161
78,51,128695,1,0,0:0:0:0:
153,227,128902,1,2,0:0:0:0:
253,96,129109,6,0,L|261:28,1,52.5000020027161,6|0,0:0|0:0,0:0:0:0:
326,176,129316,2,0,L|319:228,1,52.5000020027161
387,59,129523,2,0,L|395:-9,1,52.5000020027161
460,139,129730,2,0,L|453:191,1,52.5000020027161
411,301,129937,1,8,0:0:0:0:
331,146,130143,1,2,0:0:0:0:
189,147,130350,6,0,L|151:197,1,52.5000020027161,2|0,0:0|0:0,0:0:0:0:
29,149,130557,2,0,L|67:199,1,52.5000020027161
60,295,130764,2,0,P|120:287|184:294,1,105.000004005432,0|8,0:0|0:0,0:0:0:0:
439,230,131178,2,0,P|386:232|334:225,1,105.000004005432,2|0,0:0|0:0,0:0:0:0:
244,49,131592,5,8,0:0:0:0:
344,113,131799,1,2,0:0:0:0:
326,30,132006,1,2,0:0:0:0:
262,132,132213,1,2,0:0:0:0:
79,113,132419,6,0,B|21:170|69:229|69:229|120:288|105:355|105:355|141:295|219:284|219:284|265:221|349:226|349:226|428:232|471:160,1,700,4|0,0:0|0:0,0:0:0:0:
214,86,137385,2,0,L|222:162,1,70,2|0,0:0|0:0,0:0:0:0:
291,292,138212,2,0,L|299:216,1,70,2|0,0:0|0:0,0:0:0:0:
443,119,139040,6,0,P|369:70|183:92,1,280,4|0,0:0|0:0,0:0:0:0:
248,251,142350,6,0,B|257:231|273:221|273:221|203:197|190:268|103:232,1,210,4|0,0:0|0:0,0:0:0:0:
256,192,144006,12,0,145661,0:0:0:0:
