osu file format v14

[General]
AudioFilename: audio.mp3
AudioLeadIn: 0
PreviewTime: 23815
Countdown: 0
SampleSet: Soft
StackLeniency: 0.7
Mode: 0
LetterboxInBreaks: 0
WidescreenStoryboard: 0

[Editor]
Bookmarks: 49486
DistanceSpacing: 2.6
BeatDivisor: 4
GridSize: 4
TimelineZoom: 2.4

[Metadata]
Title:Nalianful
TitleUnicode:Nalianful
Artist:Spazza17
ArtistUnicode:Spazza17
Creator:dorsalplum
Version:Spazzmatic
Source:
Tags:
BeatmapID:2061938
BeatmapSetID:985564

[Difficulty]
HPDrainRate:5
CircleSize:3.6
OverallDifficulty:9
ApproachRate:9.6
SliderMultiplier:1.8
SliderTickRate:1

[Events]
//Background and Video events
Video,0,"cf2sRbd0R6dzvYAk.mp4"
0,0,"Untitled-2.png",0,0
//Break Periods
2,49686,51545
//Storyboard Layer 0 (Background)
//Storyboard Layer 1 (Fail)
//Storyboard Layer 2 (Pass)
//Storyboard Layer 3 (Foreground)
//Storyboard Sound Samples

[TimingPoints]
308,300,4,2,22,85,1,0
594,300,4,2,22,85,1,0
1044,300,4,2,22,85,1,0
2596,312.5,4,2,22,85,1,0
4496,312.5,4,2,22,85,1,0
4496,-83.3333333333333,4,2,22,85,0,0
23815,300,4,2,22,85,1,0
24486,312.5,4,2,22,85,1,0
44486,-500,4,2,22,85,0,0
52115,272.727272727273,4,2,22,85,1,0
52115,-28.5714285714286,4,2,22,85,0,0

[Colours]
Combo1 : 255,136,196
Combo2 : 138,255,255
Combo3 : 255,255,117

[HitObjects]
183,133,308,5,2,0:2:0:0:
343,24,458,1,2,0:2:0:0:
373,55,533,1,2,0:2:0:0:
383,95,594,1,2,0:2:0:0:
367,137,669,1,2,0:2:0:0:
327,160,744,1,2,0:2:0:0:
327,160,1044,5,2,0:2:0:0:
302,196,1119,1,2,0:2:0:0:
297,241,1194,1,2,0:2:0:0:
310,284,1269,1,2,0:2:0:0:
341,315,1344,1,2,0:2:0:0:
341,315,1644,5,2,0:2:0:0:
390,333,1719,1,2,0:2:0:0:
372,384,1794,1,2,0:2:0:0:
324,367,1869,1,2,0:2:0:0:
168,263,4496,6,0,L|298:272,1,107.999996704102,14|0,1:2|0:2,0:0:0:0:
462,138,4808,2,0,L|332:147,1,107.999996704102,8|0,0:2|0:2,0:0:0:0:
80,245,5121,5,8,0:2:0:0:
308,75,5277,1,0,1:2:0:0:
62,160,5433,1,8,0:2:0:0:
345,270,5589,1,0,1:2:0:0:
99,59,5746,5,10,0:2:0:0:
146,346,5902,1,0,1:2:0:0:
251,50,6058,5,8,0:2:0:0:
252,346,6214,1,0,1:2:0:0:
428,56,6371,5,10,0:2:0:0:
366,346,6527,1,0,1:2:0:0:
426,37,6683,5,10,0:2:0:0:
487,353,6839,1,0,1:2:0:0:
306,73,6996,6,0,P|259:52|165:72,1,107.999996704102,12|0,1:2|0:2,0:0:0:0:
364,292,7308,2,0,P|417:294|466:272,1,107.999996704102,8|0,0:2|0:2,0:0:0:0:
306,73,7621,5,8,0:2:0:0:
260,307,7777,1,0,1:2:0:0:
203,53,7933,5,8,0:2:0:0:
260,332,8089,1,0,1:2:0:0:
100,56,8246,1,8,0:2:0:0:
66,329,8402,1,0,1:2:0:0:
225,31,8558,5,8,0:2:0:0:
280,363,8714,1,0,1:2:0:0:
80,35,8871,5,8,0:2:0:0:
29,366,9027,1,0,1:2:0:0:
322,128,9183,5,8,0:2:0:0:
0,180,9339,1,0,1:2:0:0:
280,363,9496,6,0,L|271:205,1,107.999996704102,14|0,1:2|0:2,0:0:0:0:
77,30,9808,2,0,L|70:137,1,107.999996704102,8|0,0:2|0:2,0:0:0:0:
192,383,10121,5,8,0:2:0:0:
217,69,10277,1,0,1:2:0:0:
359,384,10433,1,8,0:2:0:0:
340,79,10589,1,0,1:2:0:0:
92,280,10746,5,10,0:2:0:0:
416,173,10902,1,0,1:2:0:0:
99,179,11058,5,8,0:2:0:0:
446,277,11214,1,0,1:2:0:0:
201,58,11371,5,10,0:2:0:0:
134,358,11527,1,0,1:2:0:0:
201,37,11683,5,10,0:2:0:0:
270,377,11839,1,0,1:2:0:0:
323,62,11996,6,0,P|388:63|453:105,1,107.999996704102,12|0,1:2|0:2,0:0:0:0:
199,278,12308,2,0,P|133:276|68:234,1,107.999996704102,8|0,0:2|0:2,0:0:0:0:
236,105,12621,5,8,0:2:0:0:
319,274,12777,1,0,1:2:0:0:
185,184,12933,1,8,0:2:0:0:
337,96,13089,1,0,1:2:0:0:
319,274,13246,6,0,L|289:150,1,107.999996704102,8|0,0:2|0:2,0:0:0:0:
426,81,13558,2,0,P|413:144|351:183,1,107.999996704102,8|0,0:2|0:2,0:0:0:0:
236,105,13871,2,0,P|297:84|361:118,1,107.999996704102,4|0,1:2|0:2,3:0:0:0:
382,172,14105,1,8,0:0:0:0:
382,172,14183,1,8,0:0:0:0:
204,236,14339,1,0,0:0:0:0:
405,280,14496,6,0,L|549:298,1,107.999996704102,14|0,1:2|1:2,1:0:0:0:
236,105,14808,2,0,L|92:123,1,107.999996704102,8|0,0:2|0:2,0:0:0:0:
166,380,15121,5,8,0:2:0:0:
236,105,15277,1,0,1:2:0:0:
326,383,15433,5,8,0:2:0:0:
244,90,15589,1,0,1:2:0:0:
101,319,15746,5,10,0:2:0:0:
391,312,15902,1,0,1:2:0:0:
95,196,16058,1,8,0:2:0:0:
404,198,16214,1,0,1:2:0:0:
78,317,16371,5,10,0:2:0:0:
436,194,16527,1,0,1:2:0:0:
66,191,16683,5,10,0:2:0:0:
427,318,16839,1,0,1:2:0:0:
24,384,16996,6,0,P|-3:326|17:248,1,107.999996704102,12|0,1:2|0:2,0:0:0:0:
267,200,17308,2,0,P|230:252|152:274,1,107.999996704102,8|0,0:2|0:2,0:0:0:0:
28,69,17622,5,8,0:2:0:0:
334,127,17777,1,0,1:2:0:0:
16,69,17934,1,8,0:2:0:0:
331,17,18089,1,0,1:2:0:0:
35,184,18246,5,8,0:2:0:0:
331,209,18402,1,0,1:2:0:0:
88,51,18558,1,8,0:2:0:0:
404,76,18714,1,0,1:2:0:0:
176,228,18871,5,8,0:2:0:0:
482,252,19027,1,0,1:2:0:0:
260,57,19183,1,8,0:2:0:0:
270,370,19339,1,0,1:2:0:0:
404,76,19496,6,0,L|532:56,1,107.999996704102,14|0,1:2|0:2,0:0:0:0:
361,300,19808,2,0,L|233:280,1,107.999996704102,8|0,0:2|0:2,0:0:0:0:
97,54,20121,5,8,0:2:0:0:
310,175,20277,1,0,1:2:0:0:
42,125,20433,1,8,0:2:0:0:
125,357,20589,1,0,1:2:0:0:
189,48,20746,5,10,0:2:0:0:
243,325,20902,1,0,1:2:0:0:
82,42,21058,5,8,0:2:0:0:
52,329,21214,1,0,1:2:0:0:
220,16,21371,5,10,0:2:0:0:
158,332,21527,1,0,1:2:0:0:
78,23,21683,5,10,0:2:0:0:
151,354,21839,1,0,1:2:0:0:
287,71,21996,2,0,P|327:65|419:98,1,107.999996704102,12|0,0:2|0:2,0:0:0:0:
293,335,22308,2,0,P|252:329|172:272,1,107.999996704102,8|0,0:2|0:2,2:0:0:0:
219,135,22621,1,8,0:2:0:0:
275,237,22777,1,0,1:2:0:0:
287,71,22933,1,8,0:2:0:0:
352,169,23089,1,0,1:2:0:0:
159,188,23246,6,0,B|94:183|94:183|54:211,1,107.999996704102,4|0,1:2|0:2,0:0:0:0:
43,296,23480,1,8,0:0:0:0:
43,296,23558,1,8,0:0:0:0:
39,118,23714,1,8,0:0:0:0:
237,151,23815,1,2,0:2:0:0:
245,194,23890,1,2,0:2:0:0:
231,236,23965,1,2,0:2:0:0:
197,266,24040,1,2,0:2:0:0:
154,274,24115,5,2,0:2:0:0:
154,274,24486,6,0,L|136:385,1,90,14|0,1:2|0:2,0:0:0:0:
390,269,24798,2,0,L|361:158,1,90,8|0,0:2|0:2,0:0:0:0:
83,114,25111,5,8,0:2:0:0:
327,108,25267,1,0,1:2:0:0:
62,24,25423,1,8,0:2:0:0:
357,24,25579,1,0,1:2:0:0:
124,283,25736,5,10,0:2:0:0:
201,0,25892,1,0,1:2:0:0:
246,334,26048,5,8,0:2:0:0:
140,59,26204,1,0,1:2:0:0:
339,159,26361,5,10,0:2:0:0:
44,261,26517,1,0,1:2:0:0:
355,248,26673,5,10,0:2:0:0:
47,111,26829,1,0,1:2:0:0:
423,105,26986,6,0,P|436:148|420:224,1,90,14|0,3:2|3:2,3:0:0:0:
256,312,27298,2,0,P|243:263|263:198,1,90,8|0,0:2|0:2,0:0:0:0:
306,40,27611,5,8,0:2:0:0:
355,248,27767,1,0,1:2:0:0:
207,45,27923,1,8,0:2:0:0:
140,260,28079,1,0,1:2:0:0:
326,21,28236,5,10,0:2:0:0:
258,334,28392,1,0,1:2:0:0:
192,20,28548,5,8,0:2:0:0:
258,366,28704,1,0,1:2:0:0:
357,4,28861,5,10,0:2:0:0:
405,325,29017,1,0,1:2:0:0:
156,5,29173,5,10,0:2:0:0:
112,331,29329,1,0,1:2:0:0:
411,93,29486,6,0,L|536:102,1,90,14|0,1:2|0:2,0:0:0:0:
410,322,29798,2,0,L|303:302,1,90,8|0,3:2|3:2,3:0:0:0:
114,105,30111,5,8,0:2:0:0:
299,146,30267,1,0,1:2:0:0:
36,199,30423,1,8,0:2:0:0:
223,238,30579,1,0,1:2:0:0:
210,23,30736,5,10,0:2:0:0:
132,276,30892,1,0,1:2:0:0:
109,12,31048,5,8,0:2:0:0:
206,319,31204,1,0,1:2:0:0:
0,124,31361,5,10,0:2:0:0:
330,124,31517,1,0,1:2:0:0:
105,308,31673,5,10,0:2:0:0:
109,12,31829,1,0,1:2:0:0:
430,293,31986,6,0,P|379:317|310:299,1,90,12|0,1:2|0:2,0:0:0:0:
381,123,32298,2,0,P|426:155|446:224,1,90,8|0,0:2|0:2,0:0:0:0:
206,319,32611,1,8,0:2:0:0:
255,75,32767,1,0,1:2:0:0:
346,315,32923,1,8,0:2:0:0:
172,187,33079,1,0,1:2:0:0:
351,188,33236,6,0,L|456:184,1,90,6|0,1:2|0:2,0:0:0:0:
471,94,33470,1,8,0:0:0:0:
471,94,33548,1,8,0:0:0:0:
301,124,33704,1,0,0:0:0:0:
495,250,33861,2,0,P|518:199|510:130,1,90,6|0,1:2|0:2,0:0:0:0:
471,94,34095,1,8,0:0:0:0:
471,94,34173,1,8,0:0:0:0:
407,301,34329,1,0,0:0:0:0:
378,113,34486,6,0,L|353:-18,1,90,14|0,1:2|0:2,0:0:0:0:
130,127,34798,2,0,L|114:245,1,90,8|0,0:2|0:2,0:0:0:0:
223,348,35111,5,8,0:2:0:0:
27,208,35267,1,0,1:2:0:0:
311,249,35423,1,8,0:2:0:0:
77,323,35579,1,0,1:2:0:0:
289,103,35736,5,10,0:2:0:0:
235,369,35892,1,0,1:2:0:0:
176,70,36048,5,8,0:2:0:0:
231,353,36204,1,0,1:2:0:0:
312,21,36361,5,10,0:2:0:0:
348,362,36517,1,0,1:2:0:0:
144,28,36673,5,10,0:2:0:0:
117,384,36829,1,0,1:2:0:0:
344,52,36986,6,0,P|385:45|457:76,1,90,14|0,1:2|0:2,0:0:0:0:
511,302,37298,2,0,P|471:317|404:309,1,90,8|0,0:2|0:2,0:0:0:0:
253,107,37611,5,8,0:2:0:0:
278,384,37767,1,0,1:2:0:0:
152,112,37923,5,8,0:2:0:0:
181,382,38079,1,0,1:2:0:0:
54,118,38236,5,10,0:2:0:0:
63,384,38392,1,0,1:2:0:0:
253,107,38548,5,8,0:2:0:0:
17,295,38704,1,0,1:2:0:0:
360,251,38861,5,10,0:2:0:0:
54,118,39017,1,0,1:2:0:0:
391,134,39173,5,10,0:2:0:0:
114,281,39329,1,0,1:2:0:0:
416,326,39486,6,0,L|523:370,1,90,14|0,1:2|0:2,0:0:0:0:
197,247,39798,2,0,L|93:289,1,90,8|0,0:2|0:2,0:0:0:0:
481,135,40111,5,8,0:2:0:0:
193,130,40267,1,0,1:2:0:0:
486,250,40423,1,8,0:2:0:0:
197,247,40579,1,0,1:2:0:0:
311,51,40736,5,10,0:2:0:0:
262,329,40892,1,0,1:2:0:0:
219,20,41048,5,8,0:2:0:0:
335,290,41204,1,0,1:2:0:0:
96,155,41361,5,10,0:2:0:0:
431,199,41517,1,0,1:2:0:0:
170,333,41673,5,10,0:2:0:0:
219,20,41829,1,0,1:2:0:0:
431,199,41986,6,2,L|484:239,2,45,14|2|2,1:2|0:2|0:0,0:0:0:0:
176,123,42298,2,0,P|132:129|77:181,1,90,8|0,0:2|0:2,0:0:0:0:
157,384,42611,1,10,0:2:0:0:
205,201,42767,1,0,1:2:0:0:
40,324,42923,1,8,0:2:0:0:
280,280,43079,1,0,1:2:0:0:
0,239,43236,5,10,0:2:0:0:
205,201,43392,1,0,1:2:0:0:
157,384,43548,2,0,L|154:271,1,90
205,201,43782,1,0,0:2:0:0:
205,201,43861,5,10,0:2:0:0:
377,265,44017,1,0,1:2:0:0:
246,361,44173,1,10,0:2:0:0:
302,176,44329,1,0,1:2:0:0:
438,328,44486,6,0,B|392:385|317:337|317:337|244:293|184:351|184:351|127:274|161:205|161:205|197:142|155:69,1,576,6|0,0:0|0:0,0:0:0:0:
218,199,52115,6,2,B|191:230|191:230|218:256|218:256|246:229|246:229|212:193,30,157.500001502037,2|2|2|2|2|2|2|2|2|2|2|2|2|2|2|2|2|2|2|2|2|2|2|2|2|2|2|2|2|2|2,2:0|2:0|2:0|2:0|2:0|2:0|2:0|2:0|2:0|2:0|2:0|2:0|2:0|2:0|2:0|2:0|2:0|2:0|2:0|2:0|2:0|2:0|2:0|2:0|2:0|2:0|2:0|2:0|2:0|2:0|2:0,2:0:0:0:
