osu file format v14

[General]
AudioFilename: audio.mp3
AudioLeadIn: 0
PreviewTime: 218536
Countdown: 0
SampleSet: None
StackLeniency: 0.8
Mode: 3
LetterboxInBreaks: 0
SpecialStyle: 1
WidescreenStoryboard: 0

[Editor]
DistanceSpacing: 0.8
BeatDivisor: 4
GridSize: 32
TimelineZoom: 2.5

[Metadata]
Title:Where Angels Go Demons Follow
TitleUnicode:Where Angels Go Demons Follow
Artist:Spawn Of Possession
ArtistUnicode:Spawn Of Possession
Creator:Herkkupala
Version:Apparition
Source:
Tags:treat relapse records incurso technical death metal sverige packet chords jumpstream handstream stream
BeatmapID:1688830
BeatmapSetID:794321

[Difficulty]
HPDrainRate:8.5
CircleSize:4
OverallDifficulty:8.5
ApproachRate:5
SliderMultiplier:1.4
SliderTickRate:1

[Events]
//Background and Video events
0,0,"bg.png",0,0
//Break Periods
//Storyboard Layer 0 (Background)
//Storyboard Layer 1 (Fail)
//Storyboard Layer 2 (Pass)
//Storyboard Layer 3 (Foreground)
//Storyboard Sound Samples

[TimingPoints]
36,250,4,3,0,30,1,0
8036,-100,4,3,0,30,0,1
13661,-100,4,3,0,30,0,0
14411,-100,4,3,0,30,0,1
20036,-100,4,3,0,30,0,0
30786,-100,4,3,0,30,0,1
32786,-100,4,3,0,30,0,0
34786,-100,4,3,0,30,0,1
36786,-100,4,3,0,30,0,0
67286,-100,4,3,0,30,0,1
77786,-100,4,3,0,30,0,0
82786,-100,4,3,0,30,0,1
88411,-100,4,3,0,30,0,0
89161,-100,4,3,0,30,0,1
94786,-100,4,3,0,30,0,0
158786,-100,4,3,0,30,0,1
160286,-100,4,3,0,30,0,0
162786,-100,4,3,0,30,0,1
164286,-100,4,3,0,30,0,0
172786,-100,4,3,0,30,0,1
176286,-100,4,3,0,30,0,0
176786,-100,4,3,0,30,0,1
180786,-100,4,3,0,30,0,0
181786,-100,4,3,0,30,0,1
189786,-100,4,3,0,30,0,0
219036,-100,4,3,0,30,0,1
227786,-100,4,3,0,30,0,0
228036,-100,4,3,0,30,0,1
245036,-100,4,3,0,30,0,0
269036,-100,4,3,0,30,0,1
272536,-100,4,3,0,30,0,0
273036,-100,4,3,0,30,0,1
277036,-100,4,3,0,30,0,0
285536,-100,4,3,0,30,0,1
291161,-100,4,3,0,30,0,0
291911,-100,4,3,0,30,0,1
297536,-100,4,3,0,30,0,0
316286,-100,4,3,0,30,0,1
324286,-100,4,3,0,30,0,0

[HitObjects]
64,192,36,5,0,0:0:0:0:
192,192,36,1,0,0:0:0:0:
448,192,36,1,0,0:0:0:0:
320,192,98,1,0,0:0:0:0:
448,192,161,1,0,0:0:0:0:
192,192,223,1,0,0:0:0:0:
320,192,286,1,0,0:0:0:0:
448,192,348,1,0,0:0:0:0:
192,192,411,1,0,0:0:0:0:
320,192,473,1,0,0:0:0:0:
64,192,536,1,0,0:0:0:0:
448,192,536,1,0,0:0:0:0:
64,192,661,1,0,0:0:0:0:
448,192,661,1,0,0:0:0:0:
64,192,786,1,0,0:0:0:0:
448,192,786,1,0,0:0:0:0:
64,192,1036,1,0,0:0:0:0:
320,192,1036,1,0,0:0:0:0:
448,192,1036,1,0,0:0:0:0:
192,192,1286,1,0,0:0:0:0:
448,192,1286,1,0,0:0:0:0:
320,192,1348,1,0,0:0:0:0:
192,192,1411,1,0,0:0:0:0:
320,192,1473,1,0,0:0:0:0:
64,192,1536,1,0,0:0:0:0:
192,192,1536,1,0,0:0:0:0:
448,192,1536,1,0,0:0:0:0:
64,192,1786,1,0,0:0:0:0:
320,192,1786,1,0,0:0:0:0:
192,192,1911,1,0,0:0:0:0:
448,192,1911,1,0,0:0:0:0:
64,192,2036,1,0,0:0:0:0:
320,192,2036,1,0,0:0:0:0:
448,192,2036,1,0,0:0:0:0:
192,192,2286,1,0,0:0:0:0:
64,192,2349,1,0,0:0:0:0:
320,192,2411,1,0,0:0:0:0:
192,192,2474,1,0,0:0:0:0:
64,192,2536,1,0,0:0:0:0:
448,192,2536,1,0,0:0:0:0:
64,192,2661,1,0,0:0:0:0:
448,192,2661,1,0,0:0:0:0:
192,192,2786,1,0,0:0:0:0:
320,192,2786,1,0,0:0:0:0:
448,192,2849,1,0,0:0:0:0:
320,192,2911,1,0,0:0:0:0:
448,192,2974,1,0,0:0:0:0:
64,192,3036,1,0,0:0:0:0:
320,192,3036,1,0,0:0:0:0:
64,192,3161,1,0,0:0:0:0:
320,192,3161,1,0,0:0:0:0:
192,192,3286,1,0,0:0:0:0:
448,192,3286,1,0,0:0:0:0:
192,192,3411,1,0,0:0:0:0:
448,192,3411,1,0,0:0:0:0:
64,192,3536,128,0,4036:0:0:0:0:
192,192,3536,1,0,0:0:0:0:
320,192,3536,1,0,0:0:0:0:
192,192,4036,1,0,0:0:0:0:
320,192,4036,128,0,4536:0:0:0:0:
448,192,4036,1,0,0:0:0:0:
448,192,4286,1,0,0:0:0:0:
192,192,4349,1,0,0:0:0:0:
64,192,4411,1,0,0:0:0:0:
192,192,4474,1,0,0:0:0:0:
64,192,4536,1,0,0:0:0:0:
448,192,4536,128,0,4974:0:0:0:0:
192,192,4661,1,0,0:0:0:0:
320,192,4661,1,0,0:0:0:0:
64,192,4786,1,0,0:0:0:0:
320,192,4786,1,0,0:0:0:0:
64,192,5036,1,0,0:0:0:0:
192,192,5036,1,0,0:0:0:0:
448,192,5036,128,0,5536:0:0:0:0:
64,192,5286,1,0,0:0:0:0:
192,192,5349,1,0,0:0:0:0:
320,192,5411,1,0,0:0:0:0:
64,192,5474,1,0,0:0:0:0:
192,192,5536,128,0,5786:0:0:0:0:
320,192,5536,1,0,0:0:0:0:
64,192,5786,128,0,6036:0:0:0:0:
448,192,5786,1,0,0:0:0:0:
448,192,6036,1,0,0:0:0:0:
320,192,6099,1,0,0:0:0:0:
192,192,6161,1,0,0:0:0:0:
320,192,6224,1,0,0:0:0:0:
192,192,6286,1,0,0:0:0:0:
64,192,6349,1,0,0:0:0:0:
320,192,6411,1,0,0:0:0:0:
448,192,6474,1,0,0:0:0:0:
64,192,6536,1,0,0:0:0:0:
320,192,6536,1,0,0:0:0:0:
192,192,6786,1,0,0:0:0:0:
448,192,6786,1,0,0:0:0:0:
192,192,6911,1,0,0:0:0:0:
320,192,6911,1,0,0:0:0:0:
64,192,7036,1,0,0:0:0:0:
320,192,7036,128,0,7786:0:0:0:0:
448,192,7036,128,0,7786:0:0:0:0:
64,192,7786,1,0,0:0:0:0:
192,192,7786,1,0,0:0:0:0:
192,192,7911,1,0,0:0:0:0:
320,192,7911,1,0,0:0:0:0:
64,192,8036,1,0,0:0:0:0:
320,192,8036,1,0,0:0:0:0:
448,192,8036,1,0,0:0:0:0:
192,192,8099,1,0,0:0:0:0:
448,192,8161,1,0,0:0:0:0:
192,192,8224,1,0,0:0:0:0:
64,192,8286,1,0,0:0:0:0:
192,192,8349,1,0,0:0:0:0:
320,192,8411,1,0,0:0:0:0:
448,192,8411,1,0,0:0:0:0:
64,192,8474,1,0,0:0:0:0:
192,192,8536,1,0,0:0:0:0:
448,192,8536,1,0,0:0:0:0:
64,192,8599,1,0,0:0:0:0:
320,192,8661,1,0,0:0:0:0:
448,192,8661,1,0,0:0:0:0:
192,192,8724,1,0,0:0:0:0:
64,192,8786,1,0,0:0:0:0:
320,192,8786,1,0,0:0:0:0:
448,192,8849,1,0,0:0:0:0:
192,192,8911,1,0,0:0:0:0:
64,192,8974,1,0,0:0:0:0:
192,192,9036,1,0,0:0:0:0:
448,192,9036,1,0,0:0:0:0:
320,192,9099,1,0,0:0:0:0:
64,192,9161,1,0,0:0:0:0:
192,192,9161,1,0,0:0:0:0:
320,192,9224,1,0,0:0:0:0:
448,192,9224,1,0,0:0:0:0:
64,192,9286,1,0,0:0:0:0:
192,192,9286,1,0,0:0:0:0:
320,192,9349,1,0,0:0:0:0:
448,192,9349,1,0,0:0:0:0:
64,192,9411,1,0,0:0:0:0:
192,192,9411,1,0,0:0:0:0:
320,192,9474,1,0,0:0:0:0:
448,192,9474,1,0,0:0:0:0:
64,192,9536,1,0,0:0:0:0:
192,192,9536,1,0,0:0:0:0:
320,192,9599,1,0,0:0:0:0:
64,192,9661,1,0,0:0:0:0:
320,192,9724,1,0,0:0:0:0:
448,192,9786,1,0,0:0:0:0:
192,192,9849,1,0,0:0:0:0:
64,192,9911,1,0,0:0:0:0:
320,192,9911,1,0,0:0:0:0:
448,192,9911,1,0,0:0:0:0:
192,192,9974,1,0,0:0:0:0:
320,192,10036,1,0,0:0:0:0:
64,192,10099,1,0,0:0:0:0:
192,192,10161,1,0,0:0:0:0:
64,192,10224,1,0,0:0:0:0:
320,192,10286,1,0,0:0:0:0:
448,192,10286,1,0,0:0:0:0:
192,192,10349,1,0,0:0:0:0:
64,192,10411,1,0,0:0:0:0:
448,192,10474,1,0,0:0:0:0:
320,192,10536,1,0,0:0:0:0:
448,192,10599,1,0,0:0:0:0:
64,192,10661,1,0,0:0:0:0:
192,192,10661,1,0,0:0:0:0:
320,192,10724,1,0,0:0:0:0:
192,192,10786,1,0,0:0:0:0:
64,192,10849,1,0,0:0:0:0:
448,192,10911,1,0,0:0:0:0:
64,192,10974,1,0,0:0:0:0:
192,192,11036,1,0,0:0:0:0:
320,192,11036,1,0,0:0:0:0:
448,192,11036,1,0,0:0:0:0:
64,192,11161,1,0,0:0:0:0:
320,192,11161,1,0,0:0:0:0:
192,192,11286,1,0,0:0:0:0:
320,192,11411,1,0,0:0:0:0:
448,192,11411,1,0,0:0:0:0:
192,192,11474,1,0,0:0:0:0:
448,192,11536,1,0,0:0:0:0:
192,192,11599,1,0,0:0:0:0:
448,192,11661,1,0,0:0:0:0:
192,192,11724,1,0,0:0:0:0:
64,192,11786,1,0,0:0:0:0:
320,192,11786,1,0,0:0:0:0:
192,192,11911,1,0,0:0:0:0:
448,192,11911,1,0,0:0:0:0:
320,192,12036,1,0,0:0:0:0:
64,192,12161,1,0,0:0:0:0:
192,192,12161,1,0,0:0:0:0:
448,192,12224,1,0,0:0:0:0:
64,192,12286,1,0,0:0:0:0:
448,192,12349,1,0,0:0:0:0:
64,192,12411,1,0,0:0:0:0:
448,192,12474,1,0,0:0:0:0:
192,192,12536,1,0,0:0:0:0:
320,192,12536,1,0,0:0:0:0:
64,192,12599,1,0,0:0:0:0:
192,192,12661,1,0,0:0:0:0:
448,192,12661,1,0,0:0:0:0:
64,192,12724,1,0,0:0:0:0:
192,192,12786,1,0,0:0:0:0:
320,192,12786,1,0,0:0:0:0:
448,192,12849,1,0,0:0:0:0:
64,192,12911,1,0,0:0:0:0:
320,192,12911,1,0,0:0:0:0:
64,192,13036,1,0,0:0:0:0:
448,192,13036,1,0,0:0:0:0:
64,192,13161,1,0,0:0:0:0:
448,192,13161,1,0,0:0:0:0:
192,192,13286,1,0,0:0:0:0:
320,192,13286,1,0,0:0:0:0:
448,192,13286,1,0,0:0:0:0:
64,192,13411,1,0,0:0:0:0:
320,192,13411,1,0,0:0:0:0:
64,192,13536,1,0,0:0:0:0:
320,192,13536,1,0,0:0:0:0:
64,192,13661,1,0,0:0:0:0:
448,192,13661,128,0,14036:0:0:0:0:
64,192,14036,1,0,0:0:0:0:
320,192,14099,1,0,0:0:0:0:
64,192,14161,1,0,0:0:0:0:
448,192,14224,1,0,0:0:0:0:
192,192,14286,1,0,0:0:0:0:
448,192,14349,1,0,0:0:0:0:
64,192,14411,1,0,0:0:0:0:
320,192,14411,1,0,0:0:0:0:
192,192,14474,1,0,0:0:0:0:
320,192,14536,1,0,0:0:0:0:
64,192,14599,1,0,0:0:0:0:
448,192,14661,1,0,0:0:0:0:
320,192,14724,1,0,0:0:0:0:
64,192,14786,1,0,0:0:0:0:
192,192,14786,1,0,0:0:0:0:
448,192,14849,1,0,0:0:0:0:
64,192,14911,1,0,0:0:0:0:
320,192,14911,1,0,0:0:0:0:
448,192,14974,1,0,0:0:0:0:
64,192,15036,1,0,0:0:0:0:
192,192,15036,1,0,0:0:0:0:
320,192,15099,1,0,0:0:0:0:
192,192,15161,1,0,0:0:0:0:
448,192,15161,1,0,0:0:0:0:
64,192,15224,1,0,0:0:0:0:
320,192,15286,1,0,0:0:0:0:
192,192,15349,1,0,0:0:0:0:
448,192,15411,1,0,0:0:0:0:
192,192,15474,1,0,0:0:0:0:
64,192,15536,1,0,0:0:0:0:
320,192,15536,1,0,0:0:0:0:
448,192,15599,1,0,0:0:0:0:
192,192,15661,1,0,0:0:0:0:
448,192,15724,1,0,0:0:0:0:
64,192,15786,1,0,0:0:0:0:
448,192,15849,1,0,0:0:0:0:
192,192,15911,1,0,0:0:0:0:
320,192,15911,1,0,0:0:0:0:
64,192,15973,1,0,0:0:0:0:
448,192,16036,1,0,0:0:0:0:
320,192,16098,1,0,0:0:0:0:
64,192,16161,1,0,0:0:0:0:
192,192,16223,1,0,0:0:0:0:
320,192,16286,1,0,0:0:0:0:
448,192,16348,1,0,0:0:0:0:
64,192,16411,1,0,0:0:0:0:
192,192,16411,1,0,0:0:0:0:
320,192,16411,1,0,0:0:0:0:
448,192,16474,1,0,0:0:0:0:
320,192,16536,1,0,0:0:0:0:
192,192,16599,1,0,0:0:0:0:
64,192,16661,1,0,0:0:0:0:
320,192,16661,1,0,0:0:0:0:
448,192,16661,1,0,0:0:0:0:
192,192,16724,1,0,0:0:0:0:
320,192,16786,1,0,0:0:0:0:
448,192,16786,1,0,0:0:0:0:
192,192,16849,1,0,0:0:0:0:
64,192,16911,1,0,0:0:0:0:
320,192,16911,1,0,0:0:0:0:
448,192,16911,1,0,0:0:0:0:
192,192,16974,1,0,0:0:0:0:
320,192,17036,1,0,0:0:0:0:
448,192,17036,1,0,0:0:0:0:
64,192,17099,1,0,0:0:0:0:
192,192,17161,1,0,0:0:0:0:
320,192,17161,1,0,0:0:0:0:
448,192,17161,1,0,0:0:0:0:
64,192,17224,1,0,0:0:0:0:
192,192,17286,1,0,0:0:0:0:
448,192,17286,1,0,0:0:0:0:
320,192,17349,1,0,0:0:0:0:
64,192,17411,1,0,0:0:0:0:
192,192,17411,1,0,0:0:0:0:
448,192,17411,1,0,0:0:0:0:
64,192,17536,1,0,0:0:0:0:
320,192,17536,1,0,0:0:0:0:
192,192,17661,1,0,0:0:0:0:
320,192,17786,1,0,0:0:0:0:
448,192,17786,1,0,0:0:0:0:
192,192,17849,1,0,0:0:0:0:
320,192,17911,1,0,0:0:0:0:
192,192,17974,1,0,0:0:0:0:
320,192,18036,1,0,0:0:0:0:
192,192,18099,1,0,0:0:0:0:
64,192,18161,1,0,0:0:0:0:
448,192,18161,1,0,0:0:0:0:
192,192,18286,1,0,0:0:0:0:
448,192,18286,1,0,0:0:0:0:
320,192,18411,1,0,0:0:0:0:
64,192,18536,1,0,0:0:0:0:
192,192,18536,1,0,0:0:0:0:
320,192,18599,1,0,0:0:0:0:
64,192,18661,1,0,0:0:0:0:
320,192,18724,1,0,0:0:0:0:
192,192,18786,1,0,0:0:0:0:
448,192,18786,1,0,0:0:0:0:
64,192,18849,1,0,0:0:0:0:
320,192,18911,1,0,0:0:0:0:
448,192,18911,1,0,0:0:0:0:
64,192,18974,1,0,0:0:0:0:
192,192,19036,1,0,0:0:0:0:
448,192,19036,1,0,0:0:0:0:
64,192,19099,1,0,0:0:0:0:
320,192,19161,1,0,0:0:0:0:
448,192,19161,1,0,0:0:0:0:
64,192,19224,1,0,0:0:0:0:
192,192,19286,1,0,0:0:0:0:
320,192,19286,1,0,0:0:0:0:
448,192,19349,1,0,0:0:0:0:
320,192,19411,1,0,0:0:0:0:
64,192,19474,1,0,0:0:0:0:
448,192,19536,1,0,0:0:0:0:
192,192,19599,1,0,0:0:0:0:
64,192,19661,1,0,0:0:0:0:
320,192,19661,1,0,0:0:0:0:
448,192,19661,1,0,0:0:0:0:
64,192,19786,1,0,0:0:0:0:
192,192,19786,1,0,0:0:0:0:
64,192,19911,1,0,0:0:0:0:
192,192,19911,1,0,0:0:0:0:
64,192,20036,1,0,0:0:0:0:
320,192,20036,128,0,20411:0:0:0:0:
192,192,20411,1,0,0:0:0:0:
448,192,20411,1,0,0:0:0:0:
192,192,20536,1,0,0:0:0:0:
320,192,20536,1,0,0:0:0:0:
192,192,20661,1,0,0:0:0:0:
448,192,20661,1,0,0:0:0:0:
64,192,20786,1,0,0:0:0:0:
192,192,20786,1,0,0:0:0:0:
320,192,20786,1,0,0:0:0:0:
448,192,20849,1,0,0:0:0:0:
320,192,20911,1,0,0:0:0:0:
64,192,20974,1,0,0:0:0:0:
192,192,21036,1,0,0:0:0:0:
448,192,21099,1,0,0:0:0:0:
192,192,21161,1,0,0:0:0:0:
320,192,21224,1,0,0:0:0:0:
64,192,21286,1,0,0:0:0:0:
448,192,21286,1,0,0:0:0:0:
192,192,21349,1,0,0:0:0:0:
64,192,21411,1,0,0:0:0:0:
320,192,21474,1,0,0:0:0:0:
448,192,21536,1,0,0:0:0:0:
192,192,21599,1,0,0:0:0:0:
448,192,21661,1,0,0:0:0:0:
320,192,21724,1,0,0:0:0:0:
64,192,21786,1,0,0:0:0:0:
192,192,21786,1,0,0:0:0:0:
448,192,21849,1,0,0:0:0:0:
320,192,21911,1,0,0:0:0:0:
64,192,21974,1,0,0:0:0:0:
192,192,22036,1,0,0:0:0:0:
448,192,22099,1,0,0:0:0:0:
192,192,22161,1,0,0:0:0:0:
320,192,22224,1,0,0:0:0:0:
64,192,22286,1,0,0:0:0:0:
448,192,22286,1,0,0:0:0:0:
192,192,22349,1,0,0:0:0:0:
64,192,22411,1,0,0:0:0:0:
448,192,22474,1,0,0:0:0:0:
64,192,22536,1,0,0:0:0:0:
320,192,22536,1,0,0:0:0:0:
192,192,22599,1,0,0:0:0:0:
320,192,22661,1,0,0:0:0:0:
64,192,22724,1,0,0:0:0:0:
192,192,22786,1,0,0:0:0:0:
448,192,22786,1,0,0:0:0:0:
320,192,22849,1,0,0:0:0:0:
192,192,22911,1,0,0:0:0:0:
448,192,22974,1,0,0:0:0:0:
64,192,23036,1,0,0:0:0:0:
320,192,23036,1,0,0:0:0:0:
192,192,23099,1,0,0:0:0:0:
64,192,23161,1,0,0:0:0:0:
320,192,23224,1,0,0:0:0:0:
192,192,23286,1,0,0:0:0:0:
448,192,23286,1,0,0:0:0:0:
320,192,23349,1,0,0:0:0:0:
448,192,23411,1,0,0:0:0:0:
64,192,23474,1,0,0:0:0:0:
192,192,23536,1,0,0:0:0:0:
320,192,23599,1,0,0:0:0:0:
192,192,23661,1,0,0:0:0:0:
448,192,23724,1,0,0:0:0:0:
64,192,23786,1,0,0:0:0:0:
192,192,23786,1,0,0:0:0:0:
320,192,23849,1,0,0:0:0:0:
448,192,23911,1,0,0:0:0:0:
320,192,23974,1,0,0:0:0:0:
192,192,24036,1,0,0:0:0:0:
448,192,24099,1,0,0:0:0:0:
192,192,24161,1,0,0:0:0:0:
64,192,24224,1,0,0:0:0:0:
192,192,24286,1,0,0:0:0:0:
448,192,24286,1,0,0:0:0:0:
320,192,24349,1,0,0:0:0:0:
64,192,24411,1,0,0:0:0:0:
192,192,24474,1,0,0:0:0:0:
320,192,24536,1,0,0:0:0:0:
448,192,24536,1,0,0:0:0:0:
192,192,24599,1,0,0:0:0:0:
64,192,24661,1,0,0:0:0:0:
320,192,24724,1,0,0:0:0:0:
64,192,24786,1,0,0:0:0:0:
192,192,24786,1,0,0:0:0:0:
448,192,24786,1,0,0:0:0:0:
320,192,24849,1,0,0:0:0:0:
192,192,24911,1,0,0:0:0:0:
448,192,24974,1,0,0:0:0:0:
64,192,25036,1,0,0:0:0:0:
320,192,25099,1,0,0:0:0:0:
64,192,25161,1,0,0:0:0:0:
448,192,25224,1,0,0:0:0:0:
192,192,25286,1,0,0:0:0:0:
320,192,25286,1,0,0:0:0:0:
64,192,25349,1,0,0:0:0:0:
320,192,25411,1,0,0:0:0:0:
192,192,25474,1,0,0:0:0:0:
64,192,25536,1,0,0:0:0:0:
448,192,25536,1,0,0:0:0:0:
192,192,25599,1,0,0:0:0:0:
448,192,25661,1,0,0:0:0:0:
64,192,25724,1,0,0:0:0:0:
192,192,25786,1,0,0:0:0:0:
320,192,25786,1,0,0:0:0:0:
448,192,25849,1,0,0:0:0:0:
320,192,25911,1,0,0:0:0:0:
64,192,25974,1,0,0:0:0:0:
192,192,26036,1,0,0:0:0:0:
448,192,26099,1,0,0:0:0:0:
192,192,26161,1,0,0:0:0:0:
64,192,26224,1,0,0:0:0:0:
320,192,26286,1,0,0:0:0:0:
448,192,26286,1,0,0:0:0:0:
192,192,26349,1,0,0:0:0:0:
320,192,26411,1,0,0:0:0:0:
64,192,26474,1,0,0:0:0:0:
192,192,26536,1,0,0:0:0:0:
448,192,26536,1,0,0:0:0:0:
320,192,26599,1,0,0:0:0:0:
192,192,26661,1,0,0:0:0:0:
64,192,26724,1,0,0:0:0:0:
192,192,26786,1,0,0:0:0:0:
320,192,26786,1,0,0:0:0:0:
448,192,26786,1,0,0:0:0:0:
64,192,26849,1,0,0:0:0:0:
320,192,26911,1,0,0:0:0:0:
448,192,26974,1,0,0:0:0:0:
64,192,27036,1,0,0:0:0:0:
192,192,27036,1,0,0:0:0:0:
320,192,27099,1,0,0:0:0:0:
64,192,27161,1,0,0:0:0:0:
448,192,27224,1,0,0:0:0:0:
192,192,27286,1,0,0:0:0:0:
320,192,27286,1,0,0:0:0:0:
64,192,27349,1,0,0:0:0:0:
448,192,27411,1,0,0:0:0:0:
192,192,27474,1,0,0:0:0:0:
320,192,27536,1,0,0:0:0:0:
64,192,27599,1,0,0:0:0:0:
320,192,27661,1,0,0:0:0:0:
192,192,27724,1,0,0:0:0:0:
320,192,27786,1,0,0:0:0:0:
448,192,27786,1,0,0:0:0:0:
64,192,27849,1,0,0:0:0:0:
192,192,27911,1,0,0:0:0:0:
448,192,27974,1,0,0:0:0:0:
64,192,28036,1,0,0:0:0:0:
320,192,28099,1,0,0:0:0:0:
64,192,28161,1,0,0:0:0:0:
192,192,28224,1,0,0:0:0:0:
64,192,28286,1,0,0:0:0:0:
448,192,28286,1,0,0:0:0:0:
320,192,28349,1,0,0:0:0:0:
192,192,28411,1,0,0:0:0:0:
320,192,28474,1,0,0:0:0:0:
448,192,28536,1,0,0:0:0:0:
320,192,28599,1,0,0:0:0:0:
192,192,28661,1,0,0:0:0:0:
320,192,28724,1,0,0:0:0:0:
64,192,28786,128,0,29036:0:0:0:0:
192,192,28786,1,0,0:0:0:0:
448,192,28786,1,0,0:0:0:0:
320,192,29036,1,0,0:0:0:0:
448,192,29036,1,0,0:0:0:0:
64,192,29161,1,0,0:0:0:0:
192,192,29161,1,0,0:0:0:0:
64,192,29286,1,0,0:0:0:0:
320,192,29286,1,0,0:0:0:0:
448,192,29286,1,0,0:0:0:0:
192,192,29411,1,0,0:0:0:0:
320,192,29411,1,0,0:0:0:0:
64,192,29536,1,0,0:0:0:0:
192,192,29536,1,0,0:0:0:0:
448,192,29536,1,0,0:0:0:0:
64,192,29661,1,0,0:0:0:0:
320,192,29661,1,0,0:0:0:0:
192,192,29786,1,0,0:0:0:0:
448,192,29786,1,0,0:0:0:0:
320,192,29849,1,0,0:0:0:0:
64,192,29911,1,0,0:0:0:0:
192,192,29974,1,0,0:0:0:0:
64,192,30036,1,0,0:0:0:0:
320,192,30036,1,0,0:0:0:0:
448,192,30036,1,0,0:0:0:0:
192,192,30161,1,0,0:0:0:0:
320,192,30161,1,0,0:0:0:0:
448,192,30161,1,0,0:0:0:0:
64,192,30286,1,0,0:0:0:0:
320,192,30286,1,0,0:0:0:0:
192,192,30349,1,0,0:0:0:0:
448,192,30411,1,0,0:0:0:0:
320,192,30474,1,0,0:0:0:0:
64,192,30536,1,0,0:0:0:0:
192,192,30536,1,0,0:0:0:0:
448,192,30599,1,0,0:0:0:0:
192,192,30661,1,0,0:0:0:0:
320,192,30724,1,0,0:0:0:0:
64,192,30786,1,0,0:0:0:0:
192,192,30786,1,0,0:0:0:0:
320,192,30849,1,0,0:0:0:0:
64,192,30911,1,0,0:0:0:0:
448,192,30911,1,0,0:0:0:0:
192,192,30974,1,0,0:0:0:0:
320,192,31036,1,0,0:0:0:0:
448,192,31036,1,0,0:0:0:0:
64,192,31099,1,0,0:0:0:0:
192,192,31161,1,0,0:0:0:0:
320,192,31161,1,0,0:0:0:0:
448,192,31224,1,0,0:0:0:0:
64,192,31286,1,0,0:0:0:0:
320,192,31286,1,0,0:0:0:0:
192,192,31349,1,0,0:0:0:0:
64,192,31411,1,0,0:0:0:0:
448,192,31411,1,0,0:0:0:0:
320,192,31474,1,0,0:0:0:0:
64,192,31536,1,0,0:0:0:0:
192,192,31536,1,0,0:0:0:0:
448,192,31599,1,0,0:0:0:0:
192,192,31661,1,0,0:0:0:0:
320,192,31661,1,0,0:0:0:0:
64,192,31724,1,0,0:0:0:0:
320,192,31786,1,0,0:0:0:0:
448,192,31786,1,0,0:0:0:0:
64,192,31849,1,0,0:0:0:0:
192,192,31911,1,0,0:0:0:0:
320,192,31911,1,0,0:0:0:0:
448,192,31974,1,0,0:0:0:0:
64,192,32036,1,0,0:0:0:0:
192,192,32036,1,0,0:0:0:0:
320,192,32099,1,0,0:0:0:0:
64,192,32161,1,0,0:0:0:0:
448,192,32161,1,0,0:0:0:0:
192,192,32224,1,0,0:0:0:0:
320,192,32286,1,0,0:0:0:0:
448,192,32286,1,0,0:0:0:0:
192,192,32349,1,0,0:0:0:0:
64,192,32411,1,0,0:0:0:0:
448,192,32411,1,0,0:0:0:0:
320,192,32474,1,0,0:0:0:0:
64,192,32536,1,0,0:0:0:0:
192,192,32536,1,0,0:0:0:0:
448,192,32536,1,0,0:0:0:0:
320,192,32599,1,0,0:0:0:0:
64,192,32661,1,0,0:0:0:0:
192,192,32661,1,0,0:0:0:0:
448,192,32724,1,0,0:0:0:0:
64,192,32786,1,0,0:0:0:0:
192,192,32786,1,0,0:0:0:0:
320,192,32786,1,0,0:0:0:0:
448,192,32849,1,0,0:0:0:0:
320,192,32911,1,0,0:0:0:0:
192,192,32974,1,0,0:0:0:0:
64,192,33036,1,0,0:0:0:0:
320,192,33099,1,0,0:0:0:0:
64,192,33161,1,0,0:0:0:0:
448,192,33224,1,0,0:0:0:0:
192,192,33286,1,0,0:0:0:0:
320,192,33286,1,0,0:0:0:0:
64,192,33349,1,0,0:0:0:0:
192,192,33411,1,0,0:0:0:0:
320,192,33474,1,0,0:0:0:0:
448,192,33536,1,0,0:0:0:0:
192,192,33599,1,0,0:0:0:0:
448,192,33661,1,0,0:0:0:0:
64,192,33724,1,0,0:0:0:0:
192,192,33786,1,0,0:0:0:0:
320,192,33786,1,0,0:0:0:0:
448,192,33849,1,0,0:0:0:0:
192,192,33911,1,0,0:0:0:0:
320,192,33974,1,0,0:0:0:0:
64,192,34036,1,0,0:0:0:0:
192,192,34099,1,0,0:0:0:0:
64,192,34161,1,0,0:0:0:0:
320,192,34224,1,0,0:0:0:0:
192,192,34286,1,0,0:0:0:0:
448,192,34286,1,0,0:0:0:0:
64,192,34349,1,0,0:0:0:0:
448,192,34411,1,0,0:0:0:0:
320,192,34474,1,0,0:0:0:0:
64,192,34536,1,0,0:0:0:0:
192,192,34536,1,0,0:0:0:0:
448,192,34599,1,0,0:0:0:0:
320,192,34661,1,0,0:0:0:0:
448,192,34724,1,0,0:0:0:0:
64,192,34786,1,0,0:0:0:0:
192,192,34786,1,0,0:0:0:0:
320,192,34786,1,0,0:0:0:0:
448,192,34849,1,0,0:0:0:0:
64,192,34911,1,0,0:0:0:0:
192,192,34911,1,0,0:0:0:0:
320,192,34974,1,0,0:0:0:0:
192,192,35036,1,0,0:0:0:0:
448,192,35036,1,0,0:0:0:0:
64,192,35099,1,0,0:0:0:0:
320,192,35161,1,0,0:0:0:0:
448,192,35161,1,0,0:0:0:0:
192,192,35224,1,0,0:0:0:0:
64,192,35286,1,0,0:0:0:0:
320,192,35286,1,0,0:0:0:0:
448,192,35349,1,0,0:0:0:0:
64,192,35411,1,0,0:0:0:0:
192,192,35411,1,0,0:0:0:0:
320,192,35474,1,0,0:0:0:0:
64,192,35536,1,0,0:0:0:0:
448,192,35536,1,0,0:0:0:0:
192,192,35599,1,0,0:0:0:0:
320,192,35661,1,0,0:0:0:0:
448,192,35661,1,0,0:0:0:0:
64,192,35724,1,0,0:0:0:0:
192,192,35786,1,0,0:0:0:0:
320,192,35786,1,0,0:0:0:0:
448,192,35849,1,0,0:0:0:0:
64,192,35911,1,0,0:0:0:0:
192,192,35911,1,0,0:0:0:0:
320,192,35974,1,0,0:0:0:0:
192,192,36036,1,0,0:0:0:0:
448,192,36036,1,0,0:0:0:0:
64,192,36099,1,0,0:0:0:0:
320,192,36161,1,0,0:0:0:0:
448,192,36161,1,0,0:0:0:0:
192,192,36224,1,0,0:0:0:0:
64,192,36286,1,0,0:0:0:0:
320,192,36286,1,0,0:0:0:0:
448,192,36349,1,0,0:0:0:0:
64,192,36411,1,0,0:0:0:0:
192,192,36411,1,0,0:0:0:0:
320,192,36474,1,0,0:0:0:0:
64,192,36536,1,0,0:0:0:0:
448,192,36536,1,0,0:0:0:0:
192,192,36599,1,0,0:0:0:0:
320,192,36661,1,0,0:0:0:0:
448,192,36661,1,0,0:0:0:0:
64,192,36724,1,0,0:0:0:0:
192,192,36786,1,0,0:0:0:0:
448,192,36786,1,0,0:0:0:0:
320,192,36911,1,0,0:0:0:0:
192,192,37036,1,0,0:0:0:0:
320,192,37161,1,0,0:0:0:0:
64,192,37286,1,0,0:0:0:0:
320,192,37411,1,0,0:0:0:0:
448,192,37536,1,0,0:0:0:0:
320,192,37661,1,0,0:0:0:0:
64,192,37786,1,0,0:0:0:0:
192,192,37786,1,0,0:0:0:0:
448,192,37786,1,0,0:0:0:0:
320,192,37911,1,0,0:0:0:0:
320,192,38036,1,0,0:0:0:0:
64,192,38161,1,0,0:0:0:0:
192,192,38161,1,0,0:0:0:0:
448,192,38286,1,0,0:0:0:0:
448,192,38411,1,0,0:0:0:0:
64,192,38536,1,0,0:0:0:0:
192,192,38536,1,0,0:0:0:0:
320,192,38661,1,0,0:0:0:0:
320,192,38786,1,0,0:0:0:0:
192,192,38849,1,0,0:0:0:0:
64,192,38911,1,0,0:0:0:0:
192,192,38974,1,0,0:0:0:0:
64,192,39036,1,0,0:0:0:0:
320,192,39036,1,0,0:0:0:0:
448,192,39036,1,0,0:0:0:0:
64,192,39161,1,0,0:0:0:0:
192,192,39161,1,0,0:0:0:0:
448,192,39161,1,0,0:0:0:0:
320,192,39286,1,0,0:0:0:0:
448,192,39286,1,0,0:0:0:0:
64,192,39349,1,0,0:0:0:0:
320,192,39411,1,0,0:0:0:0:
448,192,39411,1,0,0:0:0:0:
64,192,39474,1,0,0:0:0:0:
192,192,39536,1,0,0:0:0:0:
448,192,39536,1,0,0:0:0:0:
320,192,39536,1,0,0:0:0:0:
320,192,39661,1,0,0:0:0:0:
192,192,39661,1,0,0:0:0:0:
64,192,39661,1,0,0:0:0:0:
320,192,40036,1,0,0:0:0:0:
64,192,40286,1,0,0:0:0:0:
192,192,40349,1,0,0:0:0:0:
448,192,40411,1,0,0:0:0:0:
320,192,40474,1,0,0:0:0:0:
64,192,40536,1,0,0:0:0:0:
192,192,40536,1,0,0:0:0:0:
448,192,40536,1,0,0:0:0:0:
64,192,40661,1,0,0:0:0:0:
320,192,40661,1,0,0:0:0:0:
192,192,40786,128,0,41036:0:0:0:0:
320,192,40786,1,0,0:0:0:0:
448,192,40786,128,0,41036:0:0:0:0:
64,192,41036,1,0,0:0:0:0:
320,192,41036,1,0,0:0:0:0:
64,192,41161,1,0,0:0:0:0:
320,192,41161,1,0,0:0:0:0:
192,192,41286,1,0,0:0:0:0:
448,192,41286,1,0,0:0:0:0:
320,192,41411,1,0,0:0:0:0:
64,192,41536,1,0,0:0:0:0:
192,192,41536,1,0,0:0:0:0:
448,192,41536,1,0,0:0:0:0:
64,192,41661,1,0,0:0:0:0:
192,192,41661,1,0,0:0:0:0:
448,192,41661,1,0,0:0:0:0:
320,192,41786,1,0,0:0:0:0:
64,192,41849,1,0,0:0:0:0:
320,192,41911,1,0,0:0:0:0:
64,192,41974,1,0,0:0:0:0:
448,192,42036,1,0,0:0:0:0:
192,192,42036,1,0,0:0:0:0:
64,192,42161,1,0,0:0:0:0:
320,192,42161,1,0,0:0:0:0:
192,192,42286,1,0,0:0:0:0:
448,192,42349,1,0,0:0:0:0:
192,192,42411,1,0,0:0:0:0:
448,192,42474,1,0,0:0:0:0:
64,192,42536,128,0,42786:0:0:0:0:
320,192,42536,1,0,0:0:0:0:
192,192,42786,1,0,0:0:0:0:
320,192,42786,128,0,43036:0:0:0:0:
448,192,42786,128,0,43036:0:0:0:0:
64,192,43036,1,0,0:0:0:0:
192,192,43036,1,0,0:0:0:0:
64,192,43161,1,0,0:0:0:0:
192,192,43286,1,0,0:0:0:0:
320,192,43286,1,0,0:0:0:0:
448,192,43286,1,0,0:0:0:0:
64,192,43411,1,0,0:0:0:0:
192,192,43536,1,0,0:0:0:0:
320,192,43536,1,0,0:0:0:0:
448,192,43536,1,0,0:0:0:0:
64,192,43661,1,0,0:0:0:0:
320,192,43661,1,0,0:0:0:0:
448,192,43724,1,0,0:0:0:0:
192,192,43786,1,0,0:0:0:0:
320,192,43849,1,0,0:0:0:0:
64,192,43911,1,0,0:0:0:0:
448,192,43974,1,0,0:0:0:0:
64,192,44036,1,0,0:0:0:0:
192,192,44036,1,0,0:0:0:0:
320,192,44036,1,0,0:0:0:0:
64,192,44161,1,0,0:0:0:0:
320,192,44161,1,0,0:0:0:0:
448,192,44161,1,0,0:0:0:0:
192,192,44286,1,0,0:0:0:0:
320,192,44286,1,0,0:0:0:0:
448,192,44286,1,0,0:0:0:0:
64,192,44411,1,0,0:0:0:0:
192,192,44411,1,0,0:0:0:0:
448,192,44411,1,0,0:0:0:0:
320,192,44474,1,0,0:0:0:0:
192,192,44536,1,0,0:0:0:0:
448,192,44599,1,0,0:0:0:0:
64,192,44661,1,0,0:0:0:0:
192,192,44724,1,0,0:0:0:0:
320,192,44786,1,0,0:0:0:0:
448,192,44786,1,0,0:0:0:0:
192,192,45036,1,0,0:0:0:0:
320,192,45036,1,0,0:0:0:0:
448,192,45036,1,0,0:0:0:0:
64,192,45161,1,0,0:0:0:0:
192,192,45161,1,0,0:0:0:0:
320,192,45161,1,0,0:0:0:0:
64,192,45286,1,0,0:0:0:0:
192,192,45286,1,0,0:0:0:0:
448,192,45286,128,0,45536:0:0:0:0:
320,192,45411,1,0,0:0:0:0:
64,192,45536,1,0,0:0:0:0:
320,192,45661,1,0,0:0:0:0:
64,192,45786,1,0,0:0:0:0:
448,192,45786,1,0,0:0:0:0:
320,192,45911,1,0,0:0:0:0:
64,192,46036,1,0,0:0:0:0:
192,192,46036,1,0,0:0:0:0:
192,192,46161,1,0,0:0:0:0:
320,192,46161,1,0,0:0:0:0:
64,192,46286,1,0,0:0:0:0:
448,192,46286,1,0,0:0:0:0:
320,192,46349,1,0,0:0:0:0:
192,192,46411,1,0,0:0:0:0:
320,192,46474,1,0,0:0:0:0:
64,192,46536,1,0,0:0:0:0:
192,192,46536,1,0,0:0:0:0:
448,192,46536,1,0,0:0:0:0:
64,192,46661,1,0,0:0:0:0:
320,192,46661,1,0,0:0:0:0:
192,192,46786,1,0,0:0:0:0:
320,192,46849,1,0,0:0:0:0:
448,192,46911,1,0,0:0:0:0:
320,192,46974,1,0,0:0:0:0:
64,192,47036,1,0,0:0:0:0:
192,192,47036,1,0,0:0:0:0:
448,192,47036,1,0,0:0:0:0:
192,192,47161,1,0,0:0:0:0:
320,192,47161,1,0,0:0:0:0:
448,192,47161,1,0,0:0:0:0:
64,192,47286,128,0,47536:0:0:0:0:
192,192,47286,1,0,0:0:0:0:
320,192,47286,1,0,0:0:0:0:
320,192,47536,1,0,0:0:0:0:
320,192,47661,1,0,0:0:0:0:
192,192,47786,1,0,0:0:0:0:
448,192,47786,1,0,0:0:0:0:
448,192,47911,1,0,0:0:0:0:
64,192,48036,1,0,0:0:0:0:
320,192,48036,1,0,0:0:0:0:
320,192,48161,1,0,0:0:0:0:
192,192,48286,1,0,0:0:0:0:
448,192,48286,1,0,0:0:0:0:
192,192,48411,1,0,0:0:0:0:
64,192,48536,1,0,0:0:0:0:
320,192,48536,1,0,0:0:0:0:
192,192,48567,1,0,0:0:0:0:
448,192,48599,1,0,0:0:0:0:
320,192,48661,1,0,0:0:0:0:
64,192,48786,1,0,0:0:0:0:
192,192,48786,1,0,0:0:0:0:
192,192,48911,1,0,0:0:0:0:
448,192,49036,1,0,0:0:0:0:
192,192,49099,1,0,0:0:0:0:
320,192,49161,1,0,0:0:0:0:
448,192,49224,1,0,0:0:0:0:
64,192,49286,1,0,0:0:0:0:
320,192,49286,1,0,0:0:0:0:
192,192,49349,1,0,0:0:0:0:
64,192,49411,1,0,0:0:0:0:
448,192,49411,1,0,0:0:0:0:
320,192,49474,1,0,0:0:0:0:
64,192,49536,1,0,0:0:0:0:
192,192,49536,1,0,0:0:0:0:
448,192,49599,1,0,0:0:0:0:
192,192,49661,1,0,0:0:0:0:
320,192,49661,1,0,0:0:0:0:
448,192,49724,1,0,0:0:0:0:
64,192,49786,1,0,0:0:0:0:
320,192,49786,1,0,0:0:0:0:
192,192,49849,1,0,0:0:0:0:
320,192,49911,1,0,0:0:0:0:
448,192,49911,1,0,0:0:0:0:
64,192,49974,1,0,0:0:0:0:
192,192,50036,1,0,0:0:0:0:
448,192,50099,1,0,0:0:0:0:
64,192,50161,1,0,0:0:0:0:
320,192,50224,1,0,0:0:0:0:
192,192,50286,1,0,0:0:0:0:
448,192,50286,1,0,0:0:0:0:
64,192,50349,1,0,0:0:0:0:
192,192,50411,1,0,0:0:0:0:
320,192,50411,1,0,0:0:0:0:
64,192,50474,1,0,0:0:0:0:
192,192,50536,1,0,0:0:0:0:
448,192,50536,1,0,0:0:0:0:
320,192,50599,1,0,0:0:0:0:
64,192,50661,1,0,0:0:0:0:
192,192,50661,1,0,0:0:0:0:
320,192,50724,1,0,0:0:0:0:
64,192,50786,1,0,0:0:0:0:
448,192,50786,1,0,0:0:0:0:
192,192,50849,1,0,0:0:0:0:
320,192,50911,1,0,0:0:0:0:
448,192,50911,1,0,0:0:0:0:
192,192,50974,1,0,0:0:0:0:
64,192,51036,1,0,0:0:0:0:
448,192,51036,1,0,0:0:0:0:
64,192,51161,1,0,0:0:0:0:
448,192,51161,1,0,0:0:0:0:
64,192,51286,128,0,51536:0:0:0:0:
192,192,51286,1,0,0:0:0:0:
320,192,51286,1,0,0:0:0:0:
448,192,51536,1,0,0:0:0:0:
192,192,51661,1,0,0:0:0:0:
320,192,51661,1,0,0:0:0:0:
64,192,51786,1,0,0:0:0:0:
192,192,51786,1,0,0:0:0:0:
448,192,51786,1,0,0:0:0:0:
320,192,51911,1,0,0:0:0:0:
64,192,52036,1,0,0:0:0:0:
192,192,52036,1,0,0:0:0:0:
64,192,52161,1,0,0:0:0:0:
192,192,52161,1,0,0:0:0:0:
320,192,52286,1,0,0:0:0:0:
192,192,52349,1,0,0:0:0:0:
448,192,52411,1,0,0:0:0:0:
320,192,52474,1,0,0:0:0:0:
64,192,52536,1,0,0:0:0:0:
192,192,52536,1,0,0:0:0:0:
448,192,52536,1,0,0:0:0:0:
64,192,52661,1,0,0:0:0:0:
320,192,52661,1,0,0:0:0:0:
448,192,52661,1,0,0:0:0:0:
192,192,52786,1,0,0:0:0:0:
320,192,52849,1,0,0:0:0:0:
64,192,52911,1,0,0:0:0:0:
192,192,52974,1,0,0:0:0:0:
64,192,53036,1,0,0:0:0:0:
320,192,53036,1,0,0:0:0:0:
448,192,53036,128,0,53286:0:0:0:0:
64,192,53286,128,0,53536:0:0:0:0:
192,192,53286,128,0,53536:0:0:0:0:
320,192,53286,1,0,0:0:0:0:
320,192,53536,1,0,0:0:0:0:
448,192,53536,1,0,0:0:0:0:
64,192,53661,1,0,0:0:0:0:
192,192,53786,1,0,0:0:0:0:
320,192,53786,1,0,0:0:0:0:
448,192,53786,1,0,0:0:0:0:
64,192,53911,1,0,0:0:0:0:
192,192,54036,1,0,0:0:0:0:
320,192,54036,1,0,0:0:0:0:
448,192,54036,1,0,0:0:0:0:
64,192,54161,1,0,0:0:0:0:
320,192,54161,1,0,0:0:0:0:
448,192,54224,1,0,0:0:0:0:
192,192,54286,1,0,0:0:0:0:
320,192,54349,1,0,0:0:0:0:
64,192,54411,1,0,0:0:0:0:
448,192,54474,1,0,0:0:0:0:
64,192,54536,1,0,0:0:0:0:
192,192,54536,1,0,0:0:0:0:
320,192,54536,1,0,0:0:0:0:
64,192,54661,1,0,0:0:0:0:
320,192,54661,1,0,0:0:0:0:
448,192,54661,1,0,0:0:0:0:
192,192,54786,1,0,0:0:0:0:
320,192,54786,1,0,0:0:0:0:
448,192,54786,1,0,0:0:0:0:
64,192,54911,1,0,0:0:0:0:
192,192,54911,1,0,0:0:0:0:
448,192,54911,1,0,0:0:0:0:
320,192,54974,1,0,0:0:0:0:
64,192,55036,1,0,0:0:0:0:
192,192,55036,1,0,0:0:0:0:
448,192,55099,1,0,0:0:0:0:
64,192,55161,1,0,0:0:0:0:
192,192,55161,1,0,0:0:0:0:
448,192,55224,1,0,0:0:0:0:
64,192,55286,1,0,0:0:0:0:
192,192,55286,1,0,0:0:0:0:
64,192,55536,1,0,0:0:0:0:
320,192,55536,1,0,0:0:0:0:
448,192,55536,1,0,0:0:0:0:
192,192,55661,1,0,0:0:0:0:
320,192,55661,1,0,0:0:0:0:
64,192,55786,1,0,0:0:0:0:
192,192,55786,1,0,0:0:0:0:
448,192,55786,128,0,56036:0:0:0:0:
320,192,55911,1,0,0:0:0:0:
64,192,56036,1,0,0:0:0:0:
192,192,56036,1,0,0:0:0:0:
320,192,56161,1,0,0:0:0:0:
192,192,56286,1,0,0:0:0:0:
448,192,56286,1,0,0:0:0:0:
320,192,56411,1,0,0:0:0:0:
64,192,56536,128,0,56786:0:0:0:0:
448,192,56536,1,0,0:0:0:0:
320,192,56661,1,0,0:0:0:0:
192,192,56786,1,0,0:0:0:0:
320,192,56849,1,0,0:0:0:0:
64,192,56911,1,0,0:0:0:0:
448,192,56974,1,0,0:0:0:0:
64,192,57036,1,0,0:0:0:0:
192,192,57036,1,0,0:0:0:0:
320,192,57036,1,0,0:0:0:0:
192,192,57161,1,0,0:0:0:0:
448,192,57161,1,0,0:0:0:0:
320,192,57286,1,0,0:0:0:0:
64,192,57349,1,0,0:0:0:0:
448,192,57411,1,0,0:0:0:0:
192,192,57474,1,0,0:0:0:0:
64,192,57536,1,0,0:0:0:0:
320,192,57536,1,0,0:0:0:0:
448,192,57536,1,0,0:0:0:0:
192,192,57661,1,0,0:0:0:0:
320,192,57661,1,0,0:0:0:0:
64,192,57786,1,0,0:0:0:0:
192,192,57786,1,0,0:0:0:0:
448,192,57786,128,0,58036:0:0:0:0:
320,192,58036,1,0,0:0:0:0:
320,192,58161,1,0,0:0:0:0:
64,192,58286,1,0,0:0:0:0:
192,192,58286,1,0,0:0:0:0:
192,192,58411,1,0,0:0:0:0:
64,192,58536,1,0,0:0:0:0:
320,192,58536,1,0,0:0:0:0:
320,192,58661,1,0,0:0:0:0:
192,192,58786,1,0,0:0:0:0:
448,192,58786,1,0,0:0:0:0:
448,192,58911,1,0,0:0:0:0:
64,192,59036,1,0,0:0:0:0:
320,192,59036,1,0,0:0:0:0:
192,192,59067,1,0,0:0:0:0:
448,192,59099,1,0,0:0:0:0:
64,192,59161,1,0,0:0:0:0:
192,192,59286,1,0,0:0:0:0:
448,192,59286,1,0,0:0:0:0:
192,192,59411,1,0,0:0:0:0:
320,192,59536,1,0,0:0:0:0:
192,192,59599,1,0,0:0:0:0:
320,192,59661,1,0,0:0:0:0:
64,192,59724,1,0,0:0:0:0:
192,192,59786,1,0,0:0:0:0:
320,192,59786,1,0,0:0:0:0:
448,192,59786,128,0,60099:0:0:0:0:
64,192,60161,1,0,0:0:0:0:
320,192,60161,1,0,0:0:0:0:
448,192,60161,128,0,60786:0:0:0:0:
192,192,60224,1,0,0:0:0:0:
64,192,60286,1,0,0:0:0:0:
192,192,60349,1,0,0:0:0:0:
64,192,60411,1,0,0:0:0:0:
192,192,60474,1,0,0:0:0:0:
64,192,60536,1,0,0:0:0:0:
320,192,60536,1,0,0:0:0:0:
64,192,60786,1,0,0:0:0:0:
320,192,60786,1,0,0:0:0:0:
192,192,60849,1,0,0:0:0:0:
320,192,60911,1,0,0:0:0:0:
64,192,60974,1,0,0:0:0:0:
320,192,61036,1,0,0:0:0:0:
192,192,61099,1,0,0:0:0:0:
320,192,61161,1,0,0:0:0:0:
64,192,61224,1,0,0:0:0:0:
448,192,61286,1,0,0:0:0:0:
192,192,61349,1,0,0:0:0:0:
320,192,61411,1,0,0:0:0:0:
64,192,61474,1,0,0:0:0:0:
320,192,61536,1,0,0:0:0:0:
192,192,61599,1,0,0:0:0:0:
64,192,61661,1,0,0:0:0:0:
448,192,61661,1,0,0:0:0:0:
192,192,61786,1,0,0:0:0:0:
320,192,61786,1,0,0:0:0:0:
448,192,61786,1,0,0:0:0:0:
64,192,61911,1,0,0:0:0:0:
320,192,61911,1,0,0:0:0:0:
64,192,62036,1,0,0:0:0:0:
320,192,62036,1,0,0:0:0:0:
448,192,62036,1,0,0:0:0:0:
192,192,62099,1,0,0:0:0:0:
320,192,62161,1,0,0:0:0:0:
64,192,62224,1,0,0:0:0:0:
320,192,62286,1,0,0:0:0:0:
192,192,62349,1,0,0:0:0:0:
320,192,62411,1,0,0:0:0:0:
64,192,62474,1,0,0:0:0:0:
192,192,62536,1,0,0:0:0:0:
448,192,62599,1,0,0:0:0:0:
320,192,62661,1,0,0:0:0:0:
192,192,62724,1,0,0:0:0:0:
320,192,62786,1,0,0:0:0:0:
448,192,62786,1,0,0:0:0:0:
64,192,62911,1,0,0:0:0:0:
192,192,62911,1,0,0:0:0:0:
64,192,63036,1,0,0:0:0:0:
320,192,63036,128,0,63286:0:0:0:0:
448,192,63036,1,0,0:0:0:0:
64,192,63286,1,0,0:0:0:0:
192,192,63286,1,0,0:0:0:0:
448,192,63349,1,0,0:0:0:0:
320,192,63411,1,0,0:0:0:0:
64,192,63474,1,0,0:0:0:0:
192,192,63536,1,0,0:0:0:0:
448,192,63536,1,0,0:0:0:0:
320,192,63599,1,0,0:0:0:0:
64,192,63661,1,0,0:0:0:0:
192,192,63724,1,0,0:0:0:0:
320,192,63786,1,0,0:0:0:0:
448,192,63786,1,0,0:0:0:0:
64,192,63849,1,0,0:0:0:0:
192,192,63911,1,0,0:0:0:0:
448,192,63974,1,0,0:0:0:0:
64,192,64036,1,0,0:0:0:0:
320,192,64036,1,0,0:0:0:0:
192,192,64099,1,0,0:0:0:0:
448,192,64161,1,0,0:0:0:0:
320,192,64224,1,0,0:0:0:0:
64,192,64286,1,0,0:0:0:0:
192,192,64286,1,0,0:0:0:0:
448,192,64286,1,0,0:0:0:0:
64,192,64411,1,0,0:0:0:0:
320,192,64411,1,0,0:0:0:0:
448,192,64411,1,0,0:0:0:0:
64,192,64536,1,0,0:0:0:0:
192,192,64536,1,0,0:0:0:0:
320,192,64536,1,0,0:0:0:0:
64,192,64661,1,0,0:0:0:0:
320,192,64661,1,0,0:0:0:0:
448,192,64661,1,0,0:0:0:0:
192,192,64786,1,0,0:0:0:0:
448,192,64786,1,0,0:0:0:0:
64,192,64849,1,0,0:0:0:0:
192,192,64911,1,0,0:0:0:0:
320,192,64974,1,0,0:0:0:0:
64,192,65036,1,0,0:0:0:0:
192,192,65036,1,0,0:0:0:0:
448,192,65099,1,0,0:0:0:0:
64,192,65161,1,0,0:0:0:0:
320,192,65161,1,0,0:0:0:0:
192,192,65224,1,0,0:0:0:0:
320,192,65286,1,0,0:0:0:0:
448,192,65286,1,0,0:0:0:0:
64,192,65349,1,0,0:0:0:0:
192,192,65411,1,0,0:0:0:0:
320,192,65474,1,0,0:0:0:0:
64,192,65536,1,0,0:0:0:0:
192,192,65536,1,0,0:0:0:0:
448,192,65599,1,0,0:0:0:0:
320,192,65661,1,0,0:0:0:0:
192,192,65724,1,0,0:0:0:0:
64,192,65786,1,0,0:0:0:0:
320,192,65786,1,0,0:0:0:0:
192,192,65911,1,0,0:0:0:0:
448,192,65911,1,0,0:0:0:0:
64,192,66036,1,0,0:0:0:0:
320,192,66036,1,0,0:0:0:0:
448,192,66036,1,0,0:0:0:0:
64,192,66161,1,0,0:0:0:0:
192,192,66161,1,0,0:0:0:0:
448,192,66161,1,0,0:0:0:0:
192,192,66286,1,0,0:0:0:0:
320,192,66286,1,0,0:0:0:0:
448,192,66349,1,0,0:0:0:0:
64,192,66411,1,0,0:0:0:0:
320,192,66411,1,0,0:0:0:0:
192,192,66474,1,0,0:0:0:0:
320,192,66536,1,0,0:0:0:0:
448,192,66536,1,0,0:0:0:0:
64,192,66599,1,0,0:0:0:0:
192,192,66661,1,0,0:0:0:0:
448,192,66724,1,0,0:0:0:0:
64,192,66786,1,0,0:0:0:0:
192,192,66786,1,0,0:0:0:0:
320,192,66786,128,0,67036:0:0:0:0:
64,192,67036,128,0,67286:0:0:0:0:
192,192,67036,1,0,0:0:0:0:
448,192,67036,1,0,0:0:0:0:
320,192,67286,1,0,0:0:0:0:
448,192,67286,1,0,0:0:0:0:
192,192,67349,1,0,0:0:0:0:
320,192,67411,1,0,0:0:0:0:
64,192,67474,1,0,0:0:0:0:
192,192,67536,1,0,0:0:0:0:
448,192,67599,1,0,0:0:0:0:
64,192,67661,1,0,0:0:0:0:
320,192,67724,1,0,0:0:0:0:
192,192,67786,1,0,0:0:0:0:
448,192,67786,1,0,0:0:0:0:
64,192,67849,1,0,0:0:0:0:
192,192,67911,1,0,0:0:0:0:
448,192,67974,1,0,0:0:0:0:
320,192,68036,1,0,0:0:0:0:
64,192,68099,1,0,0:0:0:0:
448,192,68161,1,0,0:0:0:0:
192,192,68224,1,0,0:0:0:0:
320,192,68286,1,0,0:0:0:0:
448,192,68286,1,0,0:0:0:0:
64,192,68349,1,0,0:0:0:0:
448,192,68411,1,0,0:0:0:0:
320,192,68474,1,0,0:0:0:0:
64,192,68536,1,0,0:0:0:0:
192,192,68536,1,0,0:0:0:0:
448,192,68599,1,0,0:0:0:0:
64,192,68661,1,0,0:0:0:0:
320,192,68661,1,0,0:0:0:0:
192,192,68724,1,0,0:0:0:0:
320,192,68786,1,0,0:0:0:0:
448,192,68786,1,0,0:0:0:0:
64,192,68849,1,0,0:0:0:0:
192,192,68911,1,0,0:0:0:0:
448,192,68911,1,0,0:0:0:0:
320,192,68974,1,0,0:0:0:0:
64,192,69036,1,0,0:0:0:0:
192,192,69036,1,0,0:0:0:0:
448,192,69099,1,0,0:0:0:0:
64,192,69161,1,0,0:0:0:0:
192,192,69161,1,0,0:0:0:0:
320,192,69224,1,0,0:0:0:0:
448,192,69286,1,0,0:0:0:0:
192,192,69349,1,0,0:0:0:0:
320,192,69411,1,0,0:0:0:0:
64,192,69474,1,0,0:0:0:0:
192,192,69536,1,0,0:0:0:0:
448,192,69536,1,0,0:0:0:0:
320,192,69599,1,0,0:0:0:0:
192,192,69661,1,0,0:0:0:0:
64,192,69724,1,0,0:0:0:0:
320,192,69786,1,0,0:0:0:0:
448,192,69849,1,0,0:0:0:0:
64,192,69911,1,0,0:0:0:0:
192,192,69974,1,0,0:0:0:0:
320,192,70036,1,0,0:0:0:0:
448,192,70036,1,0,0:0:0:0:
64,192,70099,1,0,0:0:0:0:
320,192,70161,1,0,0:0:0:0:
192,192,70224,1,0,0:0:0:0:
64,192,70286,1,0,0:0:0:0:
448,192,70349,1,0,0:0:0:0:
320,192,70411,1,0,0:0:0:0:
64,192,70474,1,0,0:0:0:0:
192,192,70536,1,0,0:0:0:0:
448,192,70536,1,0,0:0:0:0:
320,192,70599,1,0,0:0:0:0:
192,192,70661,1,0,0:0:0:0:
320,192,70724,1,0,0:0:0:0:
64,192,70786,1,0,0:0:0:0:
448,192,70786,1,0,0:0:0:0:
192,192,70849,1,0,0:0:0:0:
320,192,70911,1,0,0:0:0:0:
448,192,70911,1,0,0:0:0:0:
192,192,70974,1,0,0:0:0:0:
64,192,71036,1,0,0:0:0:0:
448,192,71036,1,0,0:0:0:0:
320,192,71099,1,0,0:0:0:0:
64,192,71161,1,0,0:0:0:0:
192,192,71161,1,0,0:0:0:0:
448,192,71224,1,0,0:0:0:0:
320,192,71286,1,0,0:0:0:0:
192,192,71349,1,0,0:0:0:0:
320,192,71411,1,0,0:0:0:0:
448,192,71474,1,0,0:0:0:0:
64,192,71536,1,0,0:0:0:0:
320,192,71536,1,0,0:0:0:0:
64,192,71661,1,0,0:0:0:0:
192,192,71661,1,0,0:0:0:0:
448,192,71661,1,0,0:0:0:0:
192,192,71786,1,0,0:0:0:0:
320,192,71786,1,0,0:0:0:0:
448,192,71786,1,0,0:0:0:0:
64,192,71849,1,0,0:0:0:0:
192,192,71911,1,0,0:0:0:0:
448,192,71974,1,0,0:0:0:0:
64,192,72036,1,0,0:0:0:0:
320,192,72099,1,0,0:0:0:0:
448,192,72161,1,0,0:0:0:0:
192,192,72224,1,0,0:0:0:0:
64,192,72286,1,0,0:0:0:0:
320,192,72286,1,0,0:0:0:0:
448,192,72349,1,0,0:0:0:0:
320,192,72411,1,0,0:0:0:0:
64,192,72474,1,0,0:0:0:0:
192,192,72536,1,0,0:0:0:0:
448,192,72536,1,0,0:0:0:0:
320,192,72599,1,0,0:0:0:0:
448,192,72661,1,0,0:0:0:0:
64,192,72724,1,0,0:0:0:0:
192,192,72786,1,0,0:0:0:0:
320,192,72786,1,0,0:0:0:0:
448,192,72786,1,0,0:0:0:0:
64,192,72849,1,0,0:0:0:0:
192,192,72911,1,0,0:0:0:0:
448,192,72974,1,0,0:0:0:0:
64,192,73036,1,0,0:0:0:0:
192,192,73036,1,0,0:0:0:0:
320,192,73036,1,0,0:0:0:0:
448,192,73099,1,0,0:0:0:0:
320,192,73161,1,0,0:0:0:0:
64,192,73224,1,0,0:0:0:0:
192,192,73286,1,0,0:0:0:0:
320,192,73286,1,0,0:0:0:0:
448,192,73349,1,0,0:0:0:0:
64,192,73411,1,0,0:0:0:0:
192,192,73474,1,0,0:0:0:0:
320,192,73536,1,0,0:0:0:0:
448,192,73536,1,0,0:0:0:0:
64,192,73599,1,0,0:0:0:0:
320,192,73661,1,0,0:0:0:0:
192,192,73724,1,0,0:0:0:0:
64,192,73786,1,0,0:0:0:0:
448,192,73786,1,0,0:0:0:0:
320,192,73849,1,0,0:0:0:0:
64,192,73911,1,0,0:0:0:0:
192,192,73974,1,0,0:0:0:0:
320,192,74036,1,0,0:0:0:0:
448,192,74036,1,0,0:0:0:0:
192,192,74099,1,0,0:0:0:0:
320,192,74161,1,0,0:0:0:0:
192,192,74224,1,0,0:0:0:0:
64,192,74286,1,0,0:0:0:0:
320,192,74286,1,0,0:0:0:0:
448,192,74286,1,0,0:0:0:0:
192,192,74349,1,0,0:0:0:0:
448,192,74411,1,0,0:0:0:0:
320,192,74474,1,0,0:0:0:0:
64,192,74536,1,0,0:0:0:0:
192,192,74536,1,0,0:0:0:0:
448,192,74599,1,0,0:0:0:0:
192,192,74661,1,0,0:0:0:0:
64,192,74724,1,0,0:0:0:0:
320,192,74786,1,0,0:0:0:0:
448,192,74786,1,0,0:0:0:0:
192,192,74849,1,0,0:0:0:0:
320,192,74911,1,0,0:0:0:0:
64,192,74974,1,0,0:0:0:0:
192,192,75036,1,0,0:0:0:0:
448,192,75036,1,0,0:0:0:0:
320,192,75099,1,0,0:0:0:0:
192,192,75161,1,0,0:0:0:0:
448,192,75224,1,0,0:0:0:0:
64,192,75286,1,0,0:0:0:0:
192,192,75286,1,0,0:0:0:0:
320,192,75286,1,0,0:0:0:0:
64,192,75411,1,0,0:0:0:0:
320,192,75411,1,0,0:0:0:0:
448,192,75411,1,0,0:0:0:0:
192,192,75536,1,0,0:0:0:0:
320,192,75536,1,0,0:0:0:0:
448,192,75536,1,0,0:0:0:0:
64,192,75661,1,0,0:0:0:0:
192,192,75661,1,0,0:0:0:0:
448,192,75661,1,0,0:0:0:0:
64,192,75786,1,0,0:0:0:0:
320,192,75786,1,0,0:0:0:0:
192,192,75849,1,0,0:0:0:0:
448,192,75911,1,0,0:0:0:0:
64,192,75974,1,0,0:0:0:0:
320,192,76036,1,0,0:0:0:0:
192,192,76099,1,0,0:0:0:0:
64,192,76161,1,0,0:0:0:0:
448,192,76161,1,0,0:0:0:0:
320,192,76224,1,0,0:0:0:0:
64,192,76286,1,0,0:0:0:0:
192,192,76286,1,0,0:0:0:0:
320,192,76349,1,0,0:0:0:0:
448,192,76411,1,0,0:0:0:0:
320,192,76474,1,0,0:0:0:0:
64,192,76536,1,0,0:0:0:0:
192,192,76536,1,0,0:0:0:0:
448,192,76599,1,0,0:0:0:0:
320,192,76661,1,0,0:0:0:0:
192,192,76724,1,0,0:0:0:0:
64,192,76786,1,0,0:0:0:0:
320,192,76786,1,0,0:0:0:0:
448,192,76786,1,0,0:0:0:0:
192,192,76911,1,0,0:0:0:0:
320,192,76911,1,0,0:0:0:0:
448,192,76911,1,0,0:0:0:0:
64,192,77036,1,0,0:0:0:0:
192,192,77036,1,0,0:0:0:0:
448,192,77036,1,0,0:0:0:0:
64,192,77161,1,0,0:0:0:0:
192,192,77161,1,0,0:0:0:0:
320,192,77161,1,0,0:0:0:0:
320,192,77286,1,0,0:0:0:0:
448,192,77286,1,0,0:0:0:0:
192,192,77349,1,0,0:0:0:0:
448,192,77411,1,0,0:0:0:0:
192,192,77474,1,0,0:0:0:0:
320,192,77536,1,0,0:0:0:0:
64,192,77599,1,0,0:0:0:0:
320,192,77661,1,0,0:0:0:0:
192,192,77724,1,0,0:0:0:0:
64,192,77786,1,0,0:0:0:0:
320,192,77786,1,0,0:0:0:0:
448,192,77786,128,0,78036:0:0:0:0:
64,192,78036,1,0,0:0:0:0:
192,192,78036,1,0,0:0:0:0:
320,192,78036,128,0,78286:0:0:0:0:
64,192,78286,1,0,0:0:0:0:
448,192,78286,1,0,0:0:0:0:
192,192,78349,1,0,0:0:0:0:
64,192,78411,1,0,0:0:0:0:
320,192,78474,1,0,0:0:0:0:
448,192,78536,1,0,0:0:0:0:
192,192,78599,1,0,0:0:0:0:
320,192,78661,1,0,0:0:0:0:
64,192,78724,1,0,0:0:0:0:
192,192,78786,1,0,0:0:0:0:
448,192,78786,1,0,0:0:0:0:
320,192,78849,1,0,0:0:0:0:
448,192,78911,1,0,0:0:0:0:
192,192,78974,1,0,0:0:0:0:
64,192,79036,1,0,0:0:0:0:
320,192,79099,1,0,0:0:0:0:
192,192,79161,1,0,0:0:0:0:
448,192,79224,1,0,0:0:0:0:
64,192,79286,1,0,0:0:0:0:
320,192,79286,1,0,0:0:0:0:
192,192,79349,1,0,0:0:0:0:
320,192,79411,1,0,0:0:0:0:
448,192,79411,1,0,0:0:0:0:
192,192,79474,1,0,0:0:0:0:
64,192,79536,1,0,0:0:0:0:
320,192,79536,1,0,0:0:0:0:
448,192,79536,1,0,0:0:0:0:
64,192,79661,1,0,0:0:0:0:
192,192,79661,1,0,0:0:0:0:
192,192,79786,1,0,0:0:0:0:
320,192,79786,1,0,0:0:0:0:
448,192,79786,1,0,0:0:0:0:
320,192,79911,1,0,0:0:0:0:
448,192,79911,1,0,0:0:0:0:
64,192,80036,1,0,0:0:0:0:
192,192,80036,1,0,0:0:0:0:
320,192,80099,1,0,0:0:0:0:
64,192,80161,1,0,0:0:0:0:
320,192,80224,1,0,0:0:0:0:
192,192,80286,1,0,0:0:0:0:
448,192,80286,1,0,0:0:0:0:
64,192,80349,1,0,0:0:0:0:
448,192,80411,1,0,0:0:0:0:
64,192,80474,1,0,0:0:0:0:
320,192,80536,1,0,0:0:0:0:
448,192,80536,1,0,0:0:0:0:
192,192,80599,1,0,0:0:0:0:
320,192,80661,1,0,0:0:0:0:
192,192,80724,1,0,0:0:0:0:
448,192,80786,1,0,0:0:0:0:
320,192,80849,1,0,0:0:0:0:
64,192,80911,1,0,0:0:0:0:
448,192,80974,1,0,0:0:0:0:
64,192,81036,1,0,0:0:0:0:
320,192,81036,1,0,0:0:0:0:
192,192,81099,1,0,0:0:0:0:
320,192,81161,1,0,0:0:0:0:
64,192,81224,1,0,0:0:0:0:
192,192,81286,1,0,0:0:0:0:
448,192,81349,1,0,0:0:0:0:
64,192,81411,1,0,0:0:0:0:
192,192,81474,1,0,0:0:0:0:
448,192,81536,1,0,0:0:0:0:
320,192,81578,1,0,0:0:0:0:
192,192,81619,1,0,0:0:0:0:
64,192,81661,1,0,0:0:0:0:
448,192,81703,1,0,0:0:0:0:
320,192,81744,1,0,0:0:0:0:
64,192,81786,1,0,0:0:0:0:
192,192,81786,1,0,0:0:0:0:
320,192,81911,1,0,0:0:0:0:
448,192,81911,1,0,0:0:0:0:
64,192,82036,1,0,0:0:0:0:
192,192,82036,1,0,0:0:0:0:
448,192,82036,1,0,0:0:0:0:
192,192,82161,1,0,0:0:0:0:
320,192,82161,1,0,0:0:0:0:
64,192,82286,1,0,0:0:0:0:
448,192,82286,1,0,0:0:0:0:
192,192,82349,1,0,0:0:0:0:
64,192,82411,1,0,0:0:0:0:
320,192,82411,1,0,0:0:0:0:
192,192,82474,1,0,0:0:0:0:
320,192,82536,1,0,0:0:0:0:
448,192,82536,1,0,0:0:0:0:
64,192,82599,1,0,0:0:0:0:
192,192,82661,1,0,0:0:0:0:
320,192,82661,1,0,0:0:0:0:
448,192,82724,1,0,0:0:0:0:
64,192,82786,1,0,0:0:0:0:
192,192,82786,1,0,0:0:0:0:
320,192,82849,1,0,0:0:0:0:
64,192,82911,1,0,0:0:0:0:
320,192,82974,1,0,0:0:0:0:
448,192,83036,1,0,0:0:0:0:
320,192,83099,1,0,0:0:0:0:
64,192,83161,1,0,0:0:0:0:
192,192,83161,1,0,0:0:0:0:
448,192,83224,1,0,0:0:0:0:
64,192,83286,1,0,0:0:0:0:
320,192,83286,1,0,0:0:0:0:
448,192,83349,1,0,0:0:0:0:
64,192,83411,1,0,0:0:0:0:
192,192,83411,1,0,0:0:0:0:
320,192,83474,1,0,0:0:0:0:
192,192,83536,1,0,0:0:0:0:
448,192,83536,1,0,0:0:0:0:
64,192,83599,1,0,0:0:0:0:
320,192,83661,1,0,0:0:0:0:
448,192,83724,1,0,0:0:0:0:
64,192,83786,1,0,0:0:0:0:
320,192,83786,1,0,0:0:0:0:
192,192,83849,1,0,0:0:0:0:
320,192,83911,1,0,0:0:0:0:
448,192,83911,1,0,0:0:0:0:
64,192,83974,1,0,0:0:0:0:
192,192,83974,1,0,0:0:0:0:
320,192,84036,1,0,0:0:0:0:
448,192,84036,1,0,0:0:0:0:
64,192,84099,1,0,0:0:0:0:
192,192,84099,1,0,0:0:0:0:
320,192,84161,1,0,0:0:0:0:
448,192,84161,1,0,0:0:0:0:
64,192,84224,1,0,0:0:0:0:
192,192,84224,1,0,0:0:0:0:
320,192,84286,1,0,0:0:0:0:
448,192,84286,1,0,0:0:0:0:
192,192,84349,1,0,0:0:0:0:
448,192,84411,1,0,0:0:0:0:
192,192,84474,1,0,0:0:0:0:
64,192,84536,1,0,0:0:0:0:
320,192,84599,1,0,0:0:0:0:
64,192,84661,1,0,0:0:0:0:
192,192,84661,1,0,0:0:0:0:
448,192,84661,1,0,0:0:0:0:
320,192,84724,1,0,0:0:0:0:
192,192,84786,1,0,0:0:0:0:
448,192,84849,1,0,0:0:0:0:
320,192,84911,1,0,0:0:0:0:
448,192,84974,1,0,0:0:0:0:
64,192,85036,1,0,0:0:0:0:
192,192,85036,1,0,0:0:0:0:
320,192,85099,1,0,0:0:0:0:
448,192,85161,1,0,0:0:0:0:
64,192,85224,1,0,0:0:0:0:
192,192,85286,1,0,0:0:0:0:
64,192,85349,1,0,0:0:0:0:
320,192,85411,1,0,0:0:0:0:
448,192,85411,1,0,0:0:0:0:
192,192,85474,1,0,0:0:0:0:
320,192,85536,1,0,0:0:0:0:
448,192,85599,1,0,0:0:0:0:
64,192,85661,1,0,0:0:0:0:
448,192,85724,1,0,0:0:0:0:
64,192,85786,1,0,0:0:0:0:
192,192,85786,1,0,0:0:0:0:
320,192,85786,1,0,0:0:0:0:
192,192,85911,1,0,0:0:0:0:
448,192,85911,1,0,0:0:0:0:
320,192,86036,1,0,0:0:0:0:
64,192,86161,1,0,0:0:0:0:
192,192,86161,1,0,0:0:0:0:
320,192,86224,1,0,0:0:0:0:
64,192,86286,1,0,0:0:0:0:
320,192,86349,1,0,0:0:0:0:
64,192,86411,1,0,0:0:0:0:
320,192,86474,1,0,0:0:0:0:
192,192,86536,1,0,0:0:0:0:
448,192,86536,1,0,0:0:0:0:
64,192,86661,1,0,0:0:0:0:
320,192,86661,1,0,0:0:0:0:
192,192,86786,1,0,0:0:0:0:
320,192,86911,1,0,0:0:0:0:
448,192,86911,1,0,0:0:0:0:
64,192,86974,1,0,0:0:0:0:
448,192,87036,1,0,0:0:0:0:
64,192,87099,1,0,0:0:0:0:
448,192,87161,1,0,0:0:0:0:
64,192,87224,1,0,0:0:0:0:
192,192,87286,1,0,0:0:0:0:
320,192,87286,1,0,0:0:0:0:
448,192,87349,1,0,0:0:0:0:
64,192,87411,1,0,0:0:0:0:
320,192,87411,1,0,0:0:0:0:
448,192,87474,1,0,0:0:0:0:
192,192,87536,1,0,0:0:0:0:
320,192,87536,1,0,0:0:0:0:
448,192,87599,1,0,0:0:0:0:
64,192,87661,1,0,0:0:0:0:
192,192,87661,1,0,0:0:0:0:
320,192,87724,1,0,0:0:0:0:
64,192,87786,1,0,0:0:0:0:
192,192,87786,1,0,0:0:0:0:
320,192,87849,1,0,0:0:0:0:
64,192,87911,1,0,0:0:0:0:
192,192,87911,1,0,0:0:0:0:
320,192,87974,1,0,0:0:0:0:
64,192,88036,1,0,0:0:0:0:
192,192,88036,1,0,0:0:0:0:
448,192,88036,1,0,0:0:0:0:
320,192,88161,1,0,0:0:0:0:
448,192,88161,1,0,0:0:0:0:
320,192,88286,1,0,0:0:0:0:
448,192,88286,1,0,0:0:0:0:
64,192,88411,128,0,88786:0:0:0:0:
320,192,88411,1,0,0:0:0:0:
448,192,88786,1,0,0:0:0:0:
192,192,88849,1,0,0:0:0:0:
448,192,88911,1,0,0:0:0:0:
64,192,88974,1,0,0:0:0:0:
320,192,89036,1,0,0:0:0:0:
64,192,89099,1,0,0:0:0:0:
192,192,89161,1,0,0:0:0:0:
448,192,89161,1,0,0:0:0:0:
320,192,89224,1,0,0:0:0:0:
192,192,89286,1,0,0:0:0:0:
448,192,89349,1,0,0:0:0:0:
64,192,89411,1,0,0:0:0:0:
192,192,89474,1,0,0:0:0:0:
320,192,89536,1,0,0:0:0:0:
448,192,89536,1,0,0:0:0:0:
64,192,89599,1,0,0:0:0:0:
192,192,89661,1,0,0:0:0:0:
448,192,89661,1,0,0:0:0:0:
64,192,89724,1,0,0:0:0:0:
320,192,89786,1,0,0:0:0:0:
448,192,89786,1,0,0:0:0:0:
192,192,89849,1,0,0:0:0:0:
64,192,89911,1,0,0:0:0:0:
320,192,89911,1,0,0:0:0:0:
448,192,89974,1,0,0:0:0:0:
192,192,90036,1,0,0:0:0:0:
320,192,90099,1,0,0:0:0:0:
64,192,90161,1,0,0:0:0:0:
320,192,90224,1,0,0:0:0:0:
192,192,90286,1,0,0:0:0:0:
448,192,90286,1,0,0:0:0:0:
64,192,90349,1,0,0:0:0:0:
320,192,90411,1,0,0:0:0:0:
64,192,90474,1,0,0:0:0:0:
192,192,90536,1,0,0:0:0:0:
320,192,90536,1,0,0:0:0:0:
64,192,90599,1,0,0:0:0:0:
192,192,90661,1,0,0:0:0:0:
320,192,90661,1,0,0:0:0:0:
448,192,90724,1,0,0:0:0:0:
64,192,90786,1,0,0:0:0:0:
320,192,90849,1,0,0:0:0:0:
64,192,90911,1,0,0:0:0:0:
192,192,90974,1,0,0:0:0:0:
64,192,91036,1,0,0:0:0:0:
320,192,91036,1,0,0:0:0:0:
448,192,91036,1,0,0:0:0:0:
192,192,91099,1,0,0:0:0:0:
448,192,91161,1,0,0:0:0:0:
320,192,91224,1,0,0:0:0:0:
64,192,91286,1,0,0:0:0:0:
320,192,91349,1,0,0:0:0:0:
64,192,91411,1,0,0:0:0:0:
192,192,91411,1,0,0:0:0:0:
448,192,91474,1,0,0:0:0:0:
192,192,91536,1,0,0:0:0:0:
320,192,91536,1,0,0:0:0:0:
448,192,91599,1,0,0:0:0:0:
64,192,91661,1,0,0:0:0:0:
192,192,91661,1,0,0:0:0:0:
448,192,91724,1,0,0:0:0:0:
64,192,91786,1,0,0:0:0:0:
192,192,91786,1,0,0:0:0:0:
320,192,91849,1,0,0:0:0:0:
64,192,91911,1,0,0:0:0:0:
448,192,91911,1,0,0:0:0:0:
192,192,91974,1,0,0:0:0:0:
320,192,92036,1,0,0:0:0:0:
448,192,92036,1,0,0:0:0:0:
64,192,92099,1,0,0:0:0:0:
192,192,92161,1,0,0:0:0:0:
320,192,92161,1,0,0:0:0:0:
448,192,92161,1,0,0:0:0:0:
64,192,92286,1,0,0:0:0:0:
320,192,92286,1,0,0:0:0:0:
192,192,92411,1,0,0:0:0:0:
320,192,92536,1,0,0:0:0:0:
448,192,92536,1,0,0:0:0:0:
192,192,92599,1,0,0:0:0:0:
320,192,92661,1,0,0:0:0:0:
192,192,92724,1,0,0:0:0:0:
320,192,92786,1,0,0:0:0:0:
192,192,92849,1,0,0:0:0:0:
64,192,92911,1,0,0:0:0:0:
320,192,92911,1,0,0:0:0:0:
448,192,92911,1,0,0:0:0:0:
192,192,93036,1,0,0:0:0:0:
448,192,93036,1,0,0:0:0:0:
320,192,93161,1,0,0:0:0:0:
64,192,93286,1,0,0:0:0:0:
192,192,93286,1,0,0:0:0:0:
448,192,93349,1,0,0:0:0:0:
64,192,93411,1,0,0:0:0:0:
192,192,93411,1,0,0:0:0:0:
448,192,93474,1,0,0:0:0:0:
64,192,93536,1,0,0:0:0:0:
192,192,93536,1,0,0:0:0:0:
320,192,93599,1,0,0:0:0:0:
448,192,93661,1,0,0:0:0:0:
320,192,93724,1,0,0:0:0:0:
64,192,93786,1,0,0:0:0:0:
192,192,93849,1,0,0:0:0:0:
64,192,93911,1,0,0:0:0:0:
320,192,93974,1,0,0:0:0:0:
192,192,94036,1,0,0:0:0:0:
448,192,94036,1,0,0:0:0:0:
192,192,94161,1,0,0:0:0:0:
448,192,94161,1,0,0:0:0:0:
192,192,94286,1,0,0:0:0:0:
448,192,94286,1,0,0:0:0:0:
64,192,94411,1,0,0:0:0:0:
192,192,94411,1,0,0:0:0:0:
320,192,94411,1,0,0:0:0:0:
320,192,94536,1,0,0:0:0:0:
448,192,94536,1,0,0:0:0:0:
320,192,94661,1,0,0:0:0:0:
448,192,94661,1,0,0:0:0:0:
64,192,94786,128,0,95161:0:0:0:0:
448,192,94786,1,0,0:0:0:0:
320,192,95161,1,0,0:0:0:0:
448,192,95224,1,0,0:0:0:0:
320,192,95286,1,0,0:0:0:0:
192,192,95349,1,0,0:0:0:0:
448,192,95411,1,0,0:0:0:0:
192,192,95474,1,0,0:0:0:0:
64,192,95536,1,0,0:0:0:0:
320,192,95536,1,0,0:0:0:0:
448,192,95536,1,0,0:0:0:0:
192,192,95599,1,0,0:0:0:0:
320,192,95661,1,0,0:0:0:0:
64,192,95724,1,0,0:0:0:0:
192,192,95786,1,0,0:0:0:0:
320,192,95849,1,0,0:0:0:0:
192,192,95911,1,0,0:0:0:0:
448,192,95974,1,0,0:0:0:0:
64,192,96036,1,0,0:0:0:0:
320,192,96036,1,0,0:0:0:0:
192,192,96099,1,0,0:0:0:0:
64,192,96161,1,0,0:0:0:0:
448,192,96224,1,0,0:0:0:0:
320,192,96286,1,0,0:0:0:0:
192,192,96349,1,0,0:0:0:0:
320,192,96411,1,0,0:0:0:0:
64,192,96474,1,0,0:0:0:0:
192,192,96536,1,0,0:0:0:0:
320,192,96536,1,0,0:0:0:0:
448,192,96536,1,0,0:0:0:0:
64,192,96599,1,0,0:0:0:0:
448,192,96661,1,0,0:0:0:0:
192,192,96724,1,0,0:0:0:0:
320,192,96786,1,0,0:0:0:0:
64,192,96849,1,0,0:0:0:0:
320,192,96911,1,0,0:0:0:0:
192,192,96974,1,0,0:0:0:0:
64,192,97036,1,0,0:0:0:0:
448,192,97036,1,0,0:0:0:0:
320,192,97099,1,0,0:0:0:0:
448,192,97161,1,0,0:0:0:0:
64,192,97224,1,0,0:0:0:0:
192,192,97286,1,0,0:0:0:0:
448,192,97286,1,0,0:0:0:0:
320,192,97349,1,0,0:0:0:0:
192,192,97411,1,0,0:0:0:0:
448,192,97474,1,0,0:0:0:0:
64,192,97536,1,0,0:0:0:0:
320,192,97536,1,0,0:0:0:0:
192,192,97599,1,0,0:0:0:0:
320,192,97661,1,0,0:0:0:0:
64,192,97724,1,0,0:0:0:0:
192,192,97786,1,0,0:0:0:0:
448,192,97786,1,0,0:0:0:0:
320,192,97849,1,0,0:0:0:0:
448,192,97911,1,0,0:0:0:0:
192,192,97974,1,0,0:0:0:0:
64,192,98036,1,0,0:0:0:0:
320,192,98036,1,0,0:0:0:0:
192,192,98099,1,0,0:0:0:0:
64,192,98161,1,0,0:0:0:0:
448,192,98224,1,0,0:0:0:0:
320,192,98286,1,0,0:0:0:0:
192,192,98349,1,0,0:0:0:0:
320,192,98411,1,0,0:0:0:0:
64,192,98474,1,0,0:0:0:0:
192,192,98536,1,0,0:0:0:0:
320,192,98536,1,0,0:0:0:0:
448,192,98536,1,0,0:0:0:0:
64,192,98599,1,0,0:0:0:0:
448,192,98661,1,0,0:0:0:0:
320,192,98724,1,0,0:0:0:0:
192,192,98786,1,0,0:0:0:0:
64,192,98849,1,0,0:0:0:0:
192,192,98911,1,0,0:0:0:0:
448,192,98974,1,0,0:0:0:0:
64,192,99036,1,0,0:0:0:0:
320,192,99036,1,0,0:0:0:0:
192,192,99099,1,0,0:0:0:0:
448,192,99161,1,0,0:0:0:0:
320,192,99224,1,0,0:0:0:0:
64,192,99286,1,0,0:0:0:0:
192,192,99286,1,0,0:0:0:0:
320,192,99349,1,0,0:0:0:0:
448,192,99411,1,0,0:0:0:0:
192,192,99474,1,0,0:0:0:0:
64,192,99536,1,0,0:0:0:0:
320,192,99536,1,0,0:0:0:0:
448,192,99536,1,0,0:0:0:0:
192,192,99599,1,0,0:0:0:0:
320,192,99661,1,0,0:0:0:0:
64,192,99724,1,0,0:0:0:0:
448,192,99786,1,0,0:0:0:0:
192,192,99849,1,0,0:0:0:0:
448,192,99911,1,0,0:0:0:0:
64,192,99974,1,0,0:0:0:0:
192,192,100036,1,0,0:0:0:0:
320,192,100036,1,0,0:0:0:0:
448,192,100099,1,0,0:0:0:0:
192,192,100161,1,0,0:0:0:0:
320,192,100224,1,0,0:0:0:0:
64,192,100286,1,0,0:0:0:0:
448,192,100286,1,0,0:0:0:0:
320,192,100349,1,0,0:0:0:0:
64,192,100411,1,0,0:0:0:0:
448,192,100474,1,0,0:0:0:0:
192,192,100536,1,0,0:0:0:0:
320,192,100536,1,0,0:0:0:0:
64,192,100599,1,0,0:0:0:0:
192,192,100661,1,0,0:0:0:0:
448,192,100724,1,0,0:0:0:0:
320,192,100786,1,0,0:0:0:0:
64,192,100849,1,0,0:0:0:0:
320,192,100911,1,0,0:0:0:0:
448,192,100974,1,0,0:0:0:0:
64,192,101036,1,0,0:0:0:0:
192,192,101036,1,0,0:0:0:0:
320,192,101099,1,0,0:0:0:0:
192,192,101161,1,0,0:0:0:0:
448,192,101224,1,0,0:0:0:0:
64,192,101286,1,0,0:0:0:0:
320,192,101286,1,0,0:0:0:0:
192,192,101349,1,0,0:0:0:0:
320,192,101411,1,0,0:0:0:0:
448,192,101474,1,0,0:0:0:0:
192,192,101536,1,0,0:0:0:0:
320,192,101536,1,0,0:0:0:0:
448,192,101599,1,0,0:0:0:0:
192,192,101661,1,0,0:0:0:0:
64,192,101724,1,0,0:0:0:0:
320,192,101786,1,0,0:0:0:0:
448,192,101786,1,0,0:0:0:0:
192,192,101849,1,0,0:0:0:0:
448,192,101911,1,0,0:0:0:0:
64,192,101974,1,0,0:0:0:0:
192,192,102036,1,0,0:0:0:0:
320,192,102036,1,0,0:0:0:0:
448,192,102099,1,0,0:0:0:0:
64,192,102161,1,0,0:0:0:0:
320,192,102224,1,0,0:0:0:0:
192,192,102286,1,0,0:0:0:0:
448,192,102349,1,0,0:0:0:0:
192,192,102411,1,0,0:0:0:0:
320,192,102474,1,0,0:0:0:0:
64,192,102536,1,0,0:0:0:0:
192,192,102536,1,0,0:0:0:0:
448,192,102599,1,0,0:0:0:0:
320,192,102661,1,0,0:0:0:0:
64,192,102724,1,0,0:0:0:0:
448,192,102786,1,0,0:0:0:0:
192,192,102849,1,0,0:0:0:0:
448,192,102911,1,0,0:0:0:0:
320,192,102974,1,0,0:0:0:0:
64,192,103036,1,0,0:0:0:0:
448,192,103036,1,0,0:0:0:0:
192,192,103099,1,0,0:0:0:0:
320,192,103161,1,0,0:0:0:0:
192,192,103224,1,0,0:0:0:0:
64,192,103286,1,0,0:0:0:0:
192,192,103349,1,0,0:0:0:0:
320,192,103411,1,0,0:0:0:0:
192,192,103474,1,0,0:0:0:0:
64,192,103536,1,0,0:0:0:0:
320,192,103536,1,0,0:0:0:0:
448,192,103536,128,0,103786:0:0:0:0:
64,192,103786,1,0,0:0:0:0:
192,192,103786,1,0,0:0:0:0:
64,192,103911,1,0,0:0:0:0:
320,192,103911,1,0,0:0:0:0:
192,192,104036,1,0,0:0:0:0:
320,192,104036,1,0,0:0:0:0:
448,192,104036,1,0,0:0:0:0:
64,192,104161,1,0,0:0:0:0:
320,192,104161,1,0,0:0:0:0:
64,192,104286,1,0,0:0:0:0:
192,192,104286,1,0,0:0:0:0:
448,192,104286,1,0,0:0:0:0:
64,192,104411,1,0,0:0:0:0:
192,192,104411,1,0,0:0:0:0:
448,192,104411,1,0,0:0:0:0:
320,192,104536,1,0,0:0:0:0:
192,192,104599,1,0,0:0:0:0:
448,192,104661,1,0,0:0:0:0:
320,192,104724,1,0,0:0:0:0:
64,192,104786,1,0,0:0:0:0:
192,192,104786,1,0,0:0:0:0:
448,192,104786,1,0,0:0:0:0:
64,192,104911,1,0,0:0:0:0:
320,192,104911,1,0,0:0:0:0:
448,192,104911,1,0,0:0:0:0:
192,192,105036,1,0,0:0:0:0:
320,192,105099,1,0,0:0:0:0:
64,192,105161,1,0,0:0:0:0:
448,192,105224,1,0,0:0:0:0:
192,192,105286,1,0,0:0:0:0:
320,192,105286,128,0,105349:0:0:0:0:
192,192,105411,1,0,0:0:0:0:
320,192,105411,128,0,105474:0:0:0:0:
64,192,105536,1,0,0:0:0:0:
320,192,105536,1,0,0:0:0:0:
448,192,105536,1,0,0:0:0:0:
192,192,105599,1,0,0:0:0:0:
320,192,105661,1,0,0:0:0:0:
448,192,105724,1,0,0:0:0:0:
64,192,105786,1,0,0:0:0:0:
320,192,105849,1,0,0:0:0:0:
192,192,105911,1,0,0:0:0:0:
448,192,105974,1,0,0:0:0:0:
64,192,106036,1,0,0:0:0:0:
320,192,106036,1,0,0:0:0:0:
192,192,106099,1,0,0:0:0:0:
320,192,106161,1,0,0:0:0:0:
64,192,106224,1,0,0:0:0:0:
192,192,106286,1,0,0:0:0:0:
448,192,106349,1,0,0:0:0:0:
64,192,106411,1,0,0:0:0:0:
448,192,106474,1,0,0:0:0:0:
192,192,106536,1,0,0:0:0:0:
320,192,106536,1,0,0:0:0:0:
64,192,106599,1,0,0:0:0:0:
320,192,106661,1,0,0:0:0:0:
192,192,106724,1,0,0:0:0:0:
448,192,106786,1,0,0:0:0:0:
64,192,106849,1,0,0:0:0:0:
320,192,106911,1,0,0:0:0:0:
192,192,106974,1,0,0:0:0:0:
64,192,107036,1,0,0:0:0:0:
448,192,107036,1,0,0:0:0:0:
320,192,107099,1,0,0:0:0:0:
192,192,107161,1,0,0:0:0:0:
448,192,107224,1,0,0:0:0:0:
64,192,107286,1,0,0:0:0:0:
192,192,107286,1,0,0:0:0:0:
320,192,107349,1,0,0:0:0:0:
64,192,107411,1,0,0:0:0:0:
192,192,107411,1,0,0:0:0:0:
320,192,107474,1,0,0:0:0:0:
64,192,107536,1,0,0:0:0:0:
192,192,107536,1,0,0:0:0:0:
448,192,107599,1,0,0:0:0:0:
320,192,107661,1,0,0:0:0:0:
192,192,107724,1,0,0:0:0:0:
64,192,107786,1,0,0:0:0:0:
448,192,107786,1,0,0:0:0:0:
192,192,107849,1,0,0:0:0:0:
320,192,107911,1,0,0:0:0:0:
448,192,107974,1,0,0:0:0:0:
64,192,108036,1,0,0:0:0:0:
192,192,108036,1,0,0:0:0:0:
320,192,108099,1,0,0:0:0:0:
448,192,108161,1,0,0:0:0:0:
64,192,108224,1,0,0:0:0:0:
192,192,108286,1,0,0:0:0:0:
320,192,108286,1,0,0:0:0:0:
64,192,108349,1,0,0:0:0:0:
448,192,108411,1,0,0:0:0:0:
320,192,108474,1,0,0:0:0:0:
64,192,108536,1,0,0:0:0:0:
192,192,108536,1,0,0:0:0:0:
448,192,108599,1,0,0:0:0:0:
320,192,108661,1,0,0:0:0:0:
64,192,108724,1,0,0:0:0:0:
192,192,108786,1,0,0:0:0:0:
448,192,108849,1,0,0:0:0:0:
192,192,108911,1,0,0:0:0:0:
320,192,108974,1,0,0:0:0:0:
64,192,109036,1,0,0:0:0:0:
192,192,109036,1,0,0:0:0:0:
448,192,109099,1,0,0:0:0:0:
320,192,109161,1,0,0:0:0:0:
192,192,109224,1,0,0:0:0:0:
64,192,109286,1,0,0:0:0:0:
448,192,109286,1,0,0:0:0:0:
192,192,109349,1,0,0:0:0:0:
320,192,109411,1,0,0:0:0:0:
448,192,109474,1,0,0:0:0:0:
64,192,109536,1,0,0:0:0:0:
192,192,109536,1,0,0:0:0:0:
320,192,109536,1,0,0:0:0:0:
448,192,109599,1,0,0:0:0:0:
320,192,109661,1,0,0:0:0:0:
64,192,109724,1,0,0:0:0:0:
192,192,109786,1,0,0:0:0:0:
448,192,109849,1,0,0:0:0:0:
320,192,109911,1,0,0:0:0:0:
64,192,109974,1,0,0:0:0:0:
192,192,110036,1,0,0:0:0:0:
448,192,110036,1,0,0:0:0:0:
320,192,110099,1,0,0:0:0:0:
64,192,110161,1,0,0:0:0:0:
448,192,110224,1,0,0:0:0:0:
192,192,110286,1,0,0:0:0:0:
64,192,110349,1,0,0:0:0:0:
320,192,110411,1,0,0:0:0:0:
448,192,110474,1,0,0:0:0:0:
64,192,110536,1,0,0:0:0:0:
192,192,110536,1,0,0:0:0:0:
320,192,110599,1,0,0:0:0:0:
64,192,110661,1,0,0:0:0:0:
448,192,110724,1,0,0:0:0:0:
192,192,110786,1,0,0:0:0:0:
320,192,110849,1,0,0:0:0:0:
192,192,110911,1,0,0:0:0:0:
64,192,110974,1,0,0:0:0:0:
320,192,111036,1,0,0:0:0:0:
448,192,111036,1,0,0:0:0:0:
192,192,111099,1,0,0:0:0:0:
320,192,111161,1,0,0:0:0:0:
448,192,111224,1,0,0:0:0:0:
64,192,111286,1,0,0:0:0:0:
192,192,111286,1,0,0:0:0:0:
320,192,111349,1,0,0:0:0:0:
192,192,111411,1,0,0:0:0:0:
64,192,111474,1,0,0:0:0:0:
320,192,111536,1,0,0:0:0:0:
448,192,111536,1,0,0:0:0:0:
192,192,111599,1,0,0:0:0:0:
320,192,111661,1,0,0:0:0:0:
192,192,111724,1,0,0:0:0:0:
64,192,111786,1,0,0:0:0:0:
448,192,111786,1,0,0:0:0:0:
320,192,111849,1,0,0:0:0:0:
448,192,111911,1,0,0:0:0:0:
320,192,111974,1,0,0:0:0:0:
64,192,112036,1,0,0:0:0:0:
192,192,112036,1,0,0:0:0:0:
448,192,112099,1,0,0:0:0:0:
64,192,112161,1,0,0:0:0:0:
448,192,112224,1,0,0:0:0:0:
192,192,112286,1,0,0:0:0:0:
320,192,112286,1,0,0:0:0:0:
64,192,112349,1,0,0:0:0:0:
192,192,112411,1,0,0:0:0:0:
64,192,112474,1,0,0:0:0:0:
320,192,112536,1,0,0:0:0:0:
448,192,112536,1,0,0:0:0:0:
192,192,112599,1,0,0:0:0:0:
320,192,112661,1,0,0:0:0:0:
448,192,112724,1,0,0:0:0:0:
192,192,112786,1,0,0:0:0:0:
320,192,112849,1,0,0:0:0:0:
448,192,112911,1,0,0:0:0:0:
192,192,112974,1,0,0:0:0:0:
320,192,113036,1,0,0:0:0:0:
448,192,113036,1,0,0:0:0:0:
192,192,113099,1,0,0:0:0:0:
64,192,113161,1,0,0:0:0:0:
448,192,113203,1,0,0:0:0:0:
320,192,113224,1,0,0:0:0:0:
192,192,113286,1,0,0:0:0:0:
64,192,113349,1,0,0:0:0:0:
448,192,113369,1,0,0:0:0:0:
320,192,113411,1,0,0:0:0:0:
192,192,113474,1,0,0:0:0:0:
64,192,113536,1,0,0:0:0:0:
320,192,113536,1,0,0:0:0:0:
448,192,113536,1,0,0:0:0:0:
192,192,113599,1,0,0:0:0:0:
64,192,113661,1,0,0:0:0:0:
320,192,113724,1,0,0:0:0:0:
192,192,113786,1,0,0:0:0:0:
64,192,113849,1,0,0:0:0:0:
320,192,113911,1,0,0:0:0:0:
192,192,113974,1,0,0:0:0:0:
64,192,114036,1,0,0:0:0:0:
448,192,114036,1,0,0:0:0:0:
64,192,114161,1,0,0:0:0:0:
448,192,114161,1,0,0:0:0:0:
64,192,114286,1,0,0:0:0:0:
448,192,114286,1,0,0:0:0:0:
64,192,114536,1,0,0:0:0:0:
192,192,114536,1,0,0:0:0:0:
448,192,114536,1,0,0:0:0:0:
64,192,114786,1,0,0:0:0:0:
320,192,114786,1,0,0:0:0:0:
192,192,114849,1,0,0:0:0:0:
320,192,114911,1,0,0:0:0:0:
192,192,114974,1,0,0:0:0:0:
64,192,115036,1,0,0:0:0:0:
320,192,115036,1,0,0:0:0:0:
448,192,115036,1,0,0:0:0:0:
192,192,115286,1,0,0:0:0:0:
448,192,115286,1,0,0:0:0:0:
64,192,115411,1,0,0:0:0:0:
320,192,115411,1,0,0:0:0:0:
64,192,115536,1,0,0:0:0:0:
192,192,115536,1,0,0:0:0:0:
448,192,115536,1,0,0:0:0:0:
320,192,115786,1,0,0:0:0:0:
448,192,115849,1,0,0:0:0:0:
192,192,115911,1,0,0:0:0:0:
320,192,115974,1,0,0:0:0:0:
64,192,116036,1,0,0:0:0:0:
448,192,116036,1,0,0:0:0:0:
64,192,116161,1,0,0:0:0:0:
448,192,116161,1,0,0:0:0:0:
192,192,116286,1,0,0:0:0:0:
320,192,116286,1,0,0:0:0:0:
64,192,116349,1,0,0:0:0:0:
192,192,116411,1,0,0:0:0:0:
64,192,116474,1,0,0:0:0:0:
192,192,116536,1,0,0:0:0:0:
448,192,116536,1,0,0:0:0:0:
192,192,116661,1,0,0:0:0:0:
448,192,116661,1,0,0:0:0:0:
64,192,116786,1,0,0:0:0:0:
320,192,116786,1,0,0:0:0:0:
64,192,116911,1,0,0:0:0:0:
320,192,116911,1,0,0:0:0:0:
192,192,117036,1,0,0:0:0:0:
320,192,117036,1,0,0:0:0:0:
448,192,117036,128,0,117536:0:0:0:0:
64,192,117536,1,0,0:0:0:0:
192,192,117536,128,0,118036:0:0:0:0:
320,192,117536,1,0,0:0:0:0:
64,192,117786,1,0,0:0:0:0:
320,192,117849,1,0,0:0:0:0:
448,192,117911,1,0,0:0:0:0:
320,192,117974,1,0,0:0:0:0:
64,192,118036,128,0,118474:0:0:0:0:
448,192,118036,1,0,0:0:0:0:
192,192,118161,1,0,0:0:0:0:
320,192,118161,1,0,0:0:0:0:
192,192,118286,1,0,0:0:0:0:
448,192,118286,1,0,0:0:0:0:
64,192,118536,128,0,119036:0:0:0:0:
448,192,118536,1,0,0:0:0:0:
448,192,118786,1,0,0:0:0:0:
320,192,118849,1,0,0:0:0:0:
192,192,118911,1,0,0:0:0:0:
448,192,118974,1,0,0:0:0:0:
192,192,119036,1,0,0:0:0:0:
320,192,119036,128,0,119286:0:0:0:0:
64,192,119286,1,0,0:0:0:0:
448,192,119286,128,0,119536:0:0:0:0:
64,192,119536,1,0,0:0:0:0:
192,192,119599,1,0,0:0:0:0:
320,192,119661,1,0,0:0:0:0:
192,192,119724,1,0,0:0:0:0:
320,192,119786,1,0,0:0:0:0:
448,192,119849,1,0,0:0:0:0:
192,192,119911,1,0,0:0:0:0:
64,192,119974,1,0,0:0:0:0:
192,192,120036,1,0,0:0:0:0:
448,192,120036,1,0,0:0:0:0:
64,192,120286,1,0,0:0:0:0:
320,192,120286,1,0,0:0:0:0:
192,192,120411,1,0,0:0:0:0:
320,192,120411,1,0,0:0:0:0:
64,192,120536,128,0,121286:0:0:0:0:
192,192,120536,128,0,121286:0:0:0:0:
448,192,120536,1,0,0:0:0:0:
320,192,121286,1,0,0:0:0:0:
448,192,121286,1,0,0:0:0:0:
192,192,121411,1,0,0:0:0:0:
320,192,121411,1,0,0:0:0:0:
64,192,121536,1,0,0:0:0:0:
320,192,121536,1,0,0:0:0:0:
448,192,121536,1,0,0:0:0:0:
192,192,121661,1,0,0:0:0:0:
192,192,121786,1,0,0:0:0:0:
192,192,121911,1,0,0:0:0:0:
320,192,122036,1,0,0:0:0:0:
448,192,122036,1,0,0:0:0:0:
192,192,122161,1,0,0:0:0:0:
192,192,122286,1,0,0:0:0:0:
64,192,122411,1,0,0:0:0:0:
320,192,122411,1,0,0:0:0:0:
192,192,122536,1,0,0:0:0:0:
448,192,122536,1,0,0:0:0:0:
320,192,122599,1,0,0:0:0:0:
192,192,122661,1,0,0:0:0:0:
448,192,122661,1,0,0:0:0:0:
320,192,122724,1,0,0:0:0:0:
64,192,122786,128,0,122911:0:0:0:0:
192,192,122786,128,0,122911:0:0:0:0:
448,192,122786,128,0,122911:0:0:0:0:
448,192,123036,1,0,0:0:0:0:
192,192,123099,1,0,0:0:0:0:
448,192,123161,1,0,0:0:0:0:
192,192,123224,1,0,0:0:0:0:
64,192,123286,128,0,123411:0:0:0:0:
320,192,123286,128,0,123411:0:0:0:0:
448,192,123286,128,0,123411:0:0:0:0:
192,192,123536,1,0,0:0:0:0:
320,192,123599,1,0,0:0:0:0:
192,192,123661,1,0,0:0:0:0:
320,192,123724,1,0,0:0:0:0:
64,192,123786,1,0,0:0:0:0:
448,192,123786,1,0,0:0:0:0:
448,192,123911,1,0,0:0:0:0:
64,192,124036,1,0,0:0:0:0:
320,192,124036,1,0,0:0:0:0:
192,192,124099,1,0,0:0:0:0:
448,192,124161,1,0,0:0:0:0:
64,192,124224,1,0,0:0:0:0:
320,192,124286,1,0,0:0:0:0:
448,192,124349,1,0,0:0:0:0:
320,192,124411,1,0,0:0:0:0:
192,192,124474,1,0,0:0:0:0:
64,192,124536,1,0,0:0:0:0:
320,192,124536,1,0,0:0:0:0:
448,192,124536,128,0,124786:0:0:0:0:
64,192,124786,1,0,0:0:0:0:
320,192,124786,1,0,0:0:0:0:
64,192,124911,1,0,0:0:0:0:
320,192,124911,1,0,0:0:0:0:
192,192,125036,1,0,0:0:0:0:
320,192,125036,1,0,0:0:0:0:
448,192,125036,1,0,0:0:0:0:
64,192,125161,1,0,0:0:0:0:
448,192,125161,1,0,0:0:0:0:
64,192,125286,1,0,0:0:0:0:
448,192,125286,1,0,0:0:0:0:
64,192,125411,1,0,0:0:0:0:
192,192,125411,1,0,0:0:0:0:
320,192,125411,1,0,0:0:0:0:
320,192,125536,1,0,0:0:0:0:
448,192,125536,1,0,0:0:0:0:
192,192,125661,1,0,0:0:0:0:
448,192,125661,1,0,0:0:0:0:
64,192,125786,1,0,0:0:0:0:
192,192,125786,128,0,125974:0:0:0:0:
320,192,125786,1,0,0:0:0:0:
64,192,126036,1,0,0:0:0:0:
192,192,126036,128,0,126286:0:0:0:0:
320,192,126036,1,0,0:0:0:0:
320,192,126286,1,0,0:0:0:0:
448,192,126286,1,0,0:0:0:0:
64,192,126536,1,0,0:0:0:0:
192,192,126536,128,0,126786:0:0:0:0:
320,192,126536,1,0,0:0:0:0:
320,192,126786,1,0,0:0:0:0:
448,192,126786,1,0,0:0:0:0:
320,192,126911,1,0,0:0:0:0:
448,192,126911,1,0,0:0:0:0:
64,192,127036,1,0,0:0:0:0:
448,192,127036,1,0,0:0:0:0:
192,192,127161,1,0,0:0:0:0:
448,192,127161,1,0,0:0:0:0:
64,192,127286,1,0,0:0:0:0:
192,192,127286,1,0,0:0:0:0:
320,192,127286,1,0,0:0:0:0:
64,192,127411,1,0,0:0:0:0:
448,192,127411,1,0,0:0:0:0:
64,192,127536,1,0,0:0:0:0:
192,192,127536,1,0,0:0:0:0:
192,192,127661,1,0,0:0:0:0:
320,192,127661,1,0,0:0:0:0:
448,192,127661,1,0,0:0:0:0:
64,192,127786,1,0,0:0:0:0:
320,192,127786,1,0,0:0:0:0:
192,192,127849,1,0,0:0:0:0:
64,192,127911,1,0,0:0:0:0:
320,192,127911,1,0,0:0:0:0:
192,192,127974,1,0,0:0:0:0:
64,192,128036,128,0,128161:0:0:0:0:
320,192,128036,128,0,128161:0:0:0:0:
448,192,128036,128,0,128161:0:0:0:0:
64,192,128286,1,0,0:0:0:0:
320,192,128349,1,0,0:0:0:0:
64,192,128411,1,0,0:0:0:0:
320,192,128474,1,0,0:0:0:0:
64,192,128536,128,0,128661:0:0:0:0:
192,192,128536,128,0,128661:0:0:0:0:
448,192,128536,128,0,128661:0:0:0:0:
320,192,128786,128,0,129036:0:0:0:0:
448,192,128786,1,0,0:0:0:0:
64,192,129036,1,0,0:0:0:0:
448,192,129036,1,0,0:0:0:0:
64,192,129161,1,0,0:0:0:0:
448,192,129161,1,0,0:0:0:0:
192,192,129286,128,0,129536:0:0:0:0:
320,192,129286,1,0,0:0:0:0:
448,192,129286,1,0,0:0:0:0:
64,192,129536,128,0,129599:0:0:0:0:
448,192,129536,1,0,0:0:0:0:
192,192,129661,1,0,0:0:0:0:
320,192,129661,1,0,0:0:0:0:
64,192,129786,1,0,0:0:0:0:
320,192,129786,1,0,0:0:0:0:
448,192,129786,128,0,130036:0:0:0:0:
64,192,130036,128,0,130286:0:0:0:0:
192,192,130036,1,0,0:0:0:0:
320,192,130036,1,0,0:0:0:0:
192,192,130286,1,0,0:0:0:0:
320,192,130286,1,0,0:0:0:0:
448,192,130286,1,0,0:0:0:0:
64,192,130411,1,0,0:0:0:0:
320,192,130411,1,0,0:0:0:0:
64,192,130536,1,0,0:0:0:0:
320,192,130536,1,0,0:0:0:0:
64,192,130661,1,0,0:0:0:0:
192,192,130661,1,0,0:0:0:0:
448,192,130661,1,0,0:0:0:0:
64,192,130786,1,0,0:0:0:0:
320,192,130786,1,0,0:0:0:0:
448,192,130786,1,0,0:0:0:0:
192,192,130911,1,0,0:0:0:0:
320,192,130911,1,0,0:0:0:0:
64,192,131036,1,0,0:0:0:0:
192,192,131036,1,0,0:0:0:0:
448,192,131036,128,0,131224:0:0:0:0:
64,192,131286,1,0,0:0:0:0:
192,192,131286,1,0,0:0:0:0:
448,192,131286,128,0,131536:0:0:0:0:
64,192,131536,128,0,131786:0:0:0:0:
192,192,131536,1,0,0:0:0:0:
320,192,131536,1,0,0:0:0:0:
192,192,131786,1,0,0:0:0:0:
320,192,131786,128,0,131849:0:0:0:0:
448,192,131786,128,0,132036:0:0:0:0:
64,192,132036,1,0,0:0:0:0:
192,192,132099,1,0,0:0:0:0:
448,192,132161,1,0,0:0:0:0:
64,192,132224,1,0,0:0:0:0:
448,192,132286,1,0,0:0:0:0:
320,192,132349,1,0,0:0:0:0:
64,192,132411,1,0,0:0:0:0:
192,192,132474,1,0,0:0:0:0:
64,192,132536,1,0,0:0:0:0:
448,192,132536,1,0,0:0:0:0:
320,192,132599,1,0,0:0:0:0:
192,192,132661,1,0,0:0:0:0:
448,192,132724,1,0,0:0:0:0:
64,192,132786,1,0,0:0:0:0:
320,192,132849,1,0,0:0:0:0:
64,192,132911,1,0,0:0:0:0:
192,192,132911,1,0,0:0:0:0:
448,192,132974,1,0,0:0:0:0:
64,192,133036,1,0,0:0:0:0:
320,192,133036,1,0,0:0:0:0:
192,192,133099,1,0,0:0:0:0:
320,192,133161,1,0,0:0:0:0:
192,192,133224,1,0,0:0:0:0:
64,192,133286,1,0,0:0:0:0:
320,192,133286,1,0,0:0:0:0:
448,192,133286,1,0,0:0:0:0:
192,192,133349,1,0,0:0:0:0:
448,192,133411,1,0,0:0:0:0:
64,192,133474,1,0,0:0:0:0:
320,192,133536,1,0,0:0:0:0:
192,192,133599,1,0,0:0:0:0:
448,192,133661,1,0,0:0:0:0:
64,192,133724,1,0,0:0:0:0:
192,192,133786,128,0,133911:0:0:0:0:
320,192,133786,128,0,133911:0:0:0:0:
448,192,133786,128,0,133911:0:0:0:0:
64,192,134036,1,0,0:0:0:0:
192,192,134119,1,0,0:0:0:0:
320,192,134202,1,0,0:0:0:0:
192,192,134286,1,0,0:0:0:0:
320,192,134369,1,0,0:0:0:0:
448,192,134452,1,0,0:0:0:0:
64,192,134536,128,0,134661:0:0:0:0:
192,192,134536,128,0,134661:0:0:0:0:
320,192,134536,128,0,134661:0:0:0:0:
448,192,134786,1,0,0:0:0:0:
192,192,134869,1,0,0:0:0:0:
448,192,134952,1,0,0:0:0:0:
64,192,135036,128,0,135286:0:0:0:0:
192,192,135036,1,0,0:0:0:0:
320,192,135036,1,0,0:0:0:0:
192,192,135286,1,0,0:0:0:0:
320,192,135286,1,0,0:0:0:0:
448,192,135286,128,0,135536:0:0:0:0:
64,192,135536,1,0,0:0:0:0:
192,192,135536,1,0,0:0:0:0:
320,192,135536,1,0,0:0:0:0:
192,192,135661,1,0,0:0:0:0:
448,192,135661,1,0,0:0:0:0:
192,192,135786,1,0,0:0:0:0:
448,192,135786,1,0,0:0:0:0:
64,192,135911,1,0,0:0:0:0:
320,192,135911,1,0,0:0:0:0:
448,192,135911,1,0,0:0:0:0:
64,192,136036,1,0,0:0:0:0:
192,192,136036,1,0,0:0:0:0:
448,192,136036,1,0,0:0:0:0:
192,192,136161,1,0,0:0:0:0:
320,192,136161,1,0,0:0:0:0:
64,192,136286,128,0,136474:0:0:0:0:
320,192,136286,1,0,0:0:0:0:
448,192,136286,1,0,0:0:0:0:
64,192,136536,128,0,136786:0:0:0:0:
320,192,136536,1,0,0:0:0:0:
448,192,136536,1,0,0:0:0:0:
192,192,136786,1,0,0:0:0:0:
320,192,136786,1,0,0:0:0:0:
448,192,136786,128,0,137036:0:0:0:0:
64,192,137036,128,0,137286:0:0:0:0:
192,192,137036,1,0,0:0:0:0:
320,192,137036,1,0,0:0:0:0:
448,192,137286,1,0,0:0:0:0:
320,192,137349,1,0,0:0:0:0:
64,192,137411,1,0,0:0:0:0:
448,192,137474,1,0,0:0:0:0:
64,192,137536,1,0,0:0:0:0:
192,192,137599,1,0,0:0:0:0:
448,192,137661,1,0,0:0:0:0:
320,192,137724,1,0,0:0:0:0:
64,192,137786,1,0,0:0:0:0:
448,192,137786,1,0,0:0:0:0:
192,192,137849,1,0,0:0:0:0:
320,192,137911,1,0,0:0:0:0:
64,192,137974,1,0,0:0:0:0:
448,192,138036,1,0,0:0:0:0:
192,192,138099,1,0,0:0:0:0:
320,192,138161,1,0,0:0:0:0:
448,192,138161,1,0,0:0:0:0:
64,192,138224,1,0,0:0:0:0:
192,192,138286,1,0,0:0:0:0:
448,192,138286,1,0,0:0:0:0:
320,192,138349,1,0,0:0:0:0:
192,192,138411,1,0,0:0:0:0:
320,192,138474,1,0,0:0:0:0:
64,192,138536,1,0,0:0:0:0:
192,192,138536,1,0,0:0:0:0:
448,192,138536,1,0,0:0:0:0:
320,192,138599,1,0,0:0:0:0:
64,192,138661,1,0,0:0:0:0:
448,192,138724,1,0,0:0:0:0:
192,192,138786,1,0,0:0:0:0:
320,192,138849,1,0,0:0:0:0:
64,192,138911,1,0,0:0:0:0:
448,192,138974,1,0,0:0:0:0:
64,192,139036,128,0,139161:0:0:0:0:
192,192,139036,128,0,139161:0:0:0:0:
320,192,139036,128,0,139161:0:0:0:0:
448,192,139286,1,0,0:0:0:0:
320,192,139369,1,0,0:0:0:0:
192,192,139452,1,0,0:0:0:0:
320,192,139536,1,0,0:0:0:0:
192,192,139619,1,0,0:0:0:0:
64,192,139702,1,0,0:0:0:0:
192,192,139786,128,0,139911:0:0:0:0:
320,192,139786,128,0,139911:0:0:0:0:
448,192,139786,128,0,139911:0:0:0:0:
64,192,140036,1,0,0:0:0:0:
320,192,140119,1,0,0:0:0:0:
64,192,140202,1,0,0:0:0:0:
192,192,140286,1,0,0:0:0:0:
320,192,140286,1,0,0:0:0:0:
448,192,140286,128,0,140536:0:0:0:0:
64,192,140536,128,0,140786:0:0:0:0:
192,192,140536,1,0,0:0:0:0:
320,192,140536,1,0,0:0:0:0:
192,192,140786,1,0,0:0:0:0:
320,192,140786,1,0,0:0:0:0:
448,192,140786,1,0,0:0:0:0:
64,192,140911,1,0,0:0:0:0:
320,192,140911,1,0,0:0:0:0:
64,192,141036,1,0,0:0:0:0:
320,192,141036,1,0,0:0:0:0:
64,192,141161,1,0,0:0:0:0:
192,192,141161,1,0,0:0:0:0:
448,192,141161,1,0,0:0:0:0:
64,192,141286,1,0,0:0:0:0:
320,192,141286,1,0,0:0:0:0:
448,192,141286,1,0,0:0:0:0:
192,192,141411,1,0,0:0:0:0:
320,192,141411,1,0,0:0:0:0:
64,192,141536,1,0,0:0:0:0:
192,192,141536,1,0,0:0:0:0:
448,192,141536,128,0,141724:0:0:0:0:
64,192,141786,1,0,0:0:0:0:
192,192,141786,1,0,0:0:0:0:
448,192,141786,128,0,142036:0:0:0:0:
64,192,142036,128,0,142286:0:0:0:0:
192,192,142036,1,0,0:0:0:0:
320,192,142036,1,0,0:0:0:0:
192,192,142286,1,0,0:0:0:0:
448,192,142286,1,0,0:0:0:0:
64,192,142411,1,0,0:0:0:0:
320,192,142411,1,0,0:0:0:0:
64,192,142536,1,0,0:0:0:0:
192,192,142536,128,0,142599:0:0:0:0:
448,192,142536,1,0,0:0:0:0:
64,192,142786,1,0,0:0:0:0:
320,192,142786,1,0,0:0:0:0:
448,192,142786,1,0,0:0:0:0:
192,192,142911,1,0,0:0:0:0:
320,192,143036,1,0,0:0:0:0:
320,192,143161,1,0,0:0:0:0:
64,192,143286,1,0,0:0:0:0:
448,192,143286,1,0,0:0:0:0:
192,192,143411,1,0,0:0:0:0:
192,192,143536,1,0,0:0:0:0:
320,192,143661,128,0,143786:0:0:0:0:
64,192,143786,1,0,0:0:0:0:
192,192,143786,1,0,0:0:0:0:
448,192,143849,1,0,0:0:0:0:
64,192,143911,1,0,0:0:0:0:
192,192,143911,1,0,0:0:0:0:
448,192,143974,1,0,0:0:0:0:
64,192,144036,128,0,144161:0:0:0:0:
192,192,144036,128,0,144161:0:0:0:0:
320,192,144036,128,0,144161:0:0:0:0:
448,192,144286,128,0,144349:0:0:0:0:
320,192,144411,128,0,144474:0:0:0:0:
64,192,144536,128,0,144599:0:0:0:0:
448,192,144661,128,0,144786:0:0:0:0:
64,192,144786,128,0,145036:0:0:0:0:
192,192,144786,1,0,0:0:0:0:
320,192,144786,1,0,0:0:0:0:
192,192,145036,1,0,0:0:0:0:
448,192,145036,1,0,0:0:0:0:
64,192,145161,1,0,0:0:0:0:
320,192,145161,1,0,0:0:0:0:
448,192,145161,1,0,0:0:0:0:
192,192,145286,128,0,145536:0:0:0:0:
448,192,145286,1,0,0:0:0:0:
64,192,145536,1,0,0:0:0:0:
320,192,145536,1,0,0:0:0:0:
64,192,145661,1,0,0:0:0:0:
192,192,145661,1,0,0:0:0:0:
448,192,145661,1,0,0:0:0:0:
64,192,145786,1,0,0:0:0:0:
320,192,145786,1,0,0:0:0:0:
448,192,145817,1,0,0:0:0:0:
192,192,145849,1,0,0:0:0:0:
320,192,145911,1,0,0:0:0:0:
320,192,146036,1,0,0:0:0:0:
192,192,146161,128,0,146224:0:0:0:0:
64,192,146224,1,0,0:0:0:0:
320,192,146286,128,0,146349:0:0:0:0:
192,192,146349,1,0,0:0:0:0:
448,192,146411,128,0,146474:0:0:0:0:
320,192,146474,1,0,0:0:0:0:
64,192,146536,1,0,0:0:0:0:
192,192,146536,1,0,0:0:0:0:
64,192,146661,1,0,0:0:0:0:
320,192,146661,1,0,0:0:0:0:
64,192,146786,1,0,0:0:0:0:
192,192,146786,1,0,0:0:0:0:
448,192,146849,1,0,0:0:0:0:
320,192,146911,1,0,0:0:0:0:
192,192,146974,1,0,0:0:0:0:
448,192,147036,1,0,0:0:0:0:
320,192,147099,1,0,0:0:0:0:
192,192,147161,128,0,147224:0:0:0:0:
64,192,147224,1,0,0:0:0:0:
320,192,147286,128,0,147349:0:0:0:0:
192,192,147349,1,0,0:0:0:0:
64,192,147411,1,0,0:0:0:0:
448,192,147411,128,0,147474:0:0:0:0:
320,192,147474,1,0,0:0:0:0:
64,192,147536,1,0,0:0:0:0:
192,192,147599,1,0,0:0:0:0:
320,192,147661,128,0,147786:0:0:0:0:
64,192,147786,1,0,0:0:0:0:
448,192,147786,1,0,0:0:0:0:
64,192,147911,1,0,0:0:0:0:
320,192,147911,1,0,0:0:0:0:
192,192,148036,1,0,0:0:0:0:
448,192,148036,1,0,0:0:0:0:
64,192,148161,1,0,0:0:0:0:
320,192,148161,1,0,0:0:0:0:
448,192,148161,1,0,0:0:0:0:
192,192,148224,1,0,0:0:0:0:
64,192,148286,1,0,0:0:0:0:
320,192,148349,1,0,0:0:0:0:
192,192,148411,1,0,0:0:0:0:
448,192,148474,1,0,0:0:0:0:
64,192,148536,1,0,0:0:0:0:
320,192,148536,1,0,0:0:0:0:
64,192,148661,1,0,0:0:0:0:
320,192,148661,1,0,0:0:0:0:
64,192,148786,1,0,0:0:0:0:
192,192,148786,1,0,0:0:0:0:
448,192,148786,1,0,0:0:0:0:
448,192,148911,1,0,0:0:0:0:
448,192,149036,1,0,0:0:0:0:
64,192,149161,1,0,0:0:0:0:
320,192,149161,1,0,0:0:0:0:
64,192,149286,1,0,0:0:0:0:
192,192,149286,1,0,0:0:0:0:
448,192,149286,1,0,0:0:0:0:
192,192,149411,1,0,0:0:0:0:
64,192,149536,1,0,0:0:0:0:
320,192,149536,1,0,0:0:0:0:
192,192,149661,1,0,0:0:0:0:
320,192,149661,1,0,0:0:0:0:
448,192,149661,1,0,0:0:0:0:
320,192,149786,1,0,0:0:0:0:
448,192,149786,1,0,0:0:0:0:
64,192,149869,1,0,0:0:0:0:
192,192,149953,1,0,0:0:0:0:
64,192,150036,1,0,0:0:0:0:
320,192,150119,1,0,0:0:0:0:
64,192,150203,1,0,0:0:0:0:
192,192,150286,1,0,0:0:0:0:
448,192,150286,1,0,0:0:0:0:
192,192,150411,1,0,0:0:0:0:
192,192,150536,1,0,0:0:0:0:
64,192,150661,1,0,0:0:0:0:
448,192,150661,1,0,0:0:0:0:
64,192,150786,1,0,0:0:0:0:
320,192,150786,128,0,151036:0:0:0:0:
448,192,150786,1,0,0:0:0:0:
64,192,151036,1,0,0:0:0:0:
192,192,151088,1,0,0:0:0:0:
448,192,151135,1,0,0:0:0:0:
64,192,151187,1,0,0:0:0:0:
320,192,151234,1,0,0:0:0:0:
192,192,151286,1,0,0:0:0:0:
448,192,151286,1,0,0:0:0:0:
64,192,151411,1,0,0:0:0:0:
192,192,151536,1,0,0:0:0:0:
320,192,151536,1,0,0:0:0:0:
448,192,151661,1,0,0:0:0:0:
64,192,151786,1,0,0:0:0:0:
192,192,151786,1,0,0:0:0:0:
320,192,151786,1,0,0:0:0:0:
192,192,151911,1,0,0:0:0:0:
448,192,151911,1,0,0:0:0:0:
64,192,152036,1,0,0:0:0:0:
320,192,152036,1,0,0:0:0:0:
448,192,152036,1,0,0:0:0:0:
64,192,152161,1,0,0:0:0:0:
192,192,152161,1,0,0:0:0:0:
192,192,152286,1,0,0:0:0:0:
320,192,152286,1,0,0:0:0:0:
448,192,152286,1,0,0:0:0:0:
64,192,152411,1,0,0:0:0:0:
320,192,152411,1,0,0:0:0:0:
64,192,152536,128,0,152786:0:0:0:0:
192,192,152536,128,0,152786:0:0:0:0:
448,192,152536,1,0,0:0:0:0:
320,192,152786,1,0,0:0:0:0:
448,192,152786,1,0,0:0:0:0:
320,192,152911,1,0,0:0:0:0:
448,192,152911,1,0,0:0:0:0:
64,192,153036,128,0,153161:0:0:0:0:
448,192,153036,1,0,0:0:0:0:
192,192,153161,128,0,153286:0:0:0:0:
320,192,153286,1,0,0:0:0:0:
448,192,153286,1,0,0:0:0:0:
320,192,153411,1,0,0:0:0:0:
192,192,153536,128,0,153661:0:0:0:0:
448,192,153536,1,0,0:0:0:0:
320,192,153661,128,0,153786:0:0:0:0:
64,192,153786,1,0,0:0:0:0:
448,192,153786,128,0,154036:0:0:0:0:
64,192,153911,1,0,0:0:0:0:
64,192,154036,1,0,0:0:0:0:
192,192,154088,1,0,0:0:0:0:
320,192,154135,1,0,0:0:0:0:
192,192,154187,1,0,0:0:0:0:
320,192,154234,1,0,0:0:0:0:
64,192,154286,1,0,0:0:0:0:
448,192,154286,1,0,0:0:0:0:
192,192,154411,1,0,0:0:0:0:
64,192,154536,1,0,0:0:0:0:
448,192,154536,1,0,0:0:0:0:
320,192,154661,1,0,0:0:0:0:
64,192,154786,1,0,0:0:0:0:
192,192,154786,1,0,0:0:0:0:
448,192,154786,128,0,155036:0:0:0:0:
320,192,155036,1,0,0:0:0:0:
192,192,155099,1,0,0:0:0:0:
64,192,155161,1,0,0:0:0:0:
320,192,155224,1,0,0:0:0:0:
64,192,155286,1,0,0:0:0:0:
192,192,155286,1,0,0:0:0:0:
448,192,155286,1,0,0:0:0:0:
320,192,155411,1,0,0:0:0:0:
448,192,155411,1,0,0:0:0:0:
64,192,155536,1,0,0:0:0:0:
192,192,155536,1,0,0:0:0:0:
320,192,155536,1,0,0:0:0:0:
64,192,155661,1,0,0:0:0:0:
192,192,155661,1,0,0:0:0:0:
64,192,155786,1,0,0:0:0:0:
320,192,155786,1,0,0:0:0:0:
448,192,155786,1,0,0:0:0:0:
320,192,155911,1,0,0:0:0:0:
64,192,156036,1,0,0:0:0:0:
192,192,156036,1,0,0:0:0:0:
448,192,156036,1,0,0:0:0:0:
192,192,156161,1,0,0:0:0:0:
64,192,156286,1,0,0:0:0:0:
320,192,156286,1,0,0:0:0:0:
448,192,156286,1,0,0:0:0:0:
64,192,156411,1,0,0:0:0:0:
192,192,156536,1,0,0:0:0:0:
320,192,156536,1,0,0:0:0:0:
448,192,156536,1,0,0:0:0:0:
64,192,156661,1,0,0:0:0:0:
320,192,156661,1,0,0:0:0:0:
64,192,156786,1,0,0:0:0:0:
448,192,156786,1,0,0:0:0:0:
192,192,156786,1,0,0:0:0:0:
320,192,156911,1,0,0:0:0:0:
448,192,157036,1,0,0:0:0:0:
192,192,157119,1,0,0:0:0:0:
320,192,157202,1,0,0:0:0:0:
64,192,157286,1,0,0:0:0:0:
448,192,157286,1,0,0:0:0:0:
192,192,157411,1,0,0:0:0:0:
64,192,157536,1,0,0:0:0:0:
320,192,157536,1,0,0:0:0:0:
448,192,157536,1,0,0:0:0:0:
320,192,157661,1,0,0:0:0:0:
64,192,157786,1,0,0:0:0:0:
192,192,157786,128,0,157911:0:0:0:0:
448,192,157786,1,0,0:0:0:0:
320,192,157911,128,0,158036:0:0:0:0:
448,192,158036,128,0,158161:0:0:0:0:
320,192,158161,128,0,158286:0:0:0:0:
64,192,158286,1,0,0:0:0:0:
192,192,158286,1,0,0:0:0:0:
320,192,158411,1,0,0:0:0:0:
64,192,158536,1,0,0:0:0:0:
320,192,158536,1,0,0:0:0:0:
192,192,158661,1,0,0:0:0:0:
448,192,158661,1,0,0:0:0:0:
64,192,158786,1,0,0:0:0:0:
448,192,158786,1,0,0:0:0:0:
192,192,158849,1,0,0:0:0:0:
64,192,158911,1,0,0:0:0:0:
320,192,158911,1,0,0:0:0:0:
192,192,158974,1,0,0:0:0:0:
64,192,159036,1,0,0:0:0:0:
448,192,159036,1,0,0:0:0:0:
192,192,159099,1,0,0:0:0:0:
64,192,159161,1,0,0:0:0:0:
320,192,159161,1,0,0:0:0:0:
192,192,159224,1,0,0:0:0:0:
320,192,159286,1,0,0:0:0:0:
448,192,159286,1,0,0:0:0:0:
64,192,159349,1,0,0:0:0:0:
192,192,159411,1,0,0:0:0:0:
448,192,159411,1,0,0:0:0:0:
320,192,159474,1,0,0:0:0:0:
64,192,159536,1,0,0:0:0:0:
192,192,159536,1,0,0:0:0:0:
448,192,159599,1,0,0:0:0:0:
64,192,159661,1,0,0:0:0:0:
320,192,159661,1,0,0:0:0:0:
192,192,159724,1,0,0:0:0:0:
320,192,159786,1,0,0:0:0:0:
448,192,159786,1,0,0:0:0:0:
64,192,159849,1,0,0:0:0:0:
192,192,159911,1,0,0:0:0:0:
320,192,159911,1,0,0:0:0:0:
448,192,159974,1,0,0:0:0:0:
64,192,160036,1,0,0:0:0:0:
192,192,160036,1,0,0:0:0:0:
320,192,160099,1,0,0:0:0:0:
192,192,160161,1,0,0:0:0:0:
448,192,160161,1,0,0:0:0:0:
64,192,160224,1,0,0:0:0:0:
320,192,160286,1,0,0:0:0:0:
192,192,160411,1,0,0:0:0:0:
320,192,160536,1,0,0:0:0:0:
448,192,160536,1,0,0:0:0:0:
320,192,160661,1,0,0:0:0:0:
448,192,160661,1,0,0:0:0:0:
64,192,160786,1,0,0:0:0:0:
192,192,160786,1,0,0:0:0:0:
448,192,160786,1,0,0:0:0:0:
320,192,160911,1,0,0:0:0:0:
192,192,161036,1,0,0:0:0:0:
320,192,161119,1,0,0:0:0:0:
448,192,161203,1,0,0:0:0:0:
64,192,161286,1,0,0:0:0:0:
320,192,161286,1,0,0:0:0:0:
192,192,161411,1,0,0:0:0:0:
448,192,161411,1,0,0:0:0:0:
320,192,161536,1,0,0:0:0:0:
448,192,161536,1,0,0:0:0:0:
64,192,161661,1,0,0:0:0:0:
192,192,161661,1,0,0:0:0:0:
64,192,161786,1,0,0:0:0:0:
320,192,161786,1,0,0:0:0:0:
448,192,161786,1,0,0:0:0:0:
192,192,161911,1,0,0:0:0:0:
448,192,161911,1,0,0:0:0:0:
192,192,162036,1,0,0:0:0:0:
320,192,162036,1,0,0:0:0:0:
64,192,162161,1,0,0:0:0:0:
320,192,162161,1,0,0:0:0:0:
64,192,162286,1,0,0:0:0:0:
192,192,162286,1,0,0:0:0:0:
448,192,162286,128,0,162786:0:0:0:0:
192,192,162411,1,0,0:0:0:0:
192,192,162536,1,0,0:0:0:0:
192,192,162661,1,0,0:0:0:0:
64,192,162786,1,0,0:0:0:0:
320,192,162786,1,0,0:0:0:0:
192,192,162849,1,0,0:0:0:0:
320,192,162911,1,0,0:0:0:0:
448,192,162911,1,0,0:0:0:0:
64,192,162974,1,0,0:0:0:0:
192,192,163036,1,0,0:0:0:0:
448,192,163036,1,0,0:0:0:0:
320,192,163099,1,0,0:0:0:0:
64,192,163161,1,0,0:0:0:0:
192,192,163161,1,0,0:0:0:0:
448,192,163224,1,0,0:0:0:0:
64,192,163286,1,0,0:0:0:0:
320,192,163286,1,0,0:0:0:0:
192,192,163349,1,0,0:0:0:0:
448,192,163411,1,0,0:0:0:0:
192,192,163474,1,0,0:0:0:0:
320,192,163536,1,0,0:0:0:0:
448,192,163536,1,0,0:0:0:0:
64,192,163599,1,0,0:0:0:0:
320,192,163661,1,0,0:0:0:0:
64,192,163724,1,0,0:0:0:0:
192,192,163786,1,0,0:0:0:0:
448,192,163786,1,0,0:0:0:0:
320,192,163849,1,0,0:0:0:0:
64,192,163911,1,0,0:0:0:0:
192,192,163974,1,0,0:0:0:0:
320,192,164036,1,0,0:0:0:0:
448,192,164036,1,0,0:0:0:0:
192,192,164099,1,0,0:0:0:0:
64,192,164161,1,0,0:0:0:0:
448,192,164224,1,0,0:0:0:0:
64,192,164286,1,0,0:0:0:0:
192,192,164286,1,0,0:0:0:0:
320,192,164286,128,0,164536:0:0:0:0:
192,192,164536,1,0,0:0:0:0:
448,192,164536,1,0,0:0:0:0:
192,192,164661,1,0,0:0:0:0:
448,192,164661,1,0,0:0:0:0:
64,192,164786,1,0,0:0:0:0:
320,192,164786,1,0,0:0:0:0:
448,192,164786,1,0,0:0:0:0:
192,192,164911,1,0,0:0:0:0:
320,192,165036,1,0,0:0:0:0:
448,192,165036,1,0,0:0:0:0:
64,192,165161,1,0,0:0:0:0:
320,192,165286,1,0,0:0:0:0:
448,192,165286,1,0,0:0:0:0:
64,192,165411,1,0,0:0:0:0:
320,192,165411,1,0,0:0:0:0:
192,192,165536,1,0,0:0:0:0:
448,192,165536,1,0,0:0:0:0:
320,192,165661,1,0,0:0:0:0:
192,192,165786,1,0,0:0:0:0:
448,192,165786,1,0,0:0:0:0:
320,192,165911,1,0,0:0:0:0:
448,192,165911,1,0,0:0:0:0:
64,192,166036,1,0,0:0:0:0:
192,192,166036,1,0,0:0:0:0:
64,192,166161,1,0,0:0:0:0:
448,192,166161,1,0,0:0:0:0:
64,192,166286,1,0,0:0:0:0:
448,192,166286,1,0,0:0:0:0:
64,192,166411,1,0,0:0:0:0:
448,192,166411,1,0,0:0:0:0:
64,192,166536,1,0,0:0:0:0:
448,192,166536,1,0,0:0:0:0:
320,192,166599,1,0,0:0:0:0:
192,192,166661,1,0,0:0:0:0:
320,192,166724,1,0,0:0:0:0:
64,192,166786,1,0,0:0:0:0:
192,192,166786,1,0,0:0:0:0:
448,192,166786,1,0,0:0:0:0:
320,192,166911,1,0,0:0:0:0:
448,192,166911,1,0,0:0:0:0:
192,192,167036,1,0,0:0:0:0:
64,192,167161,1,0,0:0:0:0:
192,192,167161,1,0,0:0:0:0:
320,192,167286,1,0,0:0:0:0:
448,192,167286,1,0,0:0:0:0:
64,192,167411,1,0,0:0:0:0:
192,192,167536,1,0,0:0:0:0:
320,192,167536,1,0,0:0:0:0:
448,192,167661,1,0,0:0:0:0:
64,192,167786,1,0,0:0:0:0:
192,192,167786,1,0,0:0:0:0:
320,192,167786,1,0,0:0:0:0:
448,192,167911,1,0,0:0:0:0:
64,192,168036,1,0,0:0:0:0:
320,192,168036,1,0,0:0:0:0:
192,192,168161,1,0,0:0:0:0:
64,192,168286,1,0,0:0:0:0:
448,192,168286,1,0,0:0:0:0:
320,192,168349,1,0,0:0:0:0:
192,192,168411,1,0,0:0:0:0:
320,192,168474,1,0,0:0:0:0:
64,192,168536,1,0,0:0:0:0:
448,192,168599,1,0,0:0:0:0:
192,192,168661,1,0,0:0:0:0:
64,192,168724,1,0,0:0:0:0:
192,192,168786,1,0,0:0:0:0:
320,192,168786,1,0,0:0:0:0:
448,192,168786,1,0,0:0:0:0:
64,192,168911,1,0,0:0:0:0:
448,192,168911,1,0,0:0:0:0:
192,192,169036,1,0,0:0:0:0:
320,192,169036,1,0,0:0:0:0:
64,192,169099,1,0,0:0:0:0:
192,192,169161,1,0,0:0:0:0:
448,192,169161,1,0,0:0:0:0:
320,192,169286,1,0,0:0:0:0:
64,192,169411,1,0,0:0:0:0:
192,192,169411,1,0,0:0:0:0:
192,192,169536,1,0,0:0:0:0:
320,192,169536,1,0,0:0:0:0:
448,192,169599,1,0,0:0:0:0:
64,192,169661,1,0,0:0:0:0:
320,192,169661,1,0,0:0:0:0:
192,192,169786,1,0,0:0:0:0:
320,192,169911,1,0,0:0:0:0:
448,192,169911,1,0,0:0:0:0:
64,192,170036,1,0,0:0:0:0:
320,192,170161,1,0,0:0:0:0:
448,192,170161,1,0,0:0:0:0:
192,192,170286,1,0,0:0:0:0:
320,192,170286,1,0,0:0:0:0:
64,192,170349,1,0,0:0:0:0:
192,192,170411,1,0,0:0:0:0:
448,192,170411,1,0,0:0:0:0:
192,192,170536,1,0,0:0:0:0:
320,192,170536,1,0,0:0:0:0:
448,192,170599,1,0,0:0:0:0:
64,192,170661,1,0,0:0:0:0:
320,192,170661,1,0,0:0:0:0:
192,192,170786,1,0,0:0:0:0:
448,192,170786,1,0,0:0:0:0:
320,192,170849,1,0,0:0:0:0:
192,192,170911,1,0,0:0:0:0:
448,192,170911,1,0,0:0:0:0:
64,192,170974,1,0,0:0:0:0:
320,192,171036,1,0,0:0:0:0:
448,192,171036,1,0,0:0:0:0:
64,192,171099,1,0,0:0:0:0:
192,192,171161,1,0,0:0:0:0:
320,192,171161,1,0,0:0:0:0:
448,192,171224,1,0,0:0:0:0:
64,192,171286,1,0,0:0:0:0:
192,192,171286,1,0,0:0:0:0:
448,192,171349,1,0,0:0:0:0:
64,192,171411,1,0,0:0:0:0:
192,192,171411,1,0,0:0:0:0:
320,192,171474,1,0,0:0:0:0:
64,192,171536,1,0,0:0:0:0:
448,192,171536,1,0,0:0:0:0:
192,192,171599,1,0,0:0:0:0:
320,192,171661,1,0,0:0:0:0:
448,192,171661,1,0,0:0:0:0:
64,192,171724,1,0,0:0:0:0:
192,192,171786,1,0,0:0:0:0:
320,192,171786,1,0,0:0:0:0:
448,192,171786,1,0,0:0:0:0:
64,192,171849,1,0,0:0:0:0:
192,192,171911,1,0,0:0:0:0:
448,192,171974,1,0,0:0:0:0:
320,192,172036,1,0,0:0:0:0:
192,192,172099,1,0,0:0:0:0:
64,192,172161,1,0,0:0:0:0:
192,192,172224,1,0,0:0:0:0:
320,192,172286,1,0,0:0:0:0:
448,192,172286,1,0,0:0:0:0:
64,192,172349,1,0,0:0:0:0:
192,192,172411,1,0,0:0:0:0:
448,192,172474,1,0,0:0:0:0:
64,192,172536,1,0,0:0:0:0:
192,192,172599,1,0,0:0:0:0:
320,192,172661,1,0,0:0:0:0:
192,192,172724,1,0,0:0:0:0:
64,192,172786,1,0,0:0:0:0:
320,192,172786,1,0,0:0:0:0:
448,192,172786,1,0,0:0:0:0:
192,192,172849,1,0,0:0:0:0:
320,192,172911,1,0,0:0:0:0:
448,192,172911,1,0,0:0:0:0:
64,192,172974,1,0,0:0:0:0:
192,192,173036,1,0,0:0:0:0:
448,192,173036,1,0,0:0:0:0:
320,192,173099,1,0,0:0:0:0:
64,192,173161,1,0,0:0:0:0:
192,192,173161,1,0,0:0:0:0:
448,192,173224,1,0,0:0:0:0:
64,192,173286,1,0,0:0:0:0:
320,192,173286,1,0,0:0:0:0:
192,192,173349,1,0,0:0:0:0:
320,192,173411,1,0,0:0:0:0:
448,192,173411,1,0,0:0:0:0:
64,192,173474,1,0,0:0:0:0:
192,192,173536,1,0,0:0:0:0:
320,192,173536,1,0,0:0:0:0:
64,192,173599,1,0,0:0:0:0:
192,192,173661,1,0,0:0:0:0:
448,192,173661,1,0,0:0:0:0:
320,192,173724,1,0,0:0:0:0:
64,192,173786,1,0,0:0:0:0:
192,192,173786,1,0,0:0:0:0:
320,192,173849,1,0,0:0:0:0:
64,192,173911,1,0,0:0:0:0:
448,192,173911,1,0,0:0:0:0:
192,192,173974,1,0,0:0:0:0:
320,192,174036,1,0,0:0:0:0:
448,192,174036,1,0,0:0:0:0:
64,192,174099,1,0,0:0:0:0:
192,192,174161,1,0,0:0:0:0:
448,192,174161,1,0,0:0:0:0:
320,192,174224,1,0,0:0:0:0:
64,192,174286,1,0,0:0:0:0:
192,192,174286,1,0,0:0:0:0:
448,192,174349,1,0,0:0:0:0:
64,192,174411,1,0,0:0:0:0:
320,192,174411,1,0,0:0:0:0:
192,192,174474,1,0,0:0:0:0:
320,192,174536,1,0,0:0:0:0:
448,192,174536,1,0,0:0:0:0:
64,192,174599,1,0,0:0:0:0:
192,192,174661,1,0,0:0:0:0:
320,192,174661,1,0,0:0:0:0:
448,192,174724,1,0,0:0:0:0:
64,192,174786,1,0,0:0:0:0:
320,192,174786,1,0,0:0:0:0:
192,192,174849,1,0,0:0:0:0:
64,192,174911,1,0,0:0:0:0:
448,192,174911,1,0,0:0:0:0:
192,192,174974,1,0,0:0:0:0:
64,192,175036,1,0,0:0:0:0:
320,192,175036,1,0,0:0:0:0:
448,192,175099,1,0,0:0:0:0:
192,192,175161,1,0,0:0:0:0:
320,192,175161,1,0,0:0:0:0:
64,192,175224,1,0,0:0:0:0:
192,192,175286,1,0,0:0:0:0:
448,192,175286,1,0,0:0:0:0:
320,192,175349,1,0,0:0:0:0:
64,192,175411,1,0,0:0:0:0:
448,192,175411,1,0,0:0:0:0:
192,192,175474,1,0,0:0:0:0:
64,192,175536,1,0,0:0:0:0:
320,192,175536,1,0,0:0:0:0:
448,192,175599,1,0,0:0:0:0:
192,192,175661,1,0,0:0:0:0:
320,192,175661,1,0,0:0:0:0:
64,192,175724,1,0,0:0:0:0:
192,192,175786,1,0,0:0:0:0:
448,192,175786,1,0,0:0:0:0:
320,192,175849,1,0,0:0:0:0:
64,192,175911,1,0,0:0:0:0:
448,192,175911,1,0,0:0:0:0:
320,192,175974,1,0,0:0:0:0:
192,192,176036,1,0,0:0:0:0:
448,192,176036,1,0,0:0:0:0:
64,192,176099,1,0,0:0:0:0:
320,192,176161,1,0,0:0:0:0:
448,192,176161,1,0,0:0:0:0:
192,192,176224,1,0,0:0:0:0:
64,192,176286,1,0,0:0:0:0:
320,192,176286,1,0,0:0:0:0:
448,192,176286,128,0,176536:0:0:0:0:
64,192,176536,1,0,0:0:0:0:
192,192,176536,1,0,0:0:0:0:
320,192,176536,1,0,0:0:0:0:
64,192,176661,1,0,0:0:0:0:
192,192,176661,1,0,0:0:0:0:
320,192,176661,1,0,0:0:0:0:
64,192,176786,1,0,0:0:0:0:
192,192,176786,1,0,0:0:0:0:
448,192,176786,1,0,0:0:0:0:
320,192,176849,1,0,0:0:0:0:
64,192,176911,1,0,0:0:0:0:
192,192,176911,1,0,0:0:0:0:
448,192,176974,1,0,0:0:0:0:
64,192,177036,1,0,0:0:0:0:
320,192,177036,1,0,0:0:0:0:
192,192,177099,1,0,0:0:0:0:
320,192,177161,1,0,0:0:0:0:
448,192,177161,1,0,0:0:0:0:
64,192,177224,1,0,0:0:0:0:
192,192,177286,1,0,0:0:0:0:
448,192,177286,1,0,0:0:0:0:
320,192,177349,1,0,0:0:0:0:
64,192,177411,1,0,0:0:0:0:
192,192,177411,1,0,0:0:0:0:
448,192,177474,1,0,0:0:0:0:
192,192,177536,1,0,0:0:0:0:
320,192,177536,1,0,0:0:0:0:
448,192,177599,1,0,0:0:0:0:
64,192,177661,1,0,0:0:0:0:
320,192,177661,1,0,0:0:0:0:
192,192,177724,1,0,0:0:0:0:
320,192,177786,1,0,0:0:0:0:
448,192,177786,1,0,0:0:0:0:
192,192,177849,1,0,0:0:0:0:
64,192,177911,1,0,0:0:0:0:
448,192,177911,1,0,0:0:0:0:
320,192,177974,1,0,0:0:0:0:
64,192,178036,1,0,0:0:0:0:
192,192,178036,1,0,0:0:0:0:
448,192,178099,1,0,0:0:0:0:
64,192,178161,1,0,0:0:0:0:
320,192,178161,1,0,0:0:0:0:
192,192,178224,1,0,0:0:0:0:
320,192,178286,1,0,0:0:0:0:
448,192,178286,1,0,0:0:0:0:
64,192,178349,1,0,0:0:0:0:
192,192,178411,1,0,0:0:0:0:
448,192,178411,1,0,0:0:0:0:
320,192,178474,1,0,0:0:0:0:
64,192,178536,1,0,0:0:0:0:
192,192,178536,1,0,0:0:0:0:
448,192,178599,1,0,0:0:0:0:
192,192,178661,1,0,0:0:0:0:
320,192,178661,1,0,0:0:0:0:
64,192,178724,1,0,0:0:0:0:
192,192,178786,1,0,0:0:0:0:
448,192,178786,1,0,0:0:0:0:
320,192,178849,1,0,0:0:0:0:
64,192,178911,1,0,0:0:0:0:
448,192,178911,1,0,0:0:0:0:
320,192,178974,1,0,0:0:0:0:
192,192,179036,1,0,0:0:0:0:
448,192,179036,1,0,0:0:0:0:
64,192,179099,1,0,0:0:0:0:
192,192,179161,1,0,0:0:0:0:
320,192,179161,1,0,0:0:0:0:
448,192,179224,1,0,0:0:0:0:
64,192,179286,1,0,0:0:0:0:
320,192,179286,1,0,0:0:0:0:
192,192,179349,1,0,0:0:0:0:
64,192,179411,1,0,0:0:0:0:
448,192,179411,1,0,0:0:0:0:
320,192,179474,1,0,0:0:0:0:
192,192,179536,1,0,0:0:0:0:
448,192,179536,1,0,0:0:0:0:
64,192,179599,1,0,0:0:0:0:
192,192,179661,1,0,0:0:0:0:
320,192,179661,1,0,0:0:0:0:
448,192,179724,1,0,0:0:0:0:
64,192,179786,1,0,0:0:0:0:
320,192,179786,1,0,0:0:0:0:
192,192,179849,1,0,0:0:0:0:
64,192,179911,1,0,0:0:0:0:
448,192,179911,1,0,0:0:0:0:
192,192,179974,1,0,0:0:0:0:
64,192,180036,1,0,0:0:0:0:
320,192,180036,1,0,0:0:0:0:
448,192,180099,1,0,0:0:0:0:
64,192,180161,1,0,0:0:0:0:
192,192,180161,1,0,0:0:0:0:
320,192,180224,1,0,0:0:0:0:
192,192,180286,1,0,0:0:0:0:
448,192,180286,1,0,0:0:0:0:
64,192,180349,1,0,0:0:0:0:
320,192,180411,1,0,0:0:0:0:
448,192,180411,1,0,0:0:0:0:
192,192,180474,1,0,0:0:0:0:
64,192,180536,1,0,0:0:0:0:
448,192,180536,1,0,0:0:0:0:
192,192,180599,1,0,0:0:0:0:
320,192,180661,1,0,0:0:0:0:
448,192,180661,1,0,0:0:0:0:
64,192,180724,1,0,0:0:0:0:
192,192,180786,1,0,0:0:0:0:
448,192,180786,1,0,0:0:0:0:
320,192,180849,1,0,0:0:0:0:
192,192,180911,1,0,0:0:0:0:
64,192,180974,1,0,0:0:0:0:
448,192,181036,128,0,181099:0:0:0:0:
192,192,181099,1,0,0:0:0:0:
320,192,181161,1,0,0:0:0:0:
192,192,181224,1,0,0:0:0:0:
64,192,181286,128,0,181536:0:0:0:0:
320,192,181286,1,0,0:0:0:0:
448,192,181286,128,0,181536:0:0:0:0:
192,192,181536,1,0,0:0:0:0:
320,192,181536,1,0,0:0:0:0:
64,192,181661,1,0,0:0:0:0:
320,192,181661,1,0,0:0:0:0:
64,192,181786,1,0,0:0:0:0:
192,192,181786,1,0,0:0:0:0:
448,192,181786,1,0,0:0:0:0:
320,192,181849,1,0,0:0:0:0:
192,192,181911,1,0,0:0:0:0:
448,192,181974,1,0,0:0:0:0:
64,192,182036,1,0,0:0:0:0:
192,192,182099,1,0,0:0:0:0:
320,192,182161,1,0,0:0:0:0:
64,192,182224,1,0,0:0:0:0:
192,192,182286,1,0,0:0:0:0:
448,192,182286,1,0,0:0:0:0:
320,192,182349,1,0,0:0:0:0:
64,192,182411,1,0,0:0:0:0:
192,192,182474,1,0,0:0:0:0:
320,192,182536,1,0,0:0:0:0:
448,192,182599,1,0,0:0:0:0:
320,192,182661,1,0,0:0:0:0:
64,192,182724,1,0,0:0:0:0:
192,192,182786,1,0,0:0:0:0:
448,192,182807,1,0,0:0:0:0:
320,192,182849,1,0,0:0:0:0:
64,192,182911,1,0,0:0:0:0:
320,192,182974,1,0,0:0:0:0:
192,192,183036,1,0,0:0:0:0:
448,192,183057,1,0,0:0:0:0:
320,192,183099,1,0,0:0:0:0:
64,192,183161,1,0,0:0:0:0:
448,192,183224,1,0,0:0:0:0:
192,192,183286,1,0,0:0:0:0:
320,192,183286,1,0,0:0:0:0:
64,192,183349,1,0,0:0:0:0:
320,192,183411,1,0,0:0:0:0:
192,192,183474,1,0,0:0:0:0:
320,192,183536,1,0,0:0:0:0:
448,192,183599,1,0,0:0:0:0:
320,192,183661,1,0,0:0:0:0:
192,192,183724,1,0,0:0:0:0:
64,192,183786,1,0,0:0:0:0:
448,192,183786,1,0,0:0:0:0:
320,192,183828,1,0,0:0:0:0:
192,192,183869,1,0,0:0:0:0:
448,192,183911,1,0,0:0:0:0:
64,192,183974,1,0,0:0:0:0:
192,192,184036,1,0,0:0:0:0:
320,192,184099,1,0,0:0:0:0:
448,192,184161,1,0,0:0:0:0:
192,192,184203,1,0,0:0:0:0:
320,192,184244,1,0,0:0:0:0:
64,192,184286,1,0,0:0:0:0:
448,192,184286,1,0,0:0:0:0:
192,192,184349,1,0,0:0:0:0:
320,192,184411,1,0,0:0:0:0:
64,192,184453,1,0,0:0:0:0:
448,192,184494,1,0,0:0:0:0:
320,192,184536,1,0,0:0:0:0:
64,192,184599,1,0,0:0:0:0:
192,192,184661,1,0,0:0:0:0:
320,192,184724,1,0,0:0:0:0:
64,192,184786,1,0,0:0:0:0:
192,192,184786,1,0,0:0:0:0:
448,192,184849,1,0,0:0:0:0:
320,192,184911,1,0,0:0:0:0:
192,192,184974,1,0,0:0:0:0:
320,192,185036,1,0,0:0:0:0:
448,192,185099,1,0,0:0:0:0:
64,192,185161,1,0,0:0:0:0:
192,192,185224,1,0,0:0:0:0:
320,192,185286,1,0,0:0:0:0:
448,192,185286,1,0,0:0:0:0:
192,192,185349,1,0,0:0:0:0:
64,192,185411,1,0,0:0:0:0:
320,192,185474,1,0,0:0:0:0:
448,192,185536,1,0,0:0:0:0:
192,192,185599,1,0,0:0:0:0:
320,192,185661,1,0,0:0:0:0:
64,192,185724,1,0,0:0:0:0:
448,192,185786,128,0,185849:0:0:0:0:
320,192,185849,128,0,185911:0:0:0:0:
192,192,185911,128,0,185974:0:0:0:0:
320,192,186036,128,0,186099:0:0:0:0:
64,192,186161,128,0,186286:0:0:0:0:
192,192,186286,128,0,186349:0:0:0:0:
448,192,186286,1,0,0:0:0:0:
320,192,186369,128,0,186432:0:0:0:0:
448,192,186453,128,0,186515:0:0:0:0:
192,192,186536,1,0,0:0:0:0:
320,192,186578,1,0,0:0:0:0:
448,192,186619,1,0,0:0:0:0:
192,192,186661,1,0,0:0:0:0:
320,192,186724,1,0,0:0:0:0:
64,192,186786,1,0,0:0:0:0:
192,192,186828,1,0,0:0:0:0:
320,192,186869,1,0,0:0:0:0:
448,192,186911,1,0,0:0:0:0:
192,192,186974,1,0,0:0:0:0:
320,192,187036,1,0,0:0:0:0:
64,192,187099,1,0,0:0:0:0:
448,192,187161,1,0,0:0:0:0:
192,192,187203,1,0,0:0:0:0:
320,192,187244,1,0,0:0:0:0:
64,192,187286,1,0,0:0:0:0:
448,192,187286,1,0,0:0:0:0:
192,192,187349,1,0,0:0:0:0:
320,192,187411,1,0,0:0:0:0:
192,192,187474,1,0,0:0:0:0:
448,192,187536,1,0,0:0:0:0:
64,192,187599,1,0,0:0:0:0:
448,192,187661,1,0,0:0:0:0:
192,192,187703,1,0,0:0:0:0:
320,192,187744,1,0,0:0:0:0:
64,192,187786,1,0,0:0:0:0:
192,192,187828,1,0,0:0:0:0:
448,192,187869,1,0,0:0:0:0:
320,192,187911,1,0,0:0:0:0:
192,192,187974,1,0,0:0:0:0:
64,192,188036,1,0,0:0:0:0:
320,192,188078,1,0,0:0:0:0:
448,192,188119,1,0,0:0:0:0:
192,192,188161,1,0,0:0:0:0:
320,192,188224,1,0,0:0:0:0:
192,192,188286,1,0,0:0:0:0:
448,192,188286,1,0,0:0:0:0:
64,192,188328,1,0,0:0:0:0:
320,192,188369,1,0,0:0:0:0:
192,192,188411,1,0,0:0:0:0:
448,192,188474,1,0,0:0:0:0:
320,192,188536,1,0,0:0:0:0:
192,192,188599,1,0,0:0:0:0:
320,192,188661,1,0,0:0:0:0:
192,192,188724,1,0,0:0:0:0:
64,192,188786,1,0,0:0:0:0:
320,192,188838,1,0,0:0:0:0:
192,192,188885,1,0,0:0:0:0:
448,192,188937,1,0,0:0:0:0:
320,192,188984,1,0,0:0:0:0:
64,192,189036,1,0,0:0:0:0:
448,192,189088,1,0,0:0:0:0:
192,192,189135,1,0,0:0:0:0:
320,192,189187,1,0,0:0:0:0:
64,192,189234,1,0,0:0:0:0:
192,192,189286,1,0,0:0:0:0:
448,192,189286,1,0,0:0:0:0:
320,192,189338,1,0,0:0:0:0:
64,192,189385,1,0,0:0:0:0:
448,192,189437,1,0,0:0:0:0:
192,192,189484,1,0,0:0:0:0:
320,192,189536,1,0,0:0:0:0:
448,192,189588,1,0,0:0:0:0:
192,192,189635,1,0,0:0:0:0:
64,192,189687,1,0,0:0:0:0:
320,192,189734,1,0,0:0:0:0:
192,192,189786,128,0,190286:0:0:0:0:
448,192,189786,1,0,0:0:0:0:
320,192,190036,1,0,0:0:0:0:
448,192,190286,1,0,0:0:0:0:
64,192,190411,1,0,0:0:0:0:
320,192,190411,1,0,0:0:0:0:
192,192,190536,128,0,190786:0:0:0:0:
448,192,190536,1,0,0:0:0:0:
64,192,190786,1,0,0:0:0:0:
320,192,190786,1,0,0:0:0:0:
448,192,190786,128,0,191036:0:0:0:0:
192,192,191036,1,0,0:0:0:0:
320,192,191099,1,0,0:0:0:0:
192,192,191161,1,0,0:0:0:0:
320,192,191224,1,0,0:0:0:0:
64,192,191286,1,0,0:0:0:0:
192,192,191286,1,0,0:0:0:0:
448,192,191349,1,0,0:0:0:0:
320,192,191385,1,0,0:0:0:0:
192,192,191437,1,0,0:0:0:0:
64,192,191474,1,0,0:0:0:0:
320,192,191536,1,0,0:0:0:0:
448,192,191536,1,0,0:0:0:0:
64,192,191786,1,0,0:0:0:0:
448,192,191786,128,0,192036:0:0:0:0:
64,192,192036,1,0,0:0:0:0:
320,192,192099,1,0,0:0:0:0:
192,192,192161,1,0,0:0:0:0:
448,192,192224,1,0,0:0:0:0:
64,192,192286,1,0,0:0:0:0:
192,192,192286,1,0,0:0:0:0:
320,192,192349,1,0,0:0:0:0:
192,192,192411,1,0,0:0:0:0:
448,192,192474,1,0,0:0:0:0:
64,192,192536,128,0,192786:0:0:0:0:
192,192,192536,1,0,0:0:0:0:
320,192,192536,1,0,0:0:0:0:
320,192,192786,1,0,0:0:0:0:
64,192,193036,1,0,0:0:0:0:
448,192,193036,1,0,0:0:0:0:
448,192,193161,1,0,0:0:0:0:
320,192,193286,1,0,0:0:0:0:
320,192,193411,1,0,0:0:0:0:
192,192,193536,1,0,0:0:0:0:
448,192,193536,1,0,0:0:0:0:
64,192,193661,1,0,0:0:0:0:
320,192,193661,1,0,0:0:0:0:
192,192,193786,1,0,0:0:0:0:
320,192,193911,1,0,0:0:0:0:
64,192,194036,1,0,0:0:0:0:
192,192,194036,1,0,0:0:0:0:
192,192,194161,1,0,0:0:0:0:
64,192,194286,1,0,0:0:0:0:
448,192,194286,1,0,0:0:0:0:
320,192,194349,1,0,0:0:0:0:
448,192,194411,1,0,0:0:0:0:
320,192,194474,1,0,0:0:0:0:
64,192,194536,1,0,0:0:0:0:
192,192,194536,1,0,0:0:0:0:
320,192,194786,1,0,0:0:0:0:
448,192,194786,1,0,0:0:0:0:
64,192,195036,128,0,195286:0:0:0:0:
192,192,195036,1,0,0:0:0:0:
192,192,195286,1,0,0:0:0:0:
320,192,195286,1,0,0:0:0:0:
448,192,195349,1,0,0:0:0:0:
320,192,195411,1,0,0:0:0:0:
192,192,195474,1,0,0:0:0:0:
320,192,195536,1,0,0:0:0:0:
448,192,195536,1,0,0:0:0:0:
64,192,195599,1,0,0:0:0:0:
192,192,195661,1,0,0:0:0:0:
320,192,195724,1,0,0:0:0:0:
64,192,195786,1,0,0:0:0:0:
192,192,195786,1,0,0:0:0:0:
448,192,195849,1,0,0:0:0:0:
64,192,195911,1,0,0:0:0:0:
448,192,195974,1,0,0:0:0:0:
64,192,196036,1,0,0:0:0:0:
320,192,196036,1,0,0:0:0:0:
192,192,196161,1,0,0:0:0:0:
320,192,196286,1,0,0:0:0:0:
448,192,196286,1,0,0:0:0:0:
192,192,196411,1,0,0:0:0:0:
448,192,196411,1,0,0:0:0:0:
64,192,196536,1,0,0:0:0:0:
192,192,196536,1,0,0:0:0:0:
320,192,196536,1,0,0:0:0:0:
320,192,196661,1,0,0:0:0:0:
448,192,196661,1,0,0:0:0:0:
64,192,196786,128,0,197036:0:0:0:0:
192,192,196786,1,0,0:0:0:0:
448,192,196786,1,0,0:0:0:0:
192,192,197036,128,0,197286:0:0:0:0:
448,192,197036,1,0,0:0:0:0:
448,192,197161,1,0,0:0:0:0:
64,192,197286,1,0,0:0:0:0:
320,192,197286,1,0,0:0:0:0:
448,192,197338,1,0,0:0:0:0:
192,192,197385,1,0,0:0:0:0:
320,192,197437,1,0,0:0:0:0:
64,192,197484,1,0,0:0:0:0:
192,192,197536,1,0,0:0:0:0:
448,192,197536,1,0,0:0:0:0:
192,192,197661,1,0,0:0:0:0:
320,192,197786,1,0,0:0:0:0:
448,192,197786,1,0,0:0:0:0:
192,192,197911,1,0,0:0:0:0:
64,192,198036,1,0,0:0:0:0:
320,192,198036,1,0,0:0:0:0:
448,192,198036,1,0,0:0:0:0:
192,192,198161,1,0,0:0:0:0:
320,192,198161,1,0,0:0:0:0:
64,192,198286,1,0,0:0:0:0:
192,192,198286,128,0,198536:0:0:0:0:
448,192,198286,1,0,0:0:0:0:
64,192,198536,1,0,0:0:0:0:
320,192,198536,128,0,198786:0:0:0:0:
64,192,198661,1,0,0:0:0:0:
192,192,198786,1,0,0:0:0:0:
448,192,198786,1,0,0:0:0:0:
64,192,198849,1,0,0:0:0:0:
192,192,198911,1,0,0:0:0:0:
320,192,198974,1,0,0:0:0:0:
64,192,199036,1,0,0:0:0:0:
448,192,199036,1,0,0:0:0:0:
192,192,199161,1,0,0:0:0:0:
64,192,199286,1,0,0:0:0:0:
448,192,199286,1,0,0:0:0:0:
320,192,199411,1,0,0:0:0:0:
64,192,199536,1,0,0:0:0:0:
192,192,199536,1,0,0:0:0:0:
448,192,199536,1,0,0:0:0:0:
192,192,199661,1,0,0:0:0:0:
320,192,199661,1,0,0:0:0:0:
64,192,199786,1,0,0:0:0:0:
320,192,199786,1,0,0:0:0:0:
448,192,199786,128,0,200036:0:0:0:0:
64,192,199911,1,0,0:0:0:0:
192,192,200036,128,0,200286:0:0:0:0:
320,192,200036,1,0,0:0:0:0:
320,192,200161,1,0,0:0:0:0:
64,192,200286,1,0,0:0:0:0:
448,192,200286,128,0,200536:0:0:0:0:
320,192,200411,1,0,0:0:0:0:
64,192,200536,1,0,0:0:0:0:
192,192,200536,1,0,0:0:0:0:
320,192,200599,1,0,0:0:0:0:
192,192,200661,1,0,0:0:0:0:
448,192,200661,1,0,0:0:0:0:
320,192,200724,1,0,0:0:0:0:
64,192,200786,1,0,0:0:0:0:
448,192,200786,1,0,0:0:0:0:
192,192,200849,1,0,0:0:0:0:
64,192,200911,1,0,0:0:0:0:
320,192,200911,1,0,0:0:0:0:
192,192,200974,1,0,0:0:0:0:
64,192,201036,128,0,201286:0:0:0:0:
320,192,201036,1,0,0:0:0:0:
448,192,201036,1,0,0:0:0:0:
448,192,201286,1,0,0:0:0:0:
320,192,201349,1,0,0:0:0:0:
192,192,201411,1,0,0:0:0:0:
320,192,201474,1,0,0:0:0:0:
64,192,201536,1,0,0:0:0:0:
192,192,201536,1,0,0:0:0:0:
448,192,201536,1,0,0:0:0:0:
64,192,201661,1,0,0:0:0:0:
192,192,201661,1,0,0:0:0:0:
320,192,201786,1,0,0:0:0:0:
448,192,201786,128,0,202036:0:0:0:0:
64,192,202036,1,0,0:0:0:0:
320,192,202099,1,0,0:0:0:0:
64,192,202161,1,0,0:0:0:0:
320,192,202224,1,0,0:0:0:0:
192,192,202286,1,0,0:0:0:0:
448,192,202349,1,0,0:0:0:0:
64,192,202411,1,0,0:0:0:0:
192,192,202411,1,0,0:0:0:0:
448,192,202474,1,0,0:0:0:0:
64,192,202536,1,0,0:0:0:0:
192,192,202536,1,0,0:0:0:0:
320,192,202536,128,0,202786:0:0:0:0:
64,192,202786,1,0,0:0:0:0:
448,192,202786,1,0,0:0:0:0:
192,192,202911,1,0,0:0:0:0:
64,192,203036,1,0,0:0:0:0:
448,192,203036,1,0,0:0:0:0:
320,192,203161,1,0,0:0:0:0:
64,192,203286,1,0,0:0:0:0:
192,192,203286,1,0,0:0:0:0:
448,192,203286,1,0,0:0:0:0:
192,192,203411,1,0,0:0:0:0:
320,192,203411,1,0,0:0:0:0:
64,192,203536,128,0,203786:0:0:0:0:
320,192,203536,1,0,0:0:0:0:
448,192,203536,1,0,0:0:0:0:
448,192,203661,1,0,0:0:0:0:
192,192,203786,128,0,204036:0:0:0:0:
320,192,203786,1,0,0:0:0:0:
320,192,203911,1,0,0:0:0:0:
64,192,204036,1,0,0:0:0:0:
448,192,204036,1,0,0:0:0:0:
320,192,204088,1,0,0:0:0:0:
192,192,204135,1,0,0:0:0:0:
448,192,204187,1,0,0:0:0:0:
64,192,204234,1,0,0:0:0:0:
192,192,204286,1,0,0:0:0:0:
320,192,204286,1,0,0:0:0:0:
64,192,204411,1,0,0:0:0:0:
320,192,204536,1,0,0:0:0:0:
448,192,204536,1,0,0:0:0:0:
192,192,204661,1,0,0:0:0:0:
448,192,204661,1,0,0:0:0:0:
64,192,204786,1,0,0:0:0:0:
192,192,204786,1,0,0:0:0:0:
320,192,204786,1,0,0:0:0:0:
320,192,204911,1,0,0:0:0:0:
448,192,204911,1,0,0:0:0:0:
64,192,205036,128,0,205286:0:0:0:0:
192,192,205036,1,0,0:0:0:0:
448,192,205036,1,0,0:0:0:0:
320,192,205161,1,0,0:0:0:0:
192,192,205286,128,0,205536:0:0:0:0:
448,192,205286,1,0,0:0:0:0:
448,192,205411,1,0,0:0:0:0:
64,192,205536,1,0,0:0:0:0:
320,192,205536,1,0,0:0:0:0:
448,192,205588,1,0,0:0:0:0:
192,192,205635,1,0,0:0:0:0:
320,192,205687,1,0,0:0:0:0:
64,192,205734,1,0,0:0:0:0:
192,192,205786,1,0,0:0:0:0:
448,192,205786,128,0,206286:0:0:0:0:
320,192,205911,1,0,0:0:0:0:
64,192,206036,1,0,0:0:0:0:
64,192,206161,1,0,0:0:0:0:
192,192,206286,1,0,0:0:0:0:
320,192,206286,1,0,0:0:0:0:
320,192,206411,1,0,0:0:0:0:
64,192,206536,128,0,206786:0:0:0:0:
192,192,206536,1,0,0:0:0:0:
448,192,206536,1,0,0:0:0:0:
448,192,206661,1,0,0:0:0:0:
192,192,206786,1,0,0:0:0:0:
320,192,206786,128,0,207036:0:0:0:0:
192,192,206911,1,0,0:0:0:0:
64,192,207036,128,0,207286:0:0:0:0:
448,192,207036,1,0,0:0:0:0:
192,192,207161,1,0,0:0:0:0:
320,192,207286,1,0,0:0:0:0:
448,192,207286,1,0,0:0:0:0:
192,192,207349,1,0,0:0:0:0:
64,192,207411,1,0,0:0:0:0:
320,192,207411,1,0,0:0:0:0:
192,192,207474,1,0,0:0:0:0:
64,192,207536,1,0,0:0:0:0:
448,192,207536,1,0,0:0:0:0:
320,192,207599,1,0,0:0:0:0:
192,192,207661,1,0,0:0:0:0:
448,192,207661,1,0,0:0:0:0:
320,192,207724,1,0,0:0:0:0:
64,192,207786,1,0,0:0:0:0:
192,192,207786,1,0,0:0:0:0:
448,192,207786,128,0,208036:0:0:0:0:
320,192,208036,1,0,0:0:0:0:
192,192,208099,1,0,0:0:0:0:
448,192,208161,1,0,0:0:0:0:
320,192,208224,1,0,0:0:0:0:
64,192,208286,1,0,0:0:0:0:
192,192,208286,1,0,0:0:0:0:
320,192,208349,1,0,0:0:0:0:
448,192,208411,1,0,0:0:0:0:
64,192,208474,1,0,0:0:0:0:
192,192,208536,1,0,0:0:0:0:
320,192,208536,1,0,0:0:0:0:
448,192,208599,1,0,0:0:0:0:
320,192,208661,1,0,0:0:0:0:
192,192,208724,1,0,0:0:0:0:
64,192,208786,1,0,0:0:0:0:
320,192,208786,1,0,0:0:0:0:
448,192,208786,128,0,209036:0:0:0:0:
64,192,209036,1,0,0:0:0:0:
192,192,209036,1,0,0:0:0:0:
320,192,209036,128,0,209286:0:0:0:0:
64,192,209286,1,0,0:0:0:0:
192,192,209286,128,0,209536:0:0:0:0:
448,192,209286,1,0,0:0:0:0:
320,192,209536,128,0,209599:0:0:0:0:
448,192,209536,1,0,0:0:0:0:
448,192,209661,1,0,0:0:0:0:
64,192,209786,1,0,0:0:0:0:
320,192,209786,1,0,0:0:0:0:
64,192,209911,1,0,0:0:0:0:
192,192,209911,1,0,0:0:0:0:
448,192,209911,1,0,0:0:0:0:
320,192,210036,1,0,0:0:0:0:
448,192,210036,1,0,0:0:0:0:
192,192,210161,1,0,0:0:0:0:
64,192,210286,1,0,0:0:0:0:
448,192,210286,1,0,0:0:0:0:
320,192,210411,1,0,0:0:0:0:
64,192,210536,1,0,0:0:0:0:
192,192,210536,1,0,0:0:0:0:
192,192,210661,1,0,0:0:0:0:
320,192,210786,1,0,0:0:0:0:
448,192,210786,1,0,0:0:0:0:
64,192,210911,1,0,0:0:0:0:
448,192,210911,1,0,0:0:0:0:
64,192,211036,1,0,0:0:0:0:
192,192,211036,1,0,0:0:0:0:
320,192,211036,1,0,0:0:0:0:
320,192,211161,1,0,0:0:0:0:
64,192,211286,1,0,0:0:0:0:
448,192,211286,1,0,0:0:0:0:
64,192,211411,1,0,0:0:0:0:
320,192,211411,1,0,0:0:0:0:
192,192,211536,1,0,0:0:0:0:
448,192,211536,1,0,0:0:0:0:
192,192,211661,1,0,0:0:0:0:
320,192,211786,1,0,0:0:0:0:
448,192,211786,1,0,0:0:0:0:
448,192,211911,1,0,0:0:0:0:
64,192,212036,1,0,0:0:0:0:
192,192,212036,1,0,0:0:0:0:
320,192,212036,1,0,0:0:0:0:
192,192,212161,1,0,0:0:0:0:
448,192,212161,1,0,0:0:0:0:
320,192,212286,1,0,0:0:0:0:
448,192,212286,1,0,0:0:0:0:
64,192,212411,1,0,0:0:0:0:
192,192,212411,1,0,0:0:0:0:
320,192,212536,1,0,0:0:0:0:
448,192,212536,1,0,0:0:0:0:
192,192,212661,1,0,0:0:0:0:
64,192,212786,1,0,0:0:0:0:
448,192,212786,1,0,0:0:0:0:
192,192,212911,1,0,0:0:0:0:
320,192,212911,1,0,0:0:0:0:
64,192,213036,1,0,0:0:0:0:
448,192,213036,1,0,0:0:0:0:
320,192,213099,1,0,0:0:0:0:
192,192,213161,1,0,0:0:0:0:
320,192,213224,1,0,0:0:0:0:
192,192,213286,1,0,0:0:0:0:
64,192,213349,1,0,0:0:0:0:
320,192,213411,1,0,0:0:0:0:
448,192,213411,1,0,0:0:0:0:
192,192,213474,1,0,0:0:0:0:
64,192,213536,1,0,0:0:0:0:
320,192,213536,1,0,0:0:0:0:
448,192,213536,1,0,0:0:0:0:
64,192,213661,1,0,0:0:0:0:
192,192,213786,1,0,0:0:0:0:
448,192,213786,1,0,0:0:0:0:
448,192,213911,1,0,0:0:0:0:
64,192,214036,1,0,0:0:0:0:
192,192,214036,1,0,0:0:0:0:
320,192,214036,1,0,0:0:0:0:
192,192,214161,1,0,0:0:0:0:
448,192,214161,1,0,0:0:0:0:
320,192,214286,1,0,0:0:0:0:
448,192,214286,1,0,0:0:0:0:
64,192,214411,1,0,0:0:0:0:
192,192,214411,1,0,0:0:0:0:
320,192,214536,1,0,0:0:0:0:
448,192,214536,1,0,0:0:0:0:
192,192,214661,1,0,0:0:0:0:
64,192,214786,1,0,0:0:0:0:
448,192,214786,1,0,0:0:0:0:
192,192,214911,1,0,0:0:0:0:
64,192,215036,1,0,0:0:0:0:
320,192,215036,1,0,0:0:0:0:
448,192,215036,1,0,0:0:0:0:
192,192,215161,1,0,0:0:0:0:
320,192,215286,1,0,0:0:0:0:
448,192,215286,1,0,0:0:0:0:
192,192,215349,1,0,0:0:0:0:
320,192,215411,1,0,0:0:0:0:
448,192,215411,128,0,215536:0:0:0:0:
64,192,215536,128,0,215661:0:0:0:0:
192,192,215536,1,0,0:0:0:0:
320,192,215661,1,0,0:0:0:0:
192,192,215786,1,0,0:0:0:0:
448,192,215786,1,0,0:0:0:0:
320,192,215911,1,0,0:0:0:0:
64,192,216036,1,0,0:0:0:0:
192,192,216036,1,0,0:0:0:0:
448,192,216036,1,0,0:0:0:0:
64,192,216161,1,0,0:0:0:0:
320,192,216161,1,0,0:0:0:0:
320,192,216286,1,0,0:0:0:0:
448,192,216286,1,0,0:0:0:0:
64,192,216411,1,0,0:0:0:0:
192,192,216411,1,0,0:0:0:0:
64,192,216536,1,0,0:0:0:0:
320,192,216536,1,0,0:0:0:0:
448,192,216536,1,0,0:0:0:0:
192,192,216661,1,0,0:0:0:0:
320,192,216786,1,0,0:0:0:0:
448,192,216786,1,0,0:0:0:0:
320,192,216911,1,0,0:0:0:0:
64,192,217036,1,0,0:0:0:0:
192,192,217036,1,0,0:0:0:0:
448,192,217036,1,0,0:0:0:0:
320,192,217161,1,0,0:0:0:0:
64,192,217286,1,0,0:0:0:0:
192,192,217286,1,0,0:0:0:0:
320,192,217349,1,0,0:0:0:0:
64,192,217411,1,0,0:0:0:0:
192,192,217411,128,0,217536:0:0:0:0:
320,192,217536,1,0,0:0:0:0:
448,192,217536,128,0,217786:0:0:0:0:
64,192,217786,1,0,0:0:0:0:
320,192,217786,1,0,0:0:0:0:
192,192,218036,1,0,0:0:0:0:
320,192,218036,1,0,0:0:0:0:
64,192,218161,1,0,0:0:0:0:
320,192,218161,1,0,0:0:0:0:
448,192,218161,1,0,0:0:0:0:
64,192,218286,1,0,0:0:0:0:
192,192,218286,1,0,0:0:0:0:
320,192,218286,1,0,0:0:0:0:
448,192,218286,1,0,0:0:0:0:
64,192,218536,1,0,0:0:0:0:
448,192,218536,1,0,0:0:0:0:
64,192,219036,1,0,0:0:0:0:
448,192,219036,1,0,0:0:0:0:
320,192,219099,1,0,0:0:0:0:
192,192,219161,1,0,0:0:0:0:
320,192,219224,1,0,0:0:0:0:
448,192,219286,1,0,0:0:0:0:
320,192,219349,1,0,0:0:0:0:
64,192,219411,1,0,0:0:0:0:
192,192,219411,1,0,0:0:0:0:
448,192,219474,1,0,0:0:0:0:
64,192,219536,1,0,0:0:0:0:
192,192,219536,1,0,0:0:0:0:
320,192,219599,1,0,0:0:0:0:
448,192,219661,1,0,0:0:0:0:
192,192,219724,1,0,0:0:0:0:
64,192,219786,1,0,0:0:0:0:
320,192,219849,1,0,0:0:0:0:
192,192,219911,1,0,0:0:0:0:
448,192,219911,1,0,0:0:0:0:
64,192,219974,1,0,0:0:0:0:
192,192,220036,1,0,0:0:0:0:
448,192,220036,1,0,0:0:0:0:
320,192,220099,1,0,0:0:0:0:
192,192,220161,1,0,0:0:0:0:
64,192,220224,1,0,0:0:0:0:
320,192,220286,1,0,0:0:0:0:
448,192,220349,1,0,0:0:0:0:
192,192,220411,1,0,0:0:0:0:
320,192,220474,1,0,0:0:0:0:
64,192,220536,1,0,0:0:0:0:
192,192,220536,1,0,0:0:0:0:
448,192,220599,1,0,0:0:0:0:
320,192,220661,1,0,0:0:0:0:
64,192,220724,1,0,0:0:0:0:
192,192,220786,1,0,0:0:0:0:
448,192,220849,1,0,0:0:0:0:
64,192,220911,1,0,0:0:0:0:
320,192,220911,1,0,0:0:0:0:
192,192,220974,1,0,0:0:0:0:
64,192,221036,1,0,0:0:0:0:
320,192,221036,1,0,0:0:0:0:
448,192,221099,1,0,0:0:0:0:
192,192,221161,1,0,0:0:0:0:
320,192,221224,1,0,0:0:0:0:
64,192,221286,1,0,0:0:0:0:
192,192,221328,1,0,0:0:0:0:
448,192,221369,1,0,0:0:0:0:
320,192,221411,1,0,0:0:0:0:
64,192,221474,1,0,0:0:0:0:
192,192,221536,1,0,0:0:0:0:
320,192,221578,1,0,0:0:0:0:
448,192,221619,1,0,0:0:0:0:
64,192,221661,1,0,0:0:0:0:
320,192,221724,1,0,0:0:0:0:
64,192,221786,1,0,0:0:0:0:
192,192,221828,1,0,0:0:0:0:
448,192,221869,1,0,0:0:0:0:
320,192,221911,1,0,0:0:0:0:
64,192,221974,1,0,0:0:0:0:
192,192,222036,1,0,0:0:0:0:
448,192,222036,1,0,0:0:0:0:
320,192,222099,1,0,0:0:0:0:
64,192,222161,1,0,0:0:0:0:
448,192,222224,1,0,0:0:0:0:
320,192,222286,1,0,0:0:0:0:
192,192,222349,1,0,0:0:0:0:
64,192,222411,1,0,0:0:0:0:
320,192,222474,1,0,0:0:0:0:
192,192,222536,1,0,0:0:0:0:
448,192,222536,1,0,0:0:0:0:
64,192,222599,1,0,0:0:0:0:
192,192,222661,1,0,0:0:0:0:
448,192,222724,1,0,0:0:0:0:
320,192,222786,1,0,0:0:0:0:
64,192,222828,1,0,0:0:0:0:
448,192,222869,1,0,0:0:0:0:
192,192,222911,1,0,0:0:0:0:
320,192,222974,1,0,0:0:0:0:
64,192,223036,1,0,0:0:0:0:
448,192,223036,1,0,0:0:0:0:
192,192,223078,1,0,0:0:0:0:
320,192,223119,1,0,0:0:0:0:
64,192,223161,1,0,0:0:0:0:
448,192,223224,1,0,0:0:0:0:
320,192,223286,1,0,0:0:0:0:
64,192,223349,1,0,0:0:0:0:
192,192,223411,1,0,0:0:0:0:
320,192,223474,1,0,0:0:0:0:
64,192,223536,1,0,0:0:0:0:
192,192,223536,1,0,0:0:0:0:
320,192,223599,1,0,0:0:0:0:
448,192,223661,1,0,0:0:0:0:
192,192,223724,1,0,0:0:0:0:
320,192,223786,1,0,0:0:0:0:
64,192,223849,1,0,0:0:0:0:
192,192,223911,1,0,0:0:0:0:
448,192,223911,1,0,0:0:0:0:
320,192,223974,1,0,0:0:0:0:
448,192,224036,1,0,0:0:0:0:
192,192,224088,1,0,0:0:0:0:
320,192,224135,1,0,0:0:0:0:
64,192,224224,1,0,0:0:0:0:
192,192,224286,1,0,0:0:0:0:
448,192,224338,1,0,0:0:0:0:
320,192,224385,1,0,0:0:0:0:
64,192,224474,1,0,0:0:0:0:
192,192,224536,1,0,0:0:0:0:
448,192,224536,1,0,0:0:0:0:
320,192,224599,1,0,0:0:0:0:
64,192,224661,1,0,0:0:0:0:
448,192,224724,1,0,0:0:0:0:
320,192,224786,1,0,0:0:0:0:
192,192,224849,1,0,0:0:0:0:
320,192,224911,1,0,0:0:0:0:
448,192,224911,1,0,0:0:0:0:
64,192,224974,1,0,0:0:0:0:
320,192,225036,1,0,0:0:0:0:
448,192,225036,1,0,0:0:0:0:
192,192,225099,1,0,0:0:0:0:
320,192,225161,1,0,0:0:0:0:
448,192,225224,1,0,0:0:0:0:
64,192,225286,1,0,0:0:0:0:
192,192,225286,1,0,0:0:0:0:
320,192,225349,1,0,0:0:0:0:
192,192,225411,1,0,0:0:0:0:
320,192,225474,1,0,0:0:0:0:
64,192,225536,1,0,0:0:0:0:
448,192,225536,1,0,0:0:0:0:
192,192,225599,1,0,0:0:0:0:
64,192,225661,1,0,0:0:0:0:
192,192,225724,1,0,0:0:0:0:
320,192,225786,1,0,0:0:0:0:
448,192,225786,1,0,0:0:0:0:
64,192,225849,1,0,0:0:0:0:
192,192,225911,1,0,0:0:0:0:
320,192,225974,1,0,0:0:0:0:
192,192,226036,1,0,0:0:0:0:
448,192,226036,1,0,0:0:0:0:
320,192,226119,1,0,0:0:0:0:
64,192,226203,1,0,0:0:0:0:
320,192,226286,1,0,0:0:0:0:
448,192,226286,1,0,0:0:0:0:
192,192,226369,1,0,0:0:0:0:
448,192,226453,1,0,0:0:0:0:
64,192,226536,1,0,0:0:0:0:
192,192,226578,1,0,0:0:0:0:
448,192,226619,1,0,0:0:0:0:
320,192,226661,1,0,0:0:0:0:
64,192,226724,1,0,0:0:0:0:
448,192,226786,1,0,0:0:0:0:
192,192,226828,1,0,0:0:0:0:
320,192,226869,1,0,0:0:0:0:
64,192,226911,1,0,0:0:0:0:
192,192,226974,1,0,0:0:0:0:
320,192,227036,1,0,0:0:0:0:
448,192,227036,128,0,227786:0:0:0:0:
192,192,227099,1,0,0:0:0:0:
64,192,227161,1,0,0:0:0:0:
320,192,227224,1,0,0:0:0:0:
192,192,227286,1,0,0:0:0:0:
64,192,227349,1,0,0:0:0:0:
320,192,227411,1,0,0:0:0:0:
192,192,227474,1,0,0:0:0:0:
64,192,227536,1,0,0:0:0:0:
320,192,227599,1,0,0:0:0:0:
64,192,227661,1,0,0:0:0:0:
192,192,227724,1,0,0:0:0:0:
64,192,227786,1,0,0:0:0:0:
320,192,227786,1,0,0:0:0:0:
64,192,228036,1,0,0:0:0:0:
192,192,228036,1,0,0:0:0:0:
448,192,228036,128,0,228286:0:0:0:0:
64,192,228286,1,0,0:0:0:0:
320,192,228286,1,0,0:0:0:0:
192,192,228411,1,0,0:0:0:0:
448,192,228411,1,0,0:0:0:0:
64,192,228536,1,0,0:0:0:0:
320,192,228536,128,0,228786:0:0:0:0:
64,192,228786,1,0,0:0:0:0:
192,192,228786,1,0,0:0:0:0:
320,192,228911,1,0,0:0:0:0:
448,192,228911,1,0,0:0:0:0:
64,192,229036,128,0,229786:0:0:0:0:
192,192,229036,1,0,0:0:0:0:
448,192,229036,1,0,0:0:0:0:
320,192,229286,1,0,0:0:0:0:
448,192,229411,1,0,0:0:0:0:
320,192,229536,128,0,229786:0:0:0:0:
192,192,229786,1,0,0:0:0:0:
448,192,229786,1,0,0:0:0:0:
192,192,229911,1,0,0:0:0:0:
64,192,230036,1,0,0:0:0:0:
320,192,230036,1,0,0:0:0:0:
448,192,230036,1,0,0:0:0:0:
192,192,230119,1,0,0:0:0:0:
320,192,230203,1,0,0:0:0:0:
192,192,230286,1,0,0:0:0:0:
320,192,230369,1,0,0:0:0:0:
448,192,230453,1,0,0:0:0:0:
64,192,230536,1,0,0:0:0:0:
192,192,230536,1,0,0:0:0:0:
320,192,230661,1,0,0:0:0:0:
448,192,230661,1,0,0:0:0:0:
64,192,230786,128,0,231036:0:0:0:0:
192,192,230786,1,0,0:0:0:0:
448,192,230786,1,0,0:0:0:0:
448,192,231036,1,0,0:0:0:0:
320,192,231088,1,0,0:0:0:0:
192,192,231135,1,0,0:0:0:0:
448,192,231187,1,0,0:0:0:0:
320,192,231234,1,0,0:0:0:0:
64,192,231286,128,0,231536:0:0:0:0:
192,192,231536,1,0,0:0:0:0:
448,192,231536,128,0,231786:0:0:0:0:
320,192,231661,1,0,0:0:0:0:
64,192,231786,1,0,0:0:0:0:
192,192,231786,1,0,0:0:0:0:
320,192,231911,128,0,231974:0:0:0:0:
64,192,232036,1,0,0:0:0:0:
192,192,232036,1,0,0:0:0:0:
448,192,232036,1,0,0:0:0:0:
320,192,232119,1,0,0:0:0:0:
192,192,232203,1,0,0:0:0:0:
64,192,232286,1,0,0:0:0:0:
320,192,232369,1,0,0:0:0:0:
192,192,232453,1,0,0:0:0:0:
448,192,232536,1,0,0:0:0:0:
64,192,232619,1,0,0:0:0:0:
192,192,232703,1,0,0:0:0:0:
320,192,232786,1,0,0:0:0:0:
448,192,232786,1,0,0:0:0:0:
192,192,232869,1,0,0:0:0:0:
64,192,232953,1,0,0:0:0:0:
192,192,233036,1,0,0:0:0:0:
320,192,233036,1,0,0:0:0:0:
448,192,233036,1,0,0:0:0:0:
64,192,233119,1,0,0:0:0:0:
320,192,233203,1,0,0:0:0:0:
192,192,233286,1,0,0:0:0:0:
320,192,233369,1,0,0:0:0:0:
448,192,233453,1,0,0:0:0:0:
64,192,233536,1,0,0:0:0:0:
192,192,233536,1,0,0:0:0:0:
320,192,233619,1,0,0:0:0:0:
64,192,233703,1,0,0:0:0:0:
320,192,233786,1,0,0:0:0:0:
448,192,233786,1,0,0:0:0:0:
192,192,233869,1,0,0:0:0:0:
64,192,233953,1,0,0:0:0:0:
448,192,234036,1,0,0:0:0:0:
320,192,234078,1,0,0:0:0:0:
64,192,234119,1,0,0:0:0:0:
448,192,234161,1,0,0:0:0:0:
192,192,234203,1,0,0:0:0:0:
64,192,234244,1,0,0:0:0:0:
320,192,234286,1,0,0:0:0:0:
192,192,234349,1,0,0:0:0:0:
448,192,234411,1,0,0:0:0:0:
320,192,234474,1,0,0:0:0:0:
64,192,234536,1,0,0:0:0:0:
192,192,234536,1,0,0:0:0:0:
320,192,234599,1,0,0:0:0:0:
448,192,234661,1,0,0:0:0:0:
64,192,234724,1,0,0:0:0:0:
192,192,234786,1,0,0:0:0:0:
320,192,234786,1,0,0:0:0:0:
448,192,234838,1,0,0:0:0:0:
64,192,234885,1,0,0:0:0:0:
192,192,234937,1,0,0:0:0:0:
320,192,234984,1,0,0:0:0:0:
64,192,235036,1,0,0:0:0:0:
448,192,235036,1,0,0:0:0:0:
320,192,235078,1,0,0:0:0:0:
192,192,235119,1,0,0:0:0:0:
448,192,235161,1,0,0:0:0:0:
320,192,235203,1,0,0:0:0:0:
64,192,235244,1,0,0:0:0:0:
192,192,235286,1,0,0:0:0:0:
448,192,235349,1,0,0:0:0:0:
320,192,235411,1,0,0:0:0:0:
64,192,235474,1,0,0:0:0:0:
192,192,235536,1,0,0:0:0:0:
448,192,235536,1,0,0:0:0:0:
320,192,235619,1,0,0:0:0:0:
192,192,235703,1,0,0:0:0:0:
320,192,235786,1,0,0:0:0:0:
448,192,235786,1,0,0:0:0:0:
64,192,235869,1,0,0:0:0:0:
192,192,235953,1,0,0:0:0:0:
448,192,235953,1,0,0:0:0:0:
64,192,236036,1,0,0:0:0:0:
320,192,236036,1,0,0:0:0:0:
192,192,236119,1,0,0:0:0:0:
320,192,236203,1,0,0:0:0:0:
192,192,236286,1,0,0:0:0:0:
320,192,236369,1,0,0:0:0:0:
448,192,236453,1,0,0:0:0:0:
192,192,236536,1,0,0:0:0:0:
320,192,236536,1,0,0:0:0:0:
448,192,236619,1,0,0:0:0:0:
64,192,236703,1,0,0:0:0:0:
192,192,236786,1,0,0:0:0:0:
448,192,236786,1,0,0:0:0:0:
320,192,236869,1,0,0:0:0:0:
448,192,236953,1,0,0:0:0:0:
64,192,237036,1,0,0:0:0:0:
192,192,237036,1,0,0:0:0:0:
320,192,237036,1,0,0:0:0:0:
448,192,237099,1,0,0:0:0:0:
192,192,237161,1,0,0:0:0:0:
320,192,237224,1,0,0:0:0:0:
64,192,237286,1,0,0:0:0:0:
448,192,237286,1,0,0:0:0:0:
192,192,237349,1,0,0:0:0:0:
320,192,237411,1,0,0:0:0:0:
448,192,237411,1,0,0:0:0:0:
64,192,237474,1,0,0:0:0:0:
192,192,237536,1,0,0:0:0:0:
320,192,237536,1,0,0:0:0:0:
448,192,237599,1,0,0:0:0:0:
64,192,237661,1,0,0:0:0:0:
192,192,237661,1,0,0:0:0:0:
448,192,237724,1,0,0:0:0:0:
64,192,237786,1,0,0:0:0:0:
320,192,237786,1,0,0:0:0:0:
448,192,237849,1,0,0:0:0:0:
64,192,237911,1,0,0:0:0:0:
192,192,237911,1,0,0:0:0:0:
320,192,237974,1,0,0:0:0:0:
64,192,238036,1,0,0:0:0:0:
448,192,238036,1,0,0:0:0:0:
192,192,238099,1,0,0:0:0:0:
320,192,238161,1,0,0:0:0:0:
64,192,238224,1,0,0:0:0:0:
448,192,238286,1,0,0:0:0:0:
192,192,238349,1,0,0:0:0:0:
448,192,238411,1,0,0:0:0:0:
64,192,238474,1,0,0:0:0:0:
192,192,238536,1,0,0:0:0:0:
320,192,238536,1,0,0:0:0:0:
448,192,238599,1,0,0:0:0:0:
320,192,238661,1,0,0:0:0:0:
192,192,238724,1,0,0:0:0:0:
64,192,238786,1,0,0:0:0:0:
320,192,238786,1,0,0:0:0:0:
448,192,238786,1,0,0:0:0:0:
192,192,238849,1,0,0:0:0:0:
320,192,238911,1,0,0:0:0:0:
448,192,238974,1,0,0:0:0:0:
64,192,239036,1,0,0:0:0:0:
192,192,239036,1,0,0:0:0:0:
320,192,239036,1,0,0:0:0:0:
448,192,239099,1,0,0:0:0:0:
320,192,239161,1,0,0:0:0:0:
64,192,239224,1,0,0:0:0:0:
192,192,239286,1,0,0:0:0:0:
448,192,239286,1,0,0:0:0:0:
320,192,239349,1,0,0:0:0:0:
64,192,239411,1,0,0:0:0:0:
192,192,239411,1,0,0:0:0:0:
448,192,239474,1,0,0:0:0:0:
192,192,239536,1,0,0:0:0:0:
320,192,239536,1,0,0:0:0:0:
64,192,239599,1,0,0:0:0:0:
320,192,239661,1,0,0:0:0:0:
448,192,239661,1,0,0:0:0:0:
64,192,239724,1,0,0:0:0:0:
192,192,239786,1,0,0:0:0:0:
320,192,239786,1,0,0:0:0:0:
448,192,239849,1,0,0:0:0:0:
64,192,239911,1,0,0:0:0:0:
192,192,239911,1,0,0:0:0:0:
320,192,239974,1,0,0:0:0:0:
64,192,240036,1,0,0:0:0:0:
448,192,240036,1,0,0:0:0:0:
192,192,240099,1,0,0:0:0:0:
320,192,240161,1,0,0:0:0:0:
192,192,240224,1,0,0:0:0:0:
64,192,240286,1,0,0:0:0:0:
448,192,240286,1,0,0:0:0:0:
320,192,240349,1,0,0:0:0:0:
192,192,240411,1,0,0:0:0:0:
448,192,240411,1,0,0:0:0:0:
320,192,240474,1,0,0:0:0:0:
64,192,240536,1,0,0:0:0:0:
448,192,240536,1,0,0:0:0:0:
192,192,240599,1,0,0:0:0:0:
320,192,240661,1,0,0:0:0:0:
64,192,240724,1,0,0:0:0:0:
192,192,240786,1,0,0:0:0:0:
448,192,240786,1,0,0:0:0:0:
320,192,240849,1,0,0:0:0:0:
64,192,240911,1,0,0:0:0:0:
192,192,240974,1,0,0:0:0:0:
320,192,241036,1,0,0:0:0:0:
448,192,241036,1,0,0:0:0:0:
64,192,241099,1,0,0:0:0:0:
192,192,241161,1,0,0:0:0:0:
320,192,241224,1,0,0:0:0:0:
64,192,241286,1,0,0:0:0:0:
448,192,241286,1,0,0:0:0:0:
320,192,241349,1,0,0:0:0:0:
64,192,241411,1,0,0:0:0:0:
192,192,241411,1,0,0:0:0:0:
320,192,241474,1,0,0:0:0:0:
64,192,241536,1,0,0:0:0:0:
448,192,241536,1,0,0:0:0:0:
192,192,241599,1,0,0:0:0:0:
448,192,241661,1,0,0:0:0:0:
64,192,241724,1,0,0:0:0:0:
192,192,241786,1,0,0:0:0:0:
320,192,241786,1,0,0:0:0:0:
448,192,241849,1,0,0:0:0:0:
192,192,241911,1,0,0:0:0:0:
320,192,241911,1,0,0:0:0:0:
64,192,241974,1,0,0:0:0:0:
448,192,242036,1,0,0:0:0:0:
192,192,242099,1,0,0:0:0:0:
320,192,242161,1,0,0:0:0:0:
64,192,242224,1,0,0:0:0:0:
192,192,242286,1,0,0:0:0:0:
448,192,242349,1,0,0:0:0:0:
64,192,242411,1,0,0:0:0:0:
320,192,242474,1,0,0:0:0:0:
64,192,242536,1,0,0:0:0:0:
192,192,242536,1,0,0:0:0:0:
448,192,242599,1,0,0:0:0:0:
192,192,242661,1,0,0:0:0:0:
320,192,242661,1,0,0:0:0:0:
64,192,242724,1,0,0:0:0:0:
320,192,242786,1,0,0:0:0:0:
448,192,242786,1,0,0:0:0:0:
192,192,242849,1,0,0:0:0:0:
64,192,242911,1,0,0:0:0:0:
448,192,242911,1,0,0:0:0:0:
320,192,242974,1,0,0:0:0:0:
192,192,243036,1,0,0:0:0:0:
64,192,243099,1,0,0:0:0:0:
192,192,243161,1,0,0:0:0:0:
320,192,243224,1,0,0:0:0:0:
192,192,243286,1,0,0:0:0:0:
448,192,243349,1,0,0:0:0:0:
320,192,243411,1,0,0:0:0:0:
192,192,243474,1,0,0:0:0:0:
320,192,243536,1,0,0:0:0:0:
448,192,243536,1,0,0:0:0:0:
192,192,243661,1,0,0:0:0:0:
320,192,243661,1,0,0:0:0:0:
64,192,243786,1,0,0:0:0:0:
192,192,243786,1,0,0:0:0:0:
448,192,243786,1,0,0:0:0:0:
64,192,243911,1,0,0:0:0:0:
320,192,243911,1,0,0:0:0:0:
64,192,244036,1,0,0:0:0:0:
192,192,244036,128,0,244411:0:0:0:0:
320,192,244036,1,0,0:0:0:0:
448,192,244036,1,0,0:0:0:0:
320,192,244411,1,0,0:0:0:0:
448,192,244411,1,0,0:0:0:0:
64,192,244536,1,0,0:0:0:0:
192,192,244536,128,0,244786:0:0:0:0:
320,192,244599,1,0,0:0:0:0:
448,192,244661,1,0,0:0:0:0:
320,192,244724,1,0,0:0:0:0:
64,192,244786,128,0,245036:0:0:0:0:
448,192,244786,1,0,0:0:0:0:
320,192,245036,1,0,0:0:0:0:
448,192,245036,1,0,0:0:0:0:
192,192,245099,1,0,0:0:0:0:
320,192,245161,1,0,0:0:0:0:
64,192,245224,1,0,0:0:0:0:
320,192,245286,1,0,0:0:0:0:
192,192,245349,1,0,0:0:0:0:
320,192,245411,1,0,0:0:0:0:
64,192,245474,1,0,0:0:0:0:
448,192,245536,1,0,0:0:0:0:
192,192,245599,1,0,0:0:0:0:
320,192,245661,1,0,0:0:0:0:
64,192,245724,1,0,0:0:0:0:
320,192,245786,1,0,0:0:0:0:
192,192,245849,1,0,0:0:0:0:
64,192,245911,1,0,0:0:0:0:
448,192,245911,1,0,0:0:0:0:
192,192,246036,1,0,0:0:0:0:
320,192,246036,1,0,0:0:0:0:
448,192,246036,1,0,0:0:0:0:
64,192,246161,1,0,0:0:0:0:
320,192,246161,1,0,0:0:0:0:
64,192,246286,1,0,0:0:0:0:
320,192,246286,1,0,0:0:0:0:
448,192,246286,1,0,0:0:0:0:
192,192,246349,1,0,0:0:0:0:
320,192,246411,1,0,0:0:0:0:
64,192,246474,1,0,0:0:0:0:
320,192,246536,1,0,0:0:0:0:
192,192,246599,1,0,0:0:0:0:
320,192,246661,1,0,0:0:0:0:
64,192,246724,1,0,0:0:0:0:
192,192,246786,1,0,0:0:0:0:
448,192,246849,1,0,0:0:0:0:
320,192,246911,1,0,0:0:0:0:
192,192,246974,1,0,0:0:0:0:
320,192,247036,1,0,0:0:0:0:
448,192,247036,1,0,0:0:0:0:
64,192,247161,1,0,0:0:0:0:
192,192,247161,1,0,0:0:0:0:
64,192,247286,1,0,0:0:0:0:
320,192,247286,128,0,247536:0:0:0:0:
448,192,247286,1,0,0:0:0:0:
64,192,247536,1,0,0:0:0:0:
192,192,247536,1,0,0:0:0:0:
448,192,247599,1,0,0:0:0:0:
320,192,247661,1,0,0:0:0:0:
64,192,247724,1,0,0:0:0:0:
192,192,247786,1,0,0:0:0:0:
448,192,247786,1,0,0:0:0:0:
320,192,247849,1,0,0:0:0:0:
64,192,247911,1,0,0:0:0:0:
192,192,247974,1,0,0:0:0:0:
320,192,248036,1,0,0:0:0:0:
448,192,248036,1,0,0:0:0:0:
64,192,248099,1,0,0:0:0:0:
192,192,248161,1,0,0:0:0:0:
448,192,248224,1,0,0:0:0:0:
64,192,248286,1,0,0:0:0:0:
320,192,248286,1,0,0:0:0:0:
192,192,248349,1,0,0:0:0:0:
448,192,248411,1,0,0:0:0:0:
320,192,248474,1,0,0:0:0:0:
64,192,248536,1,0,0:0:0:0:
192,192,248536,1,0,0:0:0:0:
448,192,248536,1,0,0:0:0:0:
64,192,248661,1,0,0:0:0:0:
320,192,248661,1,0,0:0:0:0:
448,192,248661,1,0,0:0:0:0:
64,192,248786,1,0,0:0:0:0:
192,192,248786,1,0,0:0:0:0:
320,192,248786,1,0,0:0:0:0:
64,192,248911,1,0,0:0:0:0:
320,192,248911,1,0,0:0:0:0:
448,192,248911,1,0,0:0:0:0:
192,192,249036,1,0,0:0:0:0:
448,192,249036,1,0,0:0:0:0:
64,192,249099,1,0,0:0:0:0:
192,192,249161,1,0,0:0:0:0:
320,192,249224,1,0,0:0:0:0:
64,192,249286,1,0,0:0:0:0:
192,192,249286,1,0,0:0:0:0:
448,192,249349,1,0,0:0:0:0:
64,192,249411,1,0,0:0:0:0:
320,192,249411,1,0,0:0:0:0:
192,192,249474,1,0,0:0:0:0:
320,192,249536,1,0,0:0:0:0:
448,192,249536,1,0,0:0:0:0:
64,192,249599,1,0,0:0:0:0:
192,192,249661,1,0,0:0:0:0:
320,192,249724,1,0,0:0:0:0:
64,192,249786,1,0,0:0:0:0:
192,192,249786,1,0,0:0:0:0:
448,192,249849,1,0,0:0:0:0:
320,192,249911,1,0,0:0:0:0:
192,192,249974,1,0,0:0:0:0:
64,192,250036,1,0,0:0:0:0:
320,192,250036,1,0,0:0:0:0:
192,192,250161,1,0,0:0:0:0:
448,192,250161,1,0,0:0:0:0:
64,192,250286,1,0,0:0:0:0:
320,192,250286,1,0,0:0:0:0:
448,192,250286,1,0,0:0:0:0:
64,192,250411,1,0,0:0:0:0:
192,192,250411,1,0,0:0:0:0:
448,192,250411,1,0,0:0:0:0:
192,192,250536,1,0,0:0:0:0:
320,192,250536,1,0,0:0:0:0:
448,192,250599,1,0,0:0:0:0:
64,192,250661,1,0,0:0:0:0:
320,192,250661,1,0,0:0:0:0:
192,192,250724,1,0,0:0:0:0:
320,192,250786,1,0,0:0:0:0:
448,192,250786,1,0,0:0:0:0:
64,192,250849,1,0,0:0:0:0:
192,192,250911,1,0,0:0:0:0:
448,192,250974,1,0,0:0:0:0:
64,192,251036,1,0,0:0:0:0:
192,192,251036,1,0,0:0:0:0:
320,192,251036,128,0,251286:0:0:0:0:
64,192,251286,128,0,251536:0:0:0:0:
192,192,251286,1,0,0:0:0:0:
448,192,251286,1,0,0:0:0:0:
320,192,251536,1,0,0:0:0:0:
448,192,251536,1,0,0:0:0:0:
192,192,251599,1,0,0:0:0:0:
320,192,251661,1,0,0:0:0:0:
64,192,251724,1,0,0:0:0:0:
192,192,251786,1,0,0:0:0:0:
448,192,251849,1,0,0:0:0:0:
64,192,251911,1,0,0:0:0:0:
320,192,251974,1,0,0:0:0:0:
192,192,252036,1,0,0:0:0:0:
448,192,252036,1,0,0:0:0:0:
64,192,252099,1,0,0:0:0:0:
192,192,252161,1,0,0:0:0:0:
448,192,252224,1,0,0:0:0:0:
320,192,252286,1,0,0:0:0:0:
64,192,252349,1,0,0:0:0:0:
448,192,252411,1,0,0:0:0:0:
192,192,252474,1,0,0:0:0:0:
320,192,252536,1,0,0:0:0:0:
448,192,252536,1,0,0:0:0:0:
64,192,252599,1,0,0:0:0:0:
448,192,252661,1,0,0:0:0:0:
320,192,252724,1,0,0:0:0:0:
64,192,252786,1,0,0:0:0:0:
192,192,252786,1,0,0:0:0:0:
448,192,252849,1,0,0:0:0:0:
64,192,252911,1,0,0:0:0:0:
320,192,252911,1,0,0:0:0:0:
192,192,252974,1,0,0:0:0:0:
320,192,253036,1,0,0:0:0:0:
448,192,253036,1,0,0:0:0:0:
64,192,253099,1,0,0:0:0:0:
192,192,253161,1,0,0:0:0:0:
448,192,253161,1,0,0:0:0:0:
320,192,253224,1,0,0:0:0:0:
64,192,253286,1,0,0:0:0:0:
192,192,253286,1,0,0:0:0:0:
448,192,253349,1,0,0:0:0:0:
64,192,253411,1,0,0:0:0:0:
192,192,253411,1,0,0:0:0:0:
320,192,253474,1,0,0:0:0:0:
448,192,253536,1,0,0:0:0:0:
192,192,253599,1,0,0:0:0:0:
320,192,253661,1,0,0:0:0:0:
64,192,253724,1,0,0:0:0:0:
192,192,253786,1,0,0:0:0:0:
448,192,253786,1,0,0:0:0:0:
320,192,253849,1,0,0:0:0:0:
192,192,253911,1,0,0:0:0:0:
64,192,253974,1,0,0:0:0:0:
320,192,254036,1,0,0:0:0:0:
448,192,254099,1,0,0:0:0:0:
64,192,254161,1,0,0:0:0:0:
192,192,254224,1,0,0:0:0:0:
320,192,254286,1,0,0:0:0:0:
448,192,254286,1,0,0:0:0:0:
64,192,254349,1,0,0:0:0:0:
320,192,254411,1,0,0:0:0:0:
192,192,254474,1,0,0:0:0:0:
64,192,254536,1,0,0:0:0:0:
448,192,254599,1,0,0:0:0:0:
320,192,254661,1,0,0:0:0:0:
64,192,254724,1,0,0:0:0:0:
192,192,254786,1,0,0:0:0:0:
448,192,254786,1,0,0:0:0:0:
320,192,254849,1,0,0:0:0:0:
192,192,254911,1,0,0:0:0:0:
320,192,254974,1,0,0:0:0:0:
64,192,255036,1,0,0:0:0:0:
448,192,255036,1,0,0:0:0:0:
192,192,255099,1,0,0:0:0:0:
320,192,255161,1,0,0:0:0:0:
448,192,255161,1,0,0:0:0:0:
192,192,255224,1,0,0:0:0:0:
64,192,255286,1,0,0:0:0:0:
448,192,255286,1,0,0:0:0:0:
320,192,255349,1,0,0:0:0:0:
64,192,255411,1,0,0:0:0:0:
192,192,255411,1,0,0:0:0:0:
448,192,255474,1,0,0:0:0:0:
320,192,255536,1,0,0:0:0:0:
192,192,255599,1,0,0:0:0:0:
320,192,255661,1,0,0:0:0:0:
448,192,255724,1,0,0:0:0:0:
64,192,255786,1,0,0:0:0:0:
320,192,255786,1,0,0:0:0:0:
64,192,255911,1,0,0:0:0:0:
192,192,255911,1,0,0:0:0:0:
448,192,255911,1,0,0:0:0:0:
192,192,256036,1,0,0:0:0:0:
320,192,256036,1,0,0:0:0:0:
448,192,256036,1,0,0:0:0:0:
64,192,256098,1,0,0:0:0:0:
192,192,256161,1,0,0:0:0:0:
448,192,256223,1,0,0:0:0:0:
64,192,256286,1,0,0:0:0:0:
192,192,256286,1,0,0:0:0:0:
320,192,256348,1,0,0:0:0:0:
448,192,256411,1,0,0:0:0:0:
192,192,256473,1,0,0:0:0:0:
64,192,256536,1,0,0:0:0:0:
320,192,256536,1,0,0:0:0:0:
448,192,256598,1,0,0:0:0:0:
320,192,256661,1,0,0:0:0:0:
64,192,256723,1,0,0:0:0:0:
192,192,256786,1,0,0:0:0:0:
448,192,256786,1,0,0:0:0:0:
320,192,256848,1,0,0:0:0:0:
448,192,256911,1,0,0:0:0:0:
64,192,256973,1,0,0:0:0:0:
192,192,257036,1,0,0:0:0:0:
320,192,257036,1,0,0:0:0:0:
448,192,257036,1,0,0:0:0:0:
64,192,257098,1,0,0:0:0:0:
192,192,257161,1,0,0:0:0:0:
448,192,257223,1,0,0:0:0:0:
64,192,257286,1,0,0:0:0:0:
192,192,257286,1,0,0:0:0:0:
320,192,257286,1,0,0:0:0:0:
448,192,257348,1,0,0:0:0:0:
320,192,257411,1,0,0:0:0:0:
64,192,257473,1,0,0:0:0:0:
192,192,257536,1,0,0:0:0:0:
320,192,257536,1,0,0:0:0:0:
448,192,257598,1,0,0:0:0:0:
64,192,257661,1,0,0:0:0:0:
192,192,257723,1,0,0:0:0:0:
320,192,257786,1,0,0:0:0:0:
448,192,257786,1,0,0:0:0:0:
64,192,257848,1,0,0:0:0:0:
320,192,257911,1,0,0:0:0:0:
192,192,257973,1,0,0:0:0:0:
64,192,258036,1,0,0:0:0:0:
448,192,258036,1,0,0:0:0:0:
320,192,258098,1,0,0:0:0:0:
64,192,258161,1,0,0:0:0:0:
192,192,258223,1,0,0:0:0:0:
320,192,258286,1,0,0:0:0:0:
448,192,258286,1,0,0:0:0:0:
192,192,258348,1,0,0:0:0:0:
320,192,258411,1,0,0:0:0:0:
192,192,258473,1,0,0:0:0:0:
64,192,258536,1,0,0:0:0:0:
320,192,258536,1,0,0:0:0:0:
448,192,258536,1,0,0:0:0:0:
192,192,258598,1,0,0:0:0:0:
448,192,258661,1,0,0:0:0:0:
320,192,258723,1,0,0:0:0:0:
64,192,258786,1,0,0:0:0:0:
192,192,258786,1,0,0:0:0:0:
448,192,258848,1,0,0:0:0:0:
192,192,258911,1,0,0:0:0:0:
64,192,258973,1,0,0:0:0:0:
320,192,259036,1,0,0:0:0:0:
448,192,259036,1,0,0:0:0:0:
192,192,259098,1,0,0:0:0:0:
320,192,259161,1,0,0:0:0:0:
64,192,259223,1,0,0:0:0:0:
192,192,259286,1,0,0:0:0:0:
448,192,259286,1,0,0:0:0:0:
320,192,259348,1,0,0:0:0:0:
192,192,259411,1,0,0:0:0:0:
448,192,259473,1,0,0:0:0:0:
64,192,259536,1,0,0:0:0:0:
192,192,259536,1,0,0:0:0:0:
320,192,259536,1,0,0:0:0:0:
64,192,259661,1,0,0:0:0:0:
320,192,259661,1,0,0:0:0:0:
448,192,259661,1,0,0:0:0:0:
192,192,259786,1,0,0:0:0:0:
320,192,259786,1,0,0:0:0:0:
448,192,259786,1,0,0:0:0:0:
64,192,259911,1,0,0:0:0:0:
192,192,259911,1,0,0:0:0:0:
448,192,259911,1,0,0:0:0:0:
64,192,260036,1,0,0:0:0:0:
320,192,260036,1,0,0:0:0:0:
192,192,260098,1,0,0:0:0:0:
448,192,260161,1,0,0:0:0:0:
64,192,260223,1,0,0:0:0:0:
320,192,260286,1,0,0:0:0:0:
192,192,260348,1,0,0:0:0:0:
64,192,260411,1,0,0:0:0:0:
448,192,260411,1,0,0:0:0:0:
320,192,260473,1,0,0:0:0:0:
64,192,260536,1,0,0:0:0:0:
192,192,260536,1,0,0:0:0:0:
320,192,260598,1,0,0:0:0:0:
448,192,260661,1,0,0:0:0:0:
320,192,260723,1,0,0:0:0:0:
64,192,260786,1,0,0:0:0:0:
192,192,260786,1,0,0:0:0:0:
448,192,260848,1,0,0:0:0:0:
320,192,260911,1,0,0:0:0:0:
192,192,260973,1,0,0:0:0:0:
64,192,261036,1,0,0:0:0:0:
320,192,261036,1,0,0:0:0:0:
448,192,261036,1,0,0:0:0:0:
192,192,261161,1,0,0:0:0:0:
320,192,261161,1,0,0:0:0:0:
448,192,261161,1,0,0:0:0:0:
64,192,261286,1,0,0:0:0:0:
192,192,261286,1,0,0:0:0:0:
448,192,261286,1,0,0:0:0:0:
64,192,261411,1,0,0:0:0:0:
192,192,261411,1,0,0:0:0:0:
320,192,261411,1,0,0:0:0:0:
320,192,261536,1,0,0:0:0:0:
448,192,261536,1,0,0:0:0:0:
192,192,261598,1,0,0:0:0:0:
448,192,261661,1,0,0:0:0:0:
192,192,261723,1,0,0:0:0:0:
320,192,261786,1,0,0:0:0:0:
64,192,261848,1,0,0:0:0:0:
320,192,261911,1,0,0:0:0:0:
192,192,261973,1,0,0:0:0:0:
64,192,262036,1,0,0:0:0:0:
320,192,262036,1,0,0:0:0:0:
448,192,262036,128,0,262286:0:0:0:0:
64,192,262286,1,0,0:0:0:0:
192,192,262286,1,0,0:0:0:0:
320,192,262286,128,0,262536:0:0:0:0:
64,192,262536,1,0,0:0:0:0:
448,192,262536,1,0,0:0:0:0:
192,192,262599,1,0,0:0:0:0:
64,192,262661,1,0,0:0:0:0:
320,192,262724,1,0,0:0:0:0:
448,192,262786,1,0,0:0:0:0:
192,192,262849,1,0,0:0:0:0:
320,192,262911,1,0,0:0:0:0:
64,192,262974,1,0,0:0:0:0:
192,192,263036,1,0,0:0:0:0:
448,192,263036,1,0,0:0:0:0:
320,192,263099,1,0,0:0:0:0:
448,192,263161,1,0,0:0:0:0:
192,192,263224,1,0,0:0:0:0:
64,192,263286,1,0,0:0:0:0:
320,192,263349,1,0,0:0:0:0:
192,192,263411,1,0,0:0:0:0:
448,192,263474,1,0,0:0:0:0:
64,192,263536,1,0,0:0:0:0:
320,192,263536,1,0,0:0:0:0:
192,192,263599,1,0,0:0:0:0:
320,192,263661,1,0,0:0:0:0:
448,192,263661,1,0,0:0:0:0:
192,192,263724,1,0,0:0:0:0:
64,192,263786,1,0,0:0:0:0:
320,192,263786,1,0,0:0:0:0:
448,192,263786,1,0,0:0:0:0:
64,192,263911,1,0,0:0:0:0:
192,192,263911,1,0,0:0:0:0:
192,192,264036,1,0,0:0:0:0:
320,192,264036,1,0,0:0:0:0:
448,192,264036,1,0,0:0:0:0:
320,192,264161,1,0,0:0:0:0:
448,192,264161,1,0,0:0:0:0:
64,192,264286,1,0,0:0:0:0:
192,192,264286,1,0,0:0:0:0:
320,192,264349,1,0,0:0:0:0:
448,192,264411,1,0,0:0:0:0:
64,192,264474,1,0,0:0:0:0:
192,192,264536,1,0,0:0:0:0:
320,192,264536,1,0,0:0:0:0:
64,192,264599,1,0,0:0:0:0:
448,192,264661,1,0,0:0:0:0:
192,192,264724,1,0,0:0:0:0:
320,192,264786,1,0,0:0:0:0:
448,192,264786,1,0,0:0:0:0:
64,192,264849,1,0,0:0:0:0:
320,192,264911,1,0,0:0:0:0:
192,192,264974,1,0,0:0:0:0:
448,192,265036,1,0,0:0:0:0:
320,192,265099,1,0,0:0:0:0:
64,192,265161,1,0,0:0:0:0:
448,192,265224,1,0,0:0:0:0:
64,192,265286,1,0,0:0:0:0:
320,192,265286,1,0,0:0:0:0:
192,192,265349,1,0,0:0:0:0:
320,192,265411,1,0,0:0:0:0:
64,192,265474,1,0,0:0:0:0:
192,192,265536,1,0,0:0:0:0:
448,192,265599,1,0,0:0:0:0:
64,192,265661,1,0,0:0:0:0:
192,192,265724,1,0,0:0:0:0:
448,192,265786,1,0,0:0:0:0:
320,192,265828,1,0,0:0:0:0:
192,192,265869,1,0,0:0:0:0:
64,192,265911,1,0,0:0:0:0:
448,192,265953,1,0,0:0:0:0:
320,192,265994,1,0,0:0:0:0:
64,192,266036,1,0,0:0:0:0:
192,192,266036,1,0,0:0:0:0:
320,192,266161,1,0,0:0:0:0:
448,192,266161,1,0,0:0:0:0:
64,192,266286,1,0,0:0:0:0:
192,192,266286,1,0,0:0:0:0:
448,192,266286,1,0,0:0:0:0:
192,192,266411,1,0,0:0:0:0:
320,192,266411,1,0,0:0:0:0:
64,192,266536,1,0,0:0:0:0:
448,192,266536,1,0,0:0:0:0:
192,192,266599,1,0,0:0:0:0:
64,192,266661,1,0,0:0:0:0:
320,192,266661,1,0,0:0:0:0:
192,192,266724,1,0,0:0:0:0:
320,192,266786,1,0,0:0:0:0:
448,192,266786,1,0,0:0:0:0:
64,192,266849,1,0,0:0:0:0:
192,192,266911,1,0,0:0:0:0:
320,192,266911,1,0,0:0:0:0:
448,192,266974,1,0,0:0:0:0:
64,192,267036,1,0,0:0:0:0:
192,192,267036,1,0,0:0:0:0:
320,192,267036,1,0,0:0:0:0:
64,192,267161,1,0,0:0:0:0:
448,192,267161,1,0,0:0:0:0:
192,192,267286,1,0,0:0:0:0:
320,192,267286,1,0,0:0:0:0:
320,192,267411,1,0,0:0:0:0:
448,192,267411,1,0,0:0:0:0:
64,192,267536,1,0,0:0:0:0:
192,192,267536,1,0,0:0:0:0:
448,192,267536,1,0,0:0:0:0:
64,192,267661,1,0,0:0:0:0:
320,192,267661,1,0,0:0:0:0:
192,192,267786,1,0,0:0:0:0:
448,192,267786,1,0,0:0:0:0:
192,192,267911,1,0,0:0:0:0:
320,192,267911,1,0,0:0:0:0:
64,192,268036,128,0,268161:0:0:0:0:
320,192,268036,128,0,268161:0:0:0:0:
448,192,268036,128,0,268161:0:0:0:0:
64,192,268536,1,0,0:0:0:0:
320,192,268536,1,0,0:0:0:0:
448,192,268536,1,0,0:0:0:0:
64,192,268661,1,0,0:0:0:0:
448,192,268661,1,0,0:0:0:0:
192,192,268786,1,0,0:0:0:0:
320,192,268786,1,0,0:0:0:0:
448,192,268786,128,0,269036:0:0:0:0:
64,192,269036,1,0,0:0:0:0:
320,192,269036,1,0,0:0:0:0:
192,192,269099,1,0,0:0:0:0:
320,192,269161,1,0,0:0:0:0:
448,192,269161,1,0,0:0:0:0:
64,192,269224,1,0,0:0:0:0:
192,192,269286,1,0,0:0:0:0:
448,192,269286,1,0,0:0:0:0:
320,192,269349,1,0,0:0:0:0:
64,192,269411,1,0,0:0:0:0:
192,192,269411,1,0,0:0:0:0:
320,192,269474,1,0,0:0:0:0:
64,192,269536,1,0,0:0:0:0:
448,192,269536,1,0,0:0:0:0:
192,192,269599,1,0,0:0:0:0:
320,192,269661,1,0,0:0:0:0:
448,192,269661,1,0,0:0:0:0:
192,192,269724,1,0,0:0:0:0:
64,192,269786,1,0,0:0:0:0:
320,192,269786,1,0,0:0:0:0:
448,192,269849,1,0,0:0:0:0:
64,192,269911,1,0,0:0:0:0:
192,192,269911,1,0,0:0:0:0:
320,192,269974,1,0,0:0:0:0:
64,192,270036,1,0,0:0:0:0:
448,192,270036,1,0,0:0:0:0:
192,192,270099,1,0,0:0:0:0:
64,192,270161,1,0,0:0:0:0:
448,192,270161,1,0,0:0:0:0:
192,192,270224,1,0,0:0:0:0:
320,192,270286,1,0,0:0:0:0:
448,192,270286,1,0,0:0:0:0:
64,192,270349,1,0,0:0:0:0:
192,192,270411,1,0,0:0:0:0:
320,192,270411,1,0,0:0:0:0:
448,192,270474,1,0,0:0:0:0:
64,192,270536,1,0,0:0:0:0:
192,192,270536,1,0,0:0:0:0:
320,192,270599,1,0,0:0:0:0:
192,192,270661,1,0,0:0:0:0:
448,192,270661,1,0,0:0:0:0:
64,192,270724,1,0,0:0:0:0:
320,192,270786,1,0,0:0:0:0:
448,192,270786,1,0,0:0:0:0:
192,192,270849,1,0,0:0:0:0:
64,192,270911,1,0,0:0:0:0:
448,192,270911,1,0,0:0:0:0:
320,192,270974,1,0,0:0:0:0:
64,192,271036,1,0,0:0:0:0:
192,192,271036,1,0,0:0:0:0:
448,192,271099,1,0,0:0:0:0:
64,192,271161,1,0,0:0:0:0:
320,192,271161,1,0,0:0:0:0:
192,192,271224,1,0,0:0:0:0:
320,192,271286,1,0,0:0:0:0:
448,192,271286,1,0,0:0:0:0:
64,192,271349,1,0,0:0:0:0:
192,192,271411,1,0,0:0:0:0:
448,192,271411,1,0,0:0:0:0:
320,192,271474,1,0,0:0:0:0:
64,192,271536,1,0,0:0:0:0:
192,192,271536,1,0,0:0:0:0:
448,192,271599,1,0,0:0:0:0:
64,192,271661,1,0,0:0:0:0:
192,192,271661,1,0,0:0:0:0:
448,192,271724,1,0,0:0:0:0:
192,192,271786,1,0,0:0:0:0:
320,192,271786,1,0,0:0:0:0:
64,192,271849,1,0,0:0:0:0:
320,192,271911,1,0,0:0:0:0:
448,192,271911,1,0,0:0:0:0:
64,192,271974,1,0,0:0:0:0:
192,192,272036,1,0,0:0:0:0:
448,192,272036,1,0,0:0:0:0:
320,192,272099,1,0,0:0:0:0:
64,192,272161,1,0,0:0:0:0:
192,192,272161,1,0,0:0:0:0:
320,192,272224,1,0,0:0:0:0:
64,192,272286,1,0,0:0:0:0:
448,192,272286,1,0,0:0:0:0:
192,192,272349,1,0,0:0:0:0:
64,192,272411,1,0,0:0:0:0:
320,192,272411,1,0,0:0:0:0:
192,192,272474,1,0,0:0:0:0:
64,192,272536,128,0,272786:0:0:0:0:
320,192,272536,1,0,0:0:0:0:
448,192,272536,1,0,0:0:0:0:
192,192,272786,1,0,0:0:0:0:
320,192,272786,1,0,0:0:0:0:
448,192,272786,1,0,0:0:0:0:
192,192,272911,1,0,0:0:0:0:
320,192,272911,1,0,0:0:0:0:
448,192,272911,1,0,0:0:0:0:
64,192,273036,1,0,0:0:0:0:
192,192,273036,1,0,0:0:0:0:
448,192,273036,1,0,0:0:0:0:
320,192,273099,1,0,0:0:0:0:
64,192,273161,1,0,0:0:0:0:
448,192,273161,1,0,0:0:0:0:
192,192,273224,1,0,0:0:0:0:
320,192,273286,1,0,0:0:0:0:
448,192,273286,1,0,0:0:0:0:
64,192,273349,1,0,0:0:0:0:
192,192,273411,1,0,0:0:0:0:
320,192,273411,1,0,0:0:0:0:
64,192,273474,1,0,0:0:0:0:
192,192,273536,1,0,0:0:0:0:
448,192,273536,1,0,0:0:0:0:
320,192,273599,1,0,0:0:0:0:
64,192,273661,1,0,0:0:0:0:
192,192,273661,1,0,0:0:0:0:
448,192,273724,1,0,0:0:0:0:
64,192,273786,1,0,0:0:0:0:
320,192,273786,1,0,0:0:0:0:
192,192,273849,1,0,0:0:0:0:
320,192,273911,1,0,0:0:0:0:
448,192,273911,1,0,0:0:0:0:
64,192,273974,1,0,0:0:0:0:
192,192,274036,1,0,0:0:0:0:
448,192,274036,1,0,0:0:0:0:
320,192,274099,1,0,0:0:0:0:
64,192,274161,1,0,0:0:0:0:
192,192,274161,1,0,0:0:0:0:
320,192,274224,1,0,0:0:0:0:
64,192,274286,1,0,0:0:0:0:
448,192,274286,1,0,0:0:0:0:
192,192,274349,1,0,0:0:0:0:
320,192,274411,1,0,0:0:0:0:
448,192,274411,1,0,0:0:0:0:
64,192,274474,1,0,0:0:0:0:
192,192,274536,1,0,0:0:0:0:
320,192,274536,1,0,0:0:0:0:
448,192,274599,1,0,0:0:0:0:
64,192,274661,1,0,0:0:0:0:
192,192,274661,1,0,0:0:0:0:
448,192,274724,1,0,0:0:0:0:
64,192,274786,1,0,0:0:0:0:
320,192,274786,1,0,0:0:0:0:
192,192,274849,1,0,0:0:0:0:
320,192,274911,1,0,0:0:0:0:
448,192,274911,1,0,0:0:0:0:
64,192,274974,1,0,0:0:0:0:
192,192,275036,1,0,0:0:0:0:
448,192,275036,1,0,0:0:0:0:
320,192,275099,1,0,0:0:0:0:
64,192,275161,1,0,0:0:0:0:
192,192,275161,1,0,0:0:0:0:
320,192,275224,1,0,0:0:0:0:
64,192,275286,1,0,0:0:0:0:
448,192,275286,1,0,0:0:0:0:
320,192,275349,1,0,0:0:0:0:
64,192,275411,1,0,0:0:0:0:
192,192,275411,1,0,0:0:0:0:
448,192,275474,1,0,0:0:0:0:
192,192,275536,1,0,0:0:0:0:
320,192,275536,1,0,0:0:0:0:
64,192,275599,1,0,0:0:0:0:
320,192,275661,1,0,0:0:0:0:
448,192,275661,1,0,0:0:0:0:
64,192,275724,1,0,0:0:0:0:
192,192,275786,1,0,0:0:0:0:
448,192,275786,1,0,0:0:0:0:
320,192,275849,1,0,0:0:0:0:
64,192,275911,1,0,0:0:0:0:
192,192,275911,1,0,0:0:0:0:
320,192,275974,1,0,0:0:0:0:
64,192,276036,1,0,0:0:0:0:
448,192,276036,1,0,0:0:0:0:
192,192,276099,1,0,0:0:0:0:
64,192,276161,1,0,0:0:0:0:
320,192,276161,1,0,0:0:0:0:
192,192,276224,1,0,0:0:0:0:
320,192,276286,1,0,0:0:0:0:
448,192,276286,1,0,0:0:0:0:
64,192,276349,1,0,0:0:0:0:
192,192,276411,1,0,0:0:0:0:
448,192,276411,1,0,0:0:0:0:
64,192,276474,1,0,0:0:0:0:
192,192,276536,1,0,0:0:0:0:
320,192,276536,1,0,0:0:0:0:
448,192,276599,1,0,0:0:0:0:
64,192,276661,1,0,0:0:0:0:
320,192,276661,1,0,0:0:0:0:
448,192,276724,1,0,0:0:0:0:
64,192,276786,1,0,0:0:0:0:
192,192,276786,1,0,0:0:0:0:
320,192,276849,1,0,0:0:0:0:
64,192,276911,1,0,0:0:0:0:
448,192,276911,1,0,0:0:0:0:
320,192,276974,1,0,0:0:0:0:
192,192,277036,1,0,0:0:0:0:
448,192,277036,1,0,0:0:0:0:
64,192,277099,1,0,0:0:0:0:
320,192,277161,1,0,0:0:0:0:
64,192,277224,1,0,0:0:0:0:
320,192,277286,1,0,0:0:0:0:
64,192,277349,1,0,0:0:0:0:
320,192,277411,1,0,0:0:0:0:
64,192,277474,1,0,0:0:0:0:
192,192,277536,1,0,0:0:0:0:
448,192,277536,1,0,0:0:0:0:
320,192,277599,1,0,0:0:0:0:
448,192,277661,1,0,0:0:0:0:
320,192,277724,1,0,0:0:0:0:
64,192,277786,1,0,0:0:0:0:
192,192,277786,1,0,0:0:0:0:
448,192,277849,1,0,0:0:0:0:
64,192,277911,1,0,0:0:0:0:
448,192,277974,1,0,0:0:0:0:
192,192,278036,1,0,0:0:0:0:
320,192,278036,1,0,0:0:0:0:
64,192,278099,1,0,0:0:0:0:
192,192,278161,1,0,0:0:0:0:
64,192,278224,1,0,0:0:0:0:
320,192,278286,1,0,0:0:0:0:
448,192,278286,1,0,0:0:0:0:
192,192,278349,1,0,0:0:0:0:
320,192,278411,1,0,0:0:0:0:
192,192,278474,1,0,0:0:0:0:
64,192,278536,1,0,0:0:0:0:
448,192,278536,1,0,0:0:0:0:
320,192,278599,1,0,0:0:0:0:
448,192,278661,1,0,0:0:0:0:
320,192,278724,1,0,0:0:0:0:
64,192,278786,1,0,0:0:0:0:
192,192,278786,1,0,0:0:0:0:
448,192,278849,1,0,0:0:0:0:
64,192,278911,1,0,0:0:0:0:
448,192,278974,1,0,0:0:0:0:
192,192,279036,1,0,0:0:0:0:
320,192,279036,1,0,0:0:0:0:
64,192,279099,1,0,0:0:0:0:
320,192,279161,1,0,0:0:0:0:
64,192,279224,1,0,0:0:0:0:
192,192,279286,1,0,0:0:0:0:
448,192,279286,1,0,0:0:0:0:
320,192,279349,1,0,0:0:0:0:
192,192,279411,1,0,0:0:0:0:
320,192,279474,1,0,0:0:0:0:
64,192,279536,1,0,0:0:0:0:
448,192,279536,1,0,0:0:0:0:
192,192,279599,1,0,0:0:0:0:
448,192,279661,1,0,0:0:0:0:
192,192,279724,1,0,0:0:0:0:
64,192,279786,1,0,0:0:0:0:
320,192,279786,1,0,0:0:0:0:
448,192,279849,1,0,0:0:0:0:
64,192,279911,1,0,0:0:0:0:
448,192,279974,1,0,0:0:0:0:
192,192,280036,1,0,0:0:0:0:
320,192,280036,1,0,0:0:0:0:
64,192,280099,1,0,0:0:0:0:
192,192,280161,1,0,0:0:0:0:
64,192,280224,1,0,0:0:0:0:
320,192,280286,1,0,0:0:0:0:
448,192,280286,1,0,0:0:0:0:
192,192,280349,1,0,0:0:0:0:
320,192,280411,1,0,0:0:0:0:
192,192,280474,1,0,0:0:0:0:
64,192,280536,1,0,0:0:0:0:
448,192,280536,1,0,0:0:0:0:
320,192,280599,1,0,0:0:0:0:
448,192,280661,1,0,0:0:0:0:
320,192,280724,1,0,0:0:0:0:
64,192,280786,1,0,0:0:0:0:
192,192,280786,1,0,0:0:0:0:
448,192,280838,1,0,0:0:0:0:
320,192,280885,1,0,0:0:0:0:
192,192,280937,1,0,0:0:0:0:
448,192,280984,1,0,0:0:0:0:
64,192,281036,1,0,0:0:0:0:
320,192,281036,1,0,0:0:0:0:
192,192,281099,1,0,0:0:0:0:
320,192,281161,1,0,0:0:0:0:
192,192,281224,1,0,0:0:0:0:
320,192,281286,1,0,0:0:0:0:
192,192,281349,1,0,0:0:0:0:
320,192,281411,1,0,0:0:0:0:
192,192,281474,1,0,0:0:0:0:
64,192,281536,1,0,0:0:0:0:
448,192,281536,1,0,0:0:0:0:
320,192,281599,1,0,0:0:0:0:
448,192,281661,1,0,0:0:0:0:
320,192,281724,1,0,0:0:0:0:
64,192,281786,1,0,0:0:0:0:
192,192,281786,1,0,0:0:0:0:
448,192,281849,1,0,0:0:0:0:
192,192,281911,1,0,0:0:0:0:
448,192,281974,1,0,0:0:0:0:
64,192,282036,1,0,0:0:0:0:
320,192,282036,1,0,0:0:0:0:
192,192,282099,1,0,0:0:0:0:
64,192,282161,1,0,0:0:0:0:
192,192,282224,1,0,0:0:0:0:
320,192,282286,1,0,0:0:0:0:
448,192,282286,1,0,0:0:0:0:
64,192,282349,1,0,0:0:0:0:
320,192,282411,1,0,0:0:0:0:
64,192,282474,1,0,0:0:0:0:
192,192,282536,1,0,0:0:0:0:
448,192,282536,1,0,0:0:0:0:
320,192,282599,1,0,0:0:0:0:
192,192,282661,1,0,0:0:0:0:
320,192,282724,1,0,0:0:0:0:
64,192,282786,1,0,0:0:0:0:
448,192,282786,1,0,0:0:0:0:
192,192,282849,1,0,0:0:0:0:
448,192,282911,1,0,0:0:0:0:
192,192,282974,1,0,0:0:0:0:
64,192,283036,1,0,0:0:0:0:
320,192,283036,1,0,0:0:0:0:
448,192,283099,1,0,0:0:0:0:
64,192,283161,1,0,0:0:0:0:
448,192,283224,1,0,0:0:0:0:
192,192,283286,1,0,0:0:0:0:
320,192,283286,1,0,0:0:0:0:
64,192,283349,1,0,0:0:0:0:
320,192,283411,1,0,0:0:0:0:
64,192,283474,1,0,0:0:0:0:
192,192,283536,1,0,0:0:0:0:
448,192,283536,1,0,0:0:0:0:
320,192,283599,1,0,0:0:0:0:
448,192,283661,1,0,0:0:0:0:
320,192,283724,1,0,0:0:0:0:
64,192,283786,1,0,0:0:0:0:
192,192,283786,1,0,0:0:0:0:
448,192,283849,1,0,0:0:0:0:
192,192,283911,1,0,0:0:0:0:
448,192,283974,1,0,0:0:0:0:
64,192,284036,1,0,0:0:0:0:
320,192,284036,1,0,0:0:0:0:
192,192,284099,1,0,0:0:0:0:
64,192,284161,1,0,0:0:0:0:
192,192,284224,1,0,0:0:0:0:
320,192,284286,1,0,0:0:0:0:
448,192,284286,1,0,0:0:0:0:
64,192,284349,1,0,0:0:0:0:
448,192,284411,1,0,0:0:0:0:
64,192,284474,1,0,0:0:0:0:
192,192,284536,1,0,0:0:0:0:
320,192,284536,1,0,0:0:0:0:
448,192,284599,1,0,0:0:0:0:
320,192,284661,1,0,0:0:0:0:
64,192,284724,1,0,0:0:0:0:
192,192,284786,1,0,0:0:0:0:
320,192,284849,1,0,0:0:0:0:
192,192,284911,1,0,0:0:0:0:
448,192,284974,1,0,0:0:0:0:
64,192,285036,128,0,285286:0:0:0:0:
192,192,285036,1,0,0:0:0:0:
320,192,285036,1,0,0:0:0:0:
192,192,285286,1,0,0:0:0:0:
320,192,285286,1,0,0:0:0:0:
448,192,285286,128,0,285536:0:0:0:0:
64,192,285536,1,0,0:0:0:0:
320,192,285536,1,0,0:0:0:0:
192,192,285599,1,0,0:0:0:0:
448,192,285661,1,0,0:0:0:0:
192,192,285724,1,0,0:0:0:0:
64,192,285786,1,0,0:0:0:0:
192,192,285849,1,0,0:0:0:0:
320,192,285911,1,0,0:0:0:0:
448,192,285911,1,0,0:0:0:0:
64,192,285974,1,0,0:0:0:0:
192,192,286036,1,0,0:0:0:0:
448,192,286036,1,0,0:0:0:0:
64,192,286099,1,0,0:0:0:0:
320,192,286161,1,0,0:0:0:0:
448,192,286161,1,0,0:0:0:0:
192,192,286224,1,0,0:0:0:0:
64,192,286286,1,0,0:0:0:0:
320,192,286286,1,0,0:0:0:0:
448,192,286349,1,0,0:0:0:0:
192,192,286411,1,0,0:0:0:0:
64,192,286474,1,0,0:0:0:0:
192,192,286536,1,0,0:0:0:0:
448,192,286536,1,0,0:0:0:0:
320,192,286599,1,0,0:0:0:0:
64,192,286661,1,0,0:0:0:0:
192,192,286661,1,0,0:0:0:0:
320,192,286724,1,0,0:0:0:0:
448,192,286724,1,0,0:0:0:0:
64,192,286786,1,0,0:0:0:0:
192,192,286786,1,0,0:0:0:0:
320,192,286849,1,0,0:0:0:0:
448,192,286849,1,0,0:0:0:0:
64,192,286911,1,0,0:0:0:0:
192,192,286911,1,0,0:0:0:0:
320,192,286974,1,0,0:0:0:0:
448,192,286974,1,0,0:0:0:0:
64,192,287036,1,0,0:0:0:0:
192,192,287036,1,0,0:0:0:0:
320,192,287099,1,0,0:0:0:0:
64,192,287161,1,0,0:0:0:0:
320,192,287224,1,0,0:0:0:0:
448,192,287286,1,0,0:0:0:0:
192,192,287349,1,0,0:0:0:0:
64,192,287411,1,0,0:0:0:0:
320,192,287411,1,0,0:0:0:0:
448,192,287411,1,0,0:0:0:0:
192,192,287474,1,0,0:0:0:0:
320,192,287536,1,0,0:0:0:0:
64,192,287599,1,0,0:0:0:0:
192,192,287661,1,0,0:0:0:0:
64,192,287724,1,0,0:0:0:0:
320,192,287786,1,0,0:0:0:0:
448,192,287786,1,0,0:0:0:0:
192,192,287849,1,0,0:0:0:0:
64,192,287911,1,0,0:0:0:0:
448,192,287974,1,0,0:0:0:0:
320,192,288036,1,0,0:0:0:0:
448,192,288099,1,0,0:0:0:0:
64,192,288161,1,0,0:0:0:0:
192,192,288161,1,0,0:0:0:0:
320,192,288224,1,0,0:0:0:0:
192,192,288286,1,0,0:0:0:0:
64,192,288349,1,0,0:0:0:0:
448,192,288411,1,0,0:0:0:0:
64,192,288474,1,0,0:0:0:0:
192,192,288536,1,0,0:0:0:0:
320,192,288536,1,0,0:0:0:0:
448,192,288536,1,0,0:0:0:0:
64,192,288661,1,0,0:0:0:0:
320,192,288661,1,0,0:0:0:0:
192,192,288786,1,0,0:0:0:0:
320,192,288911,1,0,0:0:0:0:
448,192,288911,1,0,0:0:0:0:
192,192,288974,1,0,0:0:0:0:
448,192,289036,1,0,0:0:0:0:
192,192,289099,1,0,0:0:0:0:
448,192,289161,1,0,0:0:0:0:
192,192,289224,1,0,0:0:0:0:
64,192,289286,1,0,0:0:0:0:
320,192,289286,1,0,0:0:0:0:
192,192,289411,1,0,0:0:0:0:
448,192,289411,1,0,0:0:0:0:
320,192,289536,1,0,0:0:0:0:
64,192,289661,1,0,0:0:0:0:
192,192,289661,1,0,0:0:0:0:
448,192,289724,1,0,0:0:0:0:
64,192,289786,1,0,0:0:0:0:
448,192,289849,1,0,0:0:0:0:
64,192,289911,1,0,0:0:0:0:
448,192,289974,1,0,0:0:0:0:
192,192,290036,1,0,0:0:0:0:
320,192,290036,1,0,0:0:0:0:
64,192,290099,1,0,0:0:0:0:
192,192,290161,1,0,0:0:0:0:
448,192,290161,1,0,0:0:0:0:
64,192,290224,1,0,0:0:0:0:
192,192,290286,1,0,0:0:0:0:
320,192,290286,1,0,0:0:0:0:
448,192,290349,1,0,0:0:0:0:
64,192,290411,1,0,0:0:0:0:
320,192,290411,1,0,0:0:0:0:
64,192,290536,1,0,0:0:0:0:
448,192,290536,1,0,0:0:0:0:
64,192,290661,1,0,0:0:0:0:
448,192,290661,1,0,0:0:0:0:
192,192,290786,1,0,0:0:0:0:
320,192,290786,1,0,0:0:0:0:
448,192,290786,1,0,0:0:0:0:
64,192,290911,1,0,0:0:0:0:
320,192,290911,1,0,0:0:0:0:
64,192,291036,1,0,0:0:0:0:
320,192,291036,1,0,0:0:0:0:
64,192,291161,1,0,0:0:0:0:
448,192,291161,128,0,291536:0:0:0:0:
64,192,291536,1,0,0:0:0:0:
320,192,291599,1,0,0:0:0:0:
64,192,291661,1,0,0:0:0:0:
448,192,291724,1,0,0:0:0:0:
192,192,291786,1,0,0:0:0:0:
448,192,291849,1,0,0:0:0:0:
64,192,291911,1,0,0:0:0:0:
320,192,291911,1,0,0:0:0:0:
192,192,291974,1,0,0:0:0:0:
320,192,292036,1,0,0:0:0:0:
64,192,292099,1,0,0:0:0:0:
448,192,292161,1,0,0:0:0:0:
320,192,292224,1,0,0:0:0:0:
64,192,292286,1,0,0:0:0:0:
192,192,292286,1,0,0:0:0:0:
448,192,292349,1,0,0:0:0:0:
64,192,292411,1,0,0:0:0:0:
320,192,292411,1,0,0:0:0:0:
448,192,292474,1,0,0:0:0:0:
64,192,292536,1,0,0:0:0:0:
192,192,292536,1,0,0:0:0:0:
320,192,292599,1,0,0:0:0:0:
192,192,292661,1,0,0:0:0:0:
448,192,292661,1,0,0:0:0:0:
64,192,292724,1,0,0:0:0:0:
320,192,292786,1,0,0:0:0:0:
192,192,292849,1,0,0:0:0:0:
448,192,292911,1,0,0:0:0:0:
192,192,292974,1,0,0:0:0:0:
64,192,293036,1,0,0:0:0:0:
320,192,293036,1,0,0:0:0:0:
448,192,293099,1,0,0:0:0:0:
192,192,293161,1,0,0:0:0:0:
448,192,293224,1,0,0:0:0:0:
64,192,293286,1,0,0:0:0:0:
448,192,293349,1,0,0:0:0:0:
192,192,293411,1,0,0:0:0:0:
320,192,293411,1,0,0:0:0:0:
64,192,293474,1,0,0:0:0:0:
448,192,293536,1,0,0:0:0:0:
320,192,293599,1,0,0:0:0:0:
64,192,293661,1,0,0:0:0:0:
192,192,293724,1,0,0:0:0:0:
320,192,293786,1,0,0:0:0:0:
448,192,293849,1,0,0:0:0:0:
64,192,293911,1,0,0:0:0:0:
192,192,293911,1,0,0:0:0:0:
320,192,293911,1,0,0:0:0:0:
448,192,293974,1,0,0:0:0:0:
320,192,294036,1,0,0:0:0:0:
192,192,294099,1,0,0:0:0:0:
64,192,294161,1,0,0:0:0:0:
320,192,294161,1,0,0:0:0:0:
448,192,294161,1,0,0:0:0:0:
192,192,294224,1,0,0:0:0:0:
320,192,294286,1,0,0:0:0:0:
448,192,294286,1,0,0:0:0:0:
192,192,294349,1,0,0:0:0:0:
64,192,294411,1,0,0:0:0:0:
320,192,294411,1,0,0:0:0:0:
448,192,294411,1,0,0:0:0:0:
192,192,294474,1,0,0:0:0:0:
320,192,294536,1,0,0:0:0:0:
448,192,294536,1,0,0:0:0:0:
64,192,294599,1,0,0:0:0:0:
192,192,294661,1,0,0:0:0:0:
320,192,294661,1,0,0:0:0:0:
448,192,294661,1,0,0:0:0:0:
64,192,294724,1,0,0:0:0:0:
192,192,294786,1,0,0:0:0:0:
448,192,294786,1,0,0:0:0:0:
320,192,294849,1,0,0:0:0:0:
64,192,294911,1,0,0:0:0:0:
192,192,294911,1,0,0:0:0:0:
448,192,294911,1,0,0:0:0:0:
64,192,295036,1,0,0:0:0:0:
320,192,295036,1,0,0:0:0:0:
192,192,295161,1,0,0:0:0:0:
320,192,295286,1,0,0:0:0:0:
448,192,295286,1,0,0:0:0:0:
192,192,295349,1,0,0:0:0:0:
320,192,295411,1,0,0:0:0:0:
192,192,295474,1,0,0:0:0:0:
320,192,295536,1,0,0:0:0:0:
192,192,295599,1,0,0:0:0:0:
64,192,295661,1,0,0:0:0:0:
448,192,295661,1,0,0:0:0:0:
192,192,295786,1,0,0:0:0:0:
448,192,295786,1,0,0:0:0:0:
320,192,295911,1,0,0:0:0:0:
64,192,296036,1,0,0:0:0:0:
192,192,296036,1,0,0:0:0:0:
320,192,296099,1,0,0:0:0:0:
64,192,296161,1,0,0:0:0:0:
320,192,296224,1,0,0:0:0:0:
192,192,296286,1,0,0:0:0:0:
448,192,296286,1,0,0:0:0:0:
64,192,296349,1,0,0:0:0:0:
320,192,296411,1,0,0:0:0:0:
448,192,296411,1,0,0:0:0:0:
64,192,296474,1,0,0:0:0:0:
192,192,296536,1,0,0:0:0:0:
448,192,296536,1,0,0:0:0:0:
64,192,296599,1,0,0:0:0:0:
320,192,296661,1,0,0:0:0:0:
448,192,296661,1,0,0:0:0:0:
64,192,296724,1,0,0:0:0:0:
192,192,296786,1,0,0:0:0:0:
320,192,296786,1,0,0:0:0:0:
448,192,296849,1,0,0:0:0:0:
320,192,296911,1,0,0:0:0:0:
64,192,296974,1,0,0:0:0:0:
448,192,297036,1,0,0:0:0:0:
192,192,297099,1,0,0:0:0:0:
64,192,297161,1,0,0:0:0:0:
320,192,297161,1,0,0:0:0:0:
448,192,297161,1,0,0:0:0:0:
64,192,297286,1,0,0:0:0:0:
192,192,297286,1,0,0:0:0:0:
64,192,297411,1,0,0:0:0:0:
192,192,297411,1,0,0:0:0:0:
64,192,297536,1,0,0:0:0:0:
320,192,297536,128,0,297911:0:0:0:0:
192,192,297911,1,0,0:0:0:0:
448,192,297911,1,0,0:0:0:0:
192,192,298036,1,0,0:0:0:0:
320,192,298036,1,0,0:0:0:0:
192,192,298161,1,0,0:0:0:0:
448,192,298161,1,0,0:0:0:0:
64,192,298286,1,0,0:0:0:0:
192,192,298286,1,0,0:0:0:0:
320,192,298286,1,0,0:0:0:0:
448,192,298349,1,0,0:0:0:0:
320,192,298411,1,0,0:0:0:0:
64,192,298474,1,0,0:0:0:0:
192,192,298536,1,0,0:0:0:0:
448,192,298599,1,0,0:0:0:0:
192,192,298661,1,0,0:0:0:0:
320,192,298724,1,0,0:0:0:0:
64,192,298786,1,0,0:0:0:0:
448,192,298786,1,0,0:0:0:0:
192,192,298849,1,0,0:0:0:0:
64,192,298911,1,0,0:0:0:0:
320,192,298974,1,0,0:0:0:0:
448,192,299036,1,0,0:0:0:0:
192,192,299099,1,0,0:0:0:0:
448,192,299161,1,0,0:0:0:0:
320,192,299224,1,0,0:0:0:0:
64,192,299286,1,0,0:0:0:0:
192,192,299286,1,0,0:0:0:0:
448,192,299349,1,0,0:0:0:0:
320,192,299411,1,0,0:0:0:0:
64,192,299474,1,0,0:0:0:0:
192,192,299536,1,0,0:0:0:0:
448,192,299599,1,0,0:0:0:0:
192,192,299661,1,0,0:0:0:0:
320,192,299724,1,0,0:0:0:0:
64,192,299786,1,0,0:0:0:0:
448,192,299786,1,0,0:0:0:0:
192,192,299849,1,0,0:0:0:0:
64,192,299911,1,0,0:0:0:0:
448,192,299974,1,0,0:0:0:0:
64,192,300036,1,0,0:0:0:0:
320,192,300036,1,0,0:0:0:0:
192,192,300099,1,0,0:0:0:0:
320,192,300161,1,0,0:0:0:0:
64,192,300224,1,0,0:0:0:0:
192,192,300286,1,0,0:0:0:0:
448,192,300286,1,0,0:0:0:0:
320,192,300349,1,0,0:0:0:0:
192,192,300411,1,0,0:0:0:0:
448,192,300474,1,0,0:0:0:0:
64,192,300536,1,0,0:0:0:0:
320,192,300536,1,0,0:0:0:0:
192,192,300599,1,0,0:0:0:0:
64,192,300661,1,0,0:0:0:0:
320,192,300724,1,0,0:0:0:0:
192,192,300786,1,0,0:0:0:0:
448,192,300786,1,0,0:0:0:0:
320,192,300849,1,0,0:0:0:0:
448,192,300911,1,0,0:0:0:0:
64,192,300974,1,0,0:0:0:0:
192,192,301036,1,0,0:0:0:0:
320,192,301099,1,0,0:0:0:0:
192,192,301161,1,0,0:0:0:0:
448,192,301224,1,0,0:0:0:0:
64,192,301286,1,0,0:0:0:0:
192,192,301286,1,0,0:0:0:0:
320,192,301349,1,0,0:0:0:0:
448,192,301411,1,0,0:0:0:0:
320,192,301474,1,0,0:0:0:0:
192,192,301536,1,0,0:0:0:0:
448,192,301599,1,0,0:0:0:0:
192,192,301661,1,0,0:0:0:0:
64,192,301724,1,0,0:0:0:0:
192,192,301786,1,0,0:0:0:0:
448,192,301786,1,0,0:0:0:0:
320,192,301849,1,0,0:0:0:0:
64,192,301911,1,0,0:0:0:0:
192,192,301974,1,0,0:0:0:0:
320,192,302036,1,0,0:0:0:0:
448,192,302036,1,0,0:0:0:0:
192,192,302099,1,0,0:0:0:0:
64,192,302161,1,0,0:0:0:0:
320,192,302224,1,0,0:0:0:0:
64,192,302286,1,0,0:0:0:0:
192,192,302286,1,0,0:0:0:0:
448,192,302286,1,0,0:0:0:0:
320,192,302349,1,0,0:0:0:0:
192,192,302411,1,0,0:0:0:0:
448,192,302474,1,0,0:0:0:0:
64,192,302536,1,0,0:0:0:0:
320,192,302599,1,0,0:0:0:0:
64,192,302661,1,0,0:0:0:0:
448,192,302724,1,0,0:0:0:0:
192,192,302786,1,0,0:0:0:0:
320,192,302786,1,0,0:0:0:0:
64,192,302849,1,0,0:0:0:0:
320,192,302911,1,0,0:0:0:0:
192,192,302974,1,0,0:0:0:0:
64,192,303036,1,0,0:0:0:0:
448,192,303036,1,0,0:0:0:0:
192,192,303099,1,0,0:0:0:0:
448,192,303161,1,0,0:0:0:0:
64,192,303224,1,0,0:0:0:0:
192,192,303286,1,0,0:0:0:0:
320,192,303286,1,0,0:0:0:0:
448,192,303349,1,0,0:0:0:0:
320,192,303411,1,0,0:0:0:0:
64,192,303474,1,0,0:0:0:0:
192,192,303536,1,0,0:0:0:0:
448,192,303599,1,0,0:0:0:0:
192,192,303661,1,0,0:0:0:0:
64,192,303724,1,0,0:0:0:0:
320,192,303786,1,0,0:0:0:0:
448,192,303786,1,0,0:0:0:0:
192,192,303849,1,0,0:0:0:0:
320,192,303911,1,0,0:0:0:0:
64,192,303974,1,0,0:0:0:0:
192,192,304036,1,0,0:0:0:0:
448,192,304036,1,0,0:0:0:0:
320,192,304099,1,0,0:0:0:0:
192,192,304161,1,0,0:0:0:0:
64,192,304224,1,0,0:0:0:0:
192,192,304286,1,0,0:0:0:0:
320,192,304286,1,0,0:0:0:0:
448,192,304286,1,0,0:0:0:0:
64,192,304349,1,0,0:0:0:0:
320,192,304411,1,0,0:0:0:0:
448,192,304474,1,0,0:0:0:0:
64,192,304536,1,0,0:0:0:0:
192,192,304536,1,0,0:0:0:0:
320,192,304599,1,0,0:0:0:0:
64,192,304661,1,0,0:0:0:0:
448,192,304724,1,0,0:0:0:0:
192,192,304786,1,0,0:0:0:0:
320,192,304786,1,0,0:0:0:0:
64,192,304849,1,0,0:0:0:0:
448,192,304911,1,0,0:0:0:0:
192,192,304974,1,0,0:0:0:0:
320,192,305036,1,0,0:0:0:0:
64,192,305099,1,0,0:0:0:0:
320,192,305161,1,0,0:0:0:0:
192,192,305224,1,0,0:0:0:0:
320,192,305286,1,0,0:0:0:0:
448,192,305286,1,0,0:0:0:0:
64,192,305349,1,0,0:0:0:0:
192,192,305411,1,0,0:0:0:0:
448,192,305474,1,0,0:0:0:0:
64,192,305536,1,0,0:0:0:0:
320,192,305599,1,0,0:0:0:0:
64,192,305661,1,0,0:0:0:0:
192,192,305724,1,0,0:0:0:0:
64,192,305786,1,0,0:0:0:0:
448,192,305786,1,0,0:0:0:0:
320,192,305849,1,0,0:0:0:0:
192,192,305911,1,0,0:0:0:0:
320,192,305974,1,0,0:0:0:0:
448,192,306036,1,0,0:0:0:0:
320,192,306099,1,0,0:0:0:0:
192,192,306161,1,0,0:0:0:0:
320,192,306224,1,0,0:0:0:0:
64,192,306286,128,0,306536:0:0:0:0:
192,192,306286,1,0,0:0:0:0:
448,192,306286,1,0,0:0:0:0:
320,192,306536,1,0,0:0:0:0:
448,192,306536,1,0,0:0:0:0:
64,192,306661,1,0,0:0:0:0:
192,192,306661,1,0,0:0:0:0:
64,192,306786,1,0,0:0:0:0:
320,192,306786,1,0,0:0:0:0:
448,192,306786,1,0,0:0:0:0:
192,192,306911,1,0,0:0:0:0:
320,192,306911,1,0,0:0:0:0:
64,192,307036,1,0,0:0:0:0:
192,192,307036,1,0,0:0:0:0:
448,192,307036,1,0,0:0:0:0:
64,192,307161,1,0,0:0:0:0:
320,192,307161,1,0,0:0:0:0:
192,192,307286,1,0,0:0:0:0:
448,192,307286,1,0,0:0:0:0:
320,192,307349,1,0,0:0:0:0:
64,192,307411,1,0,0:0:0:0:
192,192,307474,1,0,0:0:0:0:
64,192,307536,1,0,0:0:0:0:
320,192,307536,1,0,0:0:0:0:
448,192,307536,1,0,0:0:0:0:
192,192,307661,1,0,0:0:0:0:
320,192,307661,1,0,0:0:0:0:
448,192,307661,1,0,0:0:0:0:
64,192,307786,1,0,0:0:0:0:
320,192,307786,1,0,0:0:0:0:
192,192,307849,1,0,0:0:0:0:
448,192,307911,1,0,0:0:0:0:
64,192,307974,1,0,0:0:0:0:
192,192,308036,1,0,0:0:0:0:
320,192,308036,128,0,308099:0:0:0:0:
192,192,308161,1,0,0:0:0:0:
320,192,308161,128,0,308224:0:0:0:0:
64,192,308286,1,0,0:0:0:0:
192,192,308286,1,0,0:0:0:0:
448,192,308286,1,0,0:0:0:0:
320,192,308349,1,0,0:0:0:0:
192,192,308411,1,0,0:0:0:0:
64,192,308474,1,0,0:0:0:0:
448,192,308536,1,0,0:0:0:0:
192,192,308599,1,0,0:0:0:0:
320,192,308661,1,0,0:0:0:0:
64,192,308724,1,0,0:0:0:0:
192,192,308786,1,0,0:0:0:0:
448,192,308786,1,0,0:0:0:0:
320,192,308849,1,0,0:0:0:0:
192,192,308911,1,0,0:0:0:0:
448,192,308974,1,0,0:0:0:0:
320,192,309036,1,0,0:0:0:0:
64,192,309099,1,0,0:0:0:0:
448,192,309161,1,0,0:0:0:0:
64,192,309224,1,0,0:0:0:0:
192,192,309286,1,0,0:0:0:0:
320,192,309286,1,0,0:0:0:0:
448,192,309349,1,0,0:0:0:0:
192,192,309411,1,0,0:0:0:0:
320,192,309474,1,0,0:0:0:0:
64,192,309536,1,0,0:0:0:0:
448,192,309599,1,0,0:0:0:0:
192,192,309661,1,0,0:0:0:0:
320,192,309724,1,0,0:0:0:0:
64,192,309786,1,0,0:0:0:0:
448,192,309786,1,0,0:0:0:0:
192,192,309849,1,0,0:0:0:0:
320,192,309911,1,0,0:0:0:0:
64,192,309974,1,0,0:0:0:0:
320,192,310036,1,0,0:0:0:0:
448,192,310036,1,0,0:0:0:0:
192,192,310099,1,0,0:0:0:0:
320,192,310161,1,0,0:0:0:0:
448,192,310161,1,0,0:0:0:0:
192,192,310224,1,0,0:0:0:0:
320,192,310286,1,0,0:0:0:0:
448,192,310286,1,0,0:0:0:0:
64,192,310349,1,0,0:0:0:0:
192,192,310411,1,0,0:0:0:0:
320,192,310474,1,0,0:0:0:0:
64,192,310536,1,0,0:0:0:0:
448,192,310536,1,0,0:0:0:0:
320,192,310599,1,0,0:0:0:0:
192,192,310661,1,0,0:0:0:0:
64,192,310724,1,0,0:0:0:0:
320,192,310786,1,0,0:0:0:0:
448,192,310786,1,0,0:0:0:0:
192,192,310849,1,0,0:0:0:0:
64,192,310911,1,0,0:0:0:0:
448,192,310974,1,0,0:0:0:0:
192,192,311036,1,0,0:0:0:0:
320,192,311036,1,0,0:0:0:0:
448,192,311099,1,0,0:0:0:0:
64,192,311161,1,0,0:0:0:0:
192,192,311224,1,0,0:0:0:0:
320,192,311286,1,0,0:0:0:0:
448,192,311286,1,0,0:0:0:0:
64,192,311349,1,0,0:0:0:0:
192,192,311411,1,0,0:0:0:0:
448,192,311474,1,0,0:0:0:0:
320,192,311536,1,0,0:0:0:0:
64,192,311599,1,0,0:0:0:0:
320,192,311661,1,0,0:0:0:0:
192,192,311724,1,0,0:0:0:0:
320,192,311786,1,0,0:0:0:0:
448,192,311786,1,0,0:0:0:0:
64,192,311849,1,0,0:0:0:0:
192,192,311911,1,0,0:0:0:0:
320,192,311974,1,0,0:0:0:0:
64,192,312036,1,0,0:0:0:0:
448,192,312036,1,0,0:0:0:0:
320,192,312099,1,0,0:0:0:0:
192,192,312161,1,0,0:0:0:0:
64,192,312224,1,0,0:0:0:0:
192,192,312286,1,0,0:0:0:0:
320,192,312286,1,0,0:0:0:0:
448,192,312286,1,0,0:0:0:0:
64,192,312349,1,0,0:0:0:0:
192,192,312411,1,0,0:0:0:0:
448,192,312474,1,0,0:0:0:0:
320,192,312536,1,0,0:0:0:0:
64,192,312599,1,0,0:0:0:0:
192,192,312661,1,0,0:0:0:0:
448,192,312724,1,0,0:0:0:0:
64,192,312786,1,0,0:0:0:0:
320,192,312786,1,0,0:0:0:0:
192,192,312849,1,0,0:0:0:0:
448,192,312911,1,0,0:0:0:0:
64,192,312974,1,0,0:0:0:0:
320,192,313036,1,0,0:0:0:0:
448,192,313099,1,0,0:0:0:0:
192,192,313161,1,0,0:0:0:0:
64,192,313224,1,0,0:0:0:0:
320,192,313286,1,0,0:0:0:0:
448,192,313286,1,0,0:0:0:0:
192,192,313349,1,0,0:0:0:0:
448,192,313411,1,0,0:0:0:0:
64,192,313474,1,0,0:0:0:0:
320,192,313536,1,0,0:0:0:0:
192,192,313599,1,0,0:0:0:0:
320,192,313661,1,0,0:0:0:0:
448,192,313724,1,0,0:0:0:0:
64,192,313786,1,0,0:0:0:0:
192,192,313786,1,0,0:0:0:0:
320,192,313849,1,0,0:0:0:0:
192,192,313911,1,0,0:0:0:0:
64,192,313974,1,0,0:0:0:0:
320,192,314036,1,0,0:0:0:0:
448,192,314036,1,0,0:0:0:0:
192,192,314099,1,0,0:0:0:0:
320,192,314161,1,0,0:0:0:0:
448,192,314224,1,0,0:0:0:0:
64,192,314286,1,0,0:0:0:0:
192,192,314286,1,0,0:0:0:0:
320,192,314349,1,0,0:0:0:0:
192,192,314411,1,0,0:0:0:0:
320,192,314474,1,0,0:0:0:0:
64,192,314536,1,0,0:0:0:0:
448,192,314536,1,0,0:0:0:0:
192,192,314599,1,0,0:0:0:0:
64,192,314661,1,0,0:0:0:0:
192,192,314724,1,0,0:0:0:0:
320,192,314786,1,0,0:0:0:0:
448,192,314786,1,0,0:0:0:0:
64,192,314849,1,0,0:0:0:0:
448,192,314911,1,0,0:0:0:0:
64,192,314974,1,0,0:0:0:0:
192,192,315036,1,0,0:0:0:0:
320,192,315036,1,0,0:0:0:0:
448,192,315099,1,0,0:0:0:0:
320,192,315161,1,0,0:0:0:0:
448,192,315224,1,0,0:0:0:0:
64,192,315286,1,0,0:0:0:0:
192,192,315286,1,0,0:0:0:0:
320,192,315349,1,0,0:0:0:0:
192,192,315411,1,0,0:0:0:0:
64,192,315474,1,0,0:0:0:0:
320,192,315536,1,0,0:0:0:0:
192,192,315599,1,0,0:0:0:0:
64,192,315661,1,0,0:0:0:0:
320,192,315724,1,0,0:0:0:0:
192,192,315786,1,0,0:0:0:0:
448,192,315786,1,0,0:0:0:0:
64,192,315849,1,0,0:0:0:0:
192,192,315911,1,0,0:0:0:0:
320,192,315974,1,0,0:0:0:0:
192,192,316036,1,0,0:0:0:0:
448,192,316036,1,0,0:0:0:0:
64,192,316099,1,0,0:0:0:0:
192,192,316161,1,0,0:0:0:0:
320,192,316224,1,0,0:0:0:0:
64,192,316286,1,0,0:0:0:0:
192,192,316286,1,0,0:0:0:0:
448,192,316286,1,0,0:0:0:0:
320,192,316349,1,0,0:0:0:0:
64,192,316411,1,0,0:0:0:0:
192,192,316411,1,0,0:0:0:0:
448,192,316474,1,0,0:0:0:0:
64,192,316536,1,0,0:0:0:0:
320,192,316536,1,0,0:0:0:0:
192,192,316599,1,0,0:0:0:0:
320,192,316661,1,0,0:0:0:0:
448,192,316661,1,0,0:0:0:0:
64,192,316724,1,0,0:0:0:0:
192,192,316786,1,0,0:0:0:0:
448,192,316786,1,0,0:0:0:0:
320,192,316849,1,0,0:0:0:0:
192,192,316911,1,0,0:0:0:0:
448,192,316911,1,0,0:0:0:0:
64,192,316974,1,0,0:0:0:0:
192,192,317036,1,0,0:0:0:0:
320,192,317036,1,0,0:0:0:0:
448,192,317099,1,0,0:0:0:0:
64,192,317161,1,0,0:0:0:0:
320,192,317161,1,0,0:0:0:0:
192,192,317224,1,0,0:0:0:0:
320,192,317286,1,0,0:0:0:0:
448,192,317286,1,0,0:0:0:0:
192,192,317349,1,0,0:0:0:0:
320,192,317411,1,0,0:0:0:0:
448,192,317411,1,0,0:0:0:0:
64,192,317474,1,0,0:0:0:0:
192,192,317536,1,0,0:0:0:0:
448,192,317536,1,0,0:0:0:0:
320,192,317599,1,0,0:0:0:0:
64,192,317661,1,0,0:0:0:0:
192,192,317661,1,0,0:0:0:0:
448,192,317724,1,0,0:0:0:0:
64,192,317786,1,0,0:0:0:0:
192,192,317786,1,0,0:0:0:0:
320,192,317786,1,0,0:0:0:0:
448,192,317849,1,0,0:0:0:0:
64,192,317911,1,0,0:0:0:0:
320,192,317911,1,0,0:0:0:0:
192,192,317974,1,0,0:0:0:0:
64,192,318036,1,0,0:0:0:0:
320,192,318036,1,0,0:0:0:0:
448,192,318036,1,0,0:0:0:0:
192,192,318099,1,0,0:0:0:0:
320,192,318161,1,0,0:0:0:0:
448,192,318161,1,0,0:0:0:0:
64,192,318224,1,0,0:0:0:0:
192,192,318286,1,0,0:0:0:0:
320,192,318286,1,0,0:0:0:0:
448,192,318286,1,0,0:0:0:0:
64,192,318349,1,0,0:0:0:0:
192,192,318411,1,0,0:0:0:0:
448,192,318411,1,0,0:0:0:0:
320,192,318474,1,0,0:0:0:0:
64,192,318536,1,0,0:0:0:0:
192,192,318536,1,0,0:0:0:0:
448,192,318599,1,0,0:0:0:0:
64,192,318661,1,0,0:0:0:0:
320,192,318661,1,0,0:0:0:0:
192,192,318724,1,0,0:0:0:0:
320,192,318786,1,0,0:0:0:0:
448,192,318786,1,0,0:0:0:0:
64,192,318849,1,0,0:0:0:0:
192,192,318911,1,0,0:0:0:0:
320,192,318911,1,0,0:0:0:0:
448,192,318974,1,0,0:0:0:0:
64,192,319036,1,0,0:0:0:0:
192,192,319036,1,0,0:0:0:0:
320,192,319099,1,0,0:0:0:0:
64,192,319161,1,0,0:0:0:0:
448,192,319161,1,0,0:0:0:0:
192,192,319224,1,0,0:0:0:0:
320,192,319286,1,0,0:0:0:0:
448,192,319286,1,0,0:0:0:0:
64,192,319349,1,0,0:0:0:0:
192,192,319411,1,0,0:0:0:0:
448,192,319411,1,0,0:0:0:0:
320,192,319474,1,0,0:0:0:0:
64,192,319536,1,0,0:0:0:0:
192,192,319536,1,0,0:0:0:0:
448,192,319599,1,0,0:0:0:0:
192,192,319661,1,0,0:0:0:0:
320,192,319661,1,0,0:0:0:0:
64,192,319724,1,0,0:0:0:0:
192,192,319786,1,0,0:0:0:0:
320,192,319786,1,0,0:0:0:0:
448,192,319786,1,0,0:0:0:0:
64,192,319849,1,0,0:0:0:0:
320,192,319911,1,0,0:0:0:0:
448,192,319911,1,0,0:0:0:0:
64,192,319974,1,0,0:0:0:0:
192,192,320036,1,0,0:0:0:0:
320,192,320036,1,0,0:0:0:0:
448,192,320036,1,0,0:0:0:0:
64,192,320099,1,0,0:0:0:0:
192,192,320161,1,0,0:0:0:0:
448,192,320161,1,0,0:0:0:0:
320,192,320224,1,0,0:0:0:0:
64,192,320286,1,0,0:0:0:0:
192,192,320286,1,0,0:0:0:0:
448,192,320286,1,0,0:0:0:0:
320,192,320349,1,0,0:0:0:0:
64,192,320411,1,0,0:0:0:0:
192,192,320411,1,0,0:0:0:0:
448,192,320474,1,0,0:0:0:0:
64,192,320536,1,0,0:0:0:0:
320,192,320536,1,0,0:0:0:0:
192,192,320599,1,0,0:0:0:0:
320,192,320661,1,0,0:0:0:0:
448,192,320661,1,0,0:0:0:0:
64,192,320724,1,0,0:0:0:0:
192,192,320786,1,0,0:0:0:0:
448,192,320786,1,0,0:0:0:0:
320,192,320849,1,0,0:0:0:0:
192,192,320911,1,0,0:0:0:0:
448,192,320911,1,0,0:0:0:0:
64,192,320974,1,0,0:0:0:0:
192,192,321036,1,0,0:0:0:0:
320,192,321036,1,0,0:0:0:0:
448,192,321099,1,0,0:0:0:0:
64,192,321161,1,0,0:0:0:0:
320,192,321161,1,0,0:0:0:0:
192,192,321224,1,0,0:0:0:0:
320,192,321286,1,0,0:0:0:0:
448,192,321286,1,0,0:0:0:0:
192,192,321349,1,0,0:0:0:0:
320,192,321411,1,0,0:0:0:0:
448,192,321411,1,0,0:0:0:0:
64,192,321474,1,0,0:0:0:0:
192,192,321536,1,0,0:0:0:0:
448,192,321536,1,0,0:0:0:0:
320,192,321599,1,0,0:0:0:0:
64,192,321661,1,0,0:0:0:0:
192,192,321661,1,0,0:0:0:0:
448,192,321724,1,0,0:0:0:0:
64,192,321786,1,0,0:0:0:0:
192,192,321786,1,0,0:0:0:0:
320,192,321786,1,0,0:0:0:0:
448,192,321849,1,0,0:0:0:0:
64,192,321911,1,0,0:0:0:0:
320,192,321911,1,0,0:0:0:0:
192,192,321974,1,0,0:0:0:0:
64,192,322036,1,0,0:0:0:0:
320,192,322036,1,0,0:0:0:0:
448,192,322036,1,0,0:0:0:0:
192,192,322099,1,0,0:0:0:0:
320,192,322161,1,0,0:0:0:0:
448,192,322161,1,0,0:0:0:0:
64,192,322224,1,0,0:0:0:0:
192,192,322286,1,0,0:0:0:0:
320,192,322286,1,0,0:0:0:0:
448,192,322286,1,0,0:0:0:0:
64,192,322349,1,0,0:0:0:0:
192,192,322411,1,0,0:0:0:0:
448,192,322411,1,0,0:0:0:0:
320,192,322474,1,0,0:0:0:0:
64,192,322536,1,0,0:0:0:0:
192,192,322536,1,0,0:0:0:0:
448,192,322599,1,0,0:0:0:0:
64,192,322661,1,0,0:0:0:0:
320,192,322661,1,0,0:0:0:0:
192,192,322724,1,0,0:0:0:0:
320,192,322786,1,0,0:0:0:0:
448,192,322786,1,0,0:0:0:0:
64,192,322849,1,0,0:0:0:0:
320,192,322911,1,0,0:0:0:0:
448,192,322911,1,0,0:0:0:0:
192,192,322974,1,0,0:0:0:0:
64,192,323036,1,0,0:0:0:0:
320,192,323036,1,0,0:0:0:0:
448,192,323036,1,0,0:0:0:0:
192,192,323099,1,0,0:0:0:0:
64,192,323161,1,0,0:0:0:0:
448,192,323161,1,0,0:0:0:0:
320,192,323224,1,0,0:0:0:0:
64,192,323286,1,0,0:0:0:0:
192,192,323286,1,0,0:0:0:0:
448,192,323349,1,0,0:0:0:0:
192,192,323411,1,0,0:0:0:0:
448,192,323474,1,0,0:0:0:0:
192,192,323536,1,0,0:0:0:0:
320,192,323599,1,0,0:0:0:0:
64,192,323661,1,0,0:0:0:0:
192,192,323724,1,0,0:0:0:0:
320,192,323786,1,0,0:0:0:0:
448,192,323786,1,0,0:0:0:0:
64,192,323849,1,0,0:0:0:0:
320,192,323911,1,0,0:0:0:0:
64,192,323974,1,0,0:0:0:0:
192,192,324036,1,0,0:0:0:0:
448,192,324099,1,0,0:0:0:0:
320,192,324161,1,0,0:0:0:0:
64,192,324224,1,0,0:0:0:0:
192,192,324286,1,0,0:0:0:0:
448,192,324286,128,0,326286:0:0:0:0:
64,192,324536,1,0,0:0:0:0:
192,192,324536,1,0,0:0:0:0:
64,192,324661,1,0,0:0:0:0:
192,192,324661,1,0,0:0:0:0:
64,192,324786,1,0,0:0:0:0:
192,192,324786,1,0,0:0:0:0:
64,192,324911,1,0,0:0:0:0:
192,192,324911,1,0,0:0:0:0:
64,192,325036,1,0,0:0:0:0:
192,192,325036,1,0,0:0:0:0:
64,192,325161,1,0,0:0:0:0:
192,192,325161,1,0,0:0:0:0:
64,192,325286,1,0,0:0:0:0:
192,192,325286,1,0,0:0:0:0:
320,192,325286,1,0,0:0:0:0:
192,192,325536,1,0,0:0:0:0:
320,192,325536,1,0,0:0:0:0:
192,192,325661,1,0,0:0:0:0:
320,192,325661,1,0,0:0:0:0:
64,192,325786,1,0,0:0:0:0:
192,192,325786,1,0,0:0:0:0:
320,192,325786,1,0,0:0:0:0:
64,192,326036,1,0,0:0:0:0:
192,192,326036,1,0,0:0:0:0:
64,192,326161,1,0,0:0:0:0:
192,192,326161,1,0,0:0:0:0:
64,192,326286,1,0,0:0:0:0:
192,192,326286,1,0,0:0:0:0:
320,192,326286,1,0,0:0:0:0:
320,192,326536,1,0,0:0:0:0:
192,192,326599,1,0,0:0:0:0:
320,192,326661,1,0,0:0:0:0:
192,192,326724,1,0,0:0:0:0:
64,192,326786,1,0,0:0:0:0:
448,192,326786,1,0,0:0:0:0:
64,192,326911,1,0,0:0:0:0:
448,192,326911,1,0,0:0:0:0:
192,192,327036,1,0,0:0:0:0:
320,192,327036,1,0,0:0:0:0:
448,192,327099,1,0,0:0:0:0:
320,192,327161,1,0,0:0:0:0:
448,192,327224,1,0,0:0:0:0:
64,192,327286,1,0,0:0:0:0:
320,192,327286,1,0,0:0:0:0:
64,192,327411,1,0,0:0:0:0:
320,192,327411,1,0,0:0:0:0:
192,192,327536,1,0,0:0:0:0:
448,192,327536,1,0,0:0:0:0:
192,192,327661,1,0,0:0:0:0:
448,192,327661,1,0,0:0:0:0:
64,192,327786,128,0,328286:0:0:0:0:
192,192,327786,1,0,0:0:0:0:
320,192,327786,1,0,0:0:0:0:
320,192,328036,1,0,0:0:0:0:
448,192,328036,1,0,0:0:0:0:
320,192,328161,1,0,0:0:0:0:
448,192,328161,1,0,0:0:0:0:
192,192,328286,1,0,0:0:0:0:
320,192,328286,1,0,0:0:0:0:
448,192,328286,128,0,328786:0:0:0:0:
64,192,328536,1,0,0:0:0:0:
192,192,328536,1,0,0:0:0:0:
64,192,328661,1,0,0:0:0:0:
192,192,328661,1,0,0:0:0:0:
64,192,328786,128,0,329286:0:0:0:0:
192,192,328786,1,0,0:0:0:0:
320,192,328786,1,0,0:0:0:0:
192,192,329036,1,0,0:0:0:0:
320,192,329036,1,0,0:0:0:0:
192,192,329161,1,0,0:0:0:0:
320,192,329161,1,0,0:0:0:0:
192,192,329286,1,0,0:0:0:0:
320,192,329286,1,0,0:0:0:0:
448,192,329286,128,0,329786:0:0:0:0:
192,192,329411,1,0,0:0:0:0:
320,192,329411,1,0,0:0:0:0:
192,192,329536,1,0,0:0:0:0:
320,192,329536,1,0,0:0:0:0:
192,192,329661,1,0,0:0:0:0:
320,192,329661,1,0,0:0:0:0:
64,192,329786,1,0,0:0:0:0:
320,192,329786,1,0,0:0:0:0:
192,192,329849,1,0,0:0:0:0:
320,192,329911,1,0,0:0:0:0:
448,192,329974,1,0,0:0:0:0:
64,192,330036,1,0,0:0:0:0:
192,192,330036,1,0,0:0:0:0:
320,192,330099,1,0,0:0:0:0:
192,192,330161,1,0,0:0:0:0:
64,192,330224,1,0,0:0:0:0:
192,192,330286,1,0,0:0:0:0:
320,192,330286,1,0,0:0:0:0:
448,192,330286,128,0,331286:0:0:0:0:
192,192,331036,1,0,0:0:0:0:
320,192,331036,1,0,0:0:0:0:
64,192,331161,1,0,0:0:0:0:
320,192,331161,1,0,0:0:0:0:
64,192,331286,1,0,0:0:0:0:
192,192,331286,1,0,0:0:0:0:
320,192,331286,128,0,331536:0:0:0:0:
64,192,331536,1,0,0:0:0:0:
448,192,331536,1,0,0:0:0:0:
192,192,331599,1,0,0:0:0:0:
320,192,331661,1,0,0:0:0:0:
192,192,331724,1,0,0:0:0:0:
64,192,331786,1,0,0:0:0:0:
320,192,331786,1,0,0:0:0:0:
448,192,331849,1,0,0:0:0:0:
320,192,331911,1,0,0:0:0:0:
192,192,331974,1,0,0:0:0:0:
64,192,332036,1,0,0:0:0:0:
448,192,332036,1,0,0:0:0:0:
192,192,332161,1,0,0:0:0:0:
320,192,332161,1,0,0:0:0:0:
64,192,332286,128,0,332536:0:0:0:0:
192,192,332286,1,0,0:0:0:0:
320,192,332286,128,0,332536:0:0:0:0:
448,192,332286,128,0,332536:0:0:0:0:
