osu file format v14

[General]
AudioFilename: audio140.mp3
AudioLeadIn: 0
PreviewTime: 156097
Countdown: 0
SampleSet: None
StackLeniency: 0.8
Mode: 3
LetterboxInBreaks: 0
SpecialStyle: 1
WidescreenStoryboard: 0

[Editor]
DistanceSpacing: 0.8
BeatDivisor: 4
GridSize: 32
TimelineZoom: 3.799999

[Metadata]
Title:Where Angels Go Demons Follow
TitleUnicode:Where Angels Go Demons Follow
Artist:Spawn Of Possession
ArtistUnicode:Spawn Of Possession
Creator:Herkkupala
Version:Apparition [1.4x]
Source:
Tags:treat relapse records incurso technical death metal sverige packet chords jumpstream handstream stream
BeatmapID:1688824
BeatmapSetID:794321

[Difficulty]
HPDrainRate:8.5
CircleSize:4
OverallDifficulty:8.5
ApproachRate:5
SliderMultiplier:1.4
SliderTickRate:1

[Events]
//Background and Video events
0,0,"bg.png",0,0
//Break Periods
//Storyboard Layer 0 (Background)
//Storyboard Layer 1 (Fail)
//Storyboard Layer 2 (Pass)
//Storyboard Layer 3 (Foreground)
//Storyboard Sound Samples

[TimingPoints]
129,178.571428571429,4,3,0,30,1,0
5843,-100,4,3,0,30,0,1
9861,-100,4,3,0,30,0,0
10396,-100,4,3,0,30,0,1
14414,-100,4,3,0,30,0,0
22093,-100,4,3,0,30,0,1
23521,-100,4,3,0,30,0,0
24950,-100,4,3,0,30,0,1
26379,-100,4,3,0,30,0,0
48164,-100,4,3,0,30,0,1
55664,-100,4,3,0,30,0,0
59236,-100,4,3,0,30,0,1
63254,-100,4,3,0,30,0,0
63789,-100,4,3,0,30,0,1
67807,-100,4,3,0,30,0,0
113521,-100,4,3,0,30,0,1
114593,-100,4,3,0,30,0,0
116379,-100,4,3,0,30,0,1
117450,-100,4,3,0,30,0,0
123521,-100,4,3,0,30,0,1
126021,-100,4,3,0,30,0,0
126379,-100,4,3,0,30,0,1
129236,-100,4,3,0,30,0,0
129950,-100,4,3,0,30,0,1
135664,-100,4,3,0,30,0,0
156557,-100,4,3,0,30,0,1
162807,-100,4,3,0,30,0,0
162986,-100,4,3,0,30,0,1
175129,-100,4,3,0,30,0,0
192271,-100,4,3,0,30,0,1
194771,-100,4,3,0,30,0,0
195129,-100,4,3,0,30,0,1
197986,-100,4,3,0,30,0,0
204057,-100,4,3,0,30,0,1
208075,-100,4,3,0,30,0,0
208611,-100,4,3,0,30,0,1
212629,-100,4,3,0,30,0,0
226021,-100,4,3,0,30,0,1
231736,-100,4,3,0,30,0,0

[HitObjects]
64,192,129,5,0,0:0:0:0:
192,192,129,1,0,0:0:0:0:
448,192,129,1,0,0:0:0:0:
320,192,173,1,0,0:0:0:0:
448,192,218,1,0,0:0:0:0:
192,192,262,1,0,0:0:0:0:
320,192,307,1,0,0:0:0:0:
448,192,352,1,0,0:0:0:0:
192,192,396,1,0,0:0:0:0:
320,192,441,1,0,0:0:0:0:
64,192,486,1,0,0:0:0:0:
448,192,486,1,0,0:0:0:0:
64,192,575,1,0,0:0:0:0:
448,192,575,1,0,0:0:0:0:
64,192,664,1,0,0:0:0:0:
448,192,664,1,0,0:0:0:0:
64,192,843,1,0,0:0:0:0:
320,192,843,1,0,0:0:0:0:
448,192,843,1,0,0:0:0:0:
192,192,1021,1,0,0:0:0:0:
448,192,1021,1,0,0:0:0:0:
320,192,1066,1,0,0:0:0:0:
192,192,1111,1,0,0:0:0:0:
320,192,1155,1,0,0:0:0:0:
64,192,1200,1,0,0:0:0:0:
192,192,1200,1,0,0:0:0:0:
448,192,1200,1,0,0:0:0:0:
64,192,1379,1,0,0:0:0:0:
320,192,1379,1,0,0:0:0:0:
192,192,1468,1,0,0:0:0:0:
448,192,1468,1,0,0:0:0:0:
64,192,1557,1,0,0:0:0:0:
320,192,1557,1,0,0:0:0:0:
448,192,1557,1,0,0:0:0:0:
192,192,1736,1,0,0:0:0:0:
64,192,1780,1,0,0:0:0:0:
320,192,1825,1,0,0:0:0:0:
192,192,1870,1,0,0:0:0:0:
64,192,1914,1,0,0:0:0:0:
448,192,1914,1,0,0:0:0:0:
64,192,2004,1,0,0:0:0:0:
448,192,2004,1,0,0:0:0:0:
192,192,2093,1,0,0:0:0:0:
320,192,2093,1,0,0:0:0:0:
448,192,2137,1,0,0:0:0:0:
320,192,2182,1,0,0:0:0:0:
448,192,2227,1,0,0:0:0:0:
64,192,2271,1,0,0:0:0:0:
320,192,2271,1,0,0:0:0:0:
64,192,2361,1,0,0:0:0:0:
320,192,2361,1,0,0:0:0:0:
192,192,2450,1,0,0:0:0:0:
448,192,2450,1,0,0:0:0:0:
192,192,2539,1,0,0:0:0:0:
448,192,2539,1,0,0:0:0:0:
64,192,2629,128,0,2986:0:0:0:0:
192,192,2629,1,0,0:0:0:0:
320,192,2629,1,0,0:0:0:0:
192,192,2986,1,0,0:0:0:0:
320,192,2986,128,0,3343:0:0:0:0:
448,192,2986,1,0,0:0:0:0:
448,192,3164,1,0,0:0:0:0:
192,192,3209,1,0,0:0:0:0:
64,192,3254,1,0,0:0:0:0:
192,192,3298,1,0,0:0:0:0:
64,192,3343,1,0,0:0:0:0:
448,192,3343,128,0,3655:0:0:0:0:
192,192,3432,1,0,0:0:0:0:
320,192,3432,1,0,0:0:0:0:
64,192,3521,1,0,0:0:0:0:
320,192,3521,1,0,0:0:0:0:
64,192,3700,1,0,0:0:0:0:
192,192,3700,1,0,0:0:0:0:
448,192,3700,128,0,4057:0:0:0:0:
64,192,3879,1,0,0:0:0:0:
192,192,3923,1,0,0:0:0:0:
320,192,3968,1,0,0:0:0:0:
64,192,4012,1,0,0:0:0:0:
192,192,4057,128,0,4236:0:0:0:0:
320,192,4057,1,0,0:0:0:0:
64,192,4236,128,0,4414:0:0:0:0:
448,192,4236,1,0,0:0:0:0:
448,192,4414,1,0,0:0:0:0:
320,192,4459,1,0,0:0:0:0:
192,192,4504,1,0,0:0:0:0:
320,192,4548,1,0,0:0:0:0:
192,192,4593,1,0,0:0:0:0:
64,192,4637,1,0,0:0:0:0:
320,192,4682,1,0,0:0:0:0:
448,192,4727,1,0,0:0:0:0:
64,192,4771,1,0,0:0:0:0:
320,192,4771,1,0,0:0:0:0:
192,192,4950,1,0,0:0:0:0:
448,192,4950,1,0,0:0:0:0:
192,192,5039,1,0,0:0:0:0:
320,192,5039,1,0,0:0:0:0:
64,192,5129,1,0,0:0:0:0:
320,192,5129,128,0,5664:0:0:0:0:
448,192,5129,128,0,5664:0:0:0:0:
64,192,5664,1,0,0:0:0:0:
192,192,5664,1,0,0:0:0:0:
192,192,5754,1,0,0:0:0:0:
320,192,5754,1,0,0:0:0:0:
64,192,5843,1,0,0:0:0:0:
320,192,5843,1,0,0:0:0:0:
448,192,5843,1,0,0:0:0:0:
192,192,5887,1,0,0:0:0:0:
448,192,5932,1,0,0:0:0:0:
192,192,5977,1,0,0:0:0:0:
64,192,6021,1,0,0:0:0:0:
192,192,6066,1,0,0:0:0:0:
320,192,6111,1,0,0:0:0:0:
448,192,6111,1,0,0:0:0:0:
64,192,6155,1,0,0:0:0:0:
192,192,6200,1,0,0:0:0:0:
448,192,6200,1,0,0:0:0:0:
64,192,6245,1,0,0:0:0:0:
320,192,6289,1,0,0:0:0:0:
448,192,6289,1,0,0:0:0:0:
192,192,6334,1,0,0:0:0:0:
64,192,6379,1,0,0:0:0:0:
320,192,6379,1,0,0:0:0:0:
448,192,6423,1,0,0:0:0:0:
192,192,6468,1,0,0:0:0:0:
64,192,6512,1,0,0:0:0:0:
192,192,6557,1,0,0:0:0:0:
448,192,6557,1,0,0:0:0:0:
320,192,6602,1,0,0:0:0:0:
64,192,6646,1,0,0:0:0:0:
192,192,6646,1,0,0:0:0:0:
320,192,6691,1,0,0:0:0:0:
448,192,6691,1,0,0:0:0:0:
64,192,6736,1,0,0:0:0:0:
192,192,6736,1,0,0:0:0:0:
320,192,6780,1,0,0:0:0:0:
448,192,6780,1,0,0:0:0:0:
64,192,6825,1,0,0:0:0:0:
192,192,6825,1,0,0:0:0:0:
320,192,6870,1,0,0:0:0:0:
448,192,6870,1,0,0:0:0:0:
64,192,6914,1,0,0:0:0:0:
192,192,6914,1,0,0:0:0:0:
320,192,6959,1,0,0:0:0:0:
64,192,7004,1,0,0:0:0:0:
320,192,7048,1,0,0:0:0:0:
448,192,7093,1,0,0:0:0:0:
192,192,7137,1,0,0:0:0:0:
64,192,7182,1,0,0:0:0:0:
320,192,7182,1,0,0:0:0:0:
448,192,7182,1,0,0:0:0:0:
192,192,7227,1,0,0:0:0:0:
320,192,7271,1,0,0:0:0:0:
64,192,7316,1,0,0:0:0:0:
192,192,7361,1,0,0:0:0:0:
64,192,7405,1,0,0:0:0:0:
320,192,7450,1,0,0:0:0:0:
448,192,7450,1,0,0:0:0:0:
192,192,7495,1,0,0:0:0:0:
64,192,7539,1,0,0:0:0:0:
448,192,7584,1,0,0:0:0:0:
320,192,7629,1,0,0:0:0:0:
448,192,7673,1,0,0:0:0:0:
64,192,7718,1,0,0:0:0:0:
192,192,7718,1,0,0:0:0:0:
320,192,7762,1,0,0:0:0:0:
192,192,7807,1,0,0:0:0:0:
64,192,7852,1,0,0:0:0:0:
448,192,7896,1,0,0:0:0:0:
64,192,7941,1,0,0:0:0:0:
192,192,7986,1,0,0:0:0:0:
320,192,7986,1,0,0:0:0:0:
448,192,7986,1,0,0:0:0:0:
64,192,8075,1,0,0:0:0:0:
320,192,8075,1,0,0:0:0:0:
192,192,8164,1,0,0:0:0:0:
320,192,8254,1,0,0:0:0:0:
448,192,8254,1,0,0:0:0:0:
192,192,8298,1,0,0:0:0:0:
448,192,8343,1,0,0:0:0:0:
192,192,8387,1,0,0:0:0:0:
448,192,8432,1,0,0:0:0:0:
192,192,8477,1,0,0:0:0:0:
64,192,8521,1,0,0:0:0:0:
320,192,8521,1,0,0:0:0:0:
192,192,8611,1,0,0:0:0:0:
448,192,8611,1,0,0:0:0:0:
320,192,8700,1,0,0:0:0:0:
64,192,8789,1,0,0:0:0:0:
192,192,8789,1,0,0:0:0:0:
448,192,8834,1,0,0:0:0:0:
64,192,8879,1,0,0:0:0:0:
448,192,8923,1,0,0:0:0:0:
64,192,8968,1,0,0:0:0:0:
448,192,9012,1,0,0:0:0:0:
192,192,9057,1,0,0:0:0:0:
320,192,9057,1,0,0:0:0:0:
64,192,9102,1,0,0:0:0:0:
192,192,9146,1,0,0:0:0:0:
448,192,9146,1,0,0:0:0:0:
64,192,9191,1,0,0:0:0:0:
192,192,9236,1,0,0:0:0:0:
320,192,9236,1,0,0:0:0:0:
448,192,9280,1,0,0:0:0:0:
64,192,9325,1,0,0:0:0:0:
320,192,9325,1,0,0:0:0:0:
64,192,9414,1,0,0:0:0:0:
448,192,9414,1,0,0:0:0:0:
64,192,9504,1,0,0:0:0:0:
448,192,9504,1,0,0:0:0:0:
192,192,9593,1,0,0:0:0:0:
320,192,9593,1,0,0:0:0:0:
448,192,9593,1,0,0:0:0:0:
64,192,9682,1,0,0:0:0:0:
320,192,9682,1,0,0:0:0:0:
64,192,9771,1,0,0:0:0:0:
320,192,9771,1,0,0:0:0:0:
64,192,9861,1,0,0:0:0:0:
448,192,9861,128,0,10129:0:0:0:0:
64,192,10129,1,0,0:0:0:0:
320,192,10173,1,0,0:0:0:0:
64,192,10218,1,0,0:0:0:0:
448,192,10262,1,0,0:0:0:0:
192,192,10307,1,0,0:0:0:0:
448,192,10352,1,0,0:0:0:0:
64,192,10396,1,0,0:0:0:0:
320,192,10396,1,0,0:0:0:0:
192,192,10441,1,0,0:0:0:0:
320,192,10486,1,0,0:0:0:0:
64,192,10530,1,0,0:0:0:0:
448,192,10575,1,0,0:0:0:0:
320,192,10620,1,0,0:0:0:0:
64,192,10664,1,0,0:0:0:0:
192,192,10664,1,0,0:0:0:0:
448,192,10709,1,0,0:0:0:0:
64,192,10754,1,0,0:0:0:0:
320,192,10754,1,0,0:0:0:0:
448,192,10798,1,0,0:0:0:0:
64,192,10843,1,0,0:0:0:0:
192,192,10843,1,0,0:0:0:0:
320,192,10887,1,0,0:0:0:0:
192,192,10932,1,0,0:0:0:0:
448,192,10932,1,0,0:0:0:0:
64,192,10977,1,0,0:0:0:0:
320,192,11021,1,0,0:0:0:0:
192,192,11066,1,0,0:0:0:0:
448,192,11111,1,0,0:0:0:0:
192,192,11155,1,0,0:0:0:0:
64,192,11200,1,0,0:0:0:0:
320,192,11200,1,0,0:0:0:0:
448,192,11245,1,0,0:0:0:0:
192,192,11289,1,0,0:0:0:0:
448,192,11334,1,0,0:0:0:0:
64,192,11379,1,0,0:0:0:0:
448,192,11423,1,0,0:0:0:0:
192,192,11468,1,0,0:0:0:0:
320,192,11468,1,0,0:0:0:0:
64,192,11512,1,0,0:0:0:0:
448,192,11557,1,0,0:0:0:0:
320,192,11602,1,0,0:0:0:0:
64,192,11646,1,0,0:0:0:0:
192,192,11691,1,0,0:0:0:0:
320,192,11736,1,0,0:0:0:0:
448,192,11780,1,0,0:0:0:0:
64,192,11825,1,0,0:0:0:0:
192,192,11825,1,0,0:0:0:0:
320,192,11825,1,0,0:0:0:0:
448,192,11870,1,0,0:0:0:0:
320,192,11914,1,0,0:0:0:0:
192,192,11959,1,0,0:0:0:0:
64,192,12004,1,0,0:0:0:0:
320,192,12004,1,0,0:0:0:0:
448,192,12004,1,0,0:0:0:0:
192,192,12048,1,0,0:0:0:0:
320,192,12093,1,0,0:0:0:0:
448,192,12093,1,0,0:0:0:0:
192,192,12137,1,0,0:0:0:0:
64,192,12182,1,0,0:0:0:0:
320,192,12182,1,0,0:0:0:0:
448,192,12182,1,0,0:0:0:0:
192,192,12227,1,0,0:0:0:0:
320,192,12271,1,0,0:0:0:0:
448,192,12271,1,0,0:0:0:0:
64,192,12316,1,0,0:0:0:0:
192,192,12361,1,0,0:0:0:0:
320,192,12361,1,0,0:0:0:0:
448,192,12361,1,0,0:0:0:0:
64,192,12405,1,0,0:0:0:0:
192,192,12450,1,0,0:0:0:0:
448,192,12450,1,0,0:0:0:0:
320,192,12495,1,0,0:0:0:0:
64,192,12539,1,0,0:0:0:0:
192,192,12539,1,0,0:0:0:0:
448,192,12539,1,0,0:0:0:0:
64,192,12629,1,0,0:0:0:0:
320,192,12629,1,0,0:0:0:0:
192,192,12718,1,0,0:0:0:0:
320,192,12807,1,0,0:0:0:0:
448,192,12807,1,0,0:0:0:0:
192,192,12852,1,0,0:0:0:0:
320,192,12896,1,0,0:0:0:0:
192,192,12941,1,0,0:0:0:0:
320,192,12986,1,0,0:0:0:0:
192,192,13030,1,0,0:0:0:0:
64,192,13075,1,0,0:0:0:0:
448,192,13075,1,0,0:0:0:0:
192,192,13164,1,0,0:0:0:0:
448,192,13164,1,0,0:0:0:0:
320,192,13254,1,0,0:0:0:0:
64,192,13343,1,0,0:0:0:0:
192,192,13343,1,0,0:0:0:0:
320,192,13387,1,0,0:0:0:0:
64,192,13432,1,0,0:0:0:0:
320,192,13477,1,0,0:0:0:0:
192,192,13521,1,0,0:0:0:0:
448,192,13521,1,0,0:0:0:0:
64,192,13566,1,0,0:0:0:0:
320,192,13611,1,0,0:0:0:0:
448,192,13611,1,0,0:0:0:0:
64,192,13655,1,0,0:0:0:0:
192,192,13700,1,0,0:0:0:0:
448,192,13700,1,0,0:0:0:0:
64,192,13745,1,0,0:0:0:0:
320,192,13789,1,0,0:0:0:0:
448,192,13789,1,0,0:0:0:0:
64,192,13834,1,0,0:0:0:0:
192,192,13879,1,0,0:0:0:0:
320,192,13879,1,0,0:0:0:0:
448,192,13923,1,0,0:0:0:0:
320,192,13968,1,0,0:0:0:0:
64,192,14012,1,0,0:0:0:0:
448,192,14057,1,0,0:0:0:0:
192,192,14102,1,0,0:0:0:0:
64,192,14146,1,0,0:0:0:0:
320,192,14146,1,0,0:0:0:0:
448,192,14146,1,0,0:0:0:0:
64,192,14236,1,0,0:0:0:0:
192,192,14236,1,0,0:0:0:0:
64,192,14325,1,0,0:0:0:0:
192,192,14325,1,0,0:0:0:0:
64,192,14414,1,0,0:0:0:0:
320,192,14414,128,0,14682:0:0:0:0:
192,192,14682,1,0,0:0:0:0:
448,192,14682,1,0,0:0:0:0:
192,192,14771,1,0,0:0:0:0:
320,192,14771,1,0,0:0:0:0:
192,192,14861,1,0,0:0:0:0:
448,192,14861,1,0,0:0:0:0:
64,192,14950,1,0,0:0:0:0:
192,192,14950,1,0,0:0:0:0:
320,192,14950,1,0,0:0:0:0:
448,192,14995,1,0,0:0:0:0:
320,192,15039,1,0,0:0:0:0:
64,192,15084,1,0,0:0:0:0:
192,192,15129,1,0,0:0:0:0:
448,192,15173,1,0,0:0:0:0:
192,192,15218,1,0,0:0:0:0:
320,192,15262,1,0,0:0:0:0:
64,192,15307,1,0,0:0:0:0:
448,192,15307,1,0,0:0:0:0:
192,192,15352,1,0,0:0:0:0:
64,192,15396,1,0,0:0:0:0:
320,192,15441,1,0,0:0:0:0:
448,192,15486,1,0,0:0:0:0:
192,192,15530,1,0,0:0:0:0:
448,192,15575,1,0,0:0:0:0:
320,192,15620,1,0,0:0:0:0:
64,192,15664,1,0,0:0:0:0:
192,192,15664,1,0,0:0:0:0:
448,192,15709,1,0,0:0:0:0:
320,192,15754,1,0,0:0:0:0:
64,192,15798,1,0,0:0:0:0:
192,192,15843,1,0,0:0:0:0:
448,192,15887,1,0,0:0:0:0:
192,192,15932,1,0,0:0:0:0:
320,192,15977,1,0,0:0:0:0:
64,192,16021,1,0,0:0:0:0:
448,192,16021,1,0,0:0:0:0:
192,192,16066,1,0,0:0:0:0:
64,192,16111,1,0,0:0:0:0:
448,192,16155,1,0,0:0:0:0:
64,192,16200,1,0,0:0:0:0:
320,192,16200,1,0,0:0:0:0:
192,192,16245,1,0,0:0:0:0:
320,192,16289,1,0,0:0:0:0:
64,192,16334,1,0,0:0:0:0:
192,192,16379,1,0,0:0:0:0:
448,192,16379,1,0,0:0:0:0:
320,192,16423,1,0,0:0:0:0:
192,192,16468,1,0,0:0:0:0:
448,192,16512,1,0,0:0:0:0:
64,192,16557,1,0,0:0:0:0:
320,192,16557,1,0,0:0:0:0:
192,192,16602,1,0,0:0:0:0:
64,192,16646,1,0,0:0:0:0:
320,192,16691,1,0,0:0:0:0:
192,192,16736,1,0,0:0:0:0:
448,192,16736,1,0,0:0:0:0:
320,192,16780,1,0,0:0:0:0:
448,192,16825,1,0,0:0:0:0:
64,192,16870,1,0,0:0:0:0:
192,192,16914,1,0,0:0:0:0:
320,192,16959,1,0,0:0:0:0:
192,192,17004,1,0,0:0:0:0:
448,192,17048,1,0,0:0:0:0:
64,192,17093,1,0,0:0:0:0:
192,192,17093,1,0,0:0:0:0:
320,192,17137,1,0,0:0:0:0:
448,192,17182,1,0,0:0:0:0:
320,192,17227,1,0,0:0:0:0:
192,192,17271,1,0,0:0:0:0:
448,192,17316,1,0,0:0:0:0:
192,192,17361,1,0,0:0:0:0:
64,192,17405,1,0,0:0:0:0:
192,192,17450,1,0,0:0:0:0:
448,192,17450,1,0,0:0:0:0:
320,192,17495,1,0,0:0:0:0:
64,192,17539,1,0,0:0:0:0:
192,192,17584,1,0,0:0:0:0:
320,192,17629,1,0,0:0:0:0:
448,192,17629,1,0,0:0:0:0:
192,192,17673,1,0,0:0:0:0:
64,192,17718,1,0,0:0:0:0:
320,192,17762,1,0,0:0:0:0:
64,192,17807,1,0,0:0:0:0:
192,192,17807,1,0,0:0:0:0:
448,192,17807,1,0,0:0:0:0:
320,192,17852,1,0,0:0:0:0:
192,192,17896,1,0,0:0:0:0:
448,192,17941,1,0,0:0:0:0:
64,192,17986,1,0,0:0:0:0:
320,192,18030,1,0,0:0:0:0:
64,192,18075,1,0,0:0:0:0:
448,192,18120,1,0,0:0:0:0:
192,192,18164,1,0,0:0:0:0:
320,192,18164,1,0,0:0:0:0:
64,192,18209,1,0,0:0:0:0:
320,192,18254,1,0,0:0:0:0:
192,192,18298,1,0,0:0:0:0:
64,192,18343,1,0,0:0:0:0:
448,192,18343,1,0,0:0:0:0:
192,192,18387,1,0,0:0:0:0:
448,192,18432,1,0,0:0:0:0:
64,192,18477,1,0,0:0:0:0:
192,192,18521,1,0,0:0:0:0:
320,192,18521,1,0,0:0:0:0:
448,192,18566,1,0,0:0:0:0:
320,192,18611,1,0,0:0:0:0:
64,192,18655,1,0,0:0:0:0:
192,192,18700,1,0,0:0:0:0:
448,192,18745,1,0,0:0:0:0:
192,192,18789,1,0,0:0:0:0:
64,192,18834,1,0,0:0:0:0:
320,192,18879,1,0,0:0:0:0:
448,192,18879,1,0,0:0:0:0:
192,192,18923,1,0,0:0:0:0:
320,192,18968,1,0,0:0:0:0:
64,192,19012,1,0,0:0:0:0:
192,192,19057,1,0,0:0:0:0:
448,192,19057,1,0,0:0:0:0:
320,192,19102,1,0,0:0:0:0:
192,192,19146,1,0,0:0:0:0:
64,192,19191,1,0,0:0:0:0:
192,192,19236,1,0,0:0:0:0:
320,192,19236,1,0,0:0:0:0:
448,192,19236,1,0,0:0:0:0:
64,192,19280,1,0,0:0:0:0:
320,192,19325,1,0,0:0:0:0:
448,192,19370,1,0,0:0:0:0:
64,192,19414,1,0,0:0:0:0:
192,192,19414,1,0,0:0:0:0:
320,192,19459,1,0,0:0:0:0:
64,192,19504,1,0,0:0:0:0:
448,192,19548,1,0,0:0:0:0:
192,192,19593,1,0,0:0:0:0:
320,192,19593,1,0,0:0:0:0:
64,192,19637,1,0,0:0:0:0:
448,192,19682,1,0,0:0:0:0:
192,192,19727,1,0,0:0:0:0:
320,192,19771,1,0,0:0:0:0:
64,192,19816,1,0,0:0:0:0:
320,192,19861,1,0,0:0:0:0:
192,192,19905,1,0,0:0:0:0:
320,192,19950,1,0,0:0:0:0:
448,192,19950,1,0,0:0:0:0:
64,192,19995,1,0,0:0:0:0:
192,192,20039,1,0,0:0:0:0:
448,192,20084,1,0,0:0:0:0:
64,192,20129,1,0,0:0:0:0:
320,192,20173,1,0,0:0:0:0:
64,192,20218,1,0,0:0:0:0:
192,192,20262,1,0,0:0:0:0:
64,192,20307,1,0,0:0:0:0:
448,192,20307,1,0,0:0:0:0:
320,192,20352,1,0,0:0:0:0:
192,192,20396,1,0,0:0:0:0:
320,192,20441,1,0,0:0:0:0:
448,192,20486,1,0,0:0:0:0:
320,192,20530,1,0,0:0:0:0:
192,192,20575,1,0,0:0:0:0:
320,192,20620,1,0,0:0:0:0:
64,192,20664,128,0,20843:0:0:0:0:
192,192,20664,1,0,0:0:0:0:
448,192,20664,1,0,0:0:0:0:
320,192,20843,1,0,0:0:0:0:
448,192,20843,1,0,0:0:0:0:
64,192,20932,1,0,0:0:0:0:
192,192,20932,1,0,0:0:0:0:
64,192,21021,1,0,0:0:0:0:
320,192,21021,1,0,0:0:0:0:
448,192,21021,1,0,0:0:0:0:
192,192,21111,1,0,0:0:0:0:
320,192,21111,1,0,0:0:0:0:
64,192,21200,1,0,0:0:0:0:
192,192,21200,1,0,0:0:0:0:
448,192,21200,1,0,0:0:0:0:
64,192,21289,1,0,0:0:0:0:
320,192,21289,1,0,0:0:0:0:
192,192,21379,1,0,0:0:0:0:
448,192,21379,1,0,0:0:0:0:
320,192,21423,1,0,0:0:0:0:
64,192,21468,1,0,0:0:0:0:
192,192,21512,1,0,0:0:0:0:
64,192,21557,1,0,0:0:0:0:
320,192,21557,1,0,0:0:0:0:
448,192,21557,1,0,0:0:0:0:
192,192,21646,1,0,0:0:0:0:
320,192,21646,1,0,0:0:0:0:
448,192,21646,1,0,0:0:0:0:
64,192,21736,1,0,0:0:0:0:
320,192,21736,1,0,0:0:0:0:
192,192,21780,1,0,0:0:0:0:
448,192,21825,1,0,0:0:0:0:
320,192,21870,1,0,0:0:0:0:
64,192,21914,1,0,0:0:0:0:
192,192,21914,1,0,0:0:0:0:
448,192,21959,1,0,0:0:0:0:
192,192,22004,1,0,0:0:0:0:
320,192,22048,1,0,0:0:0:0:
64,192,22093,1,0,0:0:0:0:
192,192,22093,1,0,0:0:0:0:
320,192,22137,1,0,0:0:0:0:
64,192,22182,1,0,0:0:0:0:
448,192,22182,1,0,0:0:0:0:
192,192,22227,1,0,0:0:0:0:
320,192,22271,1,0,0:0:0:0:
448,192,22271,1,0,0:0:0:0:
64,192,22316,1,0,0:0:0:0:
192,192,22361,1,0,0:0:0:0:
320,192,22361,1,0,0:0:0:0:
448,192,22405,1,0,0:0:0:0:
64,192,22450,1,0,0:0:0:0:
320,192,22450,1,0,0:0:0:0:
192,192,22495,1,0,0:0:0:0:
64,192,22539,1,0,0:0:0:0:
448,192,22539,1,0,0:0:0:0:
320,192,22584,1,0,0:0:0:0:
64,192,22629,1,0,0:0:0:0:
192,192,22629,1,0,0:0:0:0:
448,192,22673,1,0,0:0:0:0:
192,192,22718,1,0,0:0:0:0:
320,192,22718,1,0,0:0:0:0:
64,192,22762,1,0,0:0:0:0:
320,192,22807,1,0,0:0:0:0:
448,192,22807,1,0,0:0:0:0:
64,192,22852,1,0,0:0:0:0:
192,192,22896,1,0,0:0:0:0:
320,192,22896,1,0,0:0:0:0:
448,192,22941,1,0,0:0:0:0:
64,192,22986,1,0,0:0:0:0:
192,192,22986,1,0,0:0:0:0:
320,192,23030,1,0,0:0:0:0:
64,192,23075,1,0,0:0:0:0:
448,192,23075,1,0,0:0:0:0:
192,192,23120,1,0,0:0:0:0:
320,192,23164,1,0,0:0:0:0:
448,192,23164,1,0,0:0:0:0:
192,192,23209,1,0,0:0:0:0:
64,192,23254,1,0,0:0:0:0:
448,192,23254,1,0,0:0:0:0:
320,192,23298,1,0,0:0:0:0:
64,192,23343,1,0,0:0:0:0:
192,192,23343,1,0,0:0:0:0:
448,192,23343,1,0,0:0:0:0:
320,192,23387,1,0,0:0:0:0:
64,192,23432,1,0,0:0:0:0:
192,192,23432,1,0,0:0:0:0:
448,192,23477,1,0,0:0:0:0:
64,192,23521,1,0,0:0:0:0:
192,192,23521,1,0,0:0:0:0:
320,192,23521,1,0,0:0:0:0:
448,192,23566,1,0,0:0:0:0:
320,192,23611,1,0,0:0:0:0:
192,192,23655,1,0,0:0:0:0:
64,192,23700,1,0,0:0:0:0:
320,192,23745,1,0,0:0:0:0:
64,192,23789,1,0,0:0:0:0:
448,192,23834,1,0,0:0:0:0:
192,192,23879,1,0,0:0:0:0:
320,192,23879,1,0,0:0:0:0:
64,192,23923,1,0,0:0:0:0:
192,192,23968,1,0,0:0:0:0:
320,192,24012,1,0,0:0:0:0:
448,192,24057,1,0,0:0:0:0:
192,192,24102,1,0,0:0:0:0:
448,192,24146,1,0,0:0:0:0:
64,192,24191,1,0,0:0:0:0:
192,192,24236,1,0,0:0:0:0:
320,192,24236,1,0,0:0:0:0:
448,192,24280,1,0,0:0:0:0:
192,192,24325,1,0,0:0:0:0:
320,192,24370,1,0,0:0:0:0:
64,192,24414,1,0,0:0:0:0:
192,192,24459,1,0,0:0:0:0:
64,192,24504,1,0,0:0:0:0:
320,192,24548,1,0,0:0:0:0:
192,192,24593,1,0,0:0:0:0:
448,192,24593,1,0,0:0:0:0:
64,192,24637,1,0,0:0:0:0:
448,192,24682,1,0,0:0:0:0:
320,192,24727,1,0,0:0:0:0:
64,192,24771,1,0,0:0:0:0:
192,192,24771,1,0,0:0:0:0:
448,192,24816,1,0,0:0:0:0:
320,192,24861,1,0,0:0:0:0:
448,192,24905,1,0,0:0:0:0:
64,192,24950,1,0,0:0:0:0:
192,192,24950,1,0,0:0:0:0:
320,192,24950,1,0,0:0:0:0:
448,192,24995,1,0,0:0:0:0:
64,192,25039,1,0,0:0:0:0:
192,192,25039,1,0,0:0:0:0:
320,192,25084,1,0,0:0:0:0:
192,192,25129,1,0,0:0:0:0:
448,192,25129,1,0,0:0:0:0:
64,192,25173,1,0,0:0:0:0:
320,192,25218,1,0,0:0:0:0:
448,192,25218,1,0,0:0:0:0:
192,192,25262,1,0,0:0:0:0:
64,192,25307,1,0,0:0:0:0:
320,192,25307,1,0,0:0:0:0:
448,192,25352,1,0,0:0:0:0:
64,192,25396,1,0,0:0:0:0:
192,192,25396,1,0,0:0:0:0:
320,192,25441,1,0,0:0:0:0:
64,192,25486,1,0,0:0:0:0:
448,192,25486,1,0,0:0:0:0:
192,192,25530,1,0,0:0:0:0:
320,192,25575,1,0,0:0:0:0:
448,192,25575,1,0,0:0:0:0:
64,192,25620,1,0,0:0:0:0:
192,192,25664,1,0,0:0:0:0:
320,192,25664,1,0,0:0:0:0:
448,192,25709,1,0,0:0:0:0:
64,192,25754,1,0,0:0:0:0:
192,192,25754,1,0,0:0:0:0:
320,192,25798,1,0,0:0:0:0:
192,192,25843,1,0,0:0:0:0:
448,192,25843,1,0,0:0:0:0:
64,192,25887,1,0,0:0:0:0:
320,192,25932,1,0,0:0:0:0:
448,192,25932,1,0,0:0:0:0:
192,192,25977,1,0,0:0:0:0:
64,192,26021,1,0,0:0:0:0:
320,192,26021,1,0,0:0:0:0:
448,192,26066,1,0,0:0:0:0:
64,192,26111,1,0,0:0:0:0:
192,192,26111,1,0,0:0:0:0:
320,192,26155,1,0,0:0:0:0:
64,192,26200,1,0,0:0:0:0:
448,192,26200,1,0,0:0:0:0:
192,192,26245,1,0,0:0:0:0:
320,192,26289,1,0,0:0:0:0:
448,192,26289,1,0,0:0:0:0:
64,192,26334,1,0,0:0:0:0:
192,192,26379,1,0,0:0:0:0:
448,192,26379,1,0,0:0:0:0:
320,192,26468,1,0,0:0:0:0:
192,192,26557,1,0,0:0:0:0:
320,192,26646,1,0,0:0:0:0:
64,192,26736,1,0,0:0:0:0:
320,192,26825,1,0,0:0:0:0:
448,192,26914,1,0,0:0:0:0:
320,192,27004,1,0,0:0:0:0:
64,192,27093,1,0,0:0:0:0:
192,192,27093,1,0,0:0:0:0:
448,192,27093,1,0,0:0:0:0:
320,192,27182,1,0,0:0:0:0:
320,192,27271,1,0,0:0:0:0:
64,192,27361,1,0,0:0:0:0:
192,192,27361,1,0,0:0:0:0:
448,192,27450,1,0,0:0:0:0:
448,192,27539,1,0,0:0:0:0:
64,192,27629,1,0,0:0:0:0:
192,192,27629,1,0,0:0:0:0:
320,192,27718,1,0,0:0:0:0:
320,192,27807,1,0,0:0:0:0:
192,192,27852,1,0,0:0:0:0:
64,192,27896,1,0,0:0:0:0:
192,192,27941,1,0,0:0:0:0:
64,192,27986,1,0,0:0:0:0:
320,192,27986,1,0,0:0:0:0:
448,192,27986,1,0,0:0:0:0:
64,192,28075,1,0,0:0:0:0:
192,192,28075,1,0,0:0:0:0:
448,192,28075,1,0,0:0:0:0:
320,192,28164,1,0,0:0:0:0:
448,192,28164,1,0,0:0:0:0:
64,192,28209,1,0,0:0:0:0:
320,192,28254,1,0,0:0:0:0:
448,192,28254,1,0,0:0:0:0:
64,192,28298,1,0,0:0:0:0:
192,192,28343,1,0,0:0:0:0:
320,192,28343,1,0,0:0:0:0:
448,192,28343,1,0,0:0:0:0:
320,192,28432,1,0,0:0:0:0:
192,192,28432,1,0,0:0:0:0:
64,192,28432,1,0,0:0:0:0:
320,192,28700,1,0,0:0:0:0:
64,192,28879,1,0,0:0:0:0:
192,192,28923,1,0,0:0:0:0:
448,192,28968,1,0,0:0:0:0:
320,192,29012,1,0,0:0:0:0:
64,192,29057,1,0,0:0:0:0:
192,192,29057,1,0,0:0:0:0:
448,192,29057,1,0,0:0:0:0:
64,192,29146,1,0,0:0:0:0:
320,192,29146,1,0,0:0:0:0:
192,192,29236,128,0,29414:0:0:0:0:
320,192,29236,1,0,0:0:0:0:
448,192,29236,128,0,29414:0:0:0:0:
64,192,29414,1,0,0:0:0:0:
320,192,29414,1,0,0:0:0:0:
64,192,29504,1,0,0:0:0:0:
320,192,29504,1,0,0:0:0:0:
192,192,29593,1,0,0:0:0:0:
448,192,29593,1,0,0:0:0:0:
320,192,29682,1,0,0:0:0:0:
64,192,29771,1,0,0:0:0:0:
192,192,29771,1,0,0:0:0:0:
448,192,29771,1,0,0:0:0:0:
64,192,29861,1,0,0:0:0:0:
192,192,29861,1,0,0:0:0:0:
448,192,29861,1,0,0:0:0:0:
320,192,29950,1,0,0:0:0:0:
64,192,29995,1,0,0:0:0:0:
320,192,30039,1,0,0:0:0:0:
64,192,30084,1,0,0:0:0:0:
448,192,30129,1,0,0:0:0:0:
192,192,30129,1,0,0:0:0:0:
64,192,30218,1,0,0:0:0:0:
320,192,30218,1,0,0:0:0:0:
192,192,30307,1,0,0:0:0:0:
448,192,30352,1,0,0:0:0:0:
192,192,30396,1,0,0:0:0:0:
448,192,30441,1,0,0:0:0:0:
64,192,30486,128,0,30664:0:0:0:0:
320,192,30486,1,0,0:0:0:0:
192,192,30664,1,0,0:0:0:0:
320,192,30664,128,0,30843:0:0:0:0:
448,192,30664,128,0,30843:0:0:0:0:
64,192,30843,1,0,0:0:0:0:
192,192,30843,1,0,0:0:0:0:
64,192,30932,1,0,0:0:0:0:
192,192,31021,1,0,0:0:0:0:
320,192,31021,1,0,0:0:0:0:
448,192,31021,1,0,0:0:0:0:
64,192,31111,1,0,0:0:0:0:
192,192,31200,1,0,0:0:0:0:
320,192,31200,1,0,0:0:0:0:
448,192,31200,1,0,0:0:0:0:
64,192,31289,1,0,0:0:0:0:
320,192,31289,1,0,0:0:0:0:
448,192,31334,1,0,0:0:0:0:
192,192,31379,1,0,0:0:0:0:
320,192,31423,1,0,0:0:0:0:
64,192,31468,1,0,0:0:0:0:
448,192,31512,1,0,0:0:0:0:
64,192,31557,1,0,0:0:0:0:
192,192,31557,1,0,0:0:0:0:
320,192,31557,1,0,0:0:0:0:
64,192,31646,1,0,0:0:0:0:
320,192,31646,1,0,0:0:0:0:
448,192,31646,1,0,0:0:0:0:
192,192,31736,1,0,0:0:0:0:
320,192,31736,1,0,0:0:0:0:
448,192,31736,1,0,0:0:0:0:
64,192,31825,1,0,0:0:0:0:
192,192,31825,1,0,0:0:0:0:
448,192,31825,1,0,0:0:0:0:
320,192,31870,1,0,0:0:0:0:
192,192,31914,1,0,0:0:0:0:
448,192,31959,1,0,0:0:0:0:
64,192,32004,1,0,0:0:0:0:
192,192,32048,1,0,0:0:0:0:
320,192,32093,1,0,0:0:0:0:
448,192,32093,1,0,0:0:0:0:
192,192,32271,1,0,0:0:0:0:
320,192,32271,1,0,0:0:0:0:
448,192,32271,1,0,0:0:0:0:
64,192,32361,1,0,0:0:0:0:
192,192,32361,1,0,0:0:0:0:
320,192,32361,1,0,0:0:0:0:
64,192,32450,1,0,0:0:0:0:
192,192,32450,1,0,0:0:0:0:
448,192,32450,128,0,32629:0:0:0:0:
320,192,32539,1,0,0:0:0:0:
64,192,32629,1,0,0:0:0:0:
320,192,32718,1,0,0:0:0:0:
64,192,32807,1,0,0:0:0:0:
448,192,32807,1,0,0:0:0:0:
320,192,32896,1,0,0:0:0:0:
64,192,32986,1,0,0:0:0:0:
192,192,32986,1,0,0:0:0:0:
192,192,33075,1,0,0:0:0:0:
320,192,33075,1,0,0:0:0:0:
64,192,33164,1,0,0:0:0:0:
448,192,33164,1,0,0:0:0:0:
320,192,33209,1,0,0:0:0:0:
192,192,33254,1,0,0:0:0:0:
320,192,33298,1,0,0:0:0:0:
64,192,33343,1,0,0:0:0:0:
192,192,33343,1,0,0:0:0:0:
448,192,33343,1,0,0:0:0:0:
64,192,33432,1,0,0:0:0:0:
320,192,33432,1,0,0:0:0:0:
192,192,33521,1,0,0:0:0:0:
320,192,33566,1,0,0:0:0:0:
448,192,33611,1,0,0:0:0:0:
320,192,33655,1,0,0:0:0:0:
64,192,33700,1,0,0:0:0:0:
192,192,33700,1,0,0:0:0:0:
448,192,33700,1,0,0:0:0:0:
192,192,33789,1,0,0:0:0:0:
320,192,33789,1,0,0:0:0:0:
448,192,33789,1,0,0:0:0:0:
64,192,33879,128,0,34057:0:0:0:0:
192,192,33879,1,0,0:0:0:0:
320,192,33879,1,0,0:0:0:0:
320,192,34057,1,0,0:0:0:0:
320,192,34146,1,0,0:0:0:0:
192,192,34236,1,0,0:0:0:0:
448,192,34236,1,0,0:0:0:0:
448,192,34325,1,0,0:0:0:0:
64,192,34414,1,0,0:0:0:0:
320,192,34414,1,0,0:0:0:0:
320,192,34504,1,0,0:0:0:0:
192,192,34593,1,0,0:0:0:0:
448,192,34593,1,0,0:0:0:0:
192,192,34682,1,0,0:0:0:0:
64,192,34771,1,0,0:0:0:0:
320,192,34771,1,0,0:0:0:0:
192,192,34794,1,0,0:0:0:0:
448,192,34816,1,0,0:0:0:0:
320,192,34861,1,0,0:0:0:0:
64,192,34950,1,0,0:0:0:0:
192,192,34950,1,0,0:0:0:0:
192,192,35039,1,0,0:0:0:0:
448,192,35129,1,0,0:0:0:0:
192,192,35173,1,0,0:0:0:0:
320,192,35218,1,0,0:0:0:0:
448,192,35262,1,0,0:0:0:0:
64,192,35307,1,0,0:0:0:0:
320,192,35307,1,0,0:0:0:0:
192,192,35352,1,0,0:0:0:0:
64,192,35396,1,0,0:0:0:0:
448,192,35396,1,0,0:0:0:0:
320,192,35441,1,0,0:0:0:0:
64,192,35486,1,0,0:0:0:0:
192,192,35486,1,0,0:0:0:0:
448,192,35530,1,0,0:0:0:0:
192,192,35575,1,0,0:0:0:0:
320,192,35575,1,0,0:0:0:0:
448,192,35620,1,0,0:0:0:0:
64,192,35664,1,0,0:0:0:0:
320,192,35664,1,0,0:0:0:0:
192,192,35709,1,0,0:0:0:0:
320,192,35754,1,0,0:0:0:0:
448,192,35754,1,0,0:0:0:0:
64,192,35798,1,0,0:0:0:0:
192,192,35843,1,0,0:0:0:0:
448,192,35887,1,0,0:0:0:0:
64,192,35932,1,0,0:0:0:0:
320,192,35977,1,0,0:0:0:0:
192,192,36021,1,0,0:0:0:0:
448,192,36021,1,0,0:0:0:0:
64,192,36066,1,0,0:0:0:0:
192,192,36111,1,0,0:0:0:0:
320,192,36111,1,0,0:0:0:0:
64,192,36155,1,0,0:0:0:0:
192,192,36200,1,0,0:0:0:0:
448,192,36200,1,0,0:0:0:0:
320,192,36245,1,0,0:0:0:0:
64,192,36289,1,0,0:0:0:0:
192,192,36289,1,0,0:0:0:0:
320,192,36334,1,0,0:0:0:0:
64,192,36379,1,0,0:0:0:0:
448,192,36379,1,0,0:0:0:0:
192,192,36423,1,0,0:0:0:0:
320,192,36468,1,0,0:0:0:0:
448,192,36468,1,0,0:0:0:0:
192,192,36512,1,0,0:0:0:0:
64,192,36557,1,0,0:0:0:0:
448,192,36557,1,0,0:0:0:0:
64,192,36646,1,0,0:0:0:0:
448,192,36646,1,0,0:0:0:0:
64,192,36736,128,0,36914:0:0:0:0:
192,192,36736,1,0,0:0:0:0:
320,192,36736,1,0,0:0:0:0:
448,192,36914,1,0,0:0:0:0:
192,192,37004,1,0,0:0:0:0:
320,192,37004,1,0,0:0:0:0:
64,192,37093,1,0,0:0:0:0:
192,192,37093,1,0,0:0:0:0:
448,192,37093,1,0,0:0:0:0:
320,192,37182,1,0,0:0:0:0:
64,192,37271,1,0,0:0:0:0:
192,192,37271,1,0,0:0:0:0:
64,192,37361,1,0,0:0:0:0:
192,192,37361,1,0,0:0:0:0:
320,192,37450,1,0,0:0:0:0:
192,192,37495,1,0,0:0:0:0:
448,192,37539,1,0,0:0:0:0:
320,192,37584,1,0,0:0:0:0:
64,192,37629,1,0,0:0:0:0:
192,192,37629,1,0,0:0:0:0:
448,192,37629,1,0,0:0:0:0:
64,192,37718,1,0,0:0:0:0:
320,192,37718,1,0,0:0:0:0:
448,192,37718,1,0,0:0:0:0:
192,192,37807,1,0,0:0:0:0:
320,192,37852,1,0,0:0:0:0:
64,192,37896,1,0,0:0:0:0:
192,192,37941,1,0,0:0:0:0:
64,192,37986,1,0,0:0:0:0:
320,192,37986,1,0,0:0:0:0:
448,192,37986,128,0,38164:0:0:0:0:
64,192,38164,128,0,38343:0:0:0:0:
192,192,38164,128,0,38343:0:0:0:0:
320,192,38164,1,0,0:0:0:0:
320,192,38343,1,0,0:0:0:0:
448,192,38343,1,0,0:0:0:0:
64,192,38432,1,0,0:0:0:0:
192,192,38521,1,0,0:0:0:0:
320,192,38521,1,0,0:0:0:0:
448,192,38521,1,0,0:0:0:0:
64,192,38611,1,0,0:0:0:0:
192,192,38700,1,0,0:0:0:0:
320,192,38700,1,0,0:0:0:0:
448,192,38700,1,0,0:0:0:0:
64,192,38789,1,0,0:0:0:0:
320,192,38789,1,0,0:0:0:0:
448,192,38834,1,0,0:0:0:0:
192,192,38879,1,0,0:0:0:0:
320,192,38923,1,0,0:0:0:0:
64,192,38968,1,0,0:0:0:0:
448,192,39012,1,0,0:0:0:0:
64,192,39057,1,0,0:0:0:0:
192,192,39057,1,0,0:0:0:0:
320,192,39057,1,0,0:0:0:0:
64,192,39146,1,0,0:0:0:0:
320,192,39146,1,0,0:0:0:0:
448,192,39146,1,0,0:0:0:0:
192,192,39236,1,0,0:0:0:0:
320,192,39236,1,0,0:0:0:0:
448,192,39236,1,0,0:0:0:0:
64,192,39325,1,0,0:0:0:0:
192,192,39325,1,0,0:0:0:0:
448,192,39325,1,0,0:0:0:0:
320,192,39370,1,0,0:0:0:0:
64,192,39414,1,0,0:0:0:0:
192,192,39414,1,0,0:0:0:0:
448,192,39459,1,0,0:0:0:0:
64,192,39504,1,0,0:0:0:0:
192,192,39504,1,0,0:0:0:0:
448,192,39548,1,0,0:0:0:0:
64,192,39593,1,0,0:0:0:0:
192,192,39593,1,0,0:0:0:0:
64,192,39771,1,0,0:0:0:0:
320,192,39771,1,0,0:0:0:0:
448,192,39771,1,0,0:0:0:0:
192,192,39861,1,0,0:0:0:0:
320,192,39861,1,0,0:0:0:0:
64,192,39950,1,0,0:0:0:0:
192,192,39950,1,0,0:0:0:0:
448,192,39950,128,0,40129:0:0:0:0:
320,192,40039,1,0,0:0:0:0:
64,192,40129,1,0,0:0:0:0:
192,192,40129,1,0,0:0:0:0:
320,192,40218,1,0,0:0:0:0:
192,192,40307,1,0,0:0:0:0:
448,192,40307,1,0,0:0:0:0:
320,192,40396,1,0,0:0:0:0:
64,192,40486,128,0,40664:0:0:0:0:
448,192,40486,1,0,0:0:0:0:
320,192,40575,1,0,0:0:0:0:
192,192,40664,1,0,0:0:0:0:
320,192,40709,1,0,0:0:0:0:
64,192,40754,1,0,0:0:0:0:
448,192,40798,1,0,0:0:0:0:
64,192,40843,1,0,0:0:0:0:
192,192,40843,1,0,0:0:0:0:
320,192,40843,1,0,0:0:0:0:
192,192,40932,1,0,0:0:0:0:
448,192,40932,1,0,0:0:0:0:
320,192,41021,1,0,0:0:0:0:
64,192,41066,1,0,0:0:0:0:
448,192,41111,1,0,0:0:0:0:
192,192,41155,1,0,0:0:0:0:
64,192,41200,1,0,0:0:0:0:
320,192,41200,1,0,0:0:0:0:
448,192,41200,1,0,0:0:0:0:
192,192,41289,1,0,0:0:0:0:
320,192,41289,1,0,0:0:0:0:
64,192,41379,1,0,0:0:0:0:
192,192,41379,1,0,0:0:0:0:
448,192,41379,128,0,41557:0:0:0:0:
320,192,41557,1,0,0:0:0:0:
320,192,41646,1,0,0:0:0:0:
64,192,41736,1,0,0:0:0:0:
192,192,41736,1,0,0:0:0:0:
192,192,41825,1,0,0:0:0:0:
64,192,41914,1,0,0:0:0:0:
320,192,41914,1,0,0:0:0:0:
320,192,42004,1,0,0:0:0:0:
192,192,42093,1,0,0:0:0:0:
448,192,42093,1,0,0:0:0:0:
448,192,42182,1,0,0:0:0:0:
64,192,42271,1,0,0:0:0:0:
320,192,42271,1,0,0:0:0:0:
192,192,42294,1,0,0:0:0:0:
448,192,42316,1,0,0:0:0:0:
64,192,42361,1,0,0:0:0:0:
192,192,42450,1,0,0:0:0:0:
448,192,42450,1,0,0:0:0:0:
192,192,42539,1,0,0:0:0:0:
320,192,42629,1,0,0:0:0:0:
192,192,42673,1,0,0:0:0:0:
320,192,42718,1,0,0:0:0:0:
64,192,42762,1,0,0:0:0:0:
192,192,42807,1,0,0:0:0:0:
320,192,42807,1,0,0:0:0:0:
448,192,42807,128,0,43030:0:0:0:0:
64,192,43075,1,0,0:0:0:0:
320,192,43075,1,0,0:0:0:0:
448,192,43075,128,0,43521:0:0:0:0:
192,192,43120,1,0,0:0:0:0:
64,192,43164,1,0,0:0:0:0:
192,192,43209,1,0,0:0:0:0:
64,192,43254,1,0,0:0:0:0:
192,192,43298,1,0,0:0:0:0:
64,192,43343,1,0,0:0:0:0:
320,192,43343,1,0,0:0:0:0:
64,192,43521,1,0,0:0:0:0:
320,192,43521,1,0,0:0:0:0:
192,192,43566,1,0,0:0:0:0:
320,192,43611,1,0,0:0:0:0:
64,192,43655,1,0,0:0:0:0:
320,192,43700,1,0,0:0:0:0:
192,192,43745,1,0,0:0:0:0:
320,192,43789,1,0,0:0:0:0:
64,192,43834,1,0,0:0:0:0:
448,192,43879,1,0,0:0:0:0:
192,192,43923,1,0,0:0:0:0:
320,192,43968,1,0,0:0:0:0:
64,192,44012,1,0,0:0:0:0:
320,192,44057,1,0,0:0:0:0:
192,192,44102,1,0,0:0:0:0:
64,192,44146,1,0,0:0:0:0:
448,192,44146,1,0,0:0:0:0:
192,192,44236,1,0,0:0:0:0:
320,192,44236,1,0,0:0:0:0:
448,192,44236,1,0,0:0:0:0:
64,192,44325,1,0,0:0:0:0:
320,192,44325,1,0,0:0:0:0:
64,192,44414,1,0,0:0:0:0:
320,192,44414,1,0,0:0:0:0:
448,192,44414,1,0,0:0:0:0:
192,192,44459,1,0,0:0:0:0:
320,192,44504,1,0,0:0:0:0:
64,192,44548,1,0,0:0:0:0:
320,192,44593,1,0,0:0:0:0:
192,192,44637,1,0,0:0:0:0:
320,192,44682,1,0,0:0:0:0:
64,192,44727,1,0,0:0:0:0:
192,192,44771,1,0,0:0:0:0:
448,192,44816,1,0,0:0:0:0:
320,192,44861,1,0,0:0:0:0:
192,192,44905,1,0,0:0:0:0:
320,192,44950,1,0,0:0:0:0:
448,192,44950,1,0,0:0:0:0:
64,192,45039,1,0,0:0:0:0:
192,192,45039,1,0,0:0:0:0:
64,192,45129,1,0,0:0:0:0:
320,192,45129,128,0,45307:0:0:0:0:
448,192,45129,1,0,0:0:0:0:
64,192,45307,1,0,0:0:0:0:
192,192,45307,1,0,0:0:0:0:
448,192,45352,1,0,0:0:0:0:
320,192,45396,1,0,0:0:0:0:
64,192,45441,1,0,0:0:0:0:
192,192,45486,1,0,0:0:0:0:
448,192,45486,1,0,0:0:0:0:
320,192,45530,1,0,0:0:0:0:
64,192,45575,1,0,0:0:0:0:
192,192,45620,1,0,0:0:0:0:
320,192,45664,1,0,0:0:0:0:
448,192,45664,1,0,0:0:0:0:
64,192,45709,1,0,0:0:0:0:
192,192,45754,1,0,0:0:0:0:
448,192,45798,1,0,0:0:0:0:
64,192,45843,1,0,0:0:0:0:
320,192,45843,1,0,0:0:0:0:
192,192,45887,1,0,0:0:0:0:
448,192,45932,1,0,0:0:0:0:
320,192,45977,1,0,0:0:0:0:
64,192,46021,1,0,0:0:0:0:
192,192,46021,1,0,0:0:0:0:
448,192,46021,1,0,0:0:0:0:
64,192,46111,1,0,0:0:0:0:
320,192,46111,1,0,0:0:0:0:
448,192,46111,1,0,0:0:0:0:
64,192,46200,1,0,0:0:0:0:
192,192,46200,1,0,0:0:0:0:
320,192,46200,1,0,0:0:0:0:
64,192,46289,1,0,0:0:0:0:
320,192,46289,1,0,0:0:0:0:
448,192,46289,1,0,0:0:0:0:
192,192,46379,1,0,0:0:0:0:
448,192,46379,1,0,0:0:0:0:
64,192,46423,1,0,0:0:0:0:
192,192,46468,1,0,0:0:0:0:
320,192,46512,1,0,0:0:0:0:
64,192,46557,1,0,0:0:0:0:
192,192,46557,1,0,0:0:0:0:
448,192,46602,1,0,0:0:0:0:
64,192,46646,1,0,0:0:0:0:
320,192,46646,1,0,0:0:0:0:
192,192,46691,1,0,0:0:0:0:
320,192,46736,1,0,0:0:0:0:
448,192,46736,1,0,0:0:0:0:
64,192,46780,1,0,0:0:0:0:
192,192,46825,1,0,0:0:0:0:
320,192,46870,1,0,0:0:0:0:
64,192,46914,1,0,0:0:0:0:
192,192,46914,1,0,0:0:0:0:
448,192,46959,1,0,0:0:0:0:
320,192,47004,1,0,0:0:0:0:
192,192,47048,1,0,0:0:0:0:
64,192,47093,1,0,0:0:0:0:
320,192,47093,1,0,0:0:0:0:
192,192,47182,1,0,0:0:0:0:
448,192,47182,1,0,0:0:0:0:
64,192,47271,1,0,0:0:0:0:
320,192,47271,1,0,0:0:0:0:
448,192,47271,1,0,0:0:0:0:
64,192,47361,1,0,0:0:0:0:
192,192,47361,1,0,0:0:0:0:
448,192,47361,1,0,0:0:0:0:
192,192,47450,1,0,0:0:0:0:
320,192,47450,1,0,0:0:0:0:
448,192,47495,1,0,0:0:0:0:
64,192,47539,1,0,0:0:0:0:
320,192,47539,1,0,0:0:0:0:
192,192,47584,1,0,0:0:0:0:
320,192,47629,1,0,0:0:0:0:
448,192,47629,1,0,0:0:0:0:
64,192,47673,1,0,0:0:0:0:
192,192,47718,1,0,0:0:0:0:
448,192,47762,1,0,0:0:0:0:
64,192,47807,1,0,0:0:0:0:
192,192,47807,1,0,0:0:0:0:
320,192,47807,128,0,47986:0:0:0:0:
64,192,47986,128,0,48164:0:0:0:0:
192,192,47986,1,0,0:0:0:0:
448,192,47986,1,0,0:0:0:0:
320,192,48164,1,0,0:0:0:0:
448,192,48164,1,0,0:0:0:0:
192,192,48209,1,0,0:0:0:0:
320,192,48254,1,0,0:0:0:0:
64,192,48298,1,0,0:0:0:0:
192,192,48343,1,0,0:0:0:0:
448,192,48387,1,0,0:0:0:0:
64,192,48432,1,0,0:0:0:0:
320,192,48477,1,0,0:0:0:0:
192,192,48521,1,0,0:0:0:0:
448,192,48521,1,0,0:0:0:0:
64,192,48566,1,0,0:0:0:0:
192,192,48611,1,0,0:0:0:0:
448,192,48655,1,0,0:0:0:0:
320,192,48700,1,0,0:0:0:0:
64,192,48745,1,0,0:0:0:0:
448,192,48789,1,0,0:0:0:0:
192,192,48834,1,0,0:0:0:0:
320,192,48879,1,0,0:0:0:0:
448,192,48879,1,0,0:0:0:0:
64,192,48923,1,0,0:0:0:0:
448,192,48968,1,0,0:0:0:0:
320,192,49012,1,0,0:0:0:0:
64,192,49057,1,0,0:0:0:0:
192,192,49057,1,0,0:0:0:0:
448,192,49102,1,0,0:0:0:0:
64,192,49146,1,0,0:0:0:0:
320,192,49146,1,0,0:0:0:0:
192,192,49191,1,0,0:0:0:0:
320,192,49236,1,0,0:0:0:0:
448,192,49236,1,0,0:0:0:0:
64,192,49280,1,0,0:0:0:0:
192,192,49325,1,0,0:0:0:0:
448,192,49325,1,0,0:0:0:0:
320,192,49370,1,0,0:0:0:0:
64,192,49414,1,0,0:0:0:0:
192,192,49414,1,0,0:0:0:0:
448,192,49459,1,0,0:0:0:0:
64,192,49504,1,0,0:0:0:0:
192,192,49504,1,0,0:0:0:0:
320,192,49548,1,0,0:0:0:0:
448,192,49593,1,0,0:0:0:0:
192,192,49637,1,0,0:0:0:0:
320,192,49682,1,0,0:0:0:0:
64,192,49727,1,0,0:0:0:0:
192,192,49771,1,0,0:0:0:0:
448,192,49771,1,0,0:0:0:0:
320,192,49816,1,0,0:0:0:0:
192,192,49861,1,0,0:0:0:0:
64,192,49905,1,0,0:0:0:0:
320,192,49950,1,0,0:0:0:0:
448,192,49995,1,0,0:0:0:0:
64,192,50039,1,0,0:0:0:0:
192,192,50084,1,0,0:0:0:0:
320,192,50129,1,0,0:0:0:0:
448,192,50129,1,0,0:0:0:0:
64,192,50173,1,0,0:0:0:0:
320,192,50218,1,0,0:0:0:0:
192,192,50262,1,0,0:0:0:0:
64,192,50307,1,0,0:0:0:0:
448,192,50352,1,0,0:0:0:0:
320,192,50396,1,0,0:0:0:0:
64,192,50441,1,0,0:0:0:0:
192,192,50486,1,0,0:0:0:0:
448,192,50486,1,0,0:0:0:0:
320,192,50530,1,0,0:0:0:0:
192,192,50575,1,0,0:0:0:0:
320,192,50620,1,0,0:0:0:0:
64,192,50664,1,0,0:0:0:0:
448,192,50664,1,0,0:0:0:0:
192,192,50709,1,0,0:0:0:0:
320,192,50754,1,0,0:0:0:0:
448,192,50754,1,0,0:0:0:0:
192,192,50798,1,0,0:0:0:0:
64,192,50843,1,0,0:0:0:0:
448,192,50843,1,0,0:0:0:0:
320,192,50887,1,0,0:0:0:0:
64,192,50932,1,0,0:0:0:0:
192,192,50932,1,0,0:0:0:0:
448,192,50977,1,0,0:0:0:0:
320,192,51021,1,0,0:0:0:0:
192,192,51066,1,0,0:0:0:0:
320,192,51111,1,0,0:0:0:0:
448,192,51155,1,0,0:0:0:0:
64,192,51200,1,0,0:0:0:0:
320,192,51200,1,0,0:0:0:0:
64,192,51289,1,0,0:0:0:0:
192,192,51289,1,0,0:0:0:0:
448,192,51289,1,0,0:0:0:0:
192,192,51379,1,0,0:0:0:0:
320,192,51379,1,0,0:0:0:0:
448,192,51379,1,0,0:0:0:0:
64,192,51423,1,0,0:0:0:0:
192,192,51468,1,0,0:0:0:0:
448,192,51512,1,0,0:0:0:0:
64,192,51557,1,0,0:0:0:0:
320,192,51602,1,0,0:0:0:0:
448,192,51646,1,0,0:0:0:0:
192,192,51691,1,0,0:0:0:0:
64,192,51736,1,0,0:0:0:0:
320,192,51736,1,0,0:0:0:0:
448,192,51780,1,0,0:0:0:0:
320,192,51825,1,0,0:0:0:0:
64,192,51870,1,0,0:0:0:0:
192,192,51914,1,0,0:0:0:0:
448,192,51914,1,0,0:0:0:0:
320,192,51959,1,0,0:0:0:0:
448,192,52004,1,0,0:0:0:0:
64,192,52048,1,0,0:0:0:0:
192,192,52093,1,0,0:0:0:0:
320,192,52093,1,0,0:0:0:0:
448,192,52093,1,0,0:0:0:0:
64,192,52137,1,0,0:0:0:0:
192,192,52182,1,0,0:0:0:0:
448,192,52227,1,0,0:0:0:0:
64,192,52271,1,0,0:0:0:0:
192,192,52271,1,0,0:0:0:0:
320,192,52271,1,0,0:0:0:0:
448,192,52316,1,0,0:0:0:0:
320,192,52361,1,0,0:0:0:0:
64,192,52405,1,0,0:0:0:0:
192,192,52450,1,0,0:0:0:0:
320,192,52450,1,0,0:0:0:0:
448,192,52495,1,0,0:0:0:0:
64,192,52539,1,0,0:0:0:0:
192,192,52584,1,0,0:0:0:0:
320,192,52629,1,0,0:0:0:0:
448,192,52629,1,0,0:0:0:0:
64,192,52673,1,0,0:0:0:0:
320,192,52718,1,0,0:0:0:0:
192,192,52762,1,0,0:0:0:0:
64,192,52807,1,0,0:0:0:0:
448,192,52807,1,0,0:0:0:0:
320,192,52852,1,0,0:0:0:0:
64,192,52896,1,0,0:0:0:0:
192,192,52941,1,0,0:0:0:0:
320,192,52986,1,0,0:0:0:0:
448,192,52986,1,0,0:0:0:0:
192,192,53030,1,0,0:0:0:0:
320,192,53075,1,0,0:0:0:0:
192,192,53120,1,0,0:0:0:0:
64,192,53164,1,0,0:0:0:0:
320,192,53164,1,0,0:0:0:0:
448,192,53164,1,0,0:0:0:0:
192,192,53209,1,0,0:0:0:0:
448,192,53254,1,0,0:0:0:0:
320,192,53298,1,0,0:0:0:0:
64,192,53343,1,0,0:0:0:0:
192,192,53343,1,0,0:0:0:0:
448,192,53387,1,0,0:0:0:0:
192,192,53432,1,0,0:0:0:0:
64,192,53477,1,0,0:0:0:0:
320,192,53521,1,0,0:0:0:0:
448,192,53521,1,0,0:0:0:0:
192,192,53566,1,0,0:0:0:0:
320,192,53611,1,0,0:0:0:0:
64,192,53655,1,0,0:0:0:0:
192,192,53700,1,0,0:0:0:0:
448,192,53700,1,0,0:0:0:0:
320,192,53745,1,0,0:0:0:0:
192,192,53789,1,0,0:0:0:0:
448,192,53834,1,0,0:0:0:0:
64,192,53879,1,0,0:0:0:0:
192,192,53879,1,0,0:0:0:0:
320,192,53879,1,0,0:0:0:0:
64,192,53968,1,0,0:0:0:0:
320,192,53968,1,0,0:0:0:0:
448,192,53968,1,0,0:0:0:0:
192,192,54057,1,0,0:0:0:0:
320,192,54057,1,0,0:0:0:0:
448,192,54057,1,0,0:0:0:0:
64,192,54146,1,0,0:0:0:0:
192,192,54146,1,0,0:0:0:0:
448,192,54146,1,0,0:0:0:0:
64,192,54236,1,0,0:0:0:0:
320,192,54236,1,0,0:0:0:0:
192,192,54280,1,0,0:0:0:0:
448,192,54325,1,0,0:0:0:0:
64,192,54370,1,0,0:0:0:0:
320,192,54414,1,0,0:0:0:0:
192,192,54459,1,0,0:0:0:0:
64,192,54504,1,0,0:0:0:0:
448,192,54504,1,0,0:0:0:0:
320,192,54548,1,0,0:0:0:0:
64,192,54593,1,0,0:0:0:0:
192,192,54593,1,0,0:0:0:0:
320,192,54637,1,0,0:0:0:0:
448,192,54682,1,0,0:0:0:0:
320,192,54727,1,0,0:0:0:0:
64,192,54771,1,0,0:0:0:0:
192,192,54771,1,0,0:0:0:0:
448,192,54816,1,0,0:0:0:0:
320,192,54861,1,0,0:0:0:0:
192,192,54905,1,0,0:0:0:0:
64,192,54950,1,0,0:0:0:0:
320,192,54950,1,0,0:0:0:0:
448,192,54950,1,0,0:0:0:0:
192,192,55039,1,0,0:0:0:0:
320,192,55039,1,0,0:0:0:0:
448,192,55039,1,0,0:0:0:0:
64,192,55129,1,0,0:0:0:0:
192,192,55129,1,0,0:0:0:0:
448,192,55129,1,0,0:0:0:0:
64,192,55218,1,0,0:0:0:0:
192,192,55218,1,0,0:0:0:0:
320,192,55218,1,0,0:0:0:0:
320,192,55307,1,0,0:0:0:0:
448,192,55307,1,0,0:0:0:0:
192,192,55352,1,0,0:0:0:0:
448,192,55396,1,0,0:0:0:0:
192,192,55441,1,0,0:0:0:0:
320,192,55486,1,0,0:0:0:0:
64,192,55530,1,0,0:0:0:0:
320,192,55575,1,0,0:0:0:0:
192,192,55620,1,0,0:0:0:0:
64,192,55664,1,0,0:0:0:0:
320,192,55664,1,0,0:0:0:0:
448,192,55664,128,0,55843:0:0:0:0:
64,192,55843,1,0,0:0:0:0:
192,192,55843,1,0,0:0:0:0:
320,192,55843,128,0,56021:0:0:0:0:
64,192,56021,1,0,0:0:0:0:
448,192,56021,1,0,0:0:0:0:
192,192,56066,1,0,0:0:0:0:
64,192,56111,1,0,0:0:0:0:
320,192,56155,1,0,0:0:0:0:
448,192,56200,1,0,0:0:0:0:
192,192,56245,1,0,0:0:0:0:
320,192,56289,1,0,0:0:0:0:
64,192,56334,1,0,0:0:0:0:
192,192,56379,1,0,0:0:0:0:
448,192,56379,1,0,0:0:0:0:
320,192,56423,1,0,0:0:0:0:
448,192,56468,1,0,0:0:0:0:
192,192,56512,1,0,0:0:0:0:
64,192,56557,1,0,0:0:0:0:
320,192,56602,1,0,0:0:0:0:
192,192,56646,1,0,0:0:0:0:
448,192,56691,1,0,0:0:0:0:
64,192,56736,1,0,0:0:0:0:
320,192,56736,1,0,0:0:0:0:
192,192,56780,1,0,0:0:0:0:
320,192,56825,1,0,0:0:0:0:
448,192,56825,1,0,0:0:0:0:
192,192,56870,1,0,0:0:0:0:
64,192,56914,1,0,0:0:0:0:
320,192,56914,1,0,0:0:0:0:
448,192,56914,1,0,0:0:0:0:
64,192,57004,1,0,0:0:0:0:
192,192,57004,1,0,0:0:0:0:
192,192,57093,1,0,0:0:0:0:
320,192,57093,1,0,0:0:0:0:
448,192,57093,1,0,0:0:0:0:
320,192,57182,1,0,0:0:0:0:
448,192,57182,1,0,0:0:0:0:
64,192,57271,1,0,0:0:0:0:
192,192,57271,1,0,0:0:0:0:
320,192,57316,1,0,0:0:0:0:
64,192,57361,1,0,0:0:0:0:
320,192,57405,1,0,0:0:0:0:
192,192,57450,1,0,0:0:0:0:
448,192,57450,1,0,0:0:0:0:
64,192,57495,1,0,0:0:0:0:
448,192,57539,1,0,0:0:0:0:
64,192,57584,1,0,0:0:0:0:
320,192,57629,1,0,0:0:0:0:
448,192,57629,1,0,0:0:0:0:
192,192,57673,1,0,0:0:0:0:
320,192,57718,1,0,0:0:0:0:
192,192,57762,1,0,0:0:0:0:
448,192,57807,1,0,0:0:0:0:
320,192,57852,1,0,0:0:0:0:
64,192,57896,1,0,0:0:0:0:
448,192,57941,1,0,0:0:0:0:
64,192,57986,1,0,0:0:0:0:
320,192,57986,1,0,0:0:0:0:
192,192,58030,1,0,0:0:0:0:
320,192,58075,1,0,0:0:0:0:
64,192,58120,1,0,0:0:0:0:
192,192,58164,1,0,0:0:0:0:
448,192,58209,1,0,0:0:0:0:
64,192,58254,1,0,0:0:0:0:
192,192,58298,1,0,0:0:0:0:
448,192,58343,1,0,0:0:0:0:
320,192,58373,1,0,0:0:0:0:
192,192,58402,1,0,0:0:0:0:
64,192,58432,1,0,0:0:0:0:
448,192,58462,1,0,0:0:0:0:
320,192,58492,1,0,0:0:0:0:
64,192,58521,1,0,0:0:0:0:
192,192,58521,1,0,0:0:0:0:
320,192,58611,1,0,0:0:0:0:
448,192,58611,1,0,0:0:0:0:
64,192,58700,1,0,0:0:0:0:
192,192,58700,1,0,0:0:0:0:
448,192,58700,1,0,0:0:0:0:
192,192,58789,1,0,0:0:0:0:
320,192,58789,1,0,0:0:0:0:
64,192,58879,1,0,0:0:0:0:
448,192,58879,1,0,0:0:0:0:
192,192,58923,1,0,0:0:0:0:
64,192,58968,1,0,0:0:0:0:
320,192,58968,1,0,0:0:0:0:
192,192,59012,1,0,0:0:0:0:
320,192,59057,1,0,0:0:0:0:
448,192,59057,1,0,0:0:0:0:
64,192,59102,1,0,0:0:0:0:
192,192,59146,1,0,0:0:0:0:
320,192,59146,1,0,0:0:0:0:
448,192,59191,1,0,0:0:0:0:
64,192,59236,1,0,0:0:0:0:
192,192,59236,1,0,0:0:0:0:
320,192,59280,1,0,0:0:0:0:
64,192,59325,1,0,0:0:0:0:
320,192,59370,1,0,0:0:0:0:
448,192,59414,1,0,0:0:0:0:
320,192,59459,1,0,0:0:0:0:
64,192,59504,1,0,0:0:0:0:
192,192,59504,1,0,0:0:0:0:
448,192,59548,1,0,0:0:0:0:
64,192,59593,1,0,0:0:0:0:
320,192,59593,1,0,0:0:0:0:
448,192,59637,1,0,0:0:0:0:
64,192,59682,1,0,0:0:0:0:
192,192,59682,1,0,0:0:0:0:
320,192,59727,1,0,0:0:0:0:
192,192,59771,1,0,0:0:0:0:
448,192,59771,1,0,0:0:0:0:
64,192,59816,1,0,0:0:0:0:
320,192,59861,1,0,0:0:0:0:
448,192,59905,1,0,0:0:0:0:
64,192,59950,1,0,0:0:0:0:
320,192,59950,1,0,0:0:0:0:
192,192,59995,1,0,0:0:0:0:
320,192,60039,1,0,0:0:0:0:
448,192,60039,1,0,0:0:0:0:
64,192,60084,1,0,0:0:0:0:
192,192,60084,1,0,0:0:0:0:
320,192,60129,1,0,0:0:0:0:
448,192,60129,1,0,0:0:0:0:
64,192,60173,1,0,0:0:0:0:
192,192,60173,1,0,0:0:0:0:
320,192,60218,1,0,0:0:0:0:
448,192,60218,1,0,0:0:0:0:
64,192,60262,1,0,0:0:0:0:
192,192,60262,1,0,0:0:0:0:
320,192,60307,1,0,0:0:0:0:
448,192,60307,1,0,0:0:0:0:
192,192,60352,1,0,0:0:0:0:
448,192,60396,1,0,0:0:0:0:
192,192,60441,1,0,0:0:0:0:
64,192,60486,1,0,0:0:0:0:
320,192,60530,1,0,0:0:0:0:
64,192,60575,1,0,0:0:0:0:
192,192,60575,1,0,0:0:0:0:
448,192,60575,1,0,0:0:0:0:
320,192,60620,1,0,0:0:0:0:
192,192,60664,1,0,0:0:0:0:
448,192,60709,1,0,0:0:0:0:
320,192,60754,1,0,0:0:0:0:
448,192,60798,1,0,0:0:0:0:
64,192,60843,1,0,0:0:0:0:
192,192,60843,1,0,0:0:0:0:
320,192,60887,1,0,0:0:0:0:
448,192,60932,1,0,0:0:0:0:
64,192,60977,1,0,0:0:0:0:
192,192,61021,1,0,0:0:0:0:
64,192,61066,1,0,0:0:0:0:
320,192,61111,1,0,0:0:0:0:
448,192,61111,1,0,0:0:0:0:
192,192,61155,1,0,0:0:0:0:
320,192,61200,1,0,0:0:0:0:
448,192,61245,1,0,0:0:0:0:
64,192,61289,1,0,0:0:0:0:
448,192,61334,1,0,0:0:0:0:
64,192,61379,1,0,0:0:0:0:
192,192,61379,1,0,0:0:0:0:
320,192,61379,1,0,0:0:0:0:
192,192,61468,1,0,0:0:0:0:
448,192,61468,1,0,0:0:0:0:
320,192,61557,1,0,0:0:0:0:
64,192,61646,1,0,0:0:0:0:
192,192,61646,1,0,0:0:0:0:
320,192,61691,1,0,0:0:0:0:
64,192,61736,1,0,0:0:0:0:
320,192,61780,1,0,0:0:0:0:
64,192,61825,1,0,0:0:0:0:
320,192,61870,1,0,0:0:0:0:
192,192,61914,1,0,0:0:0:0:
448,192,61914,1,0,0:0:0:0:
64,192,62004,1,0,0:0:0:0:
320,192,62004,1,0,0:0:0:0:
192,192,62093,1,0,0:0:0:0:
320,192,62182,1,0,0:0:0:0:
448,192,62182,1,0,0:0:0:0:
64,192,62227,1,0,0:0:0:0:
448,192,62271,1,0,0:0:0:0:
64,192,62316,1,0,0:0:0:0:
448,192,62361,1,0,0:0:0:0:
64,192,62405,1,0,0:0:0:0:
192,192,62450,1,0,0:0:0:0:
320,192,62450,1,0,0:0:0:0:
448,192,62495,1,0,0:0:0:0:
64,192,62539,1,0,0:0:0:0:
320,192,62539,1,0,0:0:0:0:
448,192,62584,1,0,0:0:0:0:
192,192,62629,1,0,0:0:0:0:
320,192,62629,1,0,0:0:0:0:
448,192,62673,1,0,0:0:0:0:
64,192,62718,1,0,0:0:0:0:
192,192,62718,1,0,0:0:0:0:
320,192,62762,1,0,0:0:0:0:
64,192,62807,1,0,0:0:0:0:
192,192,62807,1,0,0:0:0:0:
320,192,62852,1,0,0:0:0:0:
64,192,62896,1,0,0:0:0:0:
192,192,62896,1,0,0:0:0:0:
320,192,62941,1,0,0:0:0:0:
64,192,62986,1,0,0:0:0:0:
192,192,62986,1,0,0:0:0:0:
448,192,62986,1,0,0:0:0:0:
320,192,63075,1,0,0:0:0:0:
448,192,63075,1,0,0:0:0:0:
320,192,63164,1,0,0:0:0:0:
448,192,63164,1,0,0:0:0:0:
64,192,63254,128,0,63521:0:0:0:0:
320,192,63254,1,0,0:0:0:0:
448,192,63521,1,0,0:0:0:0:
192,192,63566,1,0,0:0:0:0:
448,192,63611,1,0,0:0:0:0:
64,192,63655,1,0,0:0:0:0:
320,192,63700,1,0,0:0:0:0:
64,192,63745,1,0,0:0:0:0:
192,192,63789,1,0,0:0:0:0:
448,192,63789,1,0,0:0:0:0:
320,192,63834,1,0,0:0:0:0:
192,192,63879,1,0,0:0:0:0:
448,192,63923,1,0,0:0:0:0:
64,192,63968,1,0,0:0:0:0:
192,192,64012,1,0,0:0:0:0:
320,192,64057,1,0,0:0:0:0:
448,192,64057,1,0,0:0:0:0:
64,192,64102,1,0,0:0:0:0:
192,192,64146,1,0,0:0:0:0:
448,192,64146,1,0,0:0:0:0:
64,192,64191,1,0,0:0:0:0:
320,192,64236,1,0,0:0:0:0:
448,192,64236,1,0,0:0:0:0:
192,192,64280,1,0,0:0:0:0:
64,192,64325,1,0,0:0:0:0:
320,192,64325,1,0,0:0:0:0:
448,192,64370,1,0,0:0:0:0:
192,192,64414,1,0,0:0:0:0:
320,192,64459,1,0,0:0:0:0:
64,192,64504,1,0,0:0:0:0:
320,192,64548,1,0,0:0:0:0:
192,192,64593,1,0,0:0:0:0:
448,192,64593,1,0,0:0:0:0:
64,192,64637,1,0,0:0:0:0:
320,192,64682,1,0,0:0:0:0:
64,192,64727,1,0,0:0:0:0:
192,192,64771,1,0,0:0:0:0:
320,192,64771,1,0,0:0:0:0:
64,192,64816,1,0,0:0:0:0:
192,192,64861,1,0,0:0:0:0:
320,192,64861,1,0,0:0:0:0:
448,192,64905,1,0,0:0:0:0:
64,192,64950,1,0,0:0:0:0:
320,192,64995,1,0,0:0:0:0:
64,192,65039,1,0,0:0:0:0:
192,192,65084,1,0,0:0:0:0:
64,192,65129,1,0,0:0:0:0:
320,192,65129,1,0,0:0:0:0:
448,192,65129,1,0,0:0:0:0:
192,192,65173,1,0,0:0:0:0:
448,192,65218,1,0,0:0:0:0:
320,192,65262,1,0,0:0:0:0:
64,192,65307,1,0,0:0:0:0:
320,192,65352,1,0,0:0:0:0:
64,192,65396,1,0,0:0:0:0:
192,192,65396,1,0,0:0:0:0:
448,192,65441,1,0,0:0:0:0:
192,192,65486,1,0,0:0:0:0:
320,192,65486,1,0,0:0:0:0:
448,192,65530,1,0,0:0:0:0:
64,192,65575,1,0,0:0:0:0:
192,192,65575,1,0,0:0:0:0:
448,192,65620,1,0,0:0:0:0:
64,192,65664,1,0,0:0:0:0:
192,192,65664,1,0,0:0:0:0:
320,192,65709,1,0,0:0:0:0:
64,192,65754,1,0,0:0:0:0:
448,192,65754,1,0,0:0:0:0:
192,192,65798,1,0,0:0:0:0:
320,192,65843,1,0,0:0:0:0:
448,192,65843,1,0,0:0:0:0:
64,192,65887,1,0,0:0:0:0:
192,192,65932,1,0,0:0:0:0:
320,192,65932,1,0,0:0:0:0:
448,192,65932,1,0,0:0:0:0:
64,192,66021,1,0,0:0:0:0:
320,192,66021,1,0,0:0:0:0:
192,192,66111,1,0,0:0:0:0:
320,192,66200,1,0,0:0:0:0:
448,192,66200,1,0,0:0:0:0:
192,192,66245,1,0,0:0:0:0:
320,192,66289,1,0,0:0:0:0:
192,192,66334,1,0,0:0:0:0:
320,192,66379,1,0,0:0:0:0:
192,192,66423,1,0,0:0:0:0:
64,192,66468,1,0,0:0:0:0:
320,192,66468,1,0,0:0:0:0:
448,192,66468,1,0,0:0:0:0:
192,192,66557,1,0,0:0:0:0:
448,192,66557,1,0,0:0:0:0:
320,192,66646,1,0,0:0:0:0:
64,192,66736,1,0,0:0:0:0:
192,192,66736,1,0,0:0:0:0:
448,192,66780,1,0,0:0:0:0:
64,192,66825,1,0,0:0:0:0:
192,192,66825,1,0,0:0:0:0:
448,192,66870,1,0,0:0:0:0:
64,192,66914,1,0,0:0:0:0:
192,192,66914,1,0,0:0:0:0:
320,192,66959,1,0,0:0:0:0:
448,192,67004,1,0,0:0:0:0:
320,192,67048,1,0,0:0:0:0:
64,192,67093,1,0,0:0:0:0:
192,192,67137,1,0,0:0:0:0:
64,192,67182,1,0,0:0:0:0:
320,192,67227,1,0,0:0:0:0:
192,192,67271,1,0,0:0:0:0:
448,192,67271,1,0,0:0:0:0:
192,192,67361,1,0,0:0:0:0:
448,192,67361,1,0,0:0:0:0:
192,192,67450,1,0,0:0:0:0:
448,192,67450,1,0,0:0:0:0:
64,192,67539,1,0,0:0:0:0:
192,192,67539,1,0,0:0:0:0:
320,192,67539,1,0,0:0:0:0:
320,192,67629,1,0,0:0:0:0:
448,192,67629,1,0,0:0:0:0:
320,192,67718,1,0,0:0:0:0:
448,192,67718,1,0,0:0:0:0:
64,192,67807,128,0,68075:0:0:0:0:
448,192,67807,1,0,0:0:0:0:
320,192,68075,1,0,0:0:0:0:
448,192,68120,1,0,0:0:0:0:
320,192,68164,1,0,0:0:0:0:
192,192,68209,1,0,0:0:0:0:
448,192,68254,1,0,0:0:0:0:
192,192,68298,1,0,0:0:0:0:
64,192,68343,1,0,0:0:0:0:
320,192,68343,1,0,0:0:0:0:
448,192,68343,1,0,0:0:0:0:
192,192,68387,1,0,0:0:0:0:
320,192,68432,1,0,0:0:0:0:
64,192,68477,1,0,0:0:0:0:
192,192,68521,1,0,0:0:0:0:
320,192,68566,1,0,0:0:0:0:
192,192,68611,1,0,0:0:0:0:
448,192,68655,1,0,0:0:0:0:
64,192,68700,1,0,0:0:0:0:
320,192,68700,1,0,0:0:0:0:
192,192,68745,1,0,0:0:0:0:
64,192,68789,1,0,0:0:0:0:
448,192,68834,1,0,0:0:0:0:
320,192,68879,1,0,0:0:0:0:
192,192,68923,1,0,0:0:0:0:
320,192,68968,1,0,0:0:0:0:
64,192,69012,1,0,0:0:0:0:
192,192,69057,1,0,0:0:0:0:
320,192,69057,1,0,0:0:0:0:
448,192,69057,1,0,0:0:0:0:
64,192,69102,1,0,0:0:0:0:
448,192,69146,1,0,0:0:0:0:
192,192,69191,1,0,0:0:0:0:
320,192,69236,1,0,0:0:0:0:
64,192,69280,1,0,0:0:0:0:
320,192,69325,1,0,0:0:0:0:
192,192,69370,1,0,0:0:0:0:
64,192,69414,1,0,0:0:0:0:
448,192,69414,1,0,0:0:0:0:
320,192,69459,1,0,0:0:0:0:
448,192,69504,1,0,0:0:0:0:
64,192,69548,1,0,0:0:0:0:
192,192,69593,1,0,0:0:0:0:
448,192,69593,1,0,0:0:0:0:
320,192,69637,1,0,0:0:0:0:
192,192,69682,1,0,0:0:0:0:
448,192,69727,1,0,0:0:0:0:
64,192,69771,1,0,0:0:0:0:
320,192,69771,1,0,0:0:0:0:
192,192,69816,1,0,0:0:0:0:
320,192,69861,1,0,0:0:0:0:
64,192,69905,1,0,0:0:0:0:
192,192,69950,1,0,0:0:0:0:
448,192,69950,1,0,0:0:0:0:
320,192,69995,1,0,0:0:0:0:
448,192,70039,1,0,0:0:0:0:
192,192,70084,1,0,0:0:0:0:
64,192,70129,1,0,0:0:0:0:
320,192,70129,1,0,0:0:0:0:
192,192,70173,1,0,0:0:0:0:
64,192,70218,1,0,0:0:0:0:
448,192,70262,1,0,0:0:0:0:
320,192,70307,1,0,0:0:0:0:
192,192,70352,1,0,0:0:0:0:
320,192,70396,1,0,0:0:0:0:
64,192,70441,1,0,0:0:0:0:
192,192,70486,1,0,0:0:0:0:
320,192,70486,1,0,0:0:0:0:
448,192,70486,1,0,0:0:0:0:
64,192,70530,1,0,0:0:0:0:
448,192,70575,1,0,0:0:0:0:
320,192,70620,1,0,0:0:0:0:
192,192,70664,1,0,0:0:0:0:
64,192,70709,1,0,0:0:0:0:
192,192,70754,1,0,0:0:0:0:
448,192,70798,1,0,0:0:0:0:
64,192,70843,1,0,0:0:0:0:
320,192,70843,1,0,0:0:0:0:
192,192,70887,1,0,0:0:0:0:
448,192,70932,1,0,0:0:0:0:
320,192,70977,1,0,0:0:0:0:
64,192,71021,1,0,0:0:0:0:
192,192,71021,1,0,0:0:0:0:
320,192,71066,1,0,0:0:0:0:
448,192,71111,1,0,0:0:0:0:
192,192,71155,1,0,0:0:0:0:
64,192,71200,1,0,0:0:0:0:
320,192,71200,1,0,0:0:0:0:
448,192,71200,1,0,0:0:0:0:
192,192,71245,1,0,0:0:0:0:
320,192,71289,1,0,0:0:0:0:
64,192,71334,1,0,0:0:0:0:
448,192,71379,1,0,0:0:0:0:
192,192,71423,1,0,0:0:0:0:
448,192,71468,1,0,0:0:0:0:
64,192,71512,1,0,0:0:0:0:
192,192,71557,1,0,0:0:0:0:
320,192,71557,1,0,0:0:0:0:
448,192,71602,1,0,0:0:0:0:
192,192,71646,1,0,0:0:0:0:
320,192,71691,1,0,0:0:0:0:
64,192,71736,1,0,0:0:0:0:
448,192,71736,1,0,0:0:0:0:
320,192,71780,1,0,0:0:0:0:
64,192,71825,1,0,0:0:0:0:
448,192,71870,1,0,0:0:0:0:
192,192,71914,1,0,0:0:0:0:
320,192,71914,1,0,0:0:0:0:
64,192,71959,1,0,0:0:0:0:
192,192,72004,1,0,0:0:0:0:
448,192,72048,1,0,0:0:0:0:
320,192,72093,1,0,0:0:0:0:
64,192,72137,1,0,0:0:0:0:
320,192,72182,1,0,0:0:0:0:
448,192,72227,1,0,0:0:0:0:
64,192,72271,1,0,0:0:0:0:
192,192,72271,1,0,0:0:0:0:
320,192,72316,1,0,0:0:0:0:
192,192,72361,1,0,0:0:0:0:
448,192,72405,1,0,0:0:0:0:
64,192,72450,1,0,0:0:0:0:
320,192,72450,1,0,0:0:0:0:
192,192,72495,1,0,0:0:0:0:
320,192,72539,1,0,0:0:0:0:
448,192,72584,1,0,0:0:0:0:
192,192,72629,1,0,0:0:0:0:
320,192,72629,1,0,0:0:0:0:
448,192,72673,1,0,0:0:0:0:
192,192,72718,1,0,0:0:0:0:
64,192,72762,1,0,0:0:0:0:
320,192,72807,1,0,0:0:0:0:
448,192,72807,1,0,0:0:0:0:
192,192,72852,1,0,0:0:0:0:
448,192,72896,1,0,0:0:0:0:
64,192,72941,1,0,0:0:0:0:
192,192,72986,1,0,0:0:0:0:
320,192,72986,1,0,0:0:0:0:
448,192,73030,1,0,0:0:0:0:
64,192,73075,1,0,0:0:0:0:
320,192,73120,1,0,0:0:0:0:
192,192,73164,1,0,0:0:0:0:
448,192,73209,1,0,0:0:0:0:
192,192,73254,1,0,0:0:0:0:
320,192,73298,1,0,0:0:0:0:
64,192,73343,1,0,0:0:0:0:
192,192,73343,1,0,0:0:0:0:
448,192,73387,1,0,0:0:0:0:
320,192,73432,1,0,0:0:0:0:
64,192,73477,1,0,0:0:0:0:
448,192,73521,1,0,0:0:0:0:
192,192,73566,1,0,0:0:0:0:
448,192,73611,1,0,0:0:0:0:
320,192,73655,1,0,0:0:0:0:
64,192,73700,1,0,0:0:0:0:
448,192,73700,1,0,0:0:0:0:
192,192,73745,1,0,0:0:0:0:
320,192,73789,1,0,0:0:0:0:
192,192,73834,1,0,0:0:0:0:
64,192,73879,1,0,0:0:0:0:
192,192,73923,1,0,0:0:0:0:
320,192,73968,1,0,0:0:0:0:
192,192,74012,1,0,0:0:0:0:
64,192,74057,1,0,0:0:0:0:
320,192,74057,1,0,0:0:0:0:
448,192,74057,128,0,74236:0:0:0:0:
64,192,74236,1,0,0:0:0:0:
192,192,74236,1,0,0:0:0:0:
64,192,74325,1,0,0:0:0:0:
320,192,74325,1,0,0:0:0:0:
192,192,74414,1,0,0:0:0:0:
320,192,74414,1,0,0:0:0:0:
448,192,74414,1,0,0:0:0:0:
64,192,74504,1,0,0:0:0:0:
320,192,74504,1,0,0:0:0:0:
64,192,74593,1,0,0:0:0:0:
192,192,74593,1,0,0:0:0:0:
448,192,74593,1,0,0:0:0:0:
64,192,74682,1,0,0:0:0:0:
192,192,74682,1,0,0:0:0:0:
448,192,74682,1,0,0:0:0:0:
320,192,74771,1,0,0:0:0:0:
192,192,74816,1,0,0:0:0:0:
448,192,74861,1,0,0:0:0:0:
320,192,74905,1,0,0:0:0:0:
64,192,74950,1,0,0:0:0:0:
192,192,74950,1,0,0:0:0:0:
448,192,74950,1,0,0:0:0:0:
64,192,75039,1,0,0:0:0:0:
320,192,75039,1,0,0:0:0:0:
448,192,75039,1,0,0:0:0:0:
192,192,75129,1,0,0:0:0:0:
320,192,75173,1,0,0:0:0:0:
64,192,75218,1,0,0:0:0:0:
448,192,75262,1,0,0:0:0:0:
192,192,75307,1,0,0:0:0:0:
320,192,75307,128,0,75352:0:0:0:0:
192,192,75396,1,0,0:0:0:0:
320,192,75396,128,0,75441:0:0:0:0:
64,192,75486,1,0,0:0:0:0:
320,192,75486,1,0,0:0:0:0:
448,192,75486,1,0,0:0:0:0:
192,192,75530,1,0,0:0:0:0:
320,192,75575,1,0,0:0:0:0:
448,192,75620,1,0,0:0:0:0:
64,192,75664,1,0,0:0:0:0:
320,192,75709,1,0,0:0:0:0:
192,192,75754,1,0,0:0:0:0:
448,192,75798,1,0,0:0:0:0:
64,192,75843,1,0,0:0:0:0:
320,192,75843,1,0,0:0:0:0:
192,192,75887,1,0,0:0:0:0:
320,192,75932,1,0,0:0:0:0:
64,192,75977,1,0,0:0:0:0:
192,192,76021,1,0,0:0:0:0:
448,192,76066,1,0,0:0:0:0:
64,192,76111,1,0,0:0:0:0:
448,192,76155,1,0,0:0:0:0:
192,192,76200,1,0,0:0:0:0:
320,192,76200,1,0,0:0:0:0:
64,192,76245,1,0,0:0:0:0:
320,192,76289,1,0,0:0:0:0:
192,192,76334,1,0,0:0:0:0:
448,192,76379,1,0,0:0:0:0:
64,192,76423,1,0,0:0:0:0:
320,192,76468,1,0,0:0:0:0:
192,192,76512,1,0,0:0:0:0:
64,192,76557,1,0,0:0:0:0:
448,192,76557,1,0,0:0:0:0:
320,192,76602,1,0,0:0:0:0:
192,192,76646,1,0,0:0:0:0:
448,192,76691,1,0,0:0:0:0:
64,192,76736,1,0,0:0:0:0:
192,192,76736,1,0,0:0:0:0:
320,192,76780,1,0,0:0:0:0:
64,192,76825,1,0,0:0:0:0:
192,192,76825,1,0,0:0:0:0:
320,192,76870,1,0,0:0:0:0:
64,192,76914,1,0,0:0:0:0:
192,192,76914,1,0,0:0:0:0:
448,192,76959,1,0,0:0:0:0:
320,192,77004,1,0,0:0:0:0:
192,192,77048,1,0,0:0:0:0:
64,192,77093,1,0,0:0:0:0:
448,192,77093,1,0,0:0:0:0:
192,192,77137,1,0,0:0:0:0:
320,192,77182,1,0,0:0:0:0:
448,192,77227,1,0,0:0:0:0:
64,192,77271,1,0,0:0:0:0:
192,192,77271,1,0,0:0:0:0:
320,192,77316,1,0,0:0:0:0:
448,192,77361,1,0,0:0:0:0:
64,192,77405,1,0,0:0:0:0:
192,192,77450,1,0,0:0:0:0:
320,192,77450,1,0,0:0:0:0:
64,192,77495,1,0,0:0:0:0:
448,192,77539,1,0,0:0:0:0:
320,192,77584,1,0,0:0:0:0:
64,192,77629,1,0,0:0:0:0:
192,192,77629,1,0,0:0:0:0:
448,192,77673,1,0,0:0:0:0:
320,192,77718,1,0,0:0:0:0:
64,192,77762,1,0,0:0:0:0:
192,192,77807,1,0,0:0:0:0:
448,192,77852,1,0,0:0:0:0:
192,192,77896,1,0,0:0:0:0:
320,192,77941,1,0,0:0:0:0:
64,192,77986,1,0,0:0:0:0:
192,192,77986,1,0,0:0:0:0:
448,192,78030,1,0,0:0:0:0:
320,192,78075,1,0,0:0:0:0:
192,192,78120,1,0,0:0:0:0:
64,192,78164,1,0,0:0:0:0:
448,192,78164,1,0,0:0:0:0:
192,192,78209,1,0,0:0:0:0:
320,192,78254,1,0,0:0:0:0:
448,192,78298,1,0,0:0:0:0:
64,192,78343,1,0,0:0:0:0:
192,192,78343,1,0,0:0:0:0:
320,192,78343,1,0,0:0:0:0:
448,192,78387,1,0,0:0:0:0:
320,192,78432,1,0,0:0:0:0:
64,192,78477,1,0,0:0:0:0:
192,192,78521,1,0,0:0:0:0:
448,192,78566,1,0,0:0:0:0:
320,192,78611,1,0,0:0:0:0:
64,192,78655,1,0,0:0:0:0:
192,192,78700,1,0,0:0:0:0:
448,192,78700,1,0,0:0:0:0:
320,192,78745,1,0,0:0:0:0:
64,192,78789,1,0,0:0:0:0:
448,192,78834,1,0,0:0:0:0:
192,192,78879,1,0,0:0:0:0:
64,192,78923,1,0,0:0:0:0:
320,192,78968,1,0,0:0:0:0:
448,192,79012,1,0,0:0:0:0:
64,192,79057,1,0,0:0:0:0:
192,192,79057,1,0,0:0:0:0:
320,192,79102,1,0,0:0:0:0:
64,192,79146,1,0,0:0:0:0:
448,192,79191,1,0,0:0:0:0:
192,192,79236,1,0,0:0:0:0:
320,192,79280,1,0,0:0:0:0:
192,192,79325,1,0,0:0:0:0:
64,192,79370,1,0,0:0:0:0:
320,192,79414,1,0,0:0:0:0:
448,192,79414,1,0,0:0:0:0:
192,192,79459,1,0,0:0:0:0:
320,192,79504,1,0,0:0:0:0:
448,192,79548,1,0,0:0:0:0:
64,192,79593,1,0,0:0:0:0:
192,192,79593,1,0,0:0:0:0:
320,192,79637,1,0,0:0:0:0:
192,192,79682,1,0,0:0:0:0:
64,192,79727,1,0,0:0:0:0:
320,192,79771,1,0,0:0:0:0:
448,192,79771,1,0,0:0:0:0:
192,192,79816,1,0,0:0:0:0:
320,192,79861,1,0,0:0:0:0:
192,192,79905,1,0,0:0:0:0:
64,192,79950,1,0,0:0:0:0:
448,192,79950,1,0,0:0:0:0:
320,192,79995,1,0,0:0:0:0:
448,192,80039,1,0,0:0:0:0:
320,192,80084,1,0,0:0:0:0:
64,192,80129,1,0,0:0:0:0:
192,192,80129,1,0,0:0:0:0:
448,192,80173,1,0,0:0:0:0:
64,192,80218,1,0,0:0:0:0:
448,192,80262,1,0,0:0:0:0:
192,192,80307,1,0,0:0:0:0:
320,192,80307,1,0,0:0:0:0:
64,192,80352,1,0,0:0:0:0:
192,192,80396,1,0,0:0:0:0:
64,192,80441,1,0,0:0:0:0:
320,192,80486,1,0,0:0:0:0:
448,192,80486,1,0,0:0:0:0:
192,192,80530,1,0,0:0:0:0:
320,192,80575,1,0,0:0:0:0:
448,192,80620,1,0,0:0:0:0:
192,192,80664,1,0,0:0:0:0:
320,192,80709,1,0,0:0:0:0:
448,192,80754,1,0,0:0:0:0:
192,192,80798,1,0,0:0:0:0:
320,192,80843,1,0,0:0:0:0:
448,192,80843,1,0,0:0:0:0:
192,192,80887,1,0,0:0:0:0:
64,192,80932,1,0,0:0:0:0:
448,192,80962,1,0,0:0:0:0:
320,192,80977,1,0,0:0:0:0:
192,192,81021,1,0,0:0:0:0:
64,192,81066,1,0,0:0:0:0:
448,192,81081,1,0,0:0:0:0:
320,192,81111,1,0,0:0:0:0:
192,192,81155,1,0,0:0:0:0:
64,192,81200,1,0,0:0:0:0:
320,192,81200,1,0,0:0:0:0:
448,192,81200,1,0,0:0:0:0:
192,192,81245,1,0,0:0:0:0:
64,192,81289,1,0,0:0:0:0:
320,192,81334,1,0,0:0:0:0:
192,192,81379,1,0,0:0:0:0:
64,192,81423,1,0,0:0:0:0:
320,192,81468,1,0,0:0:0:0:
192,192,81512,1,0,0:0:0:0:
64,192,81557,1,0,0:0:0:0:
448,192,81557,1,0,0:0:0:0:
64,192,81646,1,0,0:0:0:0:
448,192,81646,1,0,0:0:0:0:
64,192,81736,1,0,0:0:0:0:
448,192,81736,1,0,0:0:0:0:
64,192,81914,1,0,0:0:0:0:
192,192,81914,1,0,0:0:0:0:
448,192,81914,1,0,0:0:0:0:
64,192,82093,1,0,0:0:0:0:
320,192,82093,1,0,0:0:0:0:
192,192,82137,1,0,0:0:0:0:
320,192,82182,1,0,0:0:0:0:
192,192,82227,1,0,0:0:0:0:
64,192,82271,1,0,0:0:0:0:
320,192,82271,1,0,0:0:0:0:
448,192,82271,1,0,0:0:0:0:
192,192,82450,1,0,0:0:0:0:
448,192,82450,1,0,0:0:0:0:
64,192,82539,1,0,0:0:0:0:
320,192,82539,1,0,0:0:0:0:
64,192,82629,1,0,0:0:0:0:
192,192,82629,1,0,0:0:0:0:
448,192,82629,1,0,0:0:0:0:
320,192,82807,1,0,0:0:0:0:
448,192,82852,1,0,0:0:0:0:
192,192,82896,1,0,0:0:0:0:
320,192,82941,1,0,0:0:0:0:
64,192,82986,1,0,0:0:0:0:
448,192,82986,1,0,0:0:0:0:
64,192,83075,1,0,0:0:0:0:
448,192,83075,1,0,0:0:0:0:
192,192,83164,1,0,0:0:0:0:
320,192,83164,1,0,0:0:0:0:
64,192,83209,1,0,0:0:0:0:
192,192,83254,1,0,0:0:0:0:
64,192,83298,1,0,0:0:0:0:
192,192,83343,1,0,0:0:0:0:
448,192,83343,1,0,0:0:0:0:
192,192,83432,1,0,0:0:0:0:
448,192,83432,1,0,0:0:0:0:
64,192,83521,1,0,0:0:0:0:
320,192,83521,1,0,0:0:0:0:
64,192,83611,1,0,0:0:0:0:
320,192,83611,1,0,0:0:0:0:
192,192,83700,1,0,0:0:0:0:
320,192,83700,1,0,0:0:0:0:
448,192,83700,128,0,84057:0:0:0:0:
64,192,84057,1,0,0:0:0:0:
192,192,84057,128,0,84414:0:0:0:0:
320,192,84057,1,0,0:0:0:0:
64,192,84236,1,0,0:0:0:0:
320,192,84280,1,0,0:0:0:0:
448,192,84325,1,0,0:0:0:0:
320,192,84370,1,0,0:0:0:0:
64,192,84414,128,0,84727:0:0:0:0:
448,192,84414,1,0,0:0:0:0:
192,192,84504,1,0,0:0:0:0:
320,192,84504,1,0,0:0:0:0:
192,192,84593,1,0,0:0:0:0:
448,192,84593,1,0,0:0:0:0:
64,192,84771,128,0,85129:0:0:0:0:
448,192,84771,1,0,0:0:0:0:
448,192,84950,1,0,0:0:0:0:
320,192,84995,1,0,0:0:0:0:
192,192,85039,1,0,0:0:0:0:
448,192,85084,1,0,0:0:0:0:
192,192,85129,1,0,0:0:0:0:
320,192,85129,128,0,85307:0:0:0:0:
64,192,85307,1,0,0:0:0:0:
448,192,85307,128,0,85486:0:0:0:0:
64,192,85486,1,0,0:0:0:0:
192,192,85530,1,0,0:0:0:0:
320,192,85575,1,0,0:0:0:0:
192,192,85620,1,0,0:0:0:0:
320,192,85664,1,0,0:0:0:0:
448,192,85709,1,0,0:0:0:0:
192,192,85754,1,0,0:0:0:0:
64,192,85798,1,0,0:0:0:0:
192,192,85843,1,0,0:0:0:0:
448,192,85843,1,0,0:0:0:0:
64,192,86021,1,0,0:0:0:0:
320,192,86021,1,0,0:0:0:0:
192,192,86111,1,0,0:0:0:0:
320,192,86111,1,0,0:0:0:0:
64,192,86200,128,0,86736:0:0:0:0:
192,192,86200,128,0,86736:0:0:0:0:
448,192,86200,1,0,0:0:0:0:
320,192,86736,1,0,0:0:0:0:
448,192,86736,1,0,0:0:0:0:
192,192,86825,1,0,0:0:0:0:
320,192,86825,1,0,0:0:0:0:
64,192,86914,1,0,0:0:0:0:
320,192,86914,1,0,0:0:0:0:
448,192,86914,1,0,0:0:0:0:
192,192,87004,1,0,0:0:0:0:
192,192,87093,1,0,0:0:0:0:
192,192,87182,1,0,0:0:0:0:
320,192,87271,1,0,0:0:0:0:
448,192,87271,1,0,0:0:0:0:
192,192,87361,1,0,0:0:0:0:
192,192,87450,1,0,0:0:0:0:
64,192,87539,1,0,0:0:0:0:
320,192,87539,1,0,0:0:0:0:
192,192,87629,1,0,0:0:0:0:
448,192,87629,1,0,0:0:0:0:
320,192,87673,1,0,0:0:0:0:
192,192,87718,1,0,0:0:0:0:
448,192,87718,1,0,0:0:0:0:
320,192,87762,1,0,0:0:0:0:
64,192,87807,128,0,87896:0:0:0:0:
192,192,87807,128,0,87896:0:0:0:0:
448,192,87807,128,0,87896:0:0:0:0:
448,192,87986,1,0,0:0:0:0:
192,192,88030,1,0,0:0:0:0:
448,192,88075,1,0,0:0:0:0:
192,192,88120,1,0,0:0:0:0:
64,192,88164,128,0,88254:0:0:0:0:
320,192,88164,128,0,88254:0:0:0:0:
448,192,88164,128,0,88254:0:0:0:0:
192,192,88343,1,0,0:0:0:0:
320,192,88387,1,0,0:0:0:0:
192,192,88432,1,0,0:0:0:0:
320,192,88477,1,0,0:0:0:0:
64,192,88521,1,0,0:0:0:0:
448,192,88521,1,0,0:0:0:0:
448,192,88611,1,0,0:0:0:0:
64,192,88700,1,0,0:0:0:0:
320,192,88700,1,0,0:0:0:0:
192,192,88745,1,0,0:0:0:0:
448,192,88789,1,0,0:0:0:0:
64,192,88834,1,0,0:0:0:0:
320,192,88879,1,0,0:0:0:0:
448,192,88923,1,0,0:0:0:0:
320,192,88968,1,0,0:0:0:0:
192,192,89012,1,0,0:0:0:0:
64,192,89057,1,0,0:0:0:0:
320,192,89057,1,0,0:0:0:0:
448,192,89057,128,0,89236:0:0:0:0:
64,192,89236,1,0,0:0:0:0:
320,192,89236,1,0,0:0:0:0:
64,192,89325,1,0,0:0:0:0:
320,192,89325,1,0,0:0:0:0:
192,192,89414,1,0,0:0:0:0:
320,192,89414,1,0,0:0:0:0:
448,192,89414,1,0,0:0:0:0:
64,192,89504,1,0,0:0:0:0:
448,192,89504,1,0,0:0:0:0:
64,192,89593,1,0,0:0:0:0:
448,192,89593,1,0,0:0:0:0:
64,192,89682,1,0,0:0:0:0:
192,192,89682,1,0,0:0:0:0:
320,192,89682,1,0,0:0:0:0:
320,192,89771,1,0,0:0:0:0:
448,192,89771,1,0,0:0:0:0:
192,192,89861,1,0,0:0:0:0:
448,192,89861,1,0,0:0:0:0:
64,192,89950,1,0,0:0:0:0:
192,192,89950,128,0,90084:0:0:0:0:
320,192,89950,1,0,0:0:0:0:
64,192,90129,1,0,0:0:0:0:
192,192,90129,128,0,90307:0:0:0:0:
320,192,90129,1,0,0:0:0:0:
320,192,90307,1,0,0:0:0:0:
448,192,90307,1,0,0:0:0:0:
64,192,90486,1,0,0:0:0:0:
192,192,90486,128,0,90664:0:0:0:0:
320,192,90486,1,0,0:0:0:0:
320,192,90664,1,0,0:0:0:0:
448,192,90664,1,0,0:0:0:0:
320,192,90754,1,0,0:0:0:0:
448,192,90754,1,0,0:0:0:0:
64,192,90843,1,0,0:0:0:0:
448,192,90843,1,0,0:0:0:0:
192,192,90932,1,0,0:0:0:0:
448,192,90932,1,0,0:0:0:0:
64,192,91021,1,0,0:0:0:0:
192,192,91021,1,0,0:0:0:0:
320,192,91021,1,0,0:0:0:0:
64,192,91111,1,0,0:0:0:0:
448,192,91111,1,0,0:0:0:0:
64,192,91200,1,0,0:0:0:0:
192,192,91200,1,0,0:0:0:0:
192,192,91289,1,0,0:0:0:0:
320,192,91289,1,0,0:0:0:0:
448,192,91289,1,0,0:0:0:0:
64,192,91379,1,0,0:0:0:0:
320,192,91379,1,0,0:0:0:0:
192,192,91423,1,0,0:0:0:0:
64,192,91468,1,0,0:0:0:0:
320,192,91468,1,0,0:0:0:0:
192,192,91512,1,0,0:0:0:0:
64,192,91557,128,0,91646:0:0:0:0:
320,192,91557,128,0,91646:0:0:0:0:
448,192,91557,128,0,91646:0:0:0:0:
64,192,91736,1,0,0:0:0:0:
320,192,91780,1,0,0:0:0:0:
64,192,91825,1,0,0:0:0:0:
320,192,91870,1,0,0:0:0:0:
64,192,91914,128,0,92004:0:0:0:0:
192,192,91914,128,0,92004:0:0:0:0:
448,192,91914,128,0,92004:0:0:0:0:
320,192,92093,128,0,92271:0:0:0:0:
448,192,92093,1,0,0:0:0:0:
64,192,92271,1,0,0:0:0:0:
448,192,92271,1,0,0:0:0:0:
64,192,92361,1,0,0:0:0:0:
448,192,92361,1,0,0:0:0:0:
192,192,92450,128,0,92629:0:0:0:0:
320,192,92450,1,0,0:0:0:0:
448,192,92450,1,0,0:0:0:0:
64,192,92629,128,0,92673:0:0:0:0:
448,192,92629,1,0,0:0:0:0:
192,192,92718,1,0,0:0:0:0:
320,192,92718,1,0,0:0:0:0:
64,192,92807,1,0,0:0:0:0:
320,192,92807,1,0,0:0:0:0:
448,192,92807,128,0,92986:0:0:0:0:
64,192,92986,128,0,93164:0:0:0:0:
192,192,92986,1,0,0:0:0:0:
320,192,92986,1,0,0:0:0:0:
192,192,93164,1,0,0:0:0:0:
320,192,93164,1,0,0:0:0:0:
448,192,93164,1,0,0:0:0:0:
64,192,93254,1,0,0:0:0:0:
320,192,93254,1,0,0:0:0:0:
64,192,93343,1,0,0:0:0:0:
320,192,93343,1,0,0:0:0:0:
64,192,93432,1,0,0:0:0:0:
192,192,93432,1,0,0:0:0:0:
448,192,93432,1,0,0:0:0:0:
64,192,93521,1,0,0:0:0:0:
320,192,93521,1,0,0:0:0:0:
448,192,93521,1,0,0:0:0:0:
192,192,93611,1,0,0:0:0:0:
320,192,93611,1,0,0:0:0:0:
64,192,93700,1,0,0:0:0:0:
192,192,93700,1,0,0:0:0:0:
448,192,93700,128,0,93834:0:0:0:0:
64,192,93879,1,0,0:0:0:0:
192,192,93879,1,0,0:0:0:0:
448,192,93879,128,0,94057:0:0:0:0:
64,192,94057,128,0,94236:0:0:0:0:
192,192,94057,1,0,0:0:0:0:
320,192,94057,1,0,0:0:0:0:
192,192,94236,1,0,0:0:0:0:
320,192,94236,128,0,94280:0:0:0:0:
448,192,94236,128,0,94414:0:0:0:0:
64,192,94414,1,0,0:0:0:0:
192,192,94459,1,0,0:0:0:0:
448,192,94504,1,0,0:0:0:0:
64,192,94548,1,0,0:0:0:0:
448,192,94593,1,0,0:0:0:0:
320,192,94637,1,0,0:0:0:0:
64,192,94682,1,0,0:0:0:0:
192,192,94727,1,0,0:0:0:0:
64,192,94771,1,0,0:0:0:0:
448,192,94771,1,0,0:0:0:0:
320,192,94816,1,0,0:0:0:0:
192,192,94861,1,0,0:0:0:0:
448,192,94905,1,0,0:0:0:0:
64,192,94950,1,0,0:0:0:0:
320,192,94995,1,0,0:0:0:0:
64,192,95039,1,0,0:0:0:0:
192,192,95039,1,0,0:0:0:0:
448,192,95084,1,0,0:0:0:0:
64,192,95129,1,0,0:0:0:0:
320,192,95129,1,0,0:0:0:0:
192,192,95173,1,0,0:0:0:0:
320,192,95218,1,0,0:0:0:0:
192,192,95262,1,0,0:0:0:0:
64,192,95307,1,0,0:0:0:0:
320,192,95307,1,0,0:0:0:0:
448,192,95307,1,0,0:0:0:0:
192,192,95352,1,0,0:0:0:0:
448,192,95396,1,0,0:0:0:0:
64,192,95441,1,0,0:0:0:0:
320,192,95486,1,0,0:0:0:0:
192,192,95530,1,0,0:0:0:0:
448,192,95575,1,0,0:0:0:0:
64,192,95620,1,0,0:0:0:0:
192,192,95664,128,0,95754:0:0:0:0:
320,192,95664,128,0,95754:0:0:0:0:
448,192,95664,128,0,95754:0:0:0:0:
64,192,95843,1,0,0:0:0:0:
192,192,95902,1,0,0:0:0:0:
320,192,95962,1,0,0:0:0:0:
192,192,96021,1,0,0:0:0:0:
320,192,96081,1,0,0:0:0:0:
448,192,96140,1,0,0:0:0:0:
64,192,96200,128,0,96289:0:0:0:0:
192,192,96200,128,0,96289:0:0:0:0:
320,192,96200,128,0,96289:0:0:0:0:
448,192,96379,1,0,0:0:0:0:
192,192,96438,1,0,0:0:0:0:
448,192,96498,1,0,0:0:0:0:
64,192,96557,128,0,96736:0:0:0:0:
192,192,96557,1,0,0:0:0:0:
320,192,96557,1,0,0:0:0:0:
192,192,96736,1,0,0:0:0:0:
320,192,96736,1,0,0:0:0:0:
448,192,96736,128,0,96914:0:0:0:0:
64,192,96914,1,0,0:0:0:0:
192,192,96914,1,0,0:0:0:0:
320,192,96914,1,0,0:0:0:0:
192,192,97004,1,0,0:0:0:0:
448,192,97004,1,0,0:0:0:0:
192,192,97093,1,0,0:0:0:0:
448,192,97093,1,0,0:0:0:0:
64,192,97182,1,0,0:0:0:0:
320,192,97182,1,0,0:0:0:0:
448,192,97182,1,0,0:0:0:0:
64,192,97271,1,0,0:0:0:0:
192,192,97271,1,0,0:0:0:0:
448,192,97271,1,0,0:0:0:0:
192,192,97361,1,0,0:0:0:0:
320,192,97361,1,0,0:0:0:0:
64,192,97450,128,0,97584:0:0:0:0:
320,192,97450,1,0,0:0:0:0:
448,192,97450,1,0,0:0:0:0:
64,192,97629,128,0,97807:0:0:0:0:
320,192,97629,1,0,0:0:0:0:
448,192,97629,1,0,0:0:0:0:
192,192,97807,1,0,0:0:0:0:
320,192,97807,1,0,0:0:0:0:
448,192,97807,128,0,97986:0:0:0:0:
64,192,97986,128,0,98164:0:0:0:0:
192,192,97986,1,0,0:0:0:0:
320,192,97986,1,0,0:0:0:0:
448,192,98164,1,0,0:0:0:0:
320,192,98209,1,0,0:0:0:0:
64,192,98254,1,0,0:0:0:0:
448,192,98298,1,0,0:0:0:0:
64,192,98343,1,0,0:0:0:0:
192,192,98387,1,0,0:0:0:0:
448,192,98432,1,0,0:0:0:0:
320,192,98477,1,0,0:0:0:0:
64,192,98521,1,0,0:0:0:0:
448,192,98521,1,0,0:0:0:0:
192,192,98566,1,0,0:0:0:0:
320,192,98611,1,0,0:0:0:0:
64,192,98655,1,0,0:0:0:0:
448,192,98700,1,0,0:0:0:0:
192,192,98745,1,0,0:0:0:0:
320,192,98789,1,0,0:0:0:0:
448,192,98789,1,0,0:0:0:0:
64,192,98834,1,0,0:0:0:0:
192,192,98879,1,0,0:0:0:0:
448,192,98879,1,0,0:0:0:0:
320,192,98923,1,0,0:0:0:0:
192,192,98968,1,0,0:0:0:0:
320,192,99012,1,0,0:0:0:0:
64,192,99057,1,0,0:0:0:0:
192,192,99057,1,0,0:0:0:0:
448,192,99057,1,0,0:0:0:0:
320,192,99102,1,0,0:0:0:0:
64,192,99146,1,0,0:0:0:0:
448,192,99191,1,0,0:0:0:0:
192,192,99236,1,0,0:0:0:0:
320,192,99280,1,0,0:0:0:0:
64,192,99325,1,0,0:0:0:0:
448,192,99370,1,0,0:0:0:0:
64,192,99414,128,0,99504:0:0:0:0:
192,192,99414,128,0,99504:0:0:0:0:
320,192,99414,128,0,99504:0:0:0:0:
448,192,99593,1,0,0:0:0:0:
320,192,99652,1,0,0:0:0:0:
192,192,99712,1,0,0:0:0:0:
320,192,99771,1,0,0:0:0:0:
192,192,99831,1,0,0:0:0:0:
64,192,99890,1,0,0:0:0:0:
192,192,99950,128,0,100039:0:0:0:0:
320,192,99950,128,0,100039:0:0:0:0:
448,192,99950,128,0,100039:0:0:0:0:
64,192,100129,1,0,0:0:0:0:
320,192,100188,1,0,0:0:0:0:
64,192,100248,1,0,0:0:0:0:
192,192,100307,1,0,0:0:0:0:
320,192,100307,1,0,0:0:0:0:
448,192,100307,128,0,100486:0:0:0:0:
64,192,100486,128,0,100664:0:0:0:0:
192,192,100486,1,0,0:0:0:0:
320,192,100486,1,0,0:0:0:0:
192,192,100664,1,0,0:0:0:0:
320,192,100664,1,0,0:0:0:0:
448,192,100664,1,0,0:0:0:0:
64,192,100754,1,0,0:0:0:0:
320,192,100754,1,0,0:0:0:0:
64,192,100843,1,0,0:0:0:0:
320,192,100843,1,0,0:0:0:0:
64,192,100932,1,0,0:0:0:0:
192,192,100932,1,0,0:0:0:0:
448,192,100932,1,0,0:0:0:0:
64,192,101021,1,0,0:0:0:0:
320,192,101021,1,0,0:0:0:0:
448,192,101021,1,0,0:0:0:0:
192,192,101111,1,0,0:0:0:0:
320,192,101111,1,0,0:0:0:0:
64,192,101200,1,0,0:0:0:0:
192,192,101200,1,0,0:0:0:0:
448,192,101200,128,0,101334:0:0:0:0:
64,192,101379,1,0,0:0:0:0:
192,192,101379,1,0,0:0:0:0:
448,192,101379,128,0,101557:0:0:0:0:
64,192,101557,128,0,101736:0:0:0:0:
192,192,101557,1,0,0:0:0:0:
320,192,101557,1,0,0:0:0:0:
192,192,101736,1,0,0:0:0:0:
448,192,101736,1,0,0:0:0:0:
64,192,101825,1,0,0:0:0:0:
320,192,101825,1,0,0:0:0:0:
64,192,101914,1,0,0:0:0:0:
192,192,101914,128,0,101959:0:0:0:0:
448,192,101914,1,0,0:0:0:0:
64,192,102093,1,0,0:0:0:0:
320,192,102093,1,0,0:0:0:0:
448,192,102093,1,0,0:0:0:0:
192,192,102182,1,0,0:0:0:0:
320,192,102271,1,0,0:0:0:0:
320,192,102361,1,0,0:0:0:0:
64,192,102450,1,0,0:0:0:0:
448,192,102450,1,0,0:0:0:0:
192,192,102539,1,0,0:0:0:0:
192,192,102629,1,0,0:0:0:0:
320,192,102718,128,0,102807:0:0:0:0:
64,192,102807,1,0,0:0:0:0:
192,192,102807,1,0,0:0:0:0:
448,192,102852,1,0,0:0:0:0:
64,192,102896,1,0,0:0:0:0:
192,192,102896,1,0,0:0:0:0:
448,192,102941,1,0,0:0:0:0:
64,192,102986,128,0,103075:0:0:0:0:
192,192,102986,128,0,103075:0:0:0:0:
320,192,102986,128,0,103075:0:0:0:0:
448,192,103164,128,0,103209:0:0:0:0:
320,192,103254,128,0,103298:0:0:0:0:
64,192,103343,128,0,103387:0:0:0:0:
448,192,103432,128,0,103521:0:0:0:0:
64,192,103521,128,0,103700:0:0:0:0:
192,192,103521,1,0,0:0:0:0:
320,192,103521,1,0,0:0:0:0:
192,192,103700,1,0,0:0:0:0:
448,192,103700,1,0,0:0:0:0:
64,192,103789,1,0,0:0:0:0:
320,192,103789,1,0,0:0:0:0:
448,192,103789,1,0,0:0:0:0:
192,192,103879,128,0,104057:0:0:0:0:
448,192,103879,1,0,0:0:0:0:
64,192,104057,1,0,0:0:0:0:
320,192,104057,1,0,0:0:0:0:
64,192,104146,1,0,0:0:0:0:
192,192,104146,1,0,0:0:0:0:
448,192,104146,1,0,0:0:0:0:
64,192,104236,1,0,0:0:0:0:
320,192,104236,1,0,0:0:0:0:
448,192,104258,1,0,0:0:0:0:
192,192,104280,1,0,0:0:0:0:
320,192,104325,1,0,0:0:0:0:
320,192,104414,1,0,0:0:0:0:
192,192,104504,128,0,104548:0:0:0:0:
64,192,104548,1,0,0:0:0:0:
320,192,104593,128,0,104637:0:0:0:0:
192,192,104637,1,0,0:0:0:0:
448,192,104682,128,0,104727:0:0:0:0:
320,192,104727,1,0,0:0:0:0:
64,192,104771,1,0,0:0:0:0:
192,192,104771,1,0,0:0:0:0:
64,192,104861,1,0,0:0:0:0:
320,192,104861,1,0,0:0:0:0:
64,192,104950,1,0,0:0:0:0:
192,192,104950,1,0,0:0:0:0:
448,192,104995,1,0,0:0:0:0:
320,192,105039,1,0,0:0:0:0:
192,192,105084,1,0,0:0:0:0:
448,192,105129,1,0,0:0:0:0:
320,192,105173,1,0,0:0:0:0:
192,192,105218,128,0,105262:0:0:0:0:
64,192,105262,1,0,0:0:0:0:
320,192,105307,128,0,105352:0:0:0:0:
192,192,105352,1,0,0:0:0:0:
64,192,105396,1,0,0:0:0:0:
448,192,105396,128,0,105441:0:0:0:0:
320,192,105441,1,0,0:0:0:0:
64,192,105486,1,0,0:0:0:0:
192,192,105530,1,0,0:0:0:0:
320,192,105575,128,0,105664:0:0:0:0:
64,192,105664,1,0,0:0:0:0:
448,192,105664,1,0,0:0:0:0:
64,192,105754,1,0,0:0:0:0:
320,192,105754,1,0,0:0:0:0:
192,192,105843,1,0,0:0:0:0:
448,192,105843,1,0,0:0:0:0:
64,192,105932,1,0,0:0:0:0:
320,192,105932,1,0,0:0:0:0:
448,192,105932,1,0,0:0:0:0:
192,192,105977,1,0,0:0:0:0:
64,192,106021,1,0,0:0:0:0:
320,192,106066,1,0,0:0:0:0:
192,192,106111,1,0,0:0:0:0:
448,192,106155,1,0,0:0:0:0:
64,192,106200,1,0,0:0:0:0:
320,192,106200,1,0,0:0:0:0:
64,192,106289,1,0,0:0:0:0:
320,192,106289,1,0,0:0:0:0:
64,192,106379,1,0,0:0:0:0:
192,192,106379,1,0,0:0:0:0:
448,192,106379,1,0,0:0:0:0:
448,192,106468,1,0,0:0:0:0:
448,192,106557,1,0,0:0:0:0:
64,192,106646,1,0,0:0:0:0:
320,192,106646,1,0,0:0:0:0:
64,192,106736,1,0,0:0:0:0:
192,192,106736,1,0,0:0:0:0:
448,192,106736,1,0,0:0:0:0:
192,192,106825,1,0,0:0:0:0:
64,192,106914,1,0,0:0:0:0:
320,192,106914,1,0,0:0:0:0:
192,192,107004,1,0,0:0:0:0:
320,192,107004,1,0,0:0:0:0:
448,192,107004,1,0,0:0:0:0:
320,192,107093,1,0,0:0:0:0:
448,192,107093,1,0,0:0:0:0:
64,192,107152,1,0,0:0:0:0:
192,192,107212,1,0,0:0:0:0:
64,192,107271,1,0,0:0:0:0:
320,192,107331,1,0,0:0:0:0:
64,192,107390,1,0,0:0:0:0:
192,192,107450,1,0,0:0:0:0:
448,192,107450,1,0,0:0:0:0:
192,192,107539,1,0,0:0:0:0:
192,192,107629,1,0,0:0:0:0:
64,192,107718,1,0,0:0:0:0:
448,192,107718,1,0,0:0:0:0:
64,192,107807,1,0,0:0:0:0:
320,192,107807,128,0,107986:0:0:0:0:
448,192,107807,1,0,0:0:0:0:
64,192,107986,1,0,0:0:0:0:
192,192,108019,1,0,0:0:0:0:
448,192,108060,1,0,0:0:0:0:
64,192,108097,1,0,0:0:0:0:
320,192,108131,1,0,0:0:0:0:
192,192,108164,1,0,0:0:0:0:
448,192,108164,1,0,0:0:0:0:
64,192,108254,1,0,0:0:0:0:
192,192,108343,1,0,0:0:0:0:
320,192,108343,1,0,0:0:0:0:
448,192,108432,1,0,0:0:0:0:
64,192,108521,1,0,0:0:0:0:
192,192,108521,1,0,0:0:0:0:
320,192,108521,1,0,0:0:0:0:
192,192,108611,1,0,0:0:0:0:
448,192,108611,1,0,0:0:0:0:
64,192,108700,1,0,0:0:0:0:
320,192,108700,1,0,0:0:0:0:
448,192,108700,1,0,0:0:0:0:
64,192,108789,1,0,0:0:0:0:
192,192,108789,1,0,0:0:0:0:
192,192,108879,1,0,0:0:0:0:
320,192,108879,1,0,0:0:0:0:
448,192,108879,1,0,0:0:0:0:
64,192,108968,1,0,0:0:0:0:
320,192,108968,1,0,0:0:0:0:
64,192,109057,128,0,109236:0:0:0:0:
192,192,109057,128,0,109236:0:0:0:0:
448,192,109057,1,0,0:0:0:0:
320,192,109236,1,0,0:0:0:0:
448,192,109236,1,0,0:0:0:0:
320,192,109325,1,0,0:0:0:0:
448,192,109325,1,0,0:0:0:0:
64,192,109414,128,0,109504:0:0:0:0:
448,192,109414,1,0,0:0:0:0:
192,192,109504,128,0,109593:0:0:0:0:
320,192,109593,1,0,0:0:0:0:
448,192,109593,1,0,0:0:0:0:
320,192,109682,1,0,0:0:0:0:
192,192,109771,128,0,109861:0:0:0:0:
448,192,109771,1,0,0:0:0:0:
320,192,109861,128,0,109950:0:0:0:0:
64,192,109950,1,0,0:0:0:0:
448,192,109950,128,0,110129:0:0:0:0:
64,192,110039,1,0,0:0:0:0:
64,192,110129,1,0,0:0:0:0:
192,192,110162,1,0,0:0:0:0:
320,192,110195,1,0,0:0:0:0:
192,192,110240,1,0,0:0:0:0:
320,192,110274,1,0,0:0:0:0:
64,192,110307,1,0,0:0:0:0:
448,192,110307,1,0,0:0:0:0:
192,192,110396,1,0,0:0:0:0:
64,192,110486,1,0,0:0:0:0:
448,192,110486,1,0,0:0:0:0:
320,192,110575,1,0,0:0:0:0:
64,192,110664,1,0,0:0:0:0:
192,192,110664,1,0,0:0:0:0:
448,192,110664,128,0,110843:0:0:0:0:
320,192,110843,1,0,0:0:0:0:
192,192,110887,1,0,0:0:0:0:
64,192,110932,1,0,0:0:0:0:
320,192,110977,1,0,0:0:0:0:
64,192,111021,1,0,0:0:0:0:
192,192,111021,1,0,0:0:0:0:
448,192,111021,1,0,0:0:0:0:
320,192,111111,1,0,0:0:0:0:
448,192,111111,1,0,0:0:0:0:
64,192,111200,1,0,0:0:0:0:
192,192,111200,1,0,0:0:0:0:
320,192,111200,1,0,0:0:0:0:
64,192,111289,1,0,0:0:0:0:
192,192,111289,1,0,0:0:0:0:
64,192,111379,1,0,0:0:0:0:
320,192,111379,1,0,0:0:0:0:
448,192,111379,1,0,0:0:0:0:
320,192,111468,1,0,0:0:0:0:
64,192,111557,1,0,0:0:0:0:
192,192,111557,1,0,0:0:0:0:
448,192,111557,1,0,0:0:0:0:
192,192,111646,1,0,0:0:0:0:
64,192,111736,1,0,0:0:0:0:
320,192,111736,1,0,0:0:0:0:
448,192,111736,1,0,0:0:0:0:
64,192,111825,1,0,0:0:0:0:
192,192,111914,1,0,0:0:0:0:
320,192,111914,1,0,0:0:0:0:
448,192,111914,1,0,0:0:0:0:
64,192,112004,1,0,0:0:0:0:
320,192,112004,1,0,0:0:0:0:
64,192,112093,1,0,0:0:0:0:
448,192,112093,1,0,0:0:0:0:
192,192,112093,1,0,0:0:0:0:
320,192,112182,1,0,0:0:0:0:
448,192,112271,1,0,0:0:0:0:
192,192,112331,1,0,0:0:0:0:
320,192,112390,1,0,0:0:0:0:
64,192,112450,1,0,0:0:0:0:
448,192,112450,1,0,0:0:0:0:
192,192,112539,1,0,0:0:0:0:
64,192,112629,1,0,0:0:0:0:
320,192,112629,1,0,0:0:0:0:
448,192,112629,1,0,0:0:0:0:
320,192,112718,1,0,0:0:0:0:
64,192,112807,1,0,0:0:0:0:
192,192,112807,128,0,112896:0:0:0:0:
448,192,112807,1,0,0:0:0:0:
320,192,112896,128,0,112986:0:0:0:0:
448,192,112986,128,0,113075:0:0:0:0:
320,192,113075,128,0,113164:0:0:0:0:
64,192,113164,1,0,0:0:0:0:
192,192,113164,1,0,0:0:0:0:
320,192,113254,1,0,0:0:0:0:
64,192,113343,1,0,0:0:0:0:
320,192,113343,1,0,0:0:0:0:
192,192,113432,1,0,0:0:0:0:
448,192,113432,1,0,0:0:0:0:
64,192,113521,1,0,0:0:0:0:
448,192,113521,1,0,0:0:0:0:
192,192,113566,1,0,0:0:0:0:
64,192,113611,1,0,0:0:0:0:
320,192,113611,1,0,0:0:0:0:
192,192,113655,1,0,0:0:0:0:
64,192,113700,1,0,0:0:0:0:
448,192,113700,1,0,0:0:0:0:
192,192,113745,1,0,0:0:0:0:
64,192,113789,1,0,0:0:0:0:
320,192,113789,1,0,0:0:0:0:
192,192,113834,1,0,0:0:0:0:
320,192,113879,1,0,0:0:0:0:
448,192,113879,1,0,0:0:0:0:
64,192,113923,1,0,0:0:0:0:
192,192,113968,1,0,0:0:0:0:
448,192,113968,1,0,0:0:0:0:
320,192,114012,1,0,0:0:0:0:
64,192,114057,1,0,0:0:0:0:
192,192,114057,1,0,0:0:0:0:
448,192,114102,1,0,0:0:0:0:
64,192,114146,1,0,0:0:0:0:
320,192,114146,1,0,0:0:0:0:
192,192,114191,1,0,0:0:0:0:
320,192,114236,1,0,0:0:0:0:
448,192,114236,1,0,0:0:0:0:
64,192,114280,1,0,0:0:0:0:
192,192,114325,1,0,0:0:0:0:
320,192,114325,1,0,0:0:0:0:
448,192,114370,1,0,0:0:0:0:
64,192,114414,1,0,0:0:0:0:
192,192,114414,1,0,0:0:0:0:
320,192,114459,1,0,0:0:0:0:
192,192,114504,1,0,0:0:0:0:
448,192,114504,1,0,0:0:0:0:
64,192,114548,1,0,0:0:0:0:
320,192,114593,1,0,0:0:0:0:
192,192,114682,1,0,0:0:0:0:
320,192,114771,1,0,0:0:0:0:
448,192,114771,1,0,0:0:0:0:
320,192,114861,1,0,0:0:0:0:
448,192,114861,1,0,0:0:0:0:
64,192,114950,1,0,0:0:0:0:
192,192,114950,1,0,0:0:0:0:
448,192,114950,1,0,0:0:0:0:
320,192,115039,1,0,0:0:0:0:
192,192,115129,1,0,0:0:0:0:
320,192,115188,1,0,0:0:0:0:
448,192,115248,1,0,0:0:0:0:
64,192,115307,1,0,0:0:0:0:
320,192,115307,1,0,0:0:0:0:
192,192,115396,1,0,0:0:0:0:
448,192,115396,1,0,0:0:0:0:
320,192,115486,1,0,0:0:0:0:
448,192,115486,1,0,0:0:0:0:
64,192,115575,1,0,0:0:0:0:
192,192,115575,1,0,0:0:0:0:
64,192,115664,1,0,0:0:0:0:
320,192,115664,1,0,0:0:0:0:
448,192,115664,1,0,0:0:0:0:
192,192,115754,1,0,0:0:0:0:
448,192,115754,1,0,0:0:0:0:
192,192,115843,1,0,0:0:0:0:
320,192,115843,1,0,0:0:0:0:
64,192,115932,1,0,0:0:0:0:
320,192,115932,1,0,0:0:0:0:
64,192,116021,1,0,0:0:0:0:
192,192,116021,1,0,0:0:0:0:
448,192,116021,128,0,116379:0:0:0:0:
192,192,116111,1,0,0:0:0:0:
192,192,116200,1,0,0:0:0:0:
192,192,116289,1,0,0:0:0:0:
64,192,116379,1,0,0:0:0:0:
320,192,116379,1,0,0:0:0:0:
192,192,116423,1,0,0:0:0:0:
320,192,116468,1,0,0:0:0:0:
448,192,116468,1,0,0:0:0:0:
64,192,116512,1,0,0:0:0:0:
192,192,116557,1,0,0:0:0:0:
448,192,116557,1,0,0:0:0:0:
320,192,116602,1,0,0:0:0:0:
64,192,116646,1,0,0:0:0:0:
192,192,116646,1,0,0:0:0:0:
448,192,116691,1,0,0:0:0:0:
64,192,116736,1,0,0:0:0:0:
320,192,116736,1,0,0:0:0:0:
192,192,116780,1,0,0:0:0:0:
448,192,116825,1,0,0:0:0:0:
192,192,116870,1,0,0:0:0:0:
320,192,116914,1,0,0:0:0:0:
448,192,116914,1,0,0:0:0:0:
64,192,116959,1,0,0:0:0:0:
320,192,117004,1,0,0:0:0:0:
64,192,117048,1,0,0:0:0:0:
192,192,117093,1,0,0:0:0:0:
448,192,117093,1,0,0:0:0:0:
320,192,117137,1,0,0:0:0:0:
64,192,117182,1,0,0:0:0:0:
192,192,117227,1,0,0:0:0:0:
320,192,117271,1,0,0:0:0:0:
448,192,117271,1,0,0:0:0:0:
192,192,117316,1,0,0:0:0:0:
64,192,117361,1,0,0:0:0:0:
448,192,117405,1,0,0:0:0:0:
64,192,117450,1,0,0:0:0:0:
192,192,117450,1,0,0:0:0:0:
320,192,117450,128,0,117629:0:0:0:0:
192,192,117629,1,0,0:0:0:0:
448,192,117629,1,0,0:0:0:0:
192,192,117718,1,0,0:0:0:0:
448,192,117718,1,0,0:0:0:0:
64,192,117807,1,0,0:0:0:0:
320,192,117807,1,0,0:0:0:0:
448,192,117807,1,0,0:0:0:0:
192,192,117896,1,0,0:0:0:0:
320,192,117986,1,0,0:0:0:0:
448,192,117986,1,0,0:0:0:0:
64,192,118075,1,0,0:0:0:0:
320,192,118164,1,0,0:0:0:0:
448,192,118164,1,0,0:0:0:0:
64,192,118254,1,0,0:0:0:0:
320,192,118254,1,0,0:0:0:0:
192,192,118343,1,0,0:0:0:0:
448,192,118343,1,0,0:0:0:0:
320,192,118432,1,0,0:0:0:0:
192,192,118521,1,0,0:0:0:0:
448,192,118521,1,0,0:0:0:0:
320,192,118611,1,0,0:0:0:0:
448,192,118611,1,0,0:0:0:0:
64,192,118700,1,0,0:0:0:0:
192,192,118700,1,0,0:0:0:0:
64,192,118789,1,0,0:0:0:0:
448,192,118789,1,0,0:0:0:0:
64,192,118879,1,0,0:0:0:0:
448,192,118879,1,0,0:0:0:0:
64,192,118968,1,0,0:0:0:0:
448,192,118968,1,0,0:0:0:0:
64,192,119057,1,0,0:0:0:0:
448,192,119057,1,0,0:0:0:0:
320,192,119102,1,0,0:0:0:0:
192,192,119146,1,0,0:0:0:0:
320,192,119191,1,0,0:0:0:0:
64,192,119236,1,0,0:0:0:0:
192,192,119236,1,0,0:0:0:0:
448,192,119236,1,0,0:0:0:0:
320,192,119325,1,0,0:0:0:0:
448,192,119325,1,0,0:0:0:0:
192,192,119414,1,0,0:0:0:0:
64,192,119504,1,0,0:0:0:0:
192,192,119504,1,0,0:0:0:0:
320,192,119593,1,0,0:0:0:0:
448,192,119593,1,0,0:0:0:0:
64,192,119682,1,0,0:0:0:0:
192,192,119771,1,0,0:0:0:0:
320,192,119771,1,0,0:0:0:0:
448,192,119861,1,0,0:0:0:0:
64,192,119950,1,0,0:0:0:0:
192,192,119950,1,0,0:0:0:0:
320,192,119950,1,0,0:0:0:0:
448,192,120039,1,0,0:0:0:0:
64,192,120129,1,0,0:0:0:0:
320,192,120129,1,0,0:0:0:0:
192,192,120218,1,0,0:0:0:0:
64,192,120307,1,0,0:0:0:0:
448,192,120307,1,0,0:0:0:0:
320,192,120352,1,0,0:0:0:0:
192,192,120396,1,0,0:0:0:0:
320,192,120441,1,0,0:0:0:0:
64,192,120486,1,0,0:0:0:0:
448,192,120530,1,0,0:0:0:0:
192,192,120575,1,0,0:0:0:0:
64,192,120620,1,0,0:0:0:0:
192,192,120664,1,0,0:0:0:0:
320,192,120664,1,0,0:0:0:0:
448,192,120664,1,0,0:0:0:0:
64,192,120754,1,0,0:0:0:0:
448,192,120754,1,0,0:0:0:0:
192,192,120843,1,0,0:0:0:0:
320,192,120843,1,0,0:0:0:0:
64,192,120887,1,0,0:0:0:0:
192,192,120932,1,0,0:0:0:0:
448,192,120932,1,0,0:0:0:0:
320,192,121021,1,0,0:0:0:0:
64,192,121111,1,0,0:0:0:0:
192,192,121111,1,0,0:0:0:0:
192,192,121200,1,0,0:0:0:0:
320,192,121200,1,0,0:0:0:0:
448,192,121245,1,0,0:0:0:0:
64,192,121289,1,0,0:0:0:0:
320,192,121289,1,0,0:0:0:0:
192,192,121379,1,0,0:0:0:0:
320,192,121468,1,0,0:0:0:0:
448,192,121468,1,0,0:0:0:0:
64,192,121557,1,0,0:0:0:0:
320,192,121646,1,0,0:0:0:0:
448,192,121646,1,0,0:0:0:0:
192,192,121736,1,0,0:0:0:0:
320,192,121736,1,0,0:0:0:0:
64,192,121780,1,0,0:0:0:0:
192,192,121825,1,0,0:0:0:0:
448,192,121825,1,0,0:0:0:0:
192,192,121914,1,0,0:0:0:0:
320,192,121914,1,0,0:0:0:0:
448,192,121959,1,0,0:0:0:0:
64,192,122004,1,0,0:0:0:0:
320,192,122004,1,0,0:0:0:0:
192,192,122093,1,0,0:0:0:0:
448,192,122093,1,0,0:0:0:0:
320,192,122137,1,0,0:0:0:0:
192,192,122182,1,0,0:0:0:0:
448,192,122182,1,0,0:0:0:0:
64,192,122227,1,0,0:0:0:0:
320,192,122271,1,0,0:0:0:0:
448,192,122271,1,0,0:0:0:0:
64,192,122316,1,0,0:0:0:0:
192,192,122361,1,0,0:0:0:0:
320,192,122361,1,0,0:0:0:0:
448,192,122405,1,0,0:0:0:0:
64,192,122450,1,0,0:0:0:0:
192,192,122450,1,0,0:0:0:0:
448,192,122495,1,0,0:0:0:0:
64,192,122539,1,0,0:0:0:0:
192,192,122539,1,0,0:0:0:0:
320,192,122584,1,0,0:0:0:0:
64,192,122629,1,0,0:0:0:0:
448,192,122629,1,0,0:0:0:0:
192,192,122673,1,0,0:0:0:0:
320,192,122718,1,0,0:0:0:0:
448,192,122718,1,0,0:0:0:0:
64,192,122762,1,0,0:0:0:0:
192,192,122807,1,0,0:0:0:0:
320,192,122807,1,0,0:0:0:0:
448,192,122807,1,0,0:0:0:0:
64,192,122852,1,0,0:0:0:0:
192,192,122896,1,0,0:0:0:0:
448,192,122941,1,0,0:0:0:0:
320,192,122986,1,0,0:0:0:0:
192,192,123030,1,0,0:0:0:0:
64,192,123075,1,0,0:0:0:0:
192,192,123120,1,0,0:0:0:0:
320,192,123164,1,0,0:0:0:0:
448,192,123164,1,0,0:0:0:0:
64,192,123209,1,0,0:0:0:0:
192,192,123254,1,0,0:0:0:0:
448,192,123298,1,0,0:0:0:0:
64,192,123343,1,0,0:0:0:0:
192,192,123387,1,0,0:0:0:0:
320,192,123432,1,0,0:0:0:0:
192,192,123477,1,0,0:0:0:0:
64,192,123521,1,0,0:0:0:0:
320,192,123521,1,0,0:0:0:0:
448,192,123521,1,0,0:0:0:0:
192,192,123566,1,0,0:0:0:0:
320,192,123611,1,0,0:0:0:0:
448,192,123611,1,0,0:0:0:0:
64,192,123655,1,0,0:0:0:0:
192,192,123700,1,0,0:0:0:0:
448,192,123700,1,0,0:0:0:0:
320,192,123745,1,0,0:0:0:0:
64,192,123789,1,0,0:0:0:0:
192,192,123789,1,0,0:0:0:0:
448,192,123834,1,0,0:0:0:0:
64,192,123879,1,0,0:0:0:0:
320,192,123879,1,0,0:0:0:0:
192,192,123923,1,0,0:0:0:0:
320,192,123968,1,0,0:0:0:0:
448,192,123968,1,0,0:0:0:0:
64,192,124012,1,0,0:0:0:0:
192,192,124057,1,0,0:0:0:0:
320,192,124057,1,0,0:0:0:0:
64,192,124102,1,0,0:0:0:0:
192,192,124146,1,0,0:0:0:0:
448,192,124146,1,0,0:0:0:0:
320,192,124191,1,0,0:0:0:0:
64,192,124236,1,0,0:0:0:0:
192,192,124236,1,0,0:0:0:0:
320,192,124280,1,0,0:0:0:0:
64,192,124325,1,0,0:0:0:0:
448,192,124325,1,0,0:0:0:0:
192,192,124370,1,0,0:0:0:0:
320,192,124414,1,0,0:0:0:0:
448,192,124414,1,0,0:0:0:0:
64,192,124459,1,0,0:0:0:0:
192,192,124504,1,0,0:0:0:0:
448,192,124504,1,0,0:0:0:0:
320,192,124548,1,0,0:0:0:0:
64,192,124593,1,0,0:0:0:0:
192,192,124593,1,0,0:0:0:0:
448,192,124637,1,0,0:0:0:0:
64,192,124682,1,0,0:0:0:0:
320,192,124682,1,0,0:0:0:0:
192,192,124727,1,0,0:0:0:0:
320,192,124771,1,0,0:0:0:0:
448,192,124771,1,0,0:0:0:0:
64,192,124816,1,0,0:0:0:0:
192,192,124861,1,0,0:0:0:0:
320,192,124861,1,0,0:0:0:0:
448,192,124905,1,0,0:0:0:0:
64,192,124950,1,0,0:0:0:0:
320,192,124950,1,0,0:0:0:0:
192,192,124995,1,0,0:0:0:0:
64,192,125039,1,0,0:0:0:0:
448,192,125039,1,0,0:0:0:0:
192,192,125084,1,0,0:0:0:0:
64,192,125129,1,0,0:0:0:0:
320,192,125129,1,0,0:0:0:0:
448,192,125173,1,0,0:0:0:0:
192,192,125218,1,0,0:0:0:0:
320,192,125218,1,0,0:0:0:0:
64,192,125262,1,0,0:0:0:0:
192,192,125307,1,0,0:0:0:0:
448,192,125307,1,0,0:0:0:0:
320,192,125352,1,0,0:0:0:0:
64,192,125396,1,0,0:0:0:0:
448,192,125396,1,0,0:0:0:0:
192,192,125441,1,0,0:0:0:0:
64,192,125486,1,0,0:0:0:0:
320,192,125486,1,0,0:0:0:0:
448,192,125530,1,0,0:0:0:0:
192,192,125575,1,0,0:0:0:0:
320,192,125575,1,0,0:0:0:0:
64,192,125620,1,0,0:0:0:0:
192,192,125664,1,0,0:0:0:0:
448,192,125664,1,0,0:0:0:0:
320,192,125709,1,0,0:0:0:0:
64,192,125754,1,0,0:0:0:0:
448,192,125754,1,0,0:0:0:0:
320,192,125798,1,0,0:0:0:0:
192,192,125843,1,0,0:0:0:0:
448,192,125843,1,0,0:0:0:0:
64,192,125887,1,0,0:0:0:0:
320,192,125932,1,0,0:0:0:0:
448,192,125932,1,0,0:0:0:0:
192,192,125977,1,0,0:0:0:0:
64,192,126021,1,0,0:0:0:0:
320,192,126021,1,0,0:0:0:0:
448,192,126021,128,0,126200:0:0:0:0:
64,192,126200,1,0,0:0:0:0:
192,192,126200,1,0,0:0:0:0:
320,192,126200,1,0,0:0:0:0:
64,192,126289,1,0,0:0:0:0:
192,192,126289,1,0,0:0:0:0:
320,192,126289,1,0,0:0:0:0:
64,192,126379,1,0,0:0:0:0:
192,192,126379,1,0,0:0:0:0:
448,192,126379,1,0,0:0:0:0:
320,192,126423,1,0,0:0:0:0:
64,192,126468,1,0,0:0:0:0:
192,192,126468,1,0,0:0:0:0:
448,192,126512,1,0,0:0:0:0:
64,192,126557,1,0,0:0:0:0:
320,192,126557,1,0,0:0:0:0:
192,192,126602,1,0,0:0:0:0:
320,192,126646,1,0,0:0:0:0:
448,192,126646,1,0,0:0:0:0:
64,192,126691,1,0,0:0:0:0:
192,192,126736,1,0,0:0:0:0:
448,192,126736,1,0,0:0:0:0:
320,192,126780,1,0,0:0:0:0:
64,192,126825,1,0,0:0:0:0:
192,192,126825,1,0,0:0:0:0:
448,192,126870,1,0,0:0:0:0:
192,192,126914,1,0,0:0:0:0:
320,192,126914,1,0,0:0:0:0:
448,192,126959,1,0,0:0:0:0:
64,192,127004,1,0,0:0:0:0:
320,192,127004,1,0,0:0:0:0:
192,192,127048,1,0,0:0:0:0:
320,192,127093,1,0,0:0:0:0:
448,192,127093,1,0,0:0:0:0:
192,192,127137,1,0,0:0:0:0:
64,192,127182,1,0,0:0:0:0:
448,192,127182,1,0,0:0:0:0:
320,192,127227,1,0,0:0:0:0:
64,192,127271,1,0,0:0:0:0:
192,192,127271,1,0,0:0:0:0:
448,192,127316,1,0,0:0:0:0:
64,192,127361,1,0,0:0:0:0:
320,192,127361,1,0,0:0:0:0:
192,192,127405,1,0,0:0:0:0:
320,192,127450,1,0,0:0:0:0:
448,192,127450,1,0,0:0:0:0:
64,192,127495,1,0,0:0:0:0:
192,192,127539,1,0,0:0:0:0:
448,192,127539,1,0,0:0:0:0:
320,192,127584,1,0,0:0:0:0:
64,192,127629,1,0,0:0:0:0:
192,192,127629,1,0,0:0:0:0:
448,192,127673,1,0,0:0:0:0:
192,192,127718,1,0,0:0:0:0:
320,192,127718,1,0,0:0:0:0:
64,192,127762,1,0,0:0:0:0:
192,192,127807,1,0,0:0:0:0:
448,192,127807,1,0,0:0:0:0:
320,192,127852,1,0,0:0:0:0:
64,192,127896,1,0,0:0:0:0:
448,192,127896,1,0,0:0:0:0:
320,192,127941,1,0,0:0:0:0:
192,192,127986,1,0,0:0:0:0:
448,192,127986,1,0,0:0:0:0:
64,192,128030,1,0,0:0:0:0:
192,192,128075,1,0,0:0:0:0:
320,192,128075,1,0,0:0:0:0:
448,192,128120,1,0,0:0:0:0:
64,192,128164,1,0,0:0:0:0:
320,192,128164,1,0,0:0:0:0:
192,192,128209,1,0,0:0:0:0:
64,192,128254,1,0,0:0:0:0:
448,192,128254,1,0,0:0:0:0:
320,192,128298,1,0,0:0:0:0:
192,192,128343,1,0,0:0:0:0:
448,192,128343,1,0,0:0:0:0:
64,192,128387,1,0,0:0:0:0:
192,192,128432,1,0,0:0:0:0:
320,192,128432,1,0,0:0:0:0:
448,192,128477,1,0,0:0:0:0:
64,192,128521,1,0,0:0:0:0:
320,192,128521,1,0,0:0:0:0:
192,192,128566,1,0,0:0:0:0:
64,192,128611,1,0,0:0:0:0:
448,192,128611,1,0,0:0:0:0:
192,192,128655,1,0,0:0:0:0:
64,192,128700,1,0,0:0:0:0:
320,192,128700,1,0,0:0:0:0:
448,192,128745,1,0,0:0:0:0:
64,192,128789,1,0,0:0:0:0:
192,192,128789,1,0,0:0:0:0:
320,192,128834,1,0,0:0:0:0:
192,192,128879,1,0,0:0:0:0:
448,192,128879,1,0,0:0:0:0:
64,192,128923,1,0,0:0:0:0:
320,192,128968,1,0,0:0:0:0:
448,192,128968,1,0,0:0:0:0:
192,192,129012,1,0,0:0:0:0:
64,192,129057,1,0,0:0:0:0:
448,192,129057,1,0,0:0:0:0:
192,192,129102,1,0,0:0:0:0:
320,192,129146,1,0,0:0:0:0:
448,192,129146,1,0,0:0:0:0:
64,192,129191,1,0,0:0:0:0:
192,192,129236,1,0,0:0:0:0:
448,192,129236,1,0,0:0:0:0:
320,192,129280,1,0,0:0:0:0:
192,192,129325,1,0,0:0:0:0:
64,192,129370,1,0,0:0:0:0:
448,192,129414,128,0,129459:0:0:0:0:
192,192,129459,1,0,0:0:0:0:
320,192,129504,1,0,0:0:0:0:
192,192,129548,1,0,0:0:0:0:
64,192,129593,128,0,129771:0:0:0:0:
320,192,129593,1,0,0:0:0:0:
448,192,129593,128,0,129771:0:0:0:0:
192,192,129771,1,0,0:0:0:0:
320,192,129771,1,0,0:0:0:0:
64,192,129861,1,0,0:0:0:0:
320,192,129861,1,0,0:0:0:0:
64,192,129950,1,0,0:0:0:0:
192,192,129950,1,0,0:0:0:0:
448,192,129950,1,0,0:0:0:0:
320,192,129995,1,0,0:0:0:0:
192,192,130039,1,0,0:0:0:0:
448,192,130084,1,0,0:0:0:0:
64,192,130129,1,0,0:0:0:0:
192,192,130173,1,0,0:0:0:0:
320,192,130218,1,0,0:0:0:0:
64,192,130262,1,0,0:0:0:0:
192,192,130307,1,0,0:0:0:0:
448,192,130307,1,0,0:0:0:0:
320,192,130352,1,0,0:0:0:0:
64,192,130396,1,0,0:0:0:0:
192,192,130441,1,0,0:0:0:0:
320,192,130486,1,0,0:0:0:0:
448,192,130530,1,0,0:0:0:0:
320,192,130575,1,0,0:0:0:0:
64,192,130620,1,0,0:0:0:0:
192,192,130664,1,0,0:0:0:0:
448,192,130679,1,0,0:0:0:0:
320,192,130709,1,0,0:0:0:0:
64,192,130754,1,0,0:0:0:0:
320,192,130798,1,0,0:0:0:0:
192,192,130843,1,0,0:0:0:0:
448,192,130858,1,0,0:0:0:0:
320,192,130887,1,0,0:0:0:0:
64,192,130932,1,0,0:0:0:0:
448,192,130977,1,0,0:0:0:0:
192,192,131021,1,0,0:0:0:0:
320,192,131021,1,0,0:0:0:0:
64,192,131066,1,0,0:0:0:0:
320,192,131111,1,0,0:0:0:0:
192,192,131155,1,0,0:0:0:0:
320,192,131200,1,0,0:0:0:0:
448,192,131245,1,0,0:0:0:0:
320,192,131289,1,0,0:0:0:0:
192,192,131334,1,0,0:0:0:0:
64,192,131379,1,0,0:0:0:0:
448,192,131379,1,0,0:0:0:0:
320,192,131408,1,0,0:0:0:0:
192,192,131438,1,0,0:0:0:0:
448,192,131468,1,0,0:0:0:0:
64,192,131512,1,0,0:0:0:0:
192,192,131557,1,0,0:0:0:0:
320,192,131602,1,0,0:0:0:0:
448,192,131646,1,0,0:0:0:0:
192,192,131676,1,0,0:0:0:0:
320,192,131706,1,0,0:0:0:0:
64,192,131736,1,0,0:0:0:0:
448,192,131736,1,0,0:0:0:0:
192,192,131780,1,0,0:0:0:0:
320,192,131825,1,0,0:0:0:0:
64,192,131855,1,0,0:0:0:0:
448,192,131884,1,0,0:0:0:0:
320,192,131914,1,0,0:0:0:0:
64,192,131959,1,0,0:0:0:0:
192,192,132004,1,0,0:0:0:0:
320,192,132048,1,0,0:0:0:0:
64,192,132093,1,0,0:0:0:0:
192,192,132093,1,0,0:0:0:0:
448,192,132137,1,0,0:0:0:0:
320,192,132182,1,0,0:0:0:0:
192,192,132227,1,0,0:0:0:0:
320,192,132271,1,0,0:0:0:0:
448,192,132316,1,0,0:0:0:0:
64,192,132361,1,0,0:0:0:0:
192,192,132405,1,0,0:0:0:0:
320,192,132450,1,0,0:0:0:0:
448,192,132450,1,0,0:0:0:0:
192,192,132495,1,0,0:0:0:0:
64,192,132539,1,0,0:0:0:0:
320,192,132584,1,0,0:0:0:0:
448,192,132629,1,0,0:0:0:0:
192,192,132673,1,0,0:0:0:0:
320,192,132718,1,0,0:0:0:0:
64,192,132762,1,0,0:0:0:0:
448,192,132807,128,0,132852:0:0:0:0:
320,192,132852,128,0,132896:0:0:0:0:
192,192,132896,128,0,132941:0:0:0:0:
320,192,132986,128,0,133030:0:0:0:0:
64,192,133075,128,0,133164:0:0:0:0:
192,192,133164,128,0,133209:0:0:0:0:
448,192,133164,1,0,0:0:0:0:
320,192,133224,128,0,133268:0:0:0:0:
448,192,133283,128,0,133328:0:0:0:0:
192,192,133343,1,0,0:0:0:0:
320,192,133373,1,0,0:0:0:0:
448,192,133402,1,0,0:0:0:0:
192,192,133432,1,0,0:0:0:0:
320,192,133477,1,0,0:0:0:0:
64,192,133521,1,0,0:0:0:0:
192,192,133551,1,0,0:0:0:0:
320,192,133581,1,0,0:0:0:0:
448,192,133611,1,0,0:0:0:0:
192,192,133655,1,0,0:0:0:0:
320,192,133700,1,0,0:0:0:0:
64,192,133745,1,0,0:0:0:0:
448,192,133789,1,0,0:0:0:0:
192,192,133819,1,0,0:0:0:0:
320,192,133849,1,0,0:0:0:0:
64,192,133879,1,0,0:0:0:0:
448,192,133879,1,0,0:0:0:0:
192,192,133923,1,0,0:0:0:0:
320,192,133968,1,0,0:0:0:0:
192,192,134012,1,0,0:0:0:0:
448,192,134057,1,0,0:0:0:0:
64,192,134102,1,0,0:0:0:0:
448,192,134146,1,0,0:0:0:0:
192,192,134176,1,0,0:0:0:0:
320,192,134206,1,0,0:0:0:0:
64,192,134236,1,0,0:0:0:0:
192,192,134265,1,0,0:0:0:0:
448,192,134295,1,0,0:0:0:0:
320,192,134325,1,0,0:0:0:0:
192,192,134370,1,0,0:0:0:0:
64,192,134414,1,0,0:0:0:0:
320,192,134444,1,0,0:0:0:0:
448,192,134474,1,0,0:0:0:0:
192,192,134504,1,0,0:0:0:0:
320,192,134548,1,0,0:0:0:0:
192,192,134593,1,0,0:0:0:0:
448,192,134593,1,0,0:0:0:0:
64,192,134623,1,0,0:0:0:0:
320,192,134652,1,0,0:0:0:0:
192,192,134682,1,0,0:0:0:0:
448,192,134727,1,0,0:0:0:0:
320,192,134771,1,0,0:0:0:0:
192,192,134816,1,0,0:0:0:0:
320,192,134861,1,0,0:0:0:0:
192,192,134905,1,0,0:0:0:0:
64,192,134950,1,0,0:0:0:0:
320,192,134983,1,0,0:0:0:0:
192,192,135024,1,0,0:0:0:0:
448,192,135062,1,0,0:0:0:0:
320,192,135095,1,0,0:0:0:0:
64,192,135129,1,0,0:0:0:0:
448,192,135162,1,0,0:0:0:0:
192,192,135195,1,0,0:0:0:0:
320,192,135240,1,0,0:0:0:0:
64,192,135274,1,0,0:0:0:0:
192,192,135307,1,0,0:0:0:0:
448,192,135307,1,0,0:0:0:0:
320,192,135341,1,0,0:0:0:0:
64,192,135381,1,0,0:0:0:0:
448,192,135419,1,0,0:0:0:0:
192,192,135452,1,0,0:0:0:0:
320,192,135486,1,0,0:0:0:0:
448,192,135519,1,0,0:0:0:0:
192,192,135560,1,0,0:0:0:0:
64,192,135597,1,0,0:0:0:0:
320,192,135631,1,0,0:0:0:0:
192,192,135664,128,0,136021:0:0:0:0:
448,192,135664,1,0,0:0:0:0:
320,192,135843,1,0,0:0:0:0:
448,192,136021,1,0,0:0:0:0:
64,192,136111,1,0,0:0:0:0:
320,192,136111,1,0,0:0:0:0:
192,192,136200,128,0,136379:0:0:0:0:
448,192,136200,1,0,0:0:0:0:
64,192,136379,1,0,0:0:0:0:
320,192,136379,1,0,0:0:0:0:
448,192,136379,128,0,136557:0:0:0:0:
192,192,136557,1,0,0:0:0:0:
320,192,136602,1,0,0:0:0:0:
192,192,136646,1,0,0:0:0:0:
320,192,136691,1,0,0:0:0:0:
64,192,136736,1,0,0:0:0:0:
192,192,136736,1,0,0:0:0:0:
448,192,136780,1,0,0:0:0:0:
320,192,136810,1,0,0:0:0:0:
192,192,136847,1,0,0:0:0:0:
64,192,136870,1,0,0:0:0:0:
320,192,136914,1,0,0:0:0:0:
448,192,136914,1,0,0:0:0:0:
64,192,137093,1,0,0:0:0:0:
448,192,137093,128,0,137271:0:0:0:0:
64,192,137271,1,0,0:0:0:0:
320,192,137316,1,0,0:0:0:0:
192,192,137361,1,0,0:0:0:0:
448,192,137405,1,0,0:0:0:0:
64,192,137450,1,0,0:0:0:0:
192,192,137450,1,0,0:0:0:0:
320,192,137495,1,0,0:0:0:0:
192,192,137539,1,0,0:0:0:0:
448,192,137584,1,0,0:0:0:0:
64,192,137629,128,0,137807:0:0:0:0:
192,192,137629,1,0,0:0:0:0:
320,192,137629,1,0,0:0:0:0:
320,192,137807,1,0,0:0:0:0:
64,192,137986,1,0,0:0:0:0:
448,192,137986,1,0,0:0:0:0:
448,192,138075,1,0,0:0:0:0:
320,192,138164,1,0,0:0:0:0:
320,192,138254,1,0,0:0:0:0:
192,192,138343,1,0,0:0:0:0:
448,192,138343,1,0,0:0:0:0:
64,192,138432,1,0,0:0:0:0:
320,192,138432,1,0,0:0:0:0:
192,192,138521,1,0,0:0:0:0:
320,192,138611,1,0,0:0:0:0:
64,192,138700,1,0,0:0:0:0:
192,192,138700,1,0,0:0:0:0:
192,192,138789,1,0,0:0:0:0:
64,192,138879,1,0,0:0:0:0:
448,192,138879,1,0,0:0:0:0:
320,192,138923,1,0,0:0:0:0:
448,192,138968,1,0,0:0:0:0:
320,192,139012,1,0,0:0:0:0:
64,192,139057,1,0,0:0:0:0:
192,192,139057,1,0,0:0:0:0:
320,192,139236,1,0,0:0:0:0:
448,192,139236,1,0,0:0:0:0:
64,192,139414,128,0,139593:0:0:0:0:
192,192,139414,1,0,0:0:0:0:
192,192,139593,1,0,0:0:0:0:
320,192,139593,1,0,0:0:0:0:
448,192,139637,1,0,0:0:0:0:
320,192,139682,1,0,0:0:0:0:
192,192,139727,1,0,0:0:0:0:
320,192,139771,1,0,0:0:0:0:
448,192,139771,1,0,0:0:0:0:
64,192,139816,1,0,0:0:0:0:
192,192,139861,1,0,0:0:0:0:
320,192,139905,1,0,0:0:0:0:
64,192,139950,1,0,0:0:0:0:
192,192,139950,1,0,0:0:0:0:
448,192,139995,1,0,0:0:0:0:
64,192,140039,1,0,0:0:0:0:
448,192,140084,1,0,0:0:0:0:
64,192,140129,1,0,0:0:0:0:
320,192,140129,1,0,0:0:0:0:
192,192,140218,1,0,0:0:0:0:
320,192,140307,1,0,0:0:0:0:
448,192,140307,1,0,0:0:0:0:
192,192,140396,1,0,0:0:0:0:
448,192,140396,1,0,0:0:0:0:
64,192,140486,1,0,0:0:0:0:
192,192,140486,1,0,0:0:0:0:
320,192,140486,1,0,0:0:0:0:
320,192,140575,1,0,0:0:0:0:
448,192,140575,1,0,0:0:0:0:
64,192,140664,128,0,140843:0:0:0:0:
192,192,140664,1,0,0:0:0:0:
448,192,140664,1,0,0:0:0:0:
192,192,140843,128,0,141021:0:0:0:0:
448,192,140843,1,0,0:0:0:0:
448,192,140932,1,0,0:0:0:0:
64,192,141021,1,0,0:0:0:0:
320,192,141021,1,0,0:0:0:0:
448,192,141055,1,0,0:0:0:0:
192,192,141088,1,0,0:0:0:0:
320,192,141126,1,0,0:0:0:0:
64,192,141166,1,0,0:0:0:0:
192,192,141200,1,0,0:0:0:0:
448,192,141200,1,0,0:0:0:0:
192,192,141289,1,0,0:0:0:0:
320,192,141379,1,0,0:0:0:0:
448,192,141379,1,0,0:0:0:0:
192,192,141468,1,0,0:0:0:0:
64,192,141557,1,0,0:0:0:0:
320,192,141557,1,0,0:0:0:0:
448,192,141557,1,0,0:0:0:0:
192,192,141646,1,0,0:0:0:0:
320,192,141646,1,0,0:0:0:0:
64,192,141736,1,0,0:0:0:0:
192,192,141736,128,0,141914:0:0:0:0:
448,192,141736,1,0,0:0:0:0:
64,192,141914,1,0,0:0:0:0:
320,192,141914,128,0,142093:0:0:0:0:
64,192,142004,1,0,0:0:0:0:
192,192,142093,1,0,0:0:0:0:
448,192,142093,1,0,0:0:0:0:
64,192,142137,1,0,0:0:0:0:
192,192,142182,1,0,0:0:0:0:
320,192,142227,1,0,0:0:0:0:
64,192,142271,1,0,0:0:0:0:
448,192,142271,1,0,0:0:0:0:
192,192,142361,1,0,0:0:0:0:
64,192,142450,1,0,0:0:0:0:
448,192,142450,1,0,0:0:0:0:
320,192,142539,1,0,0:0:0:0:
64,192,142629,1,0,0:0:0:0:
192,192,142629,1,0,0:0:0:0:
448,192,142629,1,0,0:0:0:0:
192,192,142718,1,0,0:0:0:0:
320,192,142718,1,0,0:0:0:0:
64,192,142807,1,0,0:0:0:0:
320,192,142807,1,0,0:0:0:0:
448,192,142807,128,0,142986:0:0:0:0:
64,192,142896,1,0,0:0:0:0:
192,192,142986,128,0,143164:0:0:0:0:
320,192,142986,1,0,0:0:0:0:
320,192,143075,1,0,0:0:0:0:
64,192,143164,1,0,0:0:0:0:
448,192,143164,128,0,143343:0:0:0:0:
320,192,143254,1,0,0:0:0:0:
64,192,143343,1,0,0:0:0:0:
192,192,143343,1,0,0:0:0:0:
320,192,143387,1,0,0:0:0:0:
192,192,143432,1,0,0:0:0:0:
448,192,143432,1,0,0:0:0:0:
320,192,143477,1,0,0:0:0:0:
64,192,143521,1,0,0:0:0:0:
448,192,143521,1,0,0:0:0:0:
192,192,143566,1,0,0:0:0:0:
64,192,143611,1,0,0:0:0:0:
320,192,143611,1,0,0:0:0:0:
192,192,143655,1,0,0:0:0:0:
64,192,143700,128,0,143879:0:0:0:0:
320,192,143700,1,0,0:0:0:0:
448,192,143700,1,0,0:0:0:0:
448,192,143879,1,0,0:0:0:0:
320,192,143923,1,0,0:0:0:0:
192,192,143968,1,0,0:0:0:0:
320,192,144012,1,0,0:0:0:0:
64,192,144057,1,0,0:0:0:0:
192,192,144057,1,0,0:0:0:0:
448,192,144057,1,0,0:0:0:0:
64,192,144146,1,0,0:0:0:0:
192,192,144146,1,0,0:0:0:0:
320,192,144236,1,0,0:0:0:0:
448,192,144236,128,0,144414:0:0:0:0:
64,192,144414,1,0,0:0:0:0:
320,192,144459,1,0,0:0:0:0:
64,192,144504,1,0,0:0:0:0:
320,192,144548,1,0,0:0:0:0:
192,192,144593,1,0,0:0:0:0:
448,192,144637,1,0,0:0:0:0:
64,192,144682,1,0,0:0:0:0:
192,192,144682,1,0,0:0:0:0:
448,192,144727,1,0,0:0:0:0:
64,192,144771,1,0,0:0:0:0:
192,192,144771,1,0,0:0:0:0:
320,192,144771,128,0,144950:0:0:0:0:
64,192,144950,1,0,0:0:0:0:
448,192,144950,1,0,0:0:0:0:
192,192,145039,1,0,0:0:0:0:
64,192,145129,1,0,0:0:0:0:
448,192,145129,1,0,0:0:0:0:
320,192,145218,1,0,0:0:0:0:
64,192,145307,1,0,0:0:0:0:
192,192,145307,1,0,0:0:0:0:
448,192,145307,1,0,0:0:0:0:
192,192,145396,1,0,0:0:0:0:
320,192,145396,1,0,0:0:0:0:
64,192,145486,128,0,145664:0:0:0:0:
320,192,145486,1,0,0:0:0:0:
448,192,145486,1,0,0:0:0:0:
448,192,145575,1,0,0:0:0:0:
192,192,145664,128,0,145843:0:0:0:0:
320,192,145664,1,0,0:0:0:0:
320,192,145754,1,0,0:0:0:0:
64,192,145843,1,0,0:0:0:0:
448,192,145843,1,0,0:0:0:0:
320,192,145876,1,0,0:0:0:0:
192,192,145917,1,0,0:0:0:0:
448,192,145954,1,0,0:0:0:0:
64,192,145988,1,0,0:0:0:0:
192,192,146021,1,0,0:0:0:0:
320,192,146021,1,0,0:0:0:0:
64,192,146111,1,0,0:0:0:0:
320,192,146200,1,0,0:0:0:0:
448,192,146200,1,0,0:0:0:0:
192,192,146289,1,0,0:0:0:0:
448,192,146289,1,0,0:0:0:0:
64,192,146379,1,0,0:0:0:0:
192,192,146379,1,0,0:0:0:0:
320,192,146379,1,0,0:0:0:0:
320,192,146468,1,0,0:0:0:0:
448,192,146468,1,0,0:0:0:0:
64,192,146557,128,0,146736:0:0:0:0:
192,192,146557,1,0,0:0:0:0:
448,192,146557,1,0,0:0:0:0:
320,192,146646,1,0,0:0:0:0:
192,192,146736,128,0,146914:0:0:0:0:
448,192,146736,1,0,0:0:0:0:
448,192,146825,1,0,0:0:0:0:
64,192,146914,1,0,0:0:0:0:
320,192,146914,1,0,0:0:0:0:
448,192,146948,1,0,0:0:0:0:
192,192,146981,1,0,0:0:0:0:
320,192,147026,1,0,0:0:0:0:
64,192,147059,1,0,0:0:0:0:
192,192,147093,1,0,0:0:0:0:
448,192,147093,128,0,147450:0:0:0:0:
320,192,147182,1,0,0:0:0:0:
64,192,147271,1,0,0:0:0:0:
64,192,147361,1,0,0:0:0:0:
192,192,147450,1,0,0:0:0:0:
320,192,147450,1,0,0:0:0:0:
320,192,147539,1,0,0:0:0:0:
64,192,147629,128,0,147807:0:0:0:0:
192,192,147629,1,0,0:0:0:0:
448,192,147629,1,0,0:0:0:0:
448,192,147718,1,0,0:0:0:0:
192,192,147807,1,0,0:0:0:0:
320,192,147807,128,0,147986:0:0:0:0:
192,192,147896,1,0,0:0:0:0:
64,192,147986,128,0,148164:0:0:0:0:
448,192,147986,1,0,0:0:0:0:
192,192,148075,1,0,0:0:0:0:
320,192,148164,1,0,0:0:0:0:
448,192,148164,1,0,0:0:0:0:
192,192,148209,1,0,0:0:0:0:
64,192,148254,1,0,0:0:0:0:
320,192,148254,1,0,0:0:0:0:
192,192,148298,1,0,0:0:0:0:
64,192,148343,1,0,0:0:0:0:
448,192,148343,1,0,0:0:0:0:
320,192,148387,1,0,0:0:0:0:
192,192,148432,1,0,0:0:0:0:
448,192,148432,1,0,0:0:0:0:
320,192,148477,1,0,0:0:0:0:
64,192,148521,1,0,0:0:0:0:
192,192,148521,1,0,0:0:0:0:
448,192,148521,128,0,148700:0:0:0:0:
320,192,148700,1,0,0:0:0:0:
192,192,148745,1,0,0:0:0:0:
448,192,148789,1,0,0:0:0:0:
320,192,148834,1,0,0:0:0:0:
64,192,148879,1,0,0:0:0:0:
192,192,148879,1,0,0:0:0:0:
320,192,148923,1,0,0:0:0:0:
448,192,148968,1,0,0:0:0:0:
64,192,149012,1,0,0:0:0:0:
192,192,149057,1,0,0:0:0:0:
320,192,149057,1,0,0:0:0:0:
448,192,149102,1,0,0:0:0:0:
320,192,149146,1,0,0:0:0:0:
192,192,149191,1,0,0:0:0:0:
64,192,149236,1,0,0:0:0:0:
320,192,149236,1,0,0:0:0:0:
448,192,149236,128,0,149414:0:0:0:0:
64,192,149414,1,0,0:0:0:0:
192,192,149414,1,0,0:0:0:0:
320,192,149414,128,0,149593:0:0:0:0:
64,192,149593,1,0,0:0:0:0:
192,192,149593,128,0,149771:0:0:0:0:
448,192,149593,1,0,0:0:0:0:
320,192,149771,128,0,149816:0:0:0:0:
448,192,149771,1,0,0:0:0:0:
448,192,149861,1,0,0:0:0:0:
64,192,149950,1,0,0:0:0:0:
320,192,149950,1,0,0:0:0:0:
64,192,150039,1,0,0:0:0:0:
192,192,150039,1,0,0:0:0:0:
448,192,150039,1,0,0:0:0:0:
320,192,150129,1,0,0:0:0:0:
448,192,150129,1,0,0:0:0:0:
192,192,150218,1,0,0:0:0:0:
64,192,150307,1,0,0:0:0:0:
448,192,150307,1,0,0:0:0:0:
320,192,150396,1,0,0:0:0:0:
64,192,150486,1,0,0:0:0:0:
192,192,150486,1,0,0:0:0:0:
192,192,150575,1,0,0:0:0:0:
320,192,150664,1,0,0:0:0:0:
448,192,150664,1,0,0:0:0:0:
64,192,150754,1,0,0:0:0:0:
448,192,150754,1,0,0:0:0:0:
64,192,150843,1,0,0:0:0:0:
192,192,150843,1,0,0:0:0:0:
320,192,150843,1,0,0:0:0:0:
320,192,150932,1,0,0:0:0:0:
64,192,151021,1,0,0:0:0:0:
448,192,151021,1,0,0:0:0:0:
64,192,151111,1,0,0:0:0:0:
320,192,151111,1,0,0:0:0:0:
192,192,151200,1,0,0:0:0:0:
448,192,151200,1,0,0:0:0:0:
192,192,151289,1,0,0:0:0:0:
320,192,151379,1,0,0:0:0:0:
448,192,151379,1,0,0:0:0:0:
448,192,151468,1,0,0:0:0:0:
64,192,151557,1,0,0:0:0:0:
192,192,151557,1,0,0:0:0:0:
320,192,151557,1,0,0:0:0:0:
192,192,151646,1,0,0:0:0:0:
448,192,151646,1,0,0:0:0:0:
320,192,151736,1,0,0:0:0:0:
448,192,151736,1,0,0:0:0:0:
64,192,151825,1,0,0:0:0:0:
192,192,151825,1,0,0:0:0:0:
320,192,151914,1,0,0:0:0:0:
448,192,151914,1,0,0:0:0:0:
192,192,152004,1,0,0:0:0:0:
64,192,152093,1,0,0:0:0:0:
448,192,152093,1,0,0:0:0:0:
192,192,152182,1,0,0:0:0:0:
320,192,152182,1,0,0:0:0:0:
64,192,152271,1,0,0:0:0:0:
448,192,152271,1,0,0:0:0:0:
320,192,152316,1,0,0:0:0:0:
192,192,152361,1,0,0:0:0:0:
320,192,152405,1,0,0:0:0:0:
192,192,152450,1,0,0:0:0:0:
64,192,152495,1,0,0:0:0:0:
320,192,152539,1,0,0:0:0:0:
448,192,152539,1,0,0:0:0:0:
192,192,152584,1,0,0:0:0:0:
64,192,152629,1,0,0:0:0:0:
320,192,152629,1,0,0:0:0:0:
448,192,152629,1,0,0:0:0:0:
64,192,152718,1,0,0:0:0:0:
192,192,152807,1,0,0:0:0:0:
448,192,152807,1,0,0:0:0:0:
448,192,152896,1,0,0:0:0:0:
64,192,152986,1,0,0:0:0:0:
192,192,152986,1,0,0:0:0:0:
320,192,152986,1,0,0:0:0:0:
192,192,153075,1,0,0:0:0:0:
448,192,153075,1,0,0:0:0:0:
320,192,153164,1,0,0:0:0:0:
448,192,153164,1,0,0:0:0:0:
64,192,153254,1,0,0:0:0:0:
192,192,153254,1,0,0:0:0:0:
320,192,153343,1,0,0:0:0:0:
448,192,153343,1,0,0:0:0:0:
192,192,153432,1,0,0:0:0:0:
64,192,153521,1,0,0:0:0:0:
448,192,153521,1,0,0:0:0:0:
192,192,153611,1,0,0:0:0:0:
64,192,153700,1,0,0:0:0:0:
320,192,153700,1,0,0:0:0:0:
448,192,153700,1,0,0:0:0:0:
192,192,153789,1,0,0:0:0:0:
320,192,153879,1,0,0:0:0:0:
448,192,153879,1,0,0:0:0:0:
192,192,153923,1,0,0:0:0:0:
320,192,153968,1,0,0:0:0:0:
448,192,153968,128,0,154057:0:0:0:0:
64,192,154057,128,0,154146:0:0:0:0:
192,192,154057,1,0,0:0:0:0:
320,192,154146,1,0,0:0:0:0:
192,192,154236,1,0,0:0:0:0:
448,192,154236,1,0,0:0:0:0:
320,192,154325,1,0,0:0:0:0:
64,192,154414,1,0,0:0:0:0:
192,192,154414,1,0,0:0:0:0:
448,192,154414,1,0,0:0:0:0:
64,192,154504,1,0,0:0:0:0:
320,192,154504,1,0,0:0:0:0:
320,192,154593,1,0,0:0:0:0:
448,192,154593,1,0,0:0:0:0:
64,192,154682,1,0,0:0:0:0:
192,192,154682,1,0,0:0:0:0:
64,192,154771,1,0,0:0:0:0:
320,192,154771,1,0,0:0:0:0:
448,192,154771,1,0,0:0:0:0:
192,192,154861,1,0,0:0:0:0:
320,192,154950,1,0,0:0:0:0:
448,192,154950,1,0,0:0:0:0:
320,192,155039,1,0,0:0:0:0:
64,192,155129,1,0,0:0:0:0:
192,192,155129,1,0,0:0:0:0:
448,192,155129,1,0,0:0:0:0:
320,192,155218,1,0,0:0:0:0:
64,192,155307,1,0,0:0:0:0:
192,192,155307,1,0,0:0:0:0:
320,192,155352,1,0,0:0:0:0:
64,192,155396,1,0,0:0:0:0:
192,192,155396,128,0,155486:0:0:0:0:
320,192,155486,1,0,0:0:0:0:
448,192,155486,128,0,155664:0:0:0:0:
64,192,155664,1,0,0:0:0:0:
320,192,155664,1,0,0:0:0:0:
192,192,155843,1,0,0:0:0:0:
320,192,155843,1,0,0:0:0:0:
64,192,155932,1,0,0:0:0:0:
320,192,155932,1,0,0:0:0:0:
448,192,155932,1,0,0:0:0:0:
64,192,156021,1,0,0:0:0:0:
192,192,156021,1,0,0:0:0:0:
320,192,156021,1,0,0:0:0:0:
448,192,156021,1,0,0:0:0:0:
64,192,156200,1,0,0:0:0:0:
448,192,156200,1,0,0:0:0:0:
64,192,156557,1,0,0:0:0:0:
448,192,156557,1,0,0:0:0:0:
320,192,156602,1,0,0:0:0:0:
192,192,156646,1,0,0:0:0:0:
320,192,156691,1,0,0:0:0:0:
448,192,156736,1,0,0:0:0:0:
320,192,156780,1,0,0:0:0:0:
64,192,156825,1,0,0:0:0:0:
192,192,156825,1,0,0:0:0:0:
448,192,156870,1,0,0:0:0:0:
64,192,156914,1,0,0:0:0:0:
192,192,156914,1,0,0:0:0:0:
320,192,156959,1,0,0:0:0:0:
448,192,157004,1,0,0:0:0:0:
192,192,157048,1,0,0:0:0:0:
64,192,157093,1,0,0:0:0:0:
320,192,157137,1,0,0:0:0:0:
192,192,157182,1,0,0:0:0:0:
448,192,157182,1,0,0:0:0:0:
64,192,157227,1,0,0:0:0:0:
192,192,157271,1,0,0:0:0:0:
448,192,157271,1,0,0:0:0:0:
320,192,157316,1,0,0:0:0:0:
192,192,157361,1,0,0:0:0:0:
64,192,157405,1,0,0:0:0:0:
320,192,157450,1,0,0:0:0:0:
448,192,157495,1,0,0:0:0:0:
192,192,157539,1,0,0:0:0:0:
320,192,157584,1,0,0:0:0:0:
64,192,157629,1,0,0:0:0:0:
192,192,157629,1,0,0:0:0:0:
448,192,157673,1,0,0:0:0:0:
320,192,157718,1,0,0:0:0:0:
64,192,157762,1,0,0:0:0:0:
192,192,157807,1,0,0:0:0:0:
448,192,157852,1,0,0:0:0:0:
64,192,157896,1,0,0:0:0:0:
320,192,157896,1,0,0:0:0:0:
192,192,157941,1,0,0:0:0:0:
64,192,157986,1,0,0:0:0:0:
320,192,157986,1,0,0:0:0:0:
448,192,158030,1,0,0:0:0:0:
192,192,158075,1,0,0:0:0:0:
320,192,158120,1,0,0:0:0:0:
64,192,158164,1,0,0:0:0:0:
192,192,158194,1,0,0:0:0:0:
448,192,158224,1,0,0:0:0:0:
320,192,158254,1,0,0:0:0:0:
64,192,158298,1,0,0:0:0:0:
192,192,158343,1,0,0:0:0:0:
320,192,158373,1,0,0:0:0:0:
448,192,158402,1,0,0:0:0:0:
64,192,158432,1,0,0:0:0:0:
320,192,158477,1,0,0:0:0:0:
64,192,158521,1,0,0:0:0:0:
192,192,158551,1,0,0:0:0:0:
448,192,158581,1,0,0:0:0:0:
320,192,158611,1,0,0:0:0:0:
64,192,158655,1,0,0:0:0:0:
192,192,158700,1,0,0:0:0:0:
448,192,158700,1,0,0:0:0:0:
320,192,158745,1,0,0:0:0:0:
64,192,158789,1,0,0:0:0:0:
448,192,158834,1,0,0:0:0:0:
320,192,158879,1,0,0:0:0:0:
192,192,158923,1,0,0:0:0:0:
64,192,158968,1,0,0:0:0:0:
320,192,159012,1,0,0:0:0:0:
192,192,159057,1,0,0:0:0:0:
448,192,159057,1,0,0:0:0:0:
64,192,159102,1,0,0:0:0:0:
192,192,159146,1,0,0:0:0:0:
448,192,159191,1,0,0:0:0:0:
320,192,159236,1,0,0:0:0:0:
64,192,159265,1,0,0:0:0:0:
448,192,159295,1,0,0:0:0:0:
192,192,159325,1,0,0:0:0:0:
320,192,159370,1,0,0:0:0:0:
64,192,159414,1,0,0:0:0:0:
448,192,159414,1,0,0:0:0:0:
192,192,159444,1,0,0:0:0:0:
320,192,159474,1,0,0:0:0:0:
64,192,159504,1,0,0:0:0:0:
448,192,159548,1,0,0:0:0:0:
320,192,159593,1,0,0:0:0:0:
64,192,159637,1,0,0:0:0:0:
192,192,159682,1,0,0:0:0:0:
320,192,159727,1,0,0:0:0:0:
64,192,159771,1,0,0:0:0:0:
192,192,159771,1,0,0:0:0:0:
320,192,159816,1,0,0:0:0:0:
448,192,159861,1,0,0:0:0:0:
192,192,159905,1,0,0:0:0:0:
320,192,159950,1,0,0:0:0:0:
64,192,159995,1,0,0:0:0:0:
192,192,160039,1,0,0:0:0:0:
448,192,160039,1,0,0:0:0:0:
320,192,160084,1,0,0:0:0:0:
448,192,160129,1,0,0:0:0:0:
192,192,160162,1,0,0:0:0:0:
320,192,160195,1,0,0:0:0:0:
64,192,160262,1,0,0:0:0:0:
192,192,160307,1,0,0:0:0:0:
448,192,160341,1,0,0:0:0:0:
320,192,160381,1,0,0:0:0:0:
64,192,160441,1,0,0:0:0:0:
192,192,160486,1,0,0:0:0:0:
448,192,160486,1,0,0:0:0:0:
320,192,160530,1,0,0:0:0:0:
64,192,160575,1,0,0:0:0:0:
448,192,160620,1,0,0:0:0:0:
320,192,160664,1,0,0:0:0:0:
192,192,160709,1,0,0:0:0:0:
320,192,160754,1,0,0:0:0:0:
448,192,160754,1,0,0:0:0:0:
64,192,160798,1,0,0:0:0:0:
320,192,160843,1,0,0:0:0:0:
448,192,160843,1,0,0:0:0:0:
192,192,160887,1,0,0:0:0:0:
320,192,160932,1,0,0:0:0:0:
448,192,160977,1,0,0:0:0:0:
64,192,161021,1,0,0:0:0:0:
192,192,161021,1,0,0:0:0:0:
320,192,161066,1,0,0:0:0:0:
192,192,161111,1,0,0:0:0:0:
320,192,161155,1,0,0:0:0:0:
64,192,161200,1,0,0:0:0:0:
448,192,161200,1,0,0:0:0:0:
192,192,161245,1,0,0:0:0:0:
64,192,161289,1,0,0:0:0:0:
192,192,161334,1,0,0:0:0:0:
320,192,161379,1,0,0:0:0:0:
448,192,161379,1,0,0:0:0:0:
64,192,161423,1,0,0:0:0:0:
192,192,161468,1,0,0:0:0:0:
320,192,161512,1,0,0:0:0:0:
192,192,161557,1,0,0:0:0:0:
448,192,161557,1,0,0:0:0:0:
320,192,161617,1,0,0:0:0:0:
64,192,161676,1,0,0:0:0:0:
320,192,161736,1,0,0:0:0:0:
448,192,161736,1,0,0:0:0:0:
192,192,161795,1,0,0:0:0:0:
448,192,161855,1,0,0:0:0:0:
64,192,161914,1,0,0:0:0:0:
192,192,161944,1,0,0:0:0:0:
448,192,161974,1,0,0:0:0:0:
320,192,162004,1,0,0:0:0:0:
64,192,162048,1,0,0:0:0:0:
448,192,162093,1,0,0:0:0:0:
192,192,162123,1,0,0:0:0:0:
320,192,162152,1,0,0:0:0:0:
64,192,162182,1,0,0:0:0:0:
192,192,162227,1,0,0:0:0:0:
320,192,162271,1,0,0:0:0:0:
448,192,162271,128,0,162807:0:0:0:0:
192,192,162316,1,0,0:0:0:0:
64,192,162361,1,0,0:0:0:0:
320,192,162405,1,0,0:0:0:0:
192,192,162450,1,0,0:0:0:0:
64,192,162495,1,0,0:0:0:0:
320,192,162539,1,0,0:0:0:0:
192,192,162584,1,0,0:0:0:0:
64,192,162629,1,0,0:0:0:0:
320,192,162673,1,0,0:0:0:0:
64,192,162718,1,0,0:0:0:0:
192,192,162762,1,0,0:0:0:0:
64,192,162807,1,0,0:0:0:0:
320,192,162807,1,0,0:0:0:0:
64,192,162986,1,0,0:0:0:0:
192,192,162986,1,0,0:0:0:0:
448,192,162986,128,0,163164:0:0:0:0:
64,192,163164,1,0,0:0:0:0:
320,192,163164,1,0,0:0:0:0:
192,192,163254,1,0,0:0:0:0:
448,192,163254,1,0,0:0:0:0:
64,192,163343,1,0,0:0:0:0:
320,192,163343,128,0,163521:0:0:0:0:
64,192,163521,1,0,0:0:0:0:
192,192,163521,1,0,0:0:0:0:
320,192,163611,1,0,0:0:0:0:
448,192,163611,1,0,0:0:0:0:
64,192,163700,128,0,164236:0:0:0:0:
192,192,163700,1,0,0:0:0:0:
448,192,163700,1,0,0:0:0:0:
320,192,163879,1,0,0:0:0:0:
448,192,163968,1,0,0:0:0:0:
320,192,164057,128,0,164236:0:0:0:0:
192,192,164236,1,0,0:0:0:0:
448,192,164236,1,0,0:0:0:0:
192,192,164325,1,0,0:0:0:0:
64,192,164414,1,0,0:0:0:0:
320,192,164414,1,0,0:0:0:0:
448,192,164414,1,0,0:0:0:0:
192,192,164474,1,0,0:0:0:0:
320,192,164533,1,0,0:0:0:0:
192,192,164593,1,0,0:0:0:0:
320,192,164652,1,0,0:0:0:0:
448,192,164712,1,0,0:0:0:0:
64,192,164771,1,0,0:0:0:0:
192,192,164771,1,0,0:0:0:0:
320,192,164861,1,0,0:0:0:0:
448,192,164861,1,0,0:0:0:0:
64,192,164950,128,0,165129:0:0:0:0:
192,192,164950,1,0,0:0:0:0:
448,192,164950,1,0,0:0:0:0:
448,192,165129,1,0,0:0:0:0:
320,192,165162,1,0,0:0:0:0:
192,192,165195,1,0,0:0:0:0:
448,192,165240,1,0,0:0:0:0:
320,192,165274,1,0,0:0:0:0:
64,192,165307,128,0,165486:0:0:0:0:
192,192,165486,1,0,0:0:0:0:
448,192,165486,128,0,165664:0:0:0:0:
320,192,165575,1,0,0:0:0:0:
64,192,165664,1,0,0:0:0:0:
192,192,165664,1,0,0:0:0:0:
320,192,165754,128,0,165798:0:0:0:0:
64,192,165843,1,0,0:0:0:0:
192,192,165843,1,0,0:0:0:0:
448,192,165843,1,0,0:0:0:0:
320,192,165902,1,0,0:0:0:0:
192,192,165962,1,0,0:0:0:0:
64,192,166021,1,0,0:0:0:0:
320,192,166081,1,0,0:0:0:0:
192,192,166140,1,0,0:0:0:0:
448,192,166200,1,0,0:0:0:0:
64,192,166259,1,0,0:0:0:0:
192,192,166319,1,0,0:0:0:0:
320,192,166379,1,0,0:0:0:0:
448,192,166379,1,0,0:0:0:0:
192,192,166438,1,0,0:0:0:0:
64,192,166498,1,0,0:0:0:0:
192,192,166557,1,0,0:0:0:0:
320,192,166557,1,0,0:0:0:0:
448,192,166557,1,0,0:0:0:0:
64,192,166617,1,0,0:0:0:0:
320,192,166676,1,0,0:0:0:0:
192,192,166736,1,0,0:0:0:0:
320,192,166795,1,0,0:0:0:0:
448,192,166855,1,0,0:0:0:0:
64,192,166914,1,0,0:0:0:0:
192,192,166914,1,0,0:0:0:0:
320,192,166974,1,0,0:0:0:0:
64,192,167033,1,0,0:0:0:0:
320,192,167093,1,0,0:0:0:0:
448,192,167093,1,0,0:0:0:0:
192,192,167152,1,0,0:0:0:0:
64,192,167212,1,0,0:0:0:0:
448,192,167271,1,0,0:0:0:0:
320,192,167301,1,0,0:0:0:0:
64,192,167331,1,0,0:0:0:0:
448,192,167361,1,0,0:0:0:0:
192,192,167390,1,0,0:0:0:0:
64,192,167420,1,0,0:0:0:0:
320,192,167450,1,0,0:0:0:0:
192,192,167495,1,0,0:0:0:0:
448,192,167539,1,0,0:0:0:0:
320,192,167584,1,0,0:0:0:0:
64,192,167629,1,0,0:0:0:0:
192,192,167629,1,0,0:0:0:0:
320,192,167673,1,0,0:0:0:0:
448,192,167718,1,0,0:0:0:0:
64,192,167762,1,0,0:0:0:0:
192,192,167807,1,0,0:0:0:0:
320,192,167807,1,0,0:0:0:0:
448,192,167841,1,0,0:0:0:0:
64,192,167881,1,0,0:0:0:0:
192,192,167919,1,0,0:0:0:0:
320,192,167952,1,0,0:0:0:0:
64,192,167986,1,0,0:0:0:0:
448,192,167986,1,0,0:0:0:0:
320,192,168015,1,0,0:0:0:0:
192,192,168045,1,0,0:0:0:0:
448,192,168075,1,0,0:0:0:0:
320,192,168105,1,0,0:0:0:0:
64,192,168134,1,0,0:0:0:0:
192,192,168164,1,0,0:0:0:0:
448,192,168209,1,0,0:0:0:0:
320,192,168254,1,0,0:0:0:0:
64,192,168298,1,0,0:0:0:0:
192,192,168343,1,0,0:0:0:0:
448,192,168343,1,0,0:0:0:0:
320,192,168402,1,0,0:0:0:0:
192,192,168462,1,0,0:0:0:0:
320,192,168521,1,0,0:0:0:0:
448,192,168521,1,0,0:0:0:0:
64,192,168581,1,0,0:0:0:0:
192,192,168640,1,0,0:0:0:0:
448,192,168640,1,0,0:0:0:0:
64,192,168700,1,0,0:0:0:0:
320,192,168700,1,0,0:0:0:0:
192,192,168759,1,0,0:0:0:0:
320,192,168819,1,0,0:0:0:0:
192,192,168879,1,0,0:0:0:0:
320,192,168938,1,0,0:0:0:0:
448,192,168998,1,0,0:0:0:0:
192,192,169057,1,0,0:0:0:0:
320,192,169057,1,0,0:0:0:0:
448,192,169117,1,0,0:0:0:0:
64,192,169176,1,0,0:0:0:0:
192,192,169236,1,0,0:0:0:0:
448,192,169236,1,0,0:0:0:0:
320,192,169295,1,0,0:0:0:0:
448,192,169355,1,0,0:0:0:0:
64,192,169414,1,0,0:0:0:0:
192,192,169414,1,0,0:0:0:0:
320,192,169414,1,0,0:0:0:0:
448,192,169459,1,0,0:0:0:0:
192,192,169504,1,0,0:0:0:0:
320,192,169548,1,0,0:0:0:0:
64,192,169593,1,0,0:0:0:0:
448,192,169593,1,0,0:0:0:0:
192,192,169637,1,0,0:0:0:0:
320,192,169682,1,0,0:0:0:0:
448,192,169682,1,0,0:0:0:0:
64,192,169727,1,0,0:0:0:0:
192,192,169771,1,0,0:0:0:0:
320,192,169771,1,0,0:0:0:0:
448,192,169816,1,0,0:0:0:0:
64,192,169861,1,0,0:0:0:0:
192,192,169861,1,0,0:0:0:0:
448,192,169905,1,0,0:0:0:0:
64,192,169950,1,0,0:0:0:0:
320,192,169950,1,0,0:0:0:0:
448,192,169995,1,0,0:0:0:0:
64,192,170039,1,0,0:0:0:0:
192,192,170039,1,0,0:0:0:0:
320,192,170084,1,0,0:0:0:0:
64,192,170129,1,0,0:0:0:0:
448,192,170129,1,0,0:0:0:0:
192,192,170173,1,0,0:0:0:0:
320,192,170218,1,0,0:0:0:0:
64,192,170262,1,0,0:0:0:0:
448,192,170307,1,0,0:0:0:0:
192,192,170352,1,0,0:0:0:0:
448,192,170396,1,0,0:0:0:0:
64,192,170441,1,0,0:0:0:0:
192,192,170486,1,0,0:0:0:0:
320,192,170486,1,0,0:0:0:0:
448,192,170530,1,0,0:0:0:0:
320,192,170575,1,0,0:0:0:0:
192,192,170620,1,0,0:0:0:0:
64,192,170664,1,0,0:0:0:0:
320,192,170664,1,0,0:0:0:0:
448,192,170664,1,0,0:0:0:0:
192,192,170709,1,0,0:0:0:0:
320,192,170754,1,0,0:0:0:0:
448,192,170798,1,0,0:0:0:0:
64,192,170843,1,0,0:0:0:0:
192,192,170843,1,0,0:0:0:0:
320,192,170843,1,0,0:0:0:0:
448,192,170887,1,0,0:0:0:0:
320,192,170932,1,0,0:0:0:0:
64,192,170977,1,0,0:0:0:0:
192,192,171021,1,0,0:0:0:0:
448,192,171021,1,0,0:0:0:0:
320,192,171066,1,0,0:0:0:0:
64,192,171111,1,0,0:0:0:0:
192,192,171111,1,0,0:0:0:0:
448,192,171155,1,0,0:0:0:0:
192,192,171200,1,0,0:0:0:0:
320,192,171200,1,0,0:0:0:0:
64,192,171245,1,0,0:0:0:0:
320,192,171289,1,0,0:0:0:0:
448,192,171289,1,0,0:0:0:0:
64,192,171334,1,0,0:0:0:0:
192,192,171379,1,0,0:0:0:0:
320,192,171379,1,0,0:0:0:0:
448,192,171423,1,0,0:0:0:0:
64,192,171468,1,0,0:0:0:0:
192,192,171468,1,0,0:0:0:0:
320,192,171512,1,0,0:0:0:0:
64,192,171557,1,0,0:0:0:0:
448,192,171557,1,0,0:0:0:0:
192,192,171602,1,0,0:0:0:0:
320,192,171646,1,0,0:0:0:0:
192,192,171691,1,0,0:0:0:0:
64,192,171736,1,0,0:0:0:0:
448,192,171736,1,0,0:0:0:0:
320,192,171780,1,0,0:0:0:0:
192,192,171825,1,0,0:0:0:0:
448,192,171825,1,0,0:0:0:0:
320,192,171870,1,0,0:0:0:0:
64,192,171914,1,0,0:0:0:0:
448,192,171914,1,0,0:0:0:0:
192,192,171959,1,0,0:0:0:0:
320,192,172004,1,0,0:0:0:0:
64,192,172048,1,0,0:0:0:0:
192,192,172093,1,0,0:0:0:0:
448,192,172093,1,0,0:0:0:0:
320,192,172137,1,0,0:0:0:0:
64,192,172182,1,0,0:0:0:0:
192,192,172227,1,0,0:0:0:0:
320,192,172271,1,0,0:0:0:0:
448,192,172271,1,0,0:0:0:0:
64,192,172316,1,0,0:0:0:0:
192,192,172361,1,0,0:0:0:0:
320,192,172405,1,0,0:0:0:0:
64,192,172450,1,0,0:0:0:0:
448,192,172450,1,0,0:0:0:0:
320,192,172495,1,0,0:0:0:0:
64,192,172539,1,0,0:0:0:0:
192,192,172539,1,0,0:0:0:0:
320,192,172584,1,0,0:0:0:0:
64,192,172629,1,0,0:0:0:0:
448,192,172629,1,0,0:0:0:0:
192,192,172673,1,0,0:0:0:0:
448,192,172718,1,0,0:0:0:0:
64,192,172762,1,0,0:0:0:0:
192,192,172807,1,0,0:0:0:0:
320,192,172807,1,0,0:0:0:0:
448,192,172852,1,0,0:0:0:0:
192,192,172896,1,0,0:0:0:0:
320,192,172896,1,0,0:0:0:0:
64,192,172941,1,0,0:0:0:0:
448,192,172986,1,0,0:0:0:0:
192,192,173030,1,0,0:0:0:0:
320,192,173075,1,0,0:0:0:0:
64,192,173120,1,0,0:0:0:0:
192,192,173164,1,0,0:0:0:0:
448,192,173209,1,0,0:0:0:0:
64,192,173254,1,0,0:0:0:0:
320,192,173298,1,0,0:0:0:0:
64,192,173343,1,0,0:0:0:0:
192,192,173343,1,0,0:0:0:0:
448,192,173387,1,0,0:0:0:0:
192,192,173432,1,0,0:0:0:0:
320,192,173432,1,0,0:0:0:0:
64,192,173477,1,0,0:0:0:0:
320,192,173521,1,0,0:0:0:0:
448,192,173521,1,0,0:0:0:0:
192,192,173566,1,0,0:0:0:0:
64,192,173611,1,0,0:0:0:0:
448,192,173611,1,0,0:0:0:0:
320,192,173655,1,0,0:0:0:0:
192,192,173700,1,0,0:0:0:0:
64,192,173745,1,0,0:0:0:0:
192,192,173789,1,0,0:0:0:0:
320,192,173834,1,0,0:0:0:0:
192,192,173879,1,0,0:0:0:0:
448,192,173923,1,0,0:0:0:0:
320,192,173968,1,0,0:0:0:0:
192,192,174012,1,0,0:0:0:0:
320,192,174057,1,0,0:0:0:0:
448,192,174057,1,0,0:0:0:0:
192,192,174146,1,0,0:0:0:0:
320,192,174146,1,0,0:0:0:0:
64,192,174236,1,0,0:0:0:0:
192,192,174236,1,0,0:0:0:0:
448,192,174236,1,0,0:0:0:0:
64,192,174325,1,0,0:0:0:0:
320,192,174325,1,0,0:0:0:0:
64,192,174414,1,0,0:0:0:0:
192,192,174414,128,0,174682:0:0:0:0:
320,192,174414,1,0,0:0:0:0:
448,192,174414,1,0,0:0:0:0:
320,192,174682,1,0,0:0:0:0:
448,192,174682,1,0,0:0:0:0:
64,192,174771,1,0,0:0:0:0:
192,192,174771,128,0,174950:0:0:0:0:
320,192,174816,1,0,0:0:0:0:
448,192,174861,1,0,0:0:0:0:
320,192,174905,1,0,0:0:0:0:
64,192,174950,128,0,175129:0:0:0:0:
448,192,174950,1,0,0:0:0:0:
320,192,175129,1,0,0:0:0:0:
448,192,175129,1,0,0:0:0:0:
192,192,175173,1,0,0:0:0:0:
320,192,175218,1,0,0:0:0:0:
64,192,175262,1,0,0:0:0:0:
320,192,175307,1,0,0:0:0:0:
192,192,175352,1,0,0:0:0:0:
320,192,175396,1,0,0:0:0:0:
64,192,175441,1,0,0:0:0:0:
448,192,175486,1,0,0:0:0:0:
192,192,175530,1,0,0:0:0:0:
320,192,175575,1,0,0:0:0:0:
64,192,175620,1,0,0:0:0:0:
320,192,175664,1,0,0:0:0:0:
192,192,175709,1,0,0:0:0:0:
64,192,175754,1,0,0:0:0:0:
448,192,175754,1,0,0:0:0:0:
192,192,175843,1,0,0:0:0:0:
320,192,175843,1,0,0:0:0:0:
448,192,175843,1,0,0:0:0:0:
64,192,175932,1,0,0:0:0:0:
320,192,175932,1,0,0:0:0:0:
64,192,176021,1,0,0:0:0:0:
320,192,176021,1,0,0:0:0:0:
448,192,176021,1,0,0:0:0:0:
192,192,176066,1,0,0:0:0:0:
320,192,176111,1,0,0:0:0:0:
64,192,176155,1,0,0:0:0:0:
320,192,176200,1,0,0:0:0:0:
192,192,176245,1,0,0:0:0:0:
320,192,176289,1,0,0:0:0:0:
64,192,176334,1,0,0:0:0:0:
192,192,176379,1,0,0:0:0:0:
448,192,176423,1,0,0:0:0:0:
320,192,176468,1,0,0:0:0:0:
192,192,176512,1,0,0:0:0:0:
320,192,176557,1,0,0:0:0:0:
448,192,176557,1,0,0:0:0:0:
64,192,176646,1,0,0:0:0:0:
192,192,176646,1,0,0:0:0:0:
64,192,176736,1,0,0:0:0:0:
320,192,176736,128,0,176914:0:0:0:0:
448,192,176736,1,0,0:0:0:0:
64,192,176914,1,0,0:0:0:0:
192,192,176914,1,0,0:0:0:0:
448,192,176959,1,0,0:0:0:0:
320,192,177004,1,0,0:0:0:0:
64,192,177048,1,0,0:0:0:0:
192,192,177093,1,0,0:0:0:0:
448,192,177093,1,0,0:0:0:0:
320,192,177137,1,0,0:0:0:0:
64,192,177182,1,0,0:0:0:0:
192,192,177227,1,0,0:0:0:0:
320,192,177271,1,0,0:0:0:0:
448,192,177271,1,0,0:0:0:0:
64,192,177316,1,0,0:0:0:0:
192,192,177361,1,0,0:0:0:0:
448,192,177405,1,0,0:0:0:0:
64,192,177450,1,0,0:0:0:0:
320,192,177450,1,0,0:0:0:0:
192,192,177495,1,0,0:0:0:0:
448,192,177539,1,0,0:0:0:0:
320,192,177584,1,0,0:0:0:0:
64,192,177629,1,0,0:0:0:0:
192,192,177629,1,0,0:0:0:0:
448,192,177629,1,0,0:0:0:0:
64,192,177718,1,0,0:0:0:0:
320,192,177718,1,0,0:0:0:0:
448,192,177718,1,0,0:0:0:0:
64,192,177807,1,0,0:0:0:0:
192,192,177807,1,0,0:0:0:0:
320,192,177807,1,0,0:0:0:0:
64,192,177896,1,0,0:0:0:0:
320,192,177896,1,0,0:0:0:0:
448,192,177896,1,0,0:0:0:0:
192,192,177986,1,0,0:0:0:0:
448,192,177986,1,0,0:0:0:0:
64,192,178030,1,0,0:0:0:0:
192,192,178075,1,0,0:0:0:0:
320,192,178120,1,0,0:0:0:0:
64,192,178164,1,0,0:0:0:0:
192,192,178164,1,0,0:0:0:0:
448,192,178209,1,0,0:0:0:0:
64,192,178254,1,0,0:0:0:0:
320,192,178254,1,0,0:0:0:0:
192,192,178298,1,0,0:0:0:0:
320,192,178343,1,0,0:0:0:0:
448,192,178343,1,0,0:0:0:0:
64,192,178387,1,0,0:0:0:0:
192,192,178432,1,0,0:0:0:0:
320,192,178477,1,0,0:0:0:0:
64,192,178521,1,0,0:0:0:0:
192,192,178521,1,0,0:0:0:0:
448,192,178566,1,0,0:0:0:0:
320,192,178611,1,0,0:0:0:0:
192,192,178655,1,0,0:0:0:0:
64,192,178700,1,0,0:0:0:0:
320,192,178700,1,0,0:0:0:0:
192,192,178789,1,0,0:0:0:0:
448,192,178789,1,0,0:0:0:0:
64,192,178879,1,0,0:0:0:0:
320,192,178879,1,0,0:0:0:0:
448,192,178879,1,0,0:0:0:0:
64,192,178968,1,0,0:0:0:0:
192,192,178968,1,0,0:0:0:0:
448,192,178968,1,0,0:0:0:0:
192,192,179057,1,0,0:0:0:0:
320,192,179057,1,0,0:0:0:0:
448,192,179102,1,0,0:0:0:0:
64,192,179146,1,0,0:0:0:0:
320,192,179146,1,0,0:0:0:0:
192,192,179191,1,0,0:0:0:0:
320,192,179236,1,0,0:0:0:0:
448,192,179236,1,0,0:0:0:0:
64,192,179280,1,0,0:0:0:0:
192,192,179325,1,0,0:0:0:0:
448,192,179370,1,0,0:0:0:0:
64,192,179414,1,0,0:0:0:0:
192,192,179414,1,0,0:0:0:0:
320,192,179414,128,0,179593:0:0:0:0:
64,192,179593,128,0,179771:0:0:0:0:
192,192,179593,1,0,0:0:0:0:
448,192,179593,1,0,0:0:0:0:
320,192,179771,1,0,0:0:0:0:
448,192,179771,1,0,0:0:0:0:
192,192,179816,1,0,0:0:0:0:
320,192,179861,1,0,0:0:0:0:
64,192,179905,1,0,0:0:0:0:
192,192,179950,1,0,0:0:0:0:
448,192,179995,1,0,0:0:0:0:
64,192,180039,1,0,0:0:0:0:
320,192,180084,1,0,0:0:0:0:
192,192,180129,1,0,0:0:0:0:
448,192,180129,1,0,0:0:0:0:
64,192,180173,1,0,0:0:0:0:
192,192,180218,1,0,0:0:0:0:
448,192,180262,1,0,0:0:0:0:
320,192,180307,1,0,0:0:0:0:
64,192,180352,1,0,0:0:0:0:
448,192,180396,1,0,0:0:0:0:
192,192,180441,1,0,0:0:0:0:
320,192,180486,1,0,0:0:0:0:
448,192,180486,1,0,0:0:0:0:
64,192,180530,1,0,0:0:0:0:
448,192,180575,1,0,0:0:0:0:
320,192,180620,1,0,0:0:0:0:
64,192,180664,1,0,0:0:0:0:
192,192,180664,1,0,0:0:0:0:
448,192,180709,1,0,0:0:0:0:
64,192,180754,1,0,0:0:0:0:
320,192,180754,1,0,0:0:0:0:
192,192,180798,1,0,0:0:0:0:
320,192,180843,1,0,0:0:0:0:
448,192,180843,1,0,0:0:0:0:
64,192,180887,1,0,0:0:0:0:
192,192,180932,1,0,0:0:0:0:
448,192,180932,1,0,0:0:0:0:
320,192,180977,1,0,0:0:0:0:
64,192,181021,1,0,0:0:0:0:
192,192,181021,1,0,0:0:0:0:
448,192,181066,1,0,0:0:0:0:
64,192,181111,1,0,0:0:0:0:
192,192,181111,1,0,0:0:0:0:
320,192,181155,1,0,0:0:0:0:
448,192,181200,1,0,0:0:0:0:
192,192,181245,1,0,0:0:0:0:
320,192,181289,1,0,0:0:0:0:
64,192,181334,1,0,0:0:0:0:
192,192,181379,1,0,0:0:0:0:
448,192,181379,1,0,0:0:0:0:
320,192,181423,1,0,0:0:0:0:
192,192,181468,1,0,0:0:0:0:
64,192,181512,1,0,0:0:0:0:
320,192,181557,1,0,0:0:0:0:
448,192,181602,1,0,0:0:0:0:
64,192,181646,1,0,0:0:0:0:
192,192,181691,1,0,0:0:0:0:
320,192,181736,1,0,0:0:0:0:
448,192,181736,1,0,0:0:0:0:
64,192,181780,1,0,0:0:0:0:
320,192,181825,1,0,0:0:0:0:
192,192,181870,1,0,0:0:0:0:
64,192,181914,1,0,0:0:0:0:
448,192,181959,1,0,0:0:0:0:
320,192,182004,1,0,0:0:0:0:
64,192,182048,1,0,0:0:0:0:
192,192,182093,1,0,0:0:0:0:
448,192,182093,1,0,0:0:0:0:
320,192,182137,1,0,0:0:0:0:
192,192,182182,1,0,0:0:0:0:
320,192,182227,1,0,0:0:0:0:
64,192,182271,1,0,0:0:0:0:
448,192,182271,1,0,0:0:0:0:
192,192,182316,1,0,0:0:0:0:
320,192,182361,1,0,0:0:0:0:
448,192,182361,1,0,0:0:0:0:
192,192,182405,1,0,0:0:0:0:
64,192,182450,1,0,0:0:0:0:
448,192,182450,1,0,0:0:0:0:
320,192,182495,1,0,0:0:0:0:
64,192,182539,1,0,0:0:0:0:
192,192,182539,1,0,0:0:0:0:
448,192,182584,1,0,0:0:0:0:
320,192,182629,1,0,0:0:0:0:
192,192,182673,1,0,0:0:0:0:
320,192,182718,1,0,0:0:0:0:
448,192,182762,1,0,0:0:0:0:
64,192,182807,1,0,0:0:0:0:
320,192,182807,1,0,0:0:0:0:
64,192,182896,1,0,0:0:0:0:
192,192,182896,1,0,0:0:0:0:
448,192,182896,1,0,0:0:0:0:
192,192,182986,1,0,0:0:0:0:
320,192,182986,1,0,0:0:0:0:
448,192,182986,1,0,0:0:0:0:
64,192,183030,1,0,0:0:0:0:
192,192,183075,1,0,0:0:0:0:
448,192,183120,1,0,0:0:0:0:
64,192,183164,1,0,0:0:0:0:
192,192,183164,1,0,0:0:0:0:
320,192,183209,1,0,0:0:0:0:
448,192,183254,1,0,0:0:0:0:
192,192,183298,1,0,0:0:0:0:
64,192,183343,1,0,0:0:0:0:
320,192,183343,1,0,0:0:0:0:
448,192,183387,1,0,0:0:0:0:
320,192,183432,1,0,0:0:0:0:
64,192,183477,1,0,0:0:0:0:
192,192,183521,1,0,0:0:0:0:
448,192,183521,1,0,0:0:0:0:
320,192,183566,1,0,0:0:0:0:
448,192,183611,1,0,0:0:0:0:
64,192,183655,1,0,0:0:0:0:
192,192,183700,1,0,0:0:0:0:
320,192,183700,1,0,0:0:0:0:
448,192,183700,1,0,0:0:0:0:
64,192,183745,1,0,0:0:0:0:
192,192,183789,1,0,0:0:0:0:
448,192,183834,1,0,0:0:0:0:
64,192,183879,1,0,0:0:0:0:
192,192,183879,1,0,0:0:0:0:
320,192,183879,1,0,0:0:0:0:
448,192,183923,1,0,0:0:0:0:
320,192,183968,1,0,0:0:0:0:
64,192,184012,1,0,0:0:0:0:
192,192,184057,1,0,0:0:0:0:
320,192,184057,1,0,0:0:0:0:
448,192,184102,1,0,0:0:0:0:
64,192,184146,1,0,0:0:0:0:
192,192,184191,1,0,0:0:0:0:
320,192,184236,1,0,0:0:0:0:
448,192,184236,1,0,0:0:0:0:
64,192,184280,1,0,0:0:0:0:
320,192,184325,1,0,0:0:0:0:
192,192,184370,1,0,0:0:0:0:
64,192,184414,1,0,0:0:0:0:
448,192,184414,1,0,0:0:0:0:
320,192,184459,1,0,0:0:0:0:
64,192,184504,1,0,0:0:0:0:
192,192,184548,1,0,0:0:0:0:
320,192,184593,1,0,0:0:0:0:
448,192,184593,1,0,0:0:0:0:
192,192,184637,1,0,0:0:0:0:
320,192,184682,1,0,0:0:0:0:
192,192,184727,1,0,0:0:0:0:
64,192,184771,1,0,0:0:0:0:
320,192,184771,1,0,0:0:0:0:
448,192,184771,1,0,0:0:0:0:
192,192,184816,1,0,0:0:0:0:
448,192,184861,1,0,0:0:0:0:
320,192,184905,1,0,0:0:0:0:
64,192,184950,1,0,0:0:0:0:
192,192,184950,1,0,0:0:0:0:
448,192,184995,1,0,0:0:0:0:
192,192,185039,1,0,0:0:0:0:
64,192,185084,1,0,0:0:0:0:
320,192,185129,1,0,0:0:0:0:
448,192,185129,1,0,0:0:0:0:
192,192,185173,1,0,0:0:0:0:
320,192,185218,1,0,0:0:0:0:
64,192,185262,1,0,0:0:0:0:
192,192,185307,1,0,0:0:0:0:
448,192,185307,1,0,0:0:0:0:
320,192,185352,1,0,0:0:0:0:
192,192,185396,1,0,0:0:0:0:
448,192,185441,1,0,0:0:0:0:
64,192,185486,1,0,0:0:0:0:
192,192,185486,1,0,0:0:0:0:
320,192,185486,1,0,0:0:0:0:
64,192,185575,1,0,0:0:0:0:
320,192,185575,1,0,0:0:0:0:
448,192,185575,1,0,0:0:0:0:
192,192,185664,1,0,0:0:0:0:
320,192,185664,1,0,0:0:0:0:
448,192,185664,1,0,0:0:0:0:
64,192,185754,1,0,0:0:0:0:
192,192,185754,1,0,0:0:0:0:
448,192,185754,1,0,0:0:0:0:
64,192,185843,1,0,0:0:0:0:
320,192,185843,1,0,0:0:0:0:
192,192,185887,1,0,0:0:0:0:
448,192,185932,1,0,0:0:0:0:
64,192,185977,1,0,0:0:0:0:
320,192,186021,1,0,0:0:0:0:
192,192,186066,1,0,0:0:0:0:
64,192,186111,1,0,0:0:0:0:
448,192,186111,1,0,0:0:0:0:
320,192,186155,1,0,0:0:0:0:
64,192,186200,1,0,0:0:0:0:
192,192,186200,1,0,0:0:0:0:
320,192,186245,1,0,0:0:0:0:
448,192,186289,1,0,0:0:0:0:
320,192,186334,1,0,0:0:0:0:
64,192,186379,1,0,0:0:0:0:
192,192,186379,1,0,0:0:0:0:
448,192,186423,1,0,0:0:0:0:
320,192,186468,1,0,0:0:0:0:
192,192,186512,1,0,0:0:0:0:
64,192,186557,1,0,0:0:0:0:
320,192,186557,1,0,0:0:0:0:
448,192,186557,1,0,0:0:0:0:
192,192,186646,1,0,0:0:0:0:
320,192,186646,1,0,0:0:0:0:
448,192,186646,1,0,0:0:0:0:
64,192,186736,1,0,0:0:0:0:
192,192,186736,1,0,0:0:0:0:
448,192,186736,1,0,0:0:0:0:
64,192,186825,1,0,0:0:0:0:
192,192,186825,1,0,0:0:0:0:
320,192,186825,1,0,0:0:0:0:
320,192,186914,1,0,0:0:0:0:
448,192,186914,1,0,0:0:0:0:
192,192,186959,1,0,0:0:0:0:
448,192,187004,1,0,0:0:0:0:
192,192,187048,1,0,0:0:0:0:
320,192,187093,1,0,0:0:0:0:
64,192,187137,1,0,0:0:0:0:
320,192,187182,1,0,0:0:0:0:
192,192,187227,1,0,0:0:0:0:
64,192,187271,1,0,0:0:0:0:
320,192,187271,1,0,0:0:0:0:
448,192,187271,128,0,187450:0:0:0:0:
64,192,187450,1,0,0:0:0:0:
192,192,187450,1,0,0:0:0:0:
320,192,187450,128,0,187629:0:0:0:0:
64,192,187629,1,0,0:0:0:0:
448,192,187629,1,0,0:0:0:0:
192,192,187673,1,0,0:0:0:0:
64,192,187718,1,0,0:0:0:0:
320,192,187762,1,0,0:0:0:0:
448,192,187807,1,0,0:0:0:0:
192,192,187852,1,0,0:0:0:0:
320,192,187896,1,0,0:0:0:0:
64,192,187941,1,0,0:0:0:0:
192,192,187986,1,0,0:0:0:0:
448,192,187986,1,0,0:0:0:0:
320,192,188030,1,0,0:0:0:0:
448,192,188075,1,0,0:0:0:0:
192,192,188120,1,0,0:0:0:0:
64,192,188164,1,0,0:0:0:0:
320,192,188209,1,0,0:0:0:0:
192,192,188254,1,0,0:0:0:0:
448,192,188298,1,0,0:0:0:0:
64,192,188343,1,0,0:0:0:0:
320,192,188343,1,0,0:0:0:0:
192,192,188387,1,0,0:0:0:0:
320,192,188432,1,0,0:0:0:0:
448,192,188432,1,0,0:0:0:0:
192,192,188477,1,0,0:0:0:0:
64,192,188521,1,0,0:0:0:0:
320,192,188521,1,0,0:0:0:0:
448,192,188521,1,0,0:0:0:0:
64,192,188611,1,0,0:0:0:0:
192,192,188611,1,0,0:0:0:0:
192,192,188700,1,0,0:0:0:0:
320,192,188700,1,0,0:0:0:0:
448,192,188700,1,0,0:0:0:0:
320,192,188789,1,0,0:0:0:0:
448,192,188789,1,0,0:0:0:0:
64,192,188879,1,0,0:0:0:0:
192,192,188879,1,0,0:0:0:0:
320,192,188923,1,0,0:0:0:0:
448,192,188968,1,0,0:0:0:0:
64,192,189012,1,0,0:0:0:0:
192,192,189057,1,0,0:0:0:0:
320,192,189057,1,0,0:0:0:0:
64,192,189102,1,0,0:0:0:0:
448,192,189146,1,0,0:0:0:0:
192,192,189191,1,0,0:0:0:0:
320,192,189236,1,0,0:0:0:0:
448,192,189236,1,0,0:0:0:0:
64,192,189280,1,0,0:0:0:0:
320,192,189325,1,0,0:0:0:0:
192,192,189370,1,0,0:0:0:0:
448,192,189414,1,0,0:0:0:0:
320,192,189459,1,0,0:0:0:0:
64,192,189504,1,0,0:0:0:0:
448,192,189548,1,0,0:0:0:0:
64,192,189593,1,0,0:0:0:0:
320,192,189593,1,0,0:0:0:0:
192,192,189637,1,0,0:0:0:0:
320,192,189682,1,0,0:0:0:0:
64,192,189727,1,0,0:0:0:0:
192,192,189771,1,0,0:0:0:0:
448,192,189816,1,0,0:0:0:0:
64,192,189861,1,0,0:0:0:0:
192,192,189905,1,0,0:0:0:0:
448,192,189950,1,0,0:0:0:0:
320,192,189980,1,0,0:0:0:0:
192,192,190009,1,0,0:0:0:0:
64,192,190039,1,0,0:0:0:0:
448,192,190069,1,0,0:0:0:0:
320,192,190099,1,0,0:0:0:0:
64,192,190129,1,0,0:0:0:0:
192,192,190129,1,0,0:0:0:0:
320,192,190218,1,0,0:0:0:0:
448,192,190218,1,0,0:0:0:0:
64,192,190307,1,0,0:0:0:0:
192,192,190307,1,0,0:0:0:0:
448,192,190307,1,0,0:0:0:0:
192,192,190396,1,0,0:0:0:0:
320,192,190396,1,0,0:0:0:0:
64,192,190486,1,0,0:0:0:0:
448,192,190486,1,0,0:0:0:0:
192,192,190530,1,0,0:0:0:0:
64,192,190575,1,0,0:0:0:0:
320,192,190575,1,0,0:0:0:0:
192,192,190620,1,0,0:0:0:0:
320,192,190664,1,0,0:0:0:0:
448,192,190664,1,0,0:0:0:0:
64,192,190709,1,0,0:0:0:0:
192,192,190754,1,0,0:0:0:0:
320,192,190754,1,0,0:0:0:0:
448,192,190798,1,0,0:0:0:0:
64,192,190843,1,0,0:0:0:0:
192,192,190843,1,0,0:0:0:0:
320,192,190843,1,0,0:0:0:0:
64,192,190932,1,0,0:0:0:0:
448,192,190932,1,0,0:0:0:0:
192,192,191021,1,0,0:0:0:0:
320,192,191021,1,0,0:0:0:0:
320,192,191111,1,0,0:0:0:0:
448,192,191111,1,0,0:0:0:0:
64,192,191200,1,0,0:0:0:0:
192,192,191200,1,0,0:0:0:0:
448,192,191200,1,0,0:0:0:0:
64,192,191289,1,0,0:0:0:0:
320,192,191289,1,0,0:0:0:0:
192,192,191379,1,0,0:0:0:0:
448,192,191379,1,0,0:0:0:0:
192,192,191468,1,0,0:0:0:0:
320,192,191468,1,0,0:0:0:0:
64,192,191557,128,0,191646:0:0:0:0:
320,192,191557,128,0,191646:0:0:0:0:
448,192,191557,128,0,191646:0:0:0:0:
64,192,191914,1,0,0:0:0:0:
320,192,191914,1,0,0:0:0:0:
448,192,191914,1,0,0:0:0:0:
64,192,192004,1,0,0:0:0:0:
448,192,192004,1,0,0:0:0:0:
192,192,192093,1,0,0:0:0:0:
320,192,192093,1,0,0:0:0:0:
448,192,192093,128,0,192271:0:0:0:0:
64,192,192271,1,0,0:0:0:0:
320,192,192271,1,0,0:0:0:0:
192,192,192316,1,0,0:0:0:0:
320,192,192361,1,0,0:0:0:0:
448,192,192361,1,0,0:0:0:0:
64,192,192405,1,0,0:0:0:0:
192,192,192450,1,0,0:0:0:0:
448,192,192450,1,0,0:0:0:0:
320,192,192495,1,0,0:0:0:0:
64,192,192539,1,0,0:0:0:0:
192,192,192539,1,0,0:0:0:0:
320,192,192584,1,0,0:0:0:0:
64,192,192629,1,0,0:0:0:0:
448,192,192629,1,0,0:0:0:0:
192,192,192673,1,0,0:0:0:0:
320,192,192718,1,0,0:0:0:0:
448,192,192718,1,0,0:0:0:0:
192,192,192762,1,0,0:0:0:0:
64,192,192807,1,0,0:0:0:0:
320,192,192807,1,0,0:0:0:0:
448,192,192852,1,0,0:0:0:0:
64,192,192896,1,0,0:0:0:0:
192,192,192896,1,0,0:0:0:0:
320,192,192941,1,0,0:0:0:0:
64,192,192986,1,0,0:0:0:0:
448,192,192986,1,0,0:0:0:0:
192,192,193030,1,0,0:0:0:0:
64,192,193075,1,0,0:0:0:0:
448,192,193075,1,0,0:0:0:0:
192,192,193120,1,0,0:0:0:0:
320,192,193164,1,0,0:0:0:0:
448,192,193164,1,0,0:0:0:0:
64,192,193209,1,0,0:0:0:0:
192,192,193254,1,0,0:0:0:0:
320,192,193254,1,0,0:0:0:0:
448,192,193298,1,0,0:0:0:0:
64,192,193343,1,0,0:0:0:0:
192,192,193343,1,0,0:0:0:0:
320,192,193387,1,0,0:0:0:0:
192,192,193432,1,0,0:0:0:0:
448,192,193432,1,0,0:0:0:0:
64,192,193477,1,0,0:0:0:0:
320,192,193521,1,0,0:0:0:0:
448,192,193521,1,0,0:0:0:0:
192,192,193566,1,0,0:0:0:0:
64,192,193611,1,0,0:0:0:0:
448,192,193611,1,0,0:0:0:0:
320,192,193655,1,0,0:0:0:0:
64,192,193700,1,0,0:0:0:0:
192,192,193700,1,0,0:0:0:0:
448,192,193745,1,0,0:0:0:0:
64,192,193789,1,0,0:0:0:0:
320,192,193789,1,0,0:0:0:0:
192,192,193834,1,0,0:0:0:0:
320,192,193879,1,0,0:0:0:0:
448,192,193879,1,0,0:0:0:0:
64,192,193923,1,0,0:0:0:0:
192,192,193968,1,0,0:0:0:0:
448,192,193968,1,0,0:0:0:0:
320,192,194012,1,0,0:0:0:0:
64,192,194057,1,0,0:0:0:0:
192,192,194057,1,0,0:0:0:0:
448,192,194102,1,0,0:0:0:0:
64,192,194146,1,0,0:0:0:0:
192,192,194146,1,0,0:0:0:0:
448,192,194191,1,0,0:0:0:0:
192,192,194236,1,0,0:0:0:0:
320,192,194236,1,0,0:0:0:0:
64,192,194280,1,0,0:0:0:0:
320,192,194325,1,0,0:0:0:0:
448,192,194325,1,0,0:0:0:0:
64,192,194370,1,0,0:0:0:0:
192,192,194414,1,0,0:0:0:0:
448,192,194414,1,0,0:0:0:0:
320,192,194459,1,0,0:0:0:0:
64,192,194504,1,0,0:0:0:0:
192,192,194504,1,0,0:0:0:0:
320,192,194548,1,0,0:0:0:0:
64,192,194593,1,0,0:0:0:0:
448,192,194593,1,0,0:0:0:0:
192,192,194637,1,0,0:0:0:0:
64,192,194682,1,0,0:0:0:0:
320,192,194682,1,0,0:0:0:0:
192,192,194727,1,0,0:0:0:0:
64,192,194771,128,0,194950:0:0:0:0:
320,192,194771,1,0,0:0:0:0:
448,192,194771,1,0,0:0:0:0:
192,192,194950,1,0,0:0:0:0:
320,192,194950,1,0,0:0:0:0:
448,192,194950,1,0,0:0:0:0:
192,192,195039,1,0,0:0:0:0:
320,192,195039,1,0,0:0:0:0:
448,192,195039,1,0,0:0:0:0:
64,192,195129,1,0,0:0:0:0:
192,192,195129,1,0,0:0:0:0:
448,192,195129,1,0,0:0:0:0:
320,192,195173,1,0,0:0:0:0:
64,192,195218,1,0,0:0:0:0:
448,192,195218,1,0,0:0:0:0:
192,192,195262,1,0,0:0:0:0:
320,192,195307,1,0,0:0:0:0:
448,192,195307,1,0,0:0:0:0:
64,192,195352,1,0,0:0:0:0:
192,192,195396,1,0,0:0:0:0:
320,192,195396,1,0,0:0:0:0:
64,192,195441,1,0,0:0:0:0:
192,192,195486,1,0,0:0:0:0:
448,192,195486,1,0,0:0:0:0:
320,192,195530,1,0,0:0:0:0:
64,192,195575,1,0,0:0:0:0:
192,192,195575,1,0,0:0:0:0:
448,192,195620,1,0,0:0:0:0:
64,192,195664,1,0,0:0:0:0:
320,192,195664,1,0,0:0:0:0:
192,192,195709,1,0,0:0:0:0:
320,192,195754,1,0,0:0:0:0:
448,192,195754,1,0,0:0:0:0:
64,192,195798,1,0,0:0:0:0:
192,192,195843,1,0,0:0:0:0:
448,192,195843,1,0,0:0:0:0:
320,192,195887,1,0,0:0:0:0:
64,192,195932,1,0,0:0:0:0:
192,192,195932,1,0,0:0:0:0:
320,192,195977,1,0,0:0:0:0:
64,192,196021,1,0,0:0:0:0:
448,192,196021,1,0,0:0:0:0:
192,192,196066,1,0,0:0:0:0:
320,192,196111,1,0,0:0:0:0:
448,192,196111,1,0,0:0:0:0:
64,192,196155,1,0,0:0:0:0:
192,192,196200,1,0,0:0:0:0:
320,192,196200,1,0,0:0:0:0:
448,192,196245,1,0,0:0:0:0:
64,192,196289,1,0,0:0:0:0:
192,192,196289,1,0,0:0:0:0:
448,192,196334,1,0,0:0:0:0:
64,192,196379,1,0,0:0:0:0:
320,192,196379,1,0,0:0:0:0:
192,192,196423,1,0,0:0:0:0:
320,192,196468,1,0,0:0:0:0:
448,192,196468,1,0,0:0:0:0:
64,192,196512,1,0,0:0:0:0:
192,192,196557,1,0,0:0:0:0:
448,192,196557,1,0,0:0:0:0:
320,192,196602,1,0,0:0:0:0:
64,192,196646,1,0,0:0:0:0:
192,192,196646,1,0,0:0:0:0:
320,192,196691,1,0,0:0:0:0:
64,192,196736,1,0,0:0:0:0:
448,192,196736,1,0,0:0:0:0:
320,192,196780,1,0,0:0:0:0:
64,192,196825,1,0,0:0:0:0:
192,192,196825,1,0,0:0:0:0:
448,192,196870,1,0,0:0:0:0:
192,192,196914,1,0,0:0:0:0:
320,192,196914,1,0,0:0:0:0:
64,192,196959,1,0,0:0:0:0:
320,192,197004,1,0,0:0:0:0:
448,192,197004,1,0,0:0:0:0:
64,192,197048,1,0,0:0:0:0:
192,192,197093,1,0,0:0:0:0:
448,192,197093,1,0,0:0:0:0:
320,192,197137,1,0,0:0:0:0:
64,192,197182,1,0,0:0:0:0:
192,192,197182,1,0,0:0:0:0:
320,192,197227,1,0,0:0:0:0:
64,192,197271,1,0,0:0:0:0:
448,192,197271,1,0,0:0:0:0:
192,192,197316,1,0,0:0:0:0:
64,192,197361,1,0,0:0:0:0:
320,192,197361,1,0,0:0:0:0:
192,192,197405,1,0,0:0:0:0:
320,192,197450,1,0,0:0:0:0:
448,192,197450,1,0,0:0:0:0:
64,192,197495,1,0,0:0:0:0:
192,192,197539,1,0,0:0:0:0:
448,192,197539,1,0,0:0:0:0:
64,192,197584,1,0,0:0:0:0:
192,192,197629,1,0,0:0:0:0:
320,192,197629,1,0,0:0:0:0:
448,192,197673,1,0,0:0:0:0:
64,192,197718,1,0,0:0:0:0:
320,192,197718,1,0,0:0:0:0:
448,192,197762,1,0,0:0:0:0:
64,192,197807,1,0,0:0:0:0:
192,192,197807,1,0,0:0:0:0:
320,192,197852,1,0,0:0:0:0:
64,192,197896,1,0,0:0:0:0:
448,192,197896,1,0,0:0:0:0:
320,192,197941,1,0,0:0:0:0:
192,192,197986,1,0,0:0:0:0:
448,192,197986,1,0,0:0:0:0:
64,192,198030,1,0,0:0:0:0:
320,192,198075,1,0,0:0:0:0:
64,192,198120,1,0,0:0:0:0:
320,192,198164,1,0,0:0:0:0:
64,192,198209,1,0,0:0:0:0:
320,192,198254,1,0,0:0:0:0:
64,192,198298,1,0,0:0:0:0:
192,192,198343,1,0,0:0:0:0:
448,192,198343,1,0,0:0:0:0:
320,192,198387,1,0,0:0:0:0:
448,192,198432,1,0,0:0:0:0:
320,192,198477,1,0,0:0:0:0:
64,192,198521,1,0,0:0:0:0:
192,192,198521,1,0,0:0:0:0:
448,192,198566,1,0,0:0:0:0:
64,192,198611,1,0,0:0:0:0:
448,192,198655,1,0,0:0:0:0:
192,192,198700,1,0,0:0:0:0:
320,192,198700,1,0,0:0:0:0:
64,192,198745,1,0,0:0:0:0:
192,192,198789,1,0,0:0:0:0:
64,192,198834,1,0,0:0:0:0:
320,192,198879,1,0,0:0:0:0:
448,192,198879,1,0,0:0:0:0:
192,192,198923,1,0,0:0:0:0:
320,192,198968,1,0,0:0:0:0:
192,192,199012,1,0,0:0:0:0:
64,192,199057,1,0,0:0:0:0:
448,192,199057,1,0,0:0:0:0:
320,192,199102,1,0,0:0:0:0:
448,192,199146,1,0,0:0:0:0:
320,192,199191,1,0,0:0:0:0:
64,192,199236,1,0,0:0:0:0:
192,192,199236,1,0,0:0:0:0:
448,192,199280,1,0,0:0:0:0:
64,192,199325,1,0,0:0:0:0:
448,192,199370,1,0,0:0:0:0:
192,192,199414,1,0,0:0:0:0:
320,192,199414,1,0,0:0:0:0:
64,192,199459,1,0,0:0:0:0:
320,192,199504,1,0,0:0:0:0:
64,192,199548,1,0,0:0:0:0:
192,192,199593,1,0,0:0:0:0:
448,192,199593,1,0,0:0:0:0:
320,192,199637,1,0,0:0:0:0:
192,192,199682,1,0,0:0:0:0:
320,192,199727,1,0,0:0:0:0:
64,192,199771,1,0,0:0:0:0:
448,192,199771,1,0,0:0:0:0:
192,192,199816,1,0,0:0:0:0:
448,192,199861,1,0,0:0:0:0:
192,192,199905,1,0,0:0:0:0:
64,192,199950,1,0,0:0:0:0:
320,192,199950,1,0,0:0:0:0:
448,192,199995,1,0,0:0:0:0:
64,192,200039,1,0,0:0:0:0:
448,192,200084,1,0,0:0:0:0:
192,192,200129,1,0,0:0:0:0:
320,192,200129,1,0,0:0:0:0:
64,192,200173,1,0,0:0:0:0:
192,192,200218,1,0,0:0:0:0:
64,192,200262,1,0,0:0:0:0:
320,192,200307,1,0,0:0:0:0:
448,192,200307,1,0,0:0:0:0:
192,192,200352,1,0,0:0:0:0:
320,192,200396,1,0,0:0:0:0:
192,192,200441,1,0,0:0:0:0:
64,192,200486,1,0,0:0:0:0:
448,192,200486,1,0,0:0:0:0:
320,192,200530,1,0,0:0:0:0:
448,192,200575,1,0,0:0:0:0:
320,192,200620,1,0,0:0:0:0:
64,192,200664,1,0,0:0:0:0:
192,192,200664,1,0,0:0:0:0:
448,192,200698,1,0,0:0:0:0:
320,192,200731,1,0,0:0:0:0:
192,192,200776,1,0,0:0:0:0:
448,192,200809,1,0,0:0:0:0:
64,192,200843,1,0,0:0:0:0:
320,192,200843,1,0,0:0:0:0:
192,192,200887,1,0,0:0:0:0:
320,192,200932,1,0,0:0:0:0:
192,192,200977,1,0,0:0:0:0:
320,192,201021,1,0,0:0:0:0:
192,192,201066,1,0,0:0:0:0:
320,192,201111,1,0,0:0:0:0:
192,192,201155,1,0,0:0:0:0:
64,192,201200,1,0,0:0:0:0:
448,192,201200,1,0,0:0:0:0:
320,192,201245,1,0,0:0:0:0:
448,192,201289,1,0,0:0:0:0:
320,192,201334,1,0,0:0:0:0:
64,192,201379,1,0,0:0:0:0:
192,192,201379,1,0,0:0:0:0:
448,192,201423,1,0,0:0:0:0:
192,192,201468,1,0,0:0:0:0:
448,192,201512,1,0,0:0:0:0:
64,192,201557,1,0,0:0:0:0:
320,192,201557,1,0,0:0:0:0:
192,192,201602,1,0,0:0:0:0:
64,192,201646,1,0,0:0:0:0:
192,192,201691,1,0,0:0:0:0:
320,192,201736,1,0,0:0:0:0:
448,192,201736,1,0,0:0:0:0:
64,192,201780,1,0,0:0:0:0:
320,192,201825,1,0,0:0:0:0:
64,192,201870,1,0,0:0:0:0:
192,192,201914,1,0,0:0:0:0:
448,192,201914,1,0,0:0:0:0:
320,192,201959,1,0,0:0:0:0:
192,192,202004,1,0,0:0:0:0:
320,192,202048,1,0,0:0:0:0:
64,192,202093,1,0,0:0:0:0:
448,192,202093,1,0,0:0:0:0:
192,192,202137,1,0,0:0:0:0:
448,192,202182,1,0,0:0:0:0:
192,192,202227,1,0,0:0:0:0:
64,192,202271,1,0,0:0:0:0:
320,192,202271,1,0,0:0:0:0:
448,192,202316,1,0,0:0:0:0:
64,192,202361,1,0,0:0:0:0:
448,192,202405,1,0,0:0:0:0:
192,192,202450,1,0,0:0:0:0:
320,192,202450,1,0,0:0:0:0:
64,192,202495,1,0,0:0:0:0:
320,192,202539,1,0,0:0:0:0:
64,192,202584,1,0,0:0:0:0:
192,192,202629,1,0,0:0:0:0:
448,192,202629,1,0,0:0:0:0:
320,192,202673,1,0,0:0:0:0:
448,192,202718,1,0,0:0:0:0:
320,192,202762,1,0,0:0:0:0:
64,192,202807,1,0,0:0:0:0:
192,192,202807,1,0,0:0:0:0:
448,192,202852,1,0,0:0:0:0:
192,192,202896,1,0,0:0:0:0:
448,192,202941,1,0,0:0:0:0:
64,192,202986,1,0,0:0:0:0:
320,192,202986,1,0,0:0:0:0:
192,192,203030,1,0,0:0:0:0:
64,192,203075,1,0,0:0:0:0:
192,192,203120,1,0,0:0:0:0:
320,192,203164,1,0,0:0:0:0:
448,192,203164,1,0,0:0:0:0:
64,192,203209,1,0,0:0:0:0:
448,192,203254,1,0,0:0:0:0:
64,192,203298,1,0,0:0:0:0:
192,192,203343,1,0,0:0:0:0:
320,192,203343,1,0,0:0:0:0:
448,192,203387,1,0,0:0:0:0:
320,192,203432,1,0,0:0:0:0:
64,192,203477,1,0,0:0:0:0:
192,192,203521,1,0,0:0:0:0:
320,192,203566,1,0,0:0:0:0:
192,192,203611,1,0,0:0:0:0:
448,192,203655,1,0,0:0:0:0:
64,192,203700,128,0,203879:0:0:0:0:
192,192,203700,1,0,0:0:0:0:
320,192,203700,1,0,0:0:0:0:
192,192,203879,1,0,0:0:0:0:
320,192,203879,1,0,0:0:0:0:
448,192,203879,128,0,204057:0:0:0:0:
64,192,204057,1,0,0:0:0:0:
320,192,204057,1,0,0:0:0:0:
192,192,204102,1,0,0:0:0:0:
448,192,204146,1,0,0:0:0:0:
192,192,204191,1,0,0:0:0:0:
64,192,204236,1,0,0:0:0:0:
192,192,204280,1,0,0:0:0:0:
320,192,204325,1,0,0:0:0:0:
448,192,204325,1,0,0:0:0:0:
64,192,204370,1,0,0:0:0:0:
192,192,204414,1,0,0:0:0:0:
448,192,204414,1,0,0:0:0:0:
64,192,204459,1,0,0:0:0:0:
320,192,204504,1,0,0:0:0:0:
448,192,204504,1,0,0:0:0:0:
192,192,204548,1,0,0:0:0:0:
64,192,204593,1,0,0:0:0:0:
320,192,204593,1,0,0:0:0:0:
448,192,204637,1,0,0:0:0:0:
192,192,204682,1,0,0:0:0:0:
64,192,204727,1,0,0:0:0:0:
192,192,204771,1,0,0:0:0:0:
448,192,204771,1,0,0:0:0:0:
320,192,204816,1,0,0:0:0:0:
64,192,204861,1,0,0:0:0:0:
192,192,204861,1,0,0:0:0:0:
320,192,204905,1,0,0:0:0:0:
448,192,204905,1,0,0:0:0:0:
64,192,204950,1,0,0:0:0:0:
192,192,204950,1,0,0:0:0:0:
320,192,204995,1,0,0:0:0:0:
448,192,204995,1,0,0:0:0:0:
64,192,205039,1,0,0:0:0:0:
192,192,205039,1,0,0:0:0:0:
320,192,205084,1,0,0:0:0:0:
448,192,205084,1,0,0:0:0:0:
64,192,205129,1,0,0:0:0:0:
192,192,205129,1,0,0:0:0:0:
320,192,205173,1,0,0:0:0:0:
64,192,205218,1,0,0:0:0:0:
320,192,205262,1,0,0:0:0:0:
448,192,205307,1,0,0:0:0:0:
192,192,205352,1,0,0:0:0:0:
64,192,205396,1,0,0:0:0:0:
320,192,205396,1,0,0:0:0:0:
448,192,205396,1,0,0:0:0:0:
192,192,205441,1,0,0:0:0:0:
320,192,205486,1,0,0:0:0:0:
64,192,205530,1,0,0:0:0:0:
192,192,205575,1,0,0:0:0:0:
64,192,205620,1,0,0:0:0:0:
320,192,205664,1,0,0:0:0:0:
448,192,205664,1,0,0:0:0:0:
192,192,205709,1,0,0:0:0:0:
64,192,205754,1,0,0:0:0:0:
448,192,205798,1,0,0:0:0:0:
320,192,205843,1,0,0:0:0:0:
448,192,205887,1,0,0:0:0:0:
64,192,205932,1,0,0:0:0:0:
192,192,205932,1,0,0:0:0:0:
320,192,205977,1,0,0:0:0:0:
192,192,206021,1,0,0:0:0:0:
64,192,206066,1,0,0:0:0:0:
448,192,206111,1,0,0:0:0:0:
64,192,206155,1,0,0:0:0:0:
192,192,206200,1,0,0:0:0:0:
320,192,206200,1,0,0:0:0:0:
448,192,206200,1,0,0:0:0:0:
64,192,206289,1,0,0:0:0:0:
320,192,206289,1,0,0:0:0:0:
192,192,206379,1,0,0:0:0:0:
320,192,206468,1,0,0:0:0:0:
448,192,206468,1,0,0:0:0:0:
192,192,206512,1,0,0:0:0:0:
448,192,206557,1,0,0:0:0:0:
192,192,206602,1,0,0:0:0:0:
448,192,206646,1,0,0:0:0:0:
192,192,206691,1,0,0:0:0:0:
64,192,206736,1,0,0:0:0:0:
320,192,206736,1,0,0:0:0:0:
192,192,206825,1,0,0:0:0:0:
448,192,206825,1,0,0:0:0:0:
320,192,206914,1,0,0:0:0:0:
64,192,207004,1,0,0:0:0:0:
192,192,207004,1,0,0:0:0:0:
448,192,207048,1,0,0:0:0:0:
64,192,207093,1,0,0:0:0:0:
448,192,207137,1,0,0:0:0:0:
64,192,207182,1,0,0:0:0:0:
448,192,207227,1,0,0:0:0:0:
192,192,207271,1,0,0:0:0:0:
320,192,207271,1,0,0:0:0:0:
64,192,207316,1,0,0:0:0:0:
192,192,207361,1,0,0:0:0:0:
448,192,207361,1,0,0:0:0:0:
64,192,207405,1,0,0:0:0:0:
192,192,207450,1,0,0:0:0:0:
320,192,207450,1,0,0:0:0:0:
448,192,207495,1,0,0:0:0:0:
64,192,207539,1,0,0:0:0:0:
320,192,207539,1,0,0:0:0:0:
64,192,207629,1,0,0:0:0:0:
448,192,207629,1,0,0:0:0:0:
64,192,207718,1,0,0:0:0:0:
448,192,207718,1,0,0:0:0:0:
192,192,207807,1,0,0:0:0:0:
320,192,207807,1,0,0:0:0:0:
448,192,207807,1,0,0:0:0:0:
64,192,207896,1,0,0:0:0:0:
320,192,207896,1,0,0:0:0:0:
64,192,207986,1,0,0:0:0:0:
320,192,207986,1,0,0:0:0:0:
64,192,208075,1,0,0:0:0:0:
448,192,208075,128,0,208343:0:0:0:0:
64,192,208343,1,0,0:0:0:0:
320,192,208387,1,0,0:0:0:0:
64,192,208432,1,0,0:0:0:0:
448,192,208477,1,0,0:0:0:0:
192,192,208521,1,0,0:0:0:0:
448,192,208566,1,0,0:0:0:0:
64,192,208611,1,0,0:0:0:0:
320,192,208611,1,0,0:0:0:0:
192,192,208655,1,0,0:0:0:0:
320,192,208700,1,0,0:0:0:0:
64,192,208745,1,0,0:0:0:0:
448,192,208789,1,0,0:0:0:0:
320,192,208834,1,0,0:0:0:0:
64,192,208879,1,0,0:0:0:0:
192,192,208879,1,0,0:0:0:0:
448,192,208923,1,0,0:0:0:0:
64,192,208968,1,0,0:0:0:0:
320,192,208968,1,0,0:0:0:0:
448,192,209012,1,0,0:0:0:0:
64,192,209057,1,0,0:0:0:0:
192,192,209057,1,0,0:0:0:0:
320,192,209102,1,0,0:0:0:0:
192,192,209146,1,0,0:0:0:0:
448,192,209146,1,0,0:0:0:0:
64,192,209191,1,0,0:0:0:0:
320,192,209236,1,0,0:0:0:0:
192,192,209280,1,0,0:0:0:0:
448,192,209325,1,0,0:0:0:0:
192,192,209370,1,0,0:0:0:0:
64,192,209414,1,0,0:0:0:0:
320,192,209414,1,0,0:0:0:0:
448,192,209459,1,0,0:0:0:0:
192,192,209504,1,0,0:0:0:0:
448,192,209548,1,0,0:0:0:0:
64,192,209593,1,0,0:0:0:0:
448,192,209637,1,0,0:0:0:0:
192,192,209682,1,0,0:0:0:0:
320,192,209682,1,0,0:0:0:0:
64,192,209727,1,0,0:0:0:0:
448,192,209771,1,0,0:0:0:0:
320,192,209816,1,0,0:0:0:0:
64,192,209861,1,0,0:0:0:0:
192,192,209905,1,0,0:0:0:0:
320,192,209950,1,0,0:0:0:0:
448,192,209995,1,0,0:0:0:0:
64,192,210039,1,0,0:0:0:0:
192,192,210039,1,0,0:0:0:0:
320,192,210039,1,0,0:0:0:0:
448,192,210084,1,0,0:0:0:0:
320,192,210129,1,0,0:0:0:0:
192,192,210173,1,0,0:0:0:0:
64,192,210218,1,0,0:0:0:0:
320,192,210218,1,0,0:0:0:0:
448,192,210218,1,0,0:0:0:0:
192,192,210262,1,0,0:0:0:0:
320,192,210307,1,0,0:0:0:0:
448,192,210307,1,0,0:0:0:0:
192,192,210352,1,0,0:0:0:0:
64,192,210396,1,0,0:0:0:0:
320,192,210396,1,0,0:0:0:0:
448,192,210396,1,0,0:0:0:0:
192,192,210441,1,0,0:0:0:0:
320,192,210486,1,0,0:0:0:0:
448,192,210486,1,0,0:0:0:0:
64,192,210530,1,0,0:0:0:0:
192,192,210575,1,0,0:0:0:0:
320,192,210575,1,0,0:0:0:0:
448,192,210575,1,0,0:0:0:0:
64,192,210620,1,0,0:0:0:0:
192,192,210664,1,0,0:0:0:0:
448,192,210664,1,0,0:0:0:0:
320,192,210709,1,0,0:0:0:0:
64,192,210754,1,0,0:0:0:0:
192,192,210754,1,0,0:0:0:0:
448,192,210754,1,0,0:0:0:0:
64,192,210843,1,0,0:0:0:0:
320,192,210843,1,0,0:0:0:0:
192,192,210932,1,0,0:0:0:0:
320,192,211021,1,0,0:0:0:0:
448,192,211021,1,0,0:0:0:0:
192,192,211066,1,0,0:0:0:0:
320,192,211111,1,0,0:0:0:0:
192,192,211155,1,0,0:0:0:0:
320,192,211200,1,0,0:0:0:0:
192,192,211245,1,0,0:0:0:0:
64,192,211289,1,0,0:0:0:0:
448,192,211289,1,0,0:0:0:0:
192,192,211379,1,0,0:0:0:0:
448,192,211379,1,0,0:0:0:0:
320,192,211468,1,0,0:0:0:0:
64,192,211557,1,0,0:0:0:0:
192,192,211557,1,0,0:0:0:0:
320,192,211602,1,0,0:0:0:0:
64,192,211646,1,0,0:0:0:0:
320,192,211691,1,0,0:0:0:0:
192,192,211736,1,0,0:0:0:0:
448,192,211736,1,0,0:0:0:0:
64,192,211780,1,0,0:0:0:0:
320,192,211825,1,0,0:0:0:0:
448,192,211825,1,0,0:0:0:0:
64,192,211870,1,0,0:0:0:0:
192,192,211914,1,0,0:0:0:0:
448,192,211914,1,0,0:0:0:0:
64,192,211959,1,0,0:0:0:0:
320,192,212004,1,0,0:0:0:0:
448,192,212004,1,0,0:0:0:0:
64,192,212048,1,0,0:0:0:0:
192,192,212093,1,0,0:0:0:0:
320,192,212093,1,0,0:0:0:0:
448,192,212137,1,0,0:0:0:0:
320,192,212182,1,0,0:0:0:0:
64,192,212227,1,0,0:0:0:0:
448,192,212271,1,0,0:0:0:0:
192,192,212316,1,0,0:0:0:0:
64,192,212361,1,0,0:0:0:0:
320,192,212361,1,0,0:0:0:0:
448,192,212361,1,0,0:0:0:0:
64,192,212450,1,0,0:0:0:0:
192,192,212450,1,0,0:0:0:0:
64,192,212539,1,0,0:0:0:0:
192,192,212539,1,0,0:0:0:0:
64,192,212629,1,0,0:0:0:0:
320,192,212629,128,0,212896:0:0:0:0:
192,192,212896,1,0,0:0:0:0:
448,192,212896,1,0,0:0:0:0:
192,192,212986,1,0,0:0:0:0:
320,192,212986,1,0,0:0:0:0:
192,192,213075,1,0,0:0:0:0:
448,192,213075,1,0,0:0:0:0:
64,192,213164,1,0,0:0:0:0:
192,192,213164,1,0,0:0:0:0:
320,192,213164,1,0,0:0:0:0:
448,192,213209,1,0,0:0:0:0:
320,192,213254,1,0,0:0:0:0:
64,192,213298,1,0,0:0:0:0:
192,192,213343,1,0,0:0:0:0:
448,192,213387,1,0,0:0:0:0:
192,192,213432,1,0,0:0:0:0:
320,192,213477,1,0,0:0:0:0:
64,192,213521,1,0,0:0:0:0:
448,192,213521,1,0,0:0:0:0:
192,192,213566,1,0,0:0:0:0:
64,192,213611,1,0,0:0:0:0:
320,192,213655,1,0,0:0:0:0:
448,192,213700,1,0,0:0:0:0:
192,192,213745,1,0,0:0:0:0:
448,192,213789,1,0,0:0:0:0:
320,192,213834,1,0,0:0:0:0:
64,192,213879,1,0,0:0:0:0:
192,192,213879,1,0,0:0:0:0:
448,192,213923,1,0,0:0:0:0:
320,192,213968,1,0,0:0:0:0:
64,192,214012,1,0,0:0:0:0:
192,192,214057,1,0,0:0:0:0:
448,192,214102,1,0,0:0:0:0:
192,192,214146,1,0,0:0:0:0:
320,192,214191,1,0,0:0:0:0:
64,192,214236,1,0,0:0:0:0:
448,192,214236,1,0,0:0:0:0:
192,192,214280,1,0,0:0:0:0:
64,192,214325,1,0,0:0:0:0:
448,192,214370,1,0,0:0:0:0:
64,192,214414,1,0,0:0:0:0:
320,192,214414,1,0,0:0:0:0:
192,192,214459,1,0,0:0:0:0:
320,192,214504,1,0,0:0:0:0:
64,192,214548,1,0,0:0:0:0:
192,192,214593,1,0,0:0:0:0:
448,192,214593,1,0,0:0:0:0:
320,192,214637,1,0,0:0:0:0:
192,192,214682,1,0,0:0:0:0:
448,192,214727,1,0,0:0:0:0:
64,192,214771,1,0,0:0:0:0:
320,192,214771,1,0,0:0:0:0:
192,192,214816,1,0,0:0:0:0:
64,192,214861,1,0,0:0:0:0:
320,192,214905,1,0,0:0:0:0:
192,192,214950,1,0,0:0:0:0:
448,192,214950,1,0,0:0:0:0:
320,192,214995,1,0,0:0:0:0:
448,192,215039,1,0,0:0:0:0:
64,192,215084,1,0,0:0:0:0:
192,192,215129,1,0,0:0:0:0:
320,192,215173,1,0,0:0:0:0:
192,192,215218,1,0,0:0:0:0:
448,192,215262,1,0,0:0:0:0:
64,192,215307,1,0,0:0:0:0:
192,192,215307,1,0,0:0:0:0:
320,192,215352,1,0,0:0:0:0:
448,192,215396,1,0,0:0:0:0:
320,192,215441,1,0,0:0:0:0:
192,192,215486,1,0,0:0:0:0:
448,192,215530,1,0,0:0:0:0:
192,192,215575,1,0,0:0:0:0:
64,192,215620,1,0,0:0:0:0:
192,192,215664,1,0,0:0:0:0:
448,192,215664,1,0,0:0:0:0:
320,192,215709,1,0,0:0:0:0:
64,192,215754,1,0,0:0:0:0:
192,192,215798,1,0,0:0:0:0:
320,192,215843,1,0,0:0:0:0:
448,192,215843,1,0,0:0:0:0:
192,192,215887,1,0,0:0:0:0:
64,192,215932,1,0,0:0:0:0:
320,192,215977,1,0,0:0:0:0:
64,192,216021,1,0,0:0:0:0:
192,192,216021,1,0,0:0:0:0:
448,192,216021,1,0,0:0:0:0:
320,192,216066,1,0,0:0:0:0:
192,192,216111,1,0,0:0:0:0:
448,192,216155,1,0,0:0:0:0:
64,192,216200,1,0,0:0:0:0:
320,192,216245,1,0,0:0:0:0:
64,192,216289,1,0,0:0:0:0:
448,192,216334,1,0,0:0:0:0:
192,192,216379,1,0,0:0:0:0:
320,192,216379,1,0,0:0:0:0:
64,192,216423,1,0,0:0:0:0:
320,192,216468,1,0,0:0:0:0:
192,192,216512,1,0,0:0:0:0:
64,192,216557,1,0,0:0:0:0:
448,192,216557,1,0,0:0:0:0:
192,192,216602,1,0,0:0:0:0:
448,192,216646,1,0,0:0:0:0:
64,192,216691,1,0,0:0:0:0:
192,192,216736,1,0,0:0:0:0:
320,192,216736,1,0,0:0:0:0:
448,192,216780,1,0,0:0:0:0:
320,192,216825,1,0,0:0:0:0:
64,192,216870,1,0,0:0:0:0:
192,192,216914,1,0,0:0:0:0:
448,192,216959,1,0,0:0:0:0:
192,192,217004,1,0,0:0:0:0:
64,192,217048,1,0,0:0:0:0:
320,192,217093,1,0,0:0:0:0:
448,192,217093,1,0,0:0:0:0:
192,192,217137,1,0,0:0:0:0:
320,192,217182,1,0,0:0:0:0:
64,192,217227,1,0,0:0:0:0:
192,192,217271,1,0,0:0:0:0:
448,192,217271,1,0,0:0:0:0:
320,192,217316,1,0,0:0:0:0:
192,192,217361,1,0,0:0:0:0:
64,192,217405,1,0,0:0:0:0:
192,192,217450,1,0,0:0:0:0:
320,192,217450,1,0,0:0:0:0:
448,192,217450,1,0,0:0:0:0:
64,192,217495,1,0,0:0:0:0:
320,192,217539,1,0,0:0:0:0:
448,192,217584,1,0,0:0:0:0:
64,192,217629,1,0,0:0:0:0:
192,192,217629,1,0,0:0:0:0:
320,192,217673,1,0,0:0:0:0:
64,192,217718,1,0,0:0:0:0:
448,192,217762,1,0,0:0:0:0:
192,192,217807,1,0,0:0:0:0:
320,192,217807,1,0,0:0:0:0:
64,192,217852,1,0,0:0:0:0:
448,192,217896,1,0,0:0:0:0:
192,192,217941,1,0,0:0:0:0:
320,192,217986,1,0,0:0:0:0:
64,192,218030,1,0,0:0:0:0:
320,192,218075,1,0,0:0:0:0:
192,192,218120,1,0,0:0:0:0:
320,192,218164,1,0,0:0:0:0:
448,192,218164,1,0,0:0:0:0:
64,192,218209,1,0,0:0:0:0:
192,192,218254,1,0,0:0:0:0:
448,192,218298,1,0,0:0:0:0:
64,192,218343,1,0,0:0:0:0:
320,192,218387,1,0,0:0:0:0:
64,192,218432,1,0,0:0:0:0:
192,192,218477,1,0,0:0:0:0:
64,192,218521,1,0,0:0:0:0:
448,192,218521,1,0,0:0:0:0:
320,192,218566,1,0,0:0:0:0:
192,192,218611,1,0,0:0:0:0:
320,192,218655,1,0,0:0:0:0:
448,192,218700,1,0,0:0:0:0:
320,192,218745,1,0,0:0:0:0:
192,192,218789,1,0,0:0:0:0:
320,192,218834,1,0,0:0:0:0:
64,192,218879,128,0,219057:0:0:0:0:
192,192,218879,1,0,0:0:0:0:
448,192,218879,1,0,0:0:0:0:
320,192,219057,1,0,0:0:0:0:
448,192,219057,1,0,0:0:0:0:
64,192,219146,1,0,0:0:0:0:
192,192,219146,1,0,0:0:0:0:
64,192,219236,1,0,0:0:0:0:
320,192,219236,1,0,0:0:0:0:
448,192,219236,1,0,0:0:0:0:
192,192,219325,1,0,0:0:0:0:
320,192,219325,1,0,0:0:0:0:
64,192,219414,1,0,0:0:0:0:
192,192,219414,1,0,0:0:0:0:
448,192,219414,1,0,0:0:0:0:
64,192,219504,1,0,0:0:0:0:
320,192,219504,1,0,0:0:0:0:
192,192,219593,1,0,0:0:0:0:
448,192,219593,1,0,0:0:0:0:
320,192,219637,1,0,0:0:0:0:
64,192,219682,1,0,0:0:0:0:
192,192,219727,1,0,0:0:0:0:
64,192,219771,1,0,0:0:0:0:
320,192,219771,1,0,0:0:0:0:
448,192,219771,1,0,0:0:0:0:
192,192,219861,1,0,0:0:0:0:
320,192,219861,1,0,0:0:0:0:
448,192,219861,1,0,0:0:0:0:
64,192,219950,1,0,0:0:0:0:
320,192,219950,1,0,0:0:0:0:
192,192,219995,1,0,0:0:0:0:
448,192,220039,1,0,0:0:0:0:
64,192,220084,1,0,0:0:0:0:
192,192,220129,1,0,0:0:0:0:
320,192,220129,128,0,220173:0:0:0:0:
192,192,220218,1,0,0:0:0:0:
320,192,220218,128,0,220262:0:0:0:0:
64,192,220307,1,0,0:0:0:0:
192,192,220307,1,0,0:0:0:0:
448,192,220307,1,0,0:0:0:0:
320,192,220352,1,0,0:0:0:0:
192,192,220396,1,0,0:0:0:0:
64,192,220441,1,0,0:0:0:0:
448,192,220486,1,0,0:0:0:0:
192,192,220530,1,0,0:0:0:0:
320,192,220575,1,0,0:0:0:0:
64,192,220620,1,0,0:0:0:0:
192,192,220664,1,0,0:0:0:0:
448,192,220664,1,0,0:0:0:0:
320,192,220709,1,0,0:0:0:0:
192,192,220754,1,0,0:0:0:0:
448,192,220798,1,0,0:0:0:0:
320,192,220843,1,0,0:0:0:0:
64,192,220887,1,0,0:0:0:0:
448,192,220932,1,0,0:0:0:0:
64,192,220977,1,0,0:0:0:0:
192,192,221021,1,0,0:0:0:0:
320,192,221021,1,0,0:0:0:0:
448,192,221066,1,0,0:0:0:0:
192,192,221111,1,0,0:0:0:0:
320,192,221155,1,0,0:0:0:0:
64,192,221200,1,0,0:0:0:0:
448,192,221245,1,0,0:0:0:0:
192,192,221289,1,0,0:0:0:0:
320,192,221334,1,0,0:0:0:0:
64,192,221379,1,0,0:0:0:0:
448,192,221379,1,0,0:0:0:0:
192,192,221423,1,0,0:0:0:0:
320,192,221468,1,0,0:0:0:0:
64,192,221512,1,0,0:0:0:0:
320,192,221557,1,0,0:0:0:0:
448,192,221557,1,0,0:0:0:0:
192,192,221602,1,0,0:0:0:0:
320,192,221646,1,0,0:0:0:0:
448,192,221646,1,0,0:0:0:0:
192,192,221691,1,0,0:0:0:0:
320,192,221736,1,0,0:0:0:0:
448,192,221736,1,0,0:0:0:0:
64,192,221780,1,0,0:0:0:0:
192,192,221825,1,0,0:0:0:0:
320,192,221870,1,0,0:0:0:0:
64,192,221914,1,0,0:0:0:0:
448,192,221914,1,0,0:0:0:0:
320,192,221959,1,0,0:0:0:0:
192,192,222004,1,0,0:0:0:0:
64,192,222048,1,0,0:0:0:0:
320,192,222093,1,0,0:0:0:0:
448,192,222093,1,0,0:0:0:0:
192,192,222137,1,0,0:0:0:0:
64,192,222182,1,0,0:0:0:0:
448,192,222227,1,0,0:0:0:0:
192,192,222271,1,0,0:0:0:0:
320,192,222271,1,0,0:0:0:0:
448,192,222316,1,0,0:0:0:0:
64,192,222361,1,0,0:0:0:0:
192,192,222405,1,0,0:0:0:0:
320,192,222450,1,0,0:0:0:0:
448,192,222450,1,0,0:0:0:0:
64,192,222495,1,0,0:0:0:0:
192,192,222539,1,0,0:0:0:0:
448,192,222584,1,0,0:0:0:0:
320,192,222629,1,0,0:0:0:0:
64,192,222673,1,0,0:0:0:0:
320,192,222718,1,0,0:0:0:0:
192,192,222762,1,0,0:0:0:0:
320,192,222807,1,0,0:0:0:0:
448,192,222807,1,0,0:0:0:0:
64,192,222852,1,0,0:0:0:0:
192,192,222896,1,0,0:0:0:0:
320,192,222941,1,0,0:0:0:0:
64,192,222986,1,0,0:0:0:0:
448,192,222986,1,0,0:0:0:0:
320,192,223030,1,0,0:0:0:0:
192,192,223075,1,0,0:0:0:0:
64,192,223120,1,0,0:0:0:0:
192,192,223164,1,0,0:0:0:0:
320,192,223164,1,0,0:0:0:0:
448,192,223164,1,0,0:0:0:0:
64,192,223209,1,0,0:0:0:0:
192,192,223254,1,0,0:0:0:0:
448,192,223298,1,0,0:0:0:0:
320,192,223343,1,0,0:0:0:0:
64,192,223387,1,0,0:0:0:0:
192,192,223432,1,0,0:0:0:0:
448,192,223477,1,0,0:0:0:0:
64,192,223521,1,0,0:0:0:0:
320,192,223521,1,0,0:0:0:0:
192,192,223566,1,0,0:0:0:0:
448,192,223611,1,0,0:0:0:0:
64,192,223655,1,0,0:0:0:0:
320,192,223700,1,0,0:0:0:0:
448,192,223745,1,0,0:0:0:0:
192,192,223789,1,0,0:0:0:0:
64,192,223834,1,0,0:0:0:0:
320,192,223879,1,0,0:0:0:0:
448,192,223879,1,0,0:0:0:0:
192,192,223923,1,0,0:0:0:0:
448,192,223968,1,0,0:0:0:0:
64,192,224012,1,0,0:0:0:0:
320,192,224057,1,0,0:0:0:0:
192,192,224102,1,0,0:0:0:0:
320,192,224146,1,0,0:0:0:0:
448,192,224191,1,0,0:0:0:0:
64,192,224236,1,0,0:0:0:0:
192,192,224236,1,0,0:0:0:0:
320,192,224280,1,0,0:0:0:0:
192,192,224325,1,0,0:0:0:0:
64,192,224370,1,0,0:0:0:0:
320,192,224414,1,0,0:0:0:0:
448,192,224414,1,0,0:0:0:0:
192,192,224459,1,0,0:0:0:0:
320,192,224504,1,0,0:0:0:0:
448,192,224548,1,0,0:0:0:0:
64,192,224593,1,0,0:0:0:0:
192,192,224593,1,0,0:0:0:0:
320,192,224637,1,0,0:0:0:0:
192,192,224682,1,0,0:0:0:0:
320,192,224727,1,0,0:0:0:0:
64,192,224771,1,0,0:0:0:0:
448,192,224771,1,0,0:0:0:0:
192,192,224816,1,0,0:0:0:0:
64,192,224861,1,0,0:0:0:0:
192,192,224905,1,0,0:0:0:0:
320,192,224950,1,0,0:0:0:0:
448,192,224950,1,0,0:0:0:0:
64,192,224995,1,0,0:0:0:0:
448,192,225039,1,0,0:0:0:0:
64,192,225084,1,0,0:0:0:0:
192,192,225129,1,0,0:0:0:0:
320,192,225129,1,0,0:0:0:0:
448,192,225173,1,0,0:0:0:0:
320,192,225218,1,0,0:0:0:0:
448,192,225262,1,0,0:0:0:0:
64,192,225307,1,0,0:0:0:0:
192,192,225307,1,0,0:0:0:0:
320,192,225352,1,0,0:0:0:0:
192,192,225396,1,0,0:0:0:0:
64,192,225441,1,0,0:0:0:0:
320,192,225486,1,0,0:0:0:0:
192,192,225530,1,0,0:0:0:0:
64,192,225575,1,0,0:0:0:0:
320,192,225620,1,0,0:0:0:0:
192,192,225664,1,0,0:0:0:0:
448,192,225664,1,0,0:0:0:0:
64,192,225709,1,0,0:0:0:0:
192,192,225754,1,0,0:0:0:0:
320,192,225798,1,0,0:0:0:0:
192,192,225843,1,0,0:0:0:0:
448,192,225843,1,0,0:0:0:0:
64,192,225887,1,0,0:0:0:0:
192,192,225932,1,0,0:0:0:0:
320,192,225977,1,0,0:0:0:0:
64,192,226021,1,0,0:0:0:0:
192,192,226021,1,0,0:0:0:0:
448,192,226021,1,0,0:0:0:0:
320,192,226066,1,0,0:0:0:0:
64,192,226111,1,0,0:0:0:0:
192,192,226111,1,0,0:0:0:0:
448,192,226155,1,0,0:0:0:0:
64,192,226200,1,0,0:0:0:0:
320,192,226200,1,0,0:0:0:0:
192,192,226245,1,0,0:0:0:0:
320,192,226289,1,0,0:0:0:0:
448,192,226289,1,0,0:0:0:0:
64,192,226334,1,0,0:0:0:0:
192,192,226379,1,0,0:0:0:0:
448,192,226379,1,0,0:0:0:0:
320,192,226423,1,0,0:0:0:0:
192,192,226468,1,0,0:0:0:0:
448,192,226468,1,0,0:0:0:0:
64,192,226512,1,0,0:0:0:0:
192,192,226557,1,0,0:0:0:0:
320,192,226557,1,0,0:0:0:0:
448,192,226602,1,0,0:0:0:0:
64,192,226646,1,0,0:0:0:0:
320,192,226646,1,0,0:0:0:0:
192,192,226691,1,0,0:0:0:0:
320,192,226736,1,0,0:0:0:0:
448,192,226736,1,0,0:0:0:0:
192,192,226780,1,0,0:0:0:0:
320,192,226825,1,0,0:0:0:0:
448,192,226825,1,0,0:0:0:0:
64,192,226870,1,0,0:0:0:0:
192,192,226914,1,0,0:0:0:0:
448,192,226914,1,0,0:0:0:0:
320,192,226959,1,0,0:0:0:0:
64,192,227004,1,0,0:0:0:0:
192,192,227004,1,0,0:0:0:0:
448,192,227048,1,0,0:0:0:0:
64,192,227093,1,0,0:0:0:0:
192,192,227093,1,0,0:0:0:0:
320,192,227093,1,0,0:0:0:0:
448,192,227137,1,0,0:0:0:0:
64,192,227182,1,0,0:0:0:0:
320,192,227182,1,0,0:0:0:0:
192,192,227227,1,0,0:0:0:0:
64,192,227271,1,0,0:0:0:0:
320,192,227271,1,0,0:0:0:0:
448,192,227271,1,0,0:0:0:0:
192,192,227316,1,0,0:0:0:0:
320,192,227361,1,0,0:0:0:0:
448,192,227361,1,0,0:0:0:0:
64,192,227405,1,0,0:0:0:0:
192,192,227450,1,0,0:0:0:0:
320,192,227450,1,0,0:0:0:0:
448,192,227450,1,0,0:0:0:0:
64,192,227495,1,0,0:0:0:0:
192,192,227539,1,0,0:0:0:0:
448,192,227539,1,0,0:0:0:0:
320,192,227584,1,0,0:0:0:0:
64,192,227629,1,0,0:0:0:0:
192,192,227629,1,0,0:0:0:0:
448,192,227673,1,0,0:0:0:0:
64,192,227718,1,0,0:0:0:0:
320,192,227718,1,0,0:0:0:0:
192,192,227762,1,0,0:0:0:0:
320,192,227807,1,0,0:0:0:0:
448,192,227807,1,0,0:0:0:0:
64,192,227852,1,0,0:0:0:0:
192,192,227896,1,0,0:0:0:0:
320,192,227896,1,0,0:0:0:0:
448,192,227941,1,0,0:0:0:0:
64,192,227986,1,0,0:0:0:0:
192,192,227986,1,0,0:0:0:0:
320,192,228030,1,0,0:0:0:0:
64,192,228075,1,0,0:0:0:0:
448,192,228075,1,0,0:0:0:0:
192,192,228120,1,0,0:0:0:0:
320,192,228164,1,0,0:0:0:0:
448,192,228164,1,0,0:0:0:0:
64,192,228209,1,0,0:0:0:0:
192,192,228254,1,0,0:0:0:0:
448,192,228254,1,0,0:0:0:0:
320,192,228298,1,0,0:0:0:0:
64,192,228343,1,0,0:0:0:0:
192,192,228343,1,0,0:0:0:0:
448,192,228387,1,0,0:0:0:0:
192,192,228432,1,0,0:0:0:0:
320,192,228432,1,0,0:0:0:0:
64,192,228477,1,0,0:0:0:0:
192,192,228521,1,0,0:0:0:0:
320,192,228521,1,0,0:0:0:0:
448,192,228521,1,0,0:0:0:0:
64,192,228566,1,0,0:0:0:0:
320,192,228611,1,0,0:0:0:0:
448,192,228611,1,0,0:0:0:0:
64,192,228655,1,0,0:0:0:0:
192,192,228700,1,0,0:0:0:0:
320,192,228700,1,0,0:0:0:0:
448,192,228700,1,0,0:0:0:0:
64,192,228745,1,0,0:0:0:0:
192,192,228789,1,0,0:0:0:0:
448,192,228789,1,0,0:0:0:0:
320,192,228834,1,0,0:0:0:0:
64,192,228879,1,0,0:0:0:0:
192,192,228879,1,0,0:0:0:0:
448,192,228879,1,0,0:0:0:0:
320,192,228923,1,0,0:0:0:0:
64,192,228968,1,0,0:0:0:0:
192,192,228968,1,0,0:0:0:0:
448,192,229012,1,0,0:0:0:0:
64,192,229057,1,0,0:0:0:0:
320,192,229057,1,0,0:0:0:0:
192,192,229102,1,0,0:0:0:0:
320,192,229146,1,0,0:0:0:0:
448,192,229146,1,0,0:0:0:0:
64,192,229191,1,0,0:0:0:0:
192,192,229236,1,0,0:0:0:0:
448,192,229236,1,0,0:0:0:0:
320,192,229280,1,0,0:0:0:0:
192,192,229325,1,0,0:0:0:0:
448,192,229325,1,0,0:0:0:0:
64,192,229370,1,0,0:0:0:0:
192,192,229414,1,0,0:0:0:0:
320,192,229414,1,0,0:0:0:0:
448,192,229459,1,0,0:0:0:0:
64,192,229504,1,0,0:0:0:0:
320,192,229504,1,0,0:0:0:0:
192,192,229548,1,0,0:0:0:0:
320,192,229593,1,0,0:0:0:0:
448,192,229593,1,0,0:0:0:0:
192,192,229637,1,0,0:0:0:0:
320,192,229682,1,0,0:0:0:0:
448,192,229682,1,0,0:0:0:0:
64,192,229727,1,0,0:0:0:0:
192,192,229771,1,0,0:0:0:0:
448,192,229771,1,0,0:0:0:0:
320,192,229816,1,0,0:0:0:0:
64,192,229861,1,0,0:0:0:0:
192,192,229861,1,0,0:0:0:0:
448,192,229905,1,0,0:0:0:0:
64,192,229950,1,0,0:0:0:0:
192,192,229950,1,0,0:0:0:0:
320,192,229950,1,0,0:0:0:0:
448,192,229995,1,0,0:0:0:0:
64,192,230039,1,0,0:0:0:0:
320,192,230039,1,0,0:0:0:0:
192,192,230084,1,0,0:0:0:0:
64,192,230129,1,0,0:0:0:0:
320,192,230129,1,0,0:0:0:0:
448,192,230129,1,0,0:0:0:0:
192,192,230173,1,0,0:0:0:0:
320,192,230218,1,0,0:0:0:0:
448,192,230218,1,0,0:0:0:0:
64,192,230262,1,0,0:0:0:0:
192,192,230307,1,0,0:0:0:0:
320,192,230307,1,0,0:0:0:0:
448,192,230307,1,0,0:0:0:0:
64,192,230352,1,0,0:0:0:0:
192,192,230396,1,0,0:0:0:0:
448,192,230396,1,0,0:0:0:0:
320,192,230441,1,0,0:0:0:0:
64,192,230486,1,0,0:0:0:0:
192,192,230486,1,0,0:0:0:0:
448,192,230530,1,0,0:0:0:0:
64,192,230575,1,0,0:0:0:0:
320,192,230575,1,0,0:0:0:0:
192,192,230620,1,0,0:0:0:0:
320,192,230664,1,0,0:0:0:0:
448,192,230664,1,0,0:0:0:0:
64,192,230709,1,0,0:0:0:0:
320,192,230754,1,0,0:0:0:0:
448,192,230754,1,0,0:0:0:0:
192,192,230798,1,0,0:0:0:0:
64,192,230843,1,0,0:0:0:0:
320,192,230843,1,0,0:0:0:0:
448,192,230843,1,0,0:0:0:0:
192,192,230887,1,0,0:0:0:0:
64,192,230932,1,0,0:0:0:0:
448,192,230932,1,0,0:0:0:0:
320,192,230977,1,0,0:0:0:0:
64,192,231021,1,0,0:0:0:0:
192,192,231021,1,0,0:0:0:0:
448,192,231066,1,0,0:0:0:0:
192,192,231111,1,0,0:0:0:0:
448,192,231155,1,0,0:0:0:0:
192,192,231200,1,0,0:0:0:0:
320,192,231245,1,0,0:0:0:0:
64,192,231289,1,0,0:0:0:0:
192,192,231334,1,0,0:0:0:0:
320,192,231379,1,0,0:0:0:0:
448,192,231379,1,0,0:0:0:0:
64,192,231423,1,0,0:0:0:0:
320,192,231468,1,0,0:0:0:0:
64,192,231512,1,0,0:0:0:0:
192,192,231557,1,0,0:0:0:0:
448,192,231602,1,0,0:0:0:0:
320,192,231646,1,0,0:0:0:0:
64,192,231691,1,0,0:0:0:0:
192,192,231736,1,0,0:0:0:0:
448,192,231736,128,0,233164:0:0:0:0:
64,192,231914,1,0,0:0:0:0:
192,192,231914,1,0,0:0:0:0:
64,192,232004,1,0,0:0:0:0:
192,192,232004,1,0,0:0:0:0:
64,192,232093,1,0,0:0:0:0:
192,192,232093,1,0,0:0:0:0:
64,192,232182,1,0,0:0:0:0:
192,192,232182,1,0,0:0:0:0:
64,192,232271,1,0,0:0:0:0:
192,192,232271,1,0,0:0:0:0:
64,192,232361,1,0,0:0:0:0:
192,192,232361,1,0,0:0:0:0:
64,192,232450,1,0,0:0:0:0:
192,192,232450,1,0,0:0:0:0:
320,192,232450,1,0,0:0:0:0:
192,192,232629,1,0,0:0:0:0:
320,192,232629,1,0,0:0:0:0:
192,192,232718,1,0,0:0:0:0:
320,192,232718,1,0,0:0:0:0:
64,192,232807,1,0,0:0:0:0:
192,192,232807,1,0,0:0:0:0:
320,192,232807,1,0,0:0:0:0:
64,192,232986,1,0,0:0:0:0:
192,192,232986,1,0,0:0:0:0:
64,192,233075,1,0,0:0:0:0:
192,192,233075,1,0,0:0:0:0:
64,192,233164,1,0,0:0:0:0:
192,192,233164,1,0,0:0:0:0:
320,192,233164,1,0,0:0:0:0:
320,192,233343,1,0,0:0:0:0:
192,192,233387,1,0,0:0:0:0:
320,192,233432,1,0,0:0:0:0:
192,192,233477,1,0,0:0:0:0:
64,192,233521,1,0,0:0:0:0:
448,192,233521,1,0,0:0:0:0:
64,192,233611,1,0,0:0:0:0:
448,192,233611,1,0,0:0:0:0:
192,192,233700,1,0,0:0:0:0:
320,192,233700,1,0,0:0:0:0:
448,192,233745,1,0,0:0:0:0:
320,192,233789,1,0,0:0:0:0:
448,192,233834,1,0,0:0:0:0:
64,192,233879,1,0,0:0:0:0:
320,192,233879,1,0,0:0:0:0:
64,192,233968,1,0,0:0:0:0:
320,192,233968,1,0,0:0:0:0:
192,192,234057,1,0,0:0:0:0:
448,192,234057,1,0,0:0:0:0:
192,192,234146,1,0,0:0:0:0:
448,192,234146,1,0,0:0:0:0:
64,192,234236,128,0,234593:0:0:0:0:
192,192,234236,1,0,0:0:0:0:
320,192,234236,1,0,0:0:0:0:
320,192,234414,1,0,0:0:0:0:
448,192,234414,1,0,0:0:0:0:
320,192,234504,1,0,0:0:0:0:
448,192,234504,1,0,0:0:0:0:
192,192,234593,1,0,0:0:0:0:
320,192,234593,1,0,0:0:0:0:
448,192,234593,128,0,234950:0:0:0:0:
64,192,234771,1,0,0:0:0:0:
192,192,234771,1,0,0:0:0:0:
64,192,234861,1,0,0:0:0:0:
192,192,234861,1,0,0:0:0:0:
64,192,234950,128,0,235307:0:0:0:0:
192,192,234950,1,0,0:0:0:0:
320,192,234950,1,0,0:0:0:0:
192,192,235129,1,0,0:0:0:0:
320,192,235129,1,0,0:0:0:0:
192,192,235218,1,0,0:0:0:0:
320,192,235218,1,0,0:0:0:0:
192,192,235307,1,0,0:0:0:0:
320,192,235307,1,0,0:0:0:0:
448,192,235307,128,0,235664:0:0:0:0:
192,192,235396,1,0,0:0:0:0:
320,192,235396,1,0,0:0:0:0:
192,192,235486,1,0,0:0:0:0:
320,192,235486,1,0,0:0:0:0:
192,192,235575,1,0,0:0:0:0:
320,192,235575,1,0,0:0:0:0:
64,192,235664,1,0,0:0:0:0:
320,192,235664,1,0,0:0:0:0:
192,192,235709,1,0,0:0:0:0:
320,192,235754,1,0,0:0:0:0:
448,192,235798,1,0,0:0:0:0:
64,192,235843,1,0,0:0:0:0:
192,192,235843,1,0,0:0:0:0:
320,192,235887,1,0,0:0:0:0:
192,192,235932,1,0,0:0:0:0:
64,192,235977,1,0,0:0:0:0:
192,192,236021,1,0,0:0:0:0:
320,192,236021,1,0,0:0:0:0:
448,192,236021,128,0,236736:0:0:0:0:
192,192,236557,1,0,0:0:0:0:
320,192,236557,1,0,0:0:0:0:
64,192,236646,1,0,0:0:0:0:
320,192,236646,1,0,0:0:0:0:
64,192,236736,1,0,0:0:0:0:
192,192,236736,1,0,0:0:0:0:
320,192,236736,128,0,236914:0:0:0:0:
64,192,236914,1,0,0:0:0:0:
448,192,236914,1,0,0:0:0:0:
192,192,236959,1,0,0:0:0:0:
320,192,237004,1,0,0:0:0:0:
192,192,237048,1,0,0:0:0:0:
64,192,237093,1,0,0:0:0:0:
320,192,237093,1,0,0:0:0:0:
448,192,237137,1,0,0:0:0:0:
320,192,237182,1,0,0:0:0:0:
192,192,237227,1,0,0:0:0:0:
64,192,237271,1,0,0:0:0:0:
448,192,237271,1,0,0:0:0:0:
192,192,237361,1,0,0:0:0:0:
320,192,237361,1,0,0:0:0:0:
64,192,237450,128,0,237629:0:0:0:0:
192,192,237450,1,0,0:0:0:0:
320,192,237450,128,0,237629:0:0:0:0:
448,192,237450,128,0,237629:0:0:0:0:
