osu file format v14

[General]
AudioFilename: audio.mp3
AudioLeadIn: 0
PreviewTime: 569
Countdown: 0
SampleSet: Normal
StackLeniency: 0.7
Mode: 2
LetterboxInBreaks: 0
WidescreenStoryboard: 1

[Editor]
Bookmarks: 3569,5069,6569,8069,9569,11069,12569,14069,15569,17069,18569,20069,20819,21569,24569,27569,30569,32069,33569,36569,38069,38819,39569,40319,41069,41819,42006,42194,42381,42569,44069,44819,45569,47069,48569,52319,78569,102569,126569,328406
DistanceSpacing: 0.8
BeatDivisor: 4
GridSize: 8
TimelineZoom: 2

[Metadata]
Title:Apparition
TitleUnicode:Apparition
Artist:Spawn of Possession
ArtistUnicode:Spawn of Possession
Creator:Razor Sharp
Version:Anguish
Source:
Tags:english incurso progressive prog brutal technical tech symphonic black death metal marathon daletto iyouka death stream deathstream nyalettowo x3
BeatmapID:4503135
BeatmapSetID:2139627

[Difficulty]
HPDrainRate:3
CircleSize:4.5
OverallDifficulty:10
ApproachRate:10
SliderMultiplier:2
SliderTickRate:2

[Events]
//Background and Video events
0,0,"bg (1).png",0,0
//Break Periods
//Storyboard Layer 0 (Background)
//Storyboard Layer 1 (Fail)
//Storyboard Layer 2 (Pass)
//Storyboard Layer 3 (Foreground)
//Storyboard Layer 4 (Overlay)
//Storyboard Sound Samples

[TimingPoints]
569,750,4,3,1,10,1,0
53819,-100,4,3,1,15,0,0
54381,-100,4,3,1,5,0,0
54569,250,4,1,1,70,1,0
54631,-100,4,3,1,70,0,0
61569,-40,4,3,1,65,0,0
61694,-40,4,3,1,65,0,0
61756,-40,4,3,1,5,0,0
61819,-40,4,3,1,65,0,0
61944,-40,4,3,1,65,0,0
62006,-40,4,3,1,5,0,0
62069,-40,4,3,1,65,0,0
62194,-40,4,3,1,65,0,0
62256,-40,4,3,1,5,0,0
62319,-40,4,3,1,65,0,0
62444,-40,4,3,1,65,0,0
62506,-40,4,3,1,5,0,0
62569,-100,4,3,1,70,0,0
62631,-100,4,3,1,70,0,0
64319,-100,4,3,1,70,0,0
64506,-100,4,3,1,70,0,0
64631,-100,4,3,1,70,0,0
66319,-100,4,3,1,70,0,0
66506,-100,4,3,1,70,0,0
66631,-100,4,3,1,70,0,0
68319,-100,4,3,1,70,0,0
68506,-100,4,3,1,70,0,0
68631,-100,4,3,1,70,0,0
69569,-40,4,3,1,65,0,0
69694,-40,4,3,1,65,0,0
69756,-40,4,3,1,5,0,0
69819,-40,4,3,1,65,0,0
69944,-40,4,3,1,65,0,0
70006,-40,4,3,1,5,0,0
70069,-40,4,3,1,65,0,0
70194,-40,4,3,1,65,0,0
70256,-40,4,3,1,5,0,0
70319,-40,4,3,1,65,0,0
70444,-40,4,3,1,65,0,0
70506,-40,4,3,1,5,0,0
70569,-100,4,1,1,50,0,0
70631,-100,4,2,1,45,0,0
70819,-100,4,2,1,45,0,0
71069,-100,4,2,1,45,0,0
71131,-100,4,2,1,45,0,0
71569,-100,4,2,1,45,0,0
71631,-100,4,2,1,45,0,0
72069,-100,4,2,1,45,0,0
72131,-100,4,2,1,45,0,0
72569,-100,4,2,1,45,0,0
73131,-100,4,2,1,45,0,0
73569,-100,4,2,1,45,0,0
73631,-100,4,2,1,45,0,0
74069,-100,4,2,1,45,0,0
74131,-100,4,2,1,45,0,0
74569,-100,4,2,1,45,0,0
74631,-100,4,2,1,45,0,0
75069,-100,4,2,1,45,0,0
75131,-100,4,2,1,45,0,0
75569,-100,4,2,1,45,0,0
75631,-100,4,2,1,45,0,0
76069,-100,4,2,1,45,0,0
76131,-100,4,2,1,45,0,0
76569,-100,4,2,1,45,0,0
76631,-100,4,2,1,45,0,0
77069,-100,4,2,1,45,0,0
77131,-100,4,2,1,45,0,0
77569,-100,4,2,1,45,0,0
77631,-100,4,2,1,45,0,0
78069,-100,4,2,1,45,0,0
78131,-100,4,2,1,45,0,0
78569,-100,4,1,1,75,0,1
78631,-100,4,3,1,75,0,1
80569,-71.4285714285714,4,3,1,75,0,1
82069,-100,4,3,1,75,0,1
82131,-100,4,3,1,75,0,1
82444,-100,4,3,1,75,0,1
84569,-100,4,3,1,75,0,1
84694,-100,4,3,1,75,0,1
85569,-100,4,3,1,75,0,1
86569,-71.4285714285714,4,3,1,70,0,1
88569,-100,4,3,1,70,0,1
90131,-100,4,3,1,70,0,1
90444,-100,4,3,1,70,0,1
92319,-100,4,3,1,70,0,1
92381,-100,4,3,1,70,0,1
95569,-71.4285714285714,4,3,1,70,0,1
96569,-100,4,3,1,70,0,1
98131,-100,4,3,1,70,0,1
98569,-100,4,3,1,70,0,1
101819,-100,4,3,1,60,0,1
102069,-100,4,3,1,70,0,1
102569,-100,4,3,1,75,0,0
102631,-100,4,3,1,75,0,0
104069,-100,4,3,1,75,0,0
104381,-100,4,3,1,75,0,0
105819,-100,4,3,1,70,0,0
106006,-100,4,3,1,5,0,0
106069,-100,4,3,1,70,0,0
106256,-100,4,3,1,5,0,0
106319,-100,4,3,1,70,0,0
106506,-100,4,3,1,5,0,0
106569,-100,4,3,1,75,0,0
107756,-100,4,3,1,75,0,0
108506,-100,4,3,1,75,0,0
109756,-100,4,3,1,75,0,0
110569,-100,4,3,1,75,0,0
110631,-100,4,3,1,75,0,0
112069,-100,4,3,1,75,0,0
112506,-100,4,3,1,75,0,0
113006,-100,4,3,1,75,0,0
113506,-100,4,3,1,75,0,0
114569,-100,4,3,1,75,0,0
115319,-100,4,3,1,75,0,0
115381,-100,4,3,1,75,0,0
115756,-100,4,3,1,75,0,0
116506,-100,4,3,1,75,0,0
117069,-100,4,3,1,75,0,0
117131,-100,4,3,1,75,0,0
117756,-100,4,3,1,75,0,0
118569,-100,4,3,1,75,0,0
120006,-100,4,3,1,75,0,0
120506,-100,4,3,1,75,0,0
121006,-100,4,3,1,75,0,0
121506,-100,4,3,1,75,0,0
123319,-100,4,3,1,75,0,0
123381,-100,4,3,1,75,0,0
123756,-100,4,3,1,75,0,0
124381,-100,4,3,1,75,0,0
125069,-100,4,3,1,75,0,0
125131,-100,4,3,1,75,0,0
125756,-100,4,3,1,75,0,0
126569,-71.4285714285714,4,1,1,85,0,1
126631,-71.4285714285714,4,3,2,85,0,1
130069,-71.4285714285714,4,3,2,80,0,1
130569,-71.4285714285714,4,3,2,85,0,1
130631,-71.4285714285714,4,3,2,85,0,1
134069,-71.4285714285714,4,3,2,80,0,1
134319,-71.4285714285714,4,3,2,70,0,1
134569,-71.4285714285714,4,1,1,85,0,1
134631,-71.4285714285714,4,3,1,85,0,1
138069,-71.4285714285714,4,3,1,80,0,1
138319,-71.4285714285714,4,3,1,80,0,1
138569,-71.4285714285714,4,3,1,85,0,1
138631,-71.4285714285714,4,3,1,85,0,1
141569,-71.4285714285714,4,3,1,80,0,1
142069,-71.4285714285714,4,3,1,75,0,1
142569,-100,4,1,1,70,0,0
142631,-100,4,3,1,70,0,0
144256,-100,4,3,1,70,0,0
144506,-100,4,3,1,70,0,0
144631,-100,4,3,1,70,0,0
146256,-100,4,3,1,70,0,0
146506,-100,4,3,1,70,0,0
146631,-100,4,3,1,70,0,0
148256,-100,4,3,1,70,0,0
148506,-100,4,3,1,70,0,0
148631,-100,4,3,1,70,0,0
149569,-40,4,3,1,65,0,0
149694,-40,4,3,1,65,0,0
149756,-40,4,3,1,5,0,0
149819,-40,4,3,1,65,0,0
149944,-40,4,3,1,65,0,0
150006,-40,4,3,1,5,0,0
150069,-40,4,3,1,65,0,0
150194,-40,4,3,1,65,0,0
150256,-40,4,3,1,5,0,0
150319,-40,4,3,1,65,0,0
150444,-40,4,3,1,65,0,0
150506,-40,4,3,1,5,0,0
150569,-100,4,3,1,70,0,0
150631,-100,4,3,1,70,0,0
152256,-100,4,3,1,70,0,0
152506,-100,4,3,1,70,0,0
152631,-100,4,3,1,70,0,0
154069,-100,4,3,1,70,0,0
154256,-100,4,3,1,70,0,0
154506,-100,4,3,1,70,0,0
154631,-100,4,3,1,70,0,0
156256,-100,4,3,1,70,0,0
156506,-100,4,3,1,70,0,0
156631,-100,4,3,1,70,0,0
157569,-40,4,3,1,70,0,0
157694,-40,4,3,1,70,0,0
157819,-40,4,3,1,70,0,0
157944,-40,4,3,1,70,0,0
158069,-40,4,3,1,70,0,0
158194,-40,4,3,1,70,0,0
158319,-40,4,3,1,70,0,0
158444,-40,4,3,1,70,0,0
158569,257.8,4,2,0,60,1,0
159091,249.8,4,2,0,50,1,0
159570,249.8,4,2,0,40,1,0
160079,249.8,4,2,0,40,1,0
161087,240.4,4,2,0,30,1,0
161557,240.4,4,2,0,30,1,0
161557,-133.333333333333,4,2,0,30,0,0
161567,-133.333333333333,4,2,1,35,0,0
162279,-133.333333333333,4,2,1,35,0,0
162289,-133.333333333333,4,2,1,10,0,0
164068,259,4,2,1,25,1,0
164598,250,4,2,1,30,1,0
165523,242.033077853973,4,2,1,30,1,0
165583,-100,4,2,1,25,0,0
165586,-100,4,2,1,25,0,0
166554,263,4,2,1,25,1,0
166814,255,4,2,1,25,1,0
167583,265.8,4,2,1,25,1,0
167839,262.4,4,2,1,25,1,0
168499,285.714285714286,4,2,1,25,1,0
168824,265.1,4,2,1,25,1,0
169081,250,4,2,1,30,1,0
169331,265.2,4,2,1,30,1,0
169596,250,4,2,1,35,1,0
169846,232,4,2,1,35,1,0
170078,250,4,2,1,40,1,0
170328,240,4,2,1,40,1,0
170578,-100,4,2,1,45,0,0
172328,250,4,2,1,30,1,0
173328,234,4,2,1,35,1,0
173557,250,4,2,1,35,1,0
173570,-100,4,2,1,40,0,0
173820,250,4,2,1,40,1,0
174554,250,4,2,1,40,1,0
175055,250,4,2,1,40,1,0
176046,238.4,4,2,1,35,1,0
176977,250,4,2,1,35,1,0
177062,250,4,2,1,35,1,0
178014,250,4,2,1,30,1,0
178076,242.1,4,2,1,30,1,0
178576,246.8,4,2,1,20,1,0
179073,375,4,2,1,55,1,0
179077,-100,4,2,1,55,0,0
186573,-100,4,2,1,60,0,0
186577,-100,4,2,1,60,0,0
186948,-100,4,2,1,65,0,0
186952,-100,4,2,1,65,0,0
187041,-100,4,2,1,50,0,0
187045,-100,4,2,1,50,0,0
189198,-100,4,2,1,30,0,0
189202,-100,4,2,1,30,0,0
189573,-100,4,2,1,55,0,0
189577,-100,4,2,1,55,0,0
194073,-100,4,2,1,65,0,0
194077,-100,4,2,1,65,0,0
195573,-100,4,2,1,60,0,0
195577,-100,4,2,1,60,0,0
203083,500,4,2,1,55,1,0
203087,-100,4,2,1,55,0,0
203446,500,3,2,1,50,1,0
227446,500,5,3,1,55,1,0
229946,-100,5,3,1,60,0,0
230446,-100,5,3,1,65,0,0
230946,-100,5,3,1,70,0,0
231446,-100,5,3,1,75,0,0
231946,-100,5,3,1,50,0,0
232446,-100,5,3,1,55,0,0
234946,-100,5,3,1,60,0,0
235446,-100,5,3,1,65,0,0
235946,-100,5,3,1,70,0,0
236446,-100,5,3,1,75,0,0
236946,-100,5,3,1,50,0,0
237446,480,4,3,1,55,1,0
238406,-100,4,3,1,50,0,0
238886,-100,4,3,1,55,0,0
242246,-100,4,3,1,50,0,0
242726,-100,4,3,1,55,0,0
245126,-50,4,3,1,60,0,0
252806,-100,4,3,1,55,0,0
253766,-100,4,3,1,50,0,0
254246,-100,4,3,1,55,0,0
257606,-100,4,3,1,50,0,0
258086,-100,4,3,1,55,0,0
260486,-50,4,3,1,65,0,0
267686,-50,4,3,1,70,0,0
267846,-50,4,3,1,5,0,0
267926,-50,4,3,1,70,0,0
268086,-50,4,3,1,5,0,0
268166,240,4,3,1,80,1,1
271046,-100,4,2,1,50,0,0
271766,-100,4,3,1,65,0,0
272006,-100,4,3,1,80,0,1
274886,-100,4,3,1,70,0,0
275786,-100,4,3,1,5,0,0
275846,-100,4,3,1,70,0,0
276746,-100,4,3,1,5,0,0
276806,-100,4,3,1,80,0,1
284486,-100,4,3,1,85,0,1
287846,-100,4,3,1,80,0,1
288026,-100,4,3,1,5,0,1
288086,-100,4,3,1,80,0,1
288266,-100,4,3,1,5,0,1
288326,-100,4,3,1,85,0,1
292166,-100,4,3,1,90,0,1
293606,-100,4,3,1,85,0,1
293786,-100,4,3,1,5,0,1
293846,-100,4,3,1,85,0,0
294026,-100,4,3,1,5,0,0
294086,-100,4,2,1,75,0,1
294206,-100,4,2,1,75,0,0
294326,-100,4,2,1,50,0,0
294806,-100,4,2,1,75,0,1
294926,-100,4,2,1,75,0,0
295046,-100,4,2,1,75,0,1
295166,-100,4,2,1,75,0,0
295286,-100,4,2,1,50,0,0
295526,-100,4,2,1,75,0,1
295646,-100,4,2,1,75,0,0
295766,-100,4,2,1,50,0,0
296006,-100,4,3,1,70,0,0
296666,-100,4,3,1,5,0,0
296726,-100,4,3,1,70,0,0
297026,-100,4,3,1,5,0,0
297086,-100,4,3,1,70,0,0
297386,-100,4,3,1,5,0,0
297446,-100,4,3,1,70,0,0
297626,-100,4,3,1,5,0,0
297686,-100,4,2,1,75,0,1
297806,-100,4,2,1,75,0,0
297926,-100,4,2,1,50,0,0
298406,-100,4,2,1,75,0,1
298526,-100,4,2,1,75,0,0
298646,-100,4,2,1,75,0,1
298766,-100,4,2,1,75,0,0
298886,-100,4,2,1,50,0,0
299126,-100,4,2,1,75,0,1
299246,-100,4,2,1,75,0,0
299366,-100,4,2,1,50,0,0
299606,-100,4,3,1,70,0,0
300086,-100,4,3,1,70,0,1
300206,-100,4,3,1,70,0,0
300266,-100,4,3,1,5,0,0
300326,-100,4,3,1,70,0,0
300806,-100,4,3,1,70,0,1
300926,-100,4,3,1,70,0,0
300986,-100,4,3,1,5,0,0
301046,-100,4,3,1,70,0,0
301526,-100,4,3,1,70,0,1
301646,-100,4,3,1,70,0,0
301706,-100,4,3,1,5,0,0
301766,-100,4,2,1,75,0,1
301886,-100,4,2,1,75,0,0
302486,-100,4,2,1,75,0,1
302606,-100,4,2,1,75,0,0
302726,-100,4,2,1,75,0,1
302846,-100,4,2,1,75,0,0
303206,-100,4,2,1,75,0,1
303326,-100,4,2,1,75,0,0
303686,-100,4,3,1,70,0,0
304166,-100,4,3,1,70,0,1
304286,-100,4,3,1,70,0,0
304346,-100,4,3,1,5,0,0
304406,-100,4,3,1,70,0,0
304706,-100,4,3,1,5,0,0
304766,-100,4,3,1,70,0,0
305066,-100,4,3,1,5,0,0
305126,-100,4,3,1,70,0,0
305366,-100,4,2,1,75,0,1
305486,-100,4,2,1,75,0,0
306086,-100,4,2,1,75,0,1
306206,-100,4,2,1,75,0,0
306326,-100,4,2,1,75,0,1
306446,-100,4,2,1,75,0,0
306806,-100,4,2,1,75,0,1
306926,-100,4,2,1,75,0,0
307286,-100,4,3,1,70,0,0
307766,-100,4,3,1,70,0,1
307886,-100,4,3,1,70,0,0
307946,-100,4,3,1,5,0,0
308006,-100,4,3,1,70,0,0
308486,-100,4,3,1,70,0,1
308606,-100,4,3,1,70,0,0
308666,-100,4,3,1,5,0,0
308726,-100,4,3,1,70,0,0
309206,240,4,3,1,75,1,0
309446,-100,4,3,1,50,0,0
309686,-100,4,3,1,55,0,0
310166,-100,4,3,1,60,0,0
310646,-100,4,3,1,65,0,0
311126,-100,4,2,1,70,0,0
311306,-100,4,2,1,5,0,0
311366,-100,4,2,1,30,0,0
311606,-100,4,2,1,35,0,0
311846,-100,4,2,1,40,0,0
312086,-100,4,2,1,45,0,0
312326,-100,4,2,1,50,0,0
312566,-100,4,2,1,55,0,0
312806,-100,4,2,1,60,0,0
313046,-100,4,3,1,75,0,0
313286,-100,4,3,1,55,0,0
313526,-100,4,3,1,60,0,0
314006,-100,4,3,1,65,0,0
314486,-100,4,3,1,70,0,0
314966,-50,4,3,1,75,0,0
315206,-100,4,3,1,75,0,0
315446,-100,4,3,1,70,0,0
315926,-100,4,3,1,60,0,0
316886,-100,4,3,1,75,0,0
317126,-100,4,3,1,60,0,0
318806,-50,4,3,1,70,0,0
319046,-100,4,3,1,70,0,0
319766,-100,4,3,1,65,0,0
320726,-100,4,3,1,75,0,0
323606,-100,4,3,1,60,0,0
324566,-100,4,3,1,75,0,0
327446,-100,4,3,1,60,0,0
328406,-100,4,3,1,75,0,0
339206,-100,4,3,1,30,0,0
339446,-100,4,3,1,75,0,0
341846,-100,4,3,1,80,0,0
343766,-100,4,3,1,70,0,0
357206,-100,4,3,1,75,0,0
359126,222.222222222222,4,1,1,90,1,1
359181,-100,4,3,2,90,0,1
362681,-71.4285714285714,4,3,2,90,0,1
364459,-100,4,1,1,90,0,1
364514,-100,4,3,2,90,0,1
368014,-71.4285714285714,4,3,2,90,0,1
369792,-100,4,1,1,95,0,1
369848,-100,4,3,2,95,0,1
372181,-100,4,3,2,5,0,1
372237,-100,4,3,2,95,0,1
372403,-100,4,3,2,5,0,1
372459,-100,4,3,2,95,0,1
372626,-100,4,3,2,5,0,1
372681,-100,4,3,2,95,0,1
372848,-100,4,3,2,5,0,1
372903,-100,4,1,1,95,0,1
372959,-100,4,3,2,95,0,1
375292,-100,4,3,2,5,0,1
375348,-100,4,3,2,95,0,1
375514,-100,4,3,2,5,0,1
375570,-100,4,3,2,95,0,1
375737,-100,4,3,2,5,0,1
375792,-100,4,3,2,95,0,1
375959,-100,4,3,2,5,0,1
376014,-100,4,1,1,95,0,1
376070,-100,4,3,2,95,0,1
378403,-100,4,3,2,5,0,1
378459,-100,4,3,2,95,0,1
378626,-100,4,3,2,5,0,1
378681,-100,4,3,2,95,0,1
378848,-100,4,3,2,5,0,1
378903,-100,4,3,2,95,0,1
379070,-100,4,3,2,5,0,1
379126,-100,4,1,1,95,0,1
379181,-100,4,3,2,95,0,1
381514,-100,4,3,2,5,0,1
381570,-100,4,3,2,95,0,1
381737,-100,4,3,2,5,0,1
381792,-100,4,3,2,95,0,1
381959,-100,4,3,2,5,0,1
382014,-100,4,3,2,95,0,1
382181,-100,4,3,2,5,0,1
382237,428.571428571429,4,3,1,80,1,0
382237,-71.4285714285714,4,3,1,80,0,0
385665,-71.4285714285714,4,3,1,85,0,0
389094,-71.4285714285714,4,3,1,80,0,0
392522,-71.4285714285714,4,3,1,85,0,0
395951,-71.4285714285714,4,3,1,60,0,0
396808,-71.4285714285714,4,3,1,70,0,0
397665,-71.4285714285714,4,3,1,80,0,0
398522,-71.4285714285714,4,2,1,70,0,0
399379,300,4,3,1,70,1,0
399454,428.571428571429,4,3,1,70,1,0
400204,461.538461538462,4,2,1,60,1,0
400665,428.571428571429,4,2,1,60,1,0
401093,428.571428571429,4,1,1,70,1,0
401093,-71.4285714285714,4,1,1,70,0,0
401200,-71.4285714285714,4,3,1,40,0,0
402807,-71.4285714285714,4,3,1,60,0,0
412557,-71.4285714285714,4,3,1,5,0,0
412664,-71.4285714285714,4,3,1,65,0,0
414807,-71.4285714285714,4,3,2,75,0,0
416093,-71.4285714285714,4,2,1,75,0,0
416521,-71.4285714285714,4,3,2,80,0,0
417807,-71.4285714285714,4,2,1,80,0,0
418235,-71.4285714285714,4,3,2,85,0,0
419521,-71.4285714285714,4,2,1,85,0,0
419950,-71.4285714285714,4,3,2,80,0,0
420807,-71.4285714285714,4,3,2,70,0,0
421664,-71.4285714285714,4,3,2,75,0,0
422950,-71.4285714285714,4,2,1,75,0,0
423378,-71.4285714285714,4,3,2,80,0,0
424128,-71.4285714285714,4,3,2,5,0,0
424235,-71.4285714285714,4,3,2,80,0,0
424664,-71.4285714285714,4,2,1,80,0,0
425093,-71.4285714285714,4,3,2,85,0,0
426378,-71.4285714285714,4,2,1,85,0,0
426807,-71.4285714285714,4,3,2,80,0,0
427557,-71.4285714285714,4,3,2,5,0,0
427664,-71.4285714285714,4,2,1,75,0,0
427985,-71.4285714285714,4,3,2,5,0,0
428093,-71.4285714285714,4,2,1,75,0,0
428414,-71.4285714285714,4,2,1,5,0,0
428521,250,4,1,1,85,1,1
428521,-71.4285714285714,4,1,1,85,0,1
428583,-71.4285714285714,4,3,1,85,0,1
431771,-71.4285714285714,4,3,1,80,0,1
431958,-71.4285714285714,4,3,1,5,0,1
432021,-71.4285714285714,4,3,1,80,0,1
432208,-71.4285714285714,4,3,1,5,0,1
432271,-71.4285714285714,4,3,1,80,0,1
432458,-71.4285714285714,4,3,1,5,0,1
432521,-71.4285714285714,4,3,1,85,0,1
438521,-71.4285714285714,4,3,1,85,0,1
440272,-71.4285714285714,4,3,1,85,0,1
440521,-71.4285714285714,4,3,1,85,0,1
443772,-71.4285714285714,4,3,1,85,0,1
443834,-71.4285714285714,4,3,1,85,0,1
444522,-71.4285714285714,4,3,1,85,0,1
447772,-71.4285714285714,4,3,1,85,0,1
448022,-71.4285714285714,4,3,1,85,0,1
448271,-71.4285714285714,4,3,1,80,0,1
448272,-71.4285714285714,4,3,1,80,0,1
448521,-71.4285714285714,4,3,1,85,0,1
448522,-71.4285714285714,4,3,1,85,0,1
452458,-100,4,3,1,80,0,1
452459,-100,4,3,1,80,0,1
452521,-71.4285714285714,4,1,1,85,0,1
452522,-71.4285714285714,4,1,1,85,0,1
452583,-71.4285714285714,4,3,1,85,0,1
452584,-71.4285714285714,4,3,1,85,0,1
456021,-71.4285714285714,4,3,1,80,0,1
456521,-71.4285714285714,4,3,1,85,0,1
456522,-71.4285714285714,4,3,1,85,0,1
456584,-71.4285714285714,4,3,1,85,0,1
460021,-71.4285714285714,4,3,1,80,0,1
460272,-71.4285714285714,4,3,1,80,0,1
460521,-71.4285714285714,4,1,1,85,0,1
460522,-71.4285714285714,4,1,1,85,0,1
460583,-71.4285714285714,4,3,1,85,0,1
460584,-71.4285714285714,4,3,1,85,0,1
464021,-71.4285714285714,4,3,1,80,0,1
464022,-71.4285714285714,4,3,1,80,0,1
464272,-71.4285714285714,4,3,1,80,0,1
464521,-71.4285714285714,4,3,1,85,0,1
464522,-71.4285714285714,4,3,1,85,0,1
464584,-71.4285714285714,4,3,1,85,0,1
467521,-71.4285714285714,4,3,1,80,0,1
468021,-71.4285714285714,4,3,1,75,0,1
468521,-100,4,2,1,60,0,0
468522,-100,4,2,1,60,0,0
472521,-100,4,2,1,65,0,0
472522,-100,4,2,1,65,0,0
472584,-100,4,2,1,65,0,0
476521,-71.4285714285714,4,3,1,70,0,0
476522,-71.4285714285714,4,3,1,70,0,0
477021,-100,4,3,1,70,0,0
478521,-71.4285714285714,4,3,1,70,0,0
479021,-100,4,3,1,70,0,0
480022,-100,4,3,1,70,0,0
480272,-100,4,3,1,70,0,0
480521,-71.4285714285714,4,3,1,70,0,0
481021,-100,4,3,1,70,0,0
482521,-71.4285714285714,4,3,1,70,0,0
483021,-100,4,3,1,70,0,0
484521,-100,4,3,1,80,0,0
484522,-100,4,3,1,80,0,0
484584,-100,4,3,1,80,0,0
486022,-100,4,3,1,80,0,0
486147,-100,4,3,1,80,0,0
486272,-100,4,3,1,80,0,0
486397,-100,4,3,1,80,0,0
486522,-100,4,3,1,80,0,0
486584,-100,4,3,1,80,0,0
488021,-100,4,3,1,75,0,0
488521,-100,4,3,1,80,0,0
488522,-100,4,3,1,80,0,0
488584,-100,4,3,1,80,0,0
490022,-100,4,3,1,80,0,0
490147,-100,4,3,1,80,0,0
490272,-100,4,3,1,80,0,0
490397,-100,4,3,1,80,0,0
490522,-100,4,3,1,80,0,0
490584,-100,4,3,1,80,0,0
492021,-100,4,3,1,70,0,0
492521,-100,4,3,1,85,0,0
492522,-100,4,3,1,85,0,0
493521,-100,4,2,1,80,0,0
493522,-100,4,2,1,80,0,0
493553,-100,4,2,1,80,0,0
493709,-100,4,2,1,80,0,0
494021,-100,4,3,1,85,0,0
495396,-100,4,2,1,80,0,0
495397,-100,4,2,1,80,0,0
495428,-100,4,2,1,80,0,0
495584,-100,4,2,1,80,0,0
495646,-100,4,3,1,85,0,0
498146,-100,4,3,100,90,0,0
498209,-100,4,3,1,90,0,0
498271,-100,4,3,1,88,0,0
498333,-100,4,3,1,86,0,0
498396,-100,4,3,1,84,0,0
498458,-100,4,3,1,82,0,0
498521,-100,4,3,1,80,0,0
498583,-100,4,3,1,78,0,0
498646,-100,4,3,1,76,0,0
498708,-100,4,3,1,74,0,0
498771,-100,4,3,1,72,0,0
498833,-100,4,3,1,70,0,0
498896,-100,4,3,1,68,0,0
498958,-100,4,3,1,66,0,0
499021,-100,4,3,1,64,0,0
499083,-100,4,3,1,62,0,0
499146,-100,4,3,1,60,0,0
499208,-100,4,3,1,58,0,0
499271,-100,4,3,1,56,0,0
499333,-100,4,3,1,54,0,0
499396,-100,4,3,1,52,0,0
499458,-100,4,3,1,50,0,0
499521,-100,4,3,1,48,0,0
499583,-100,4,3,1,46,0,0
499646,-100,4,3,1,44,0,0
499708,-100,4,3,1,42,0,0
499771,-100,4,3,1,40,0,0
499833,-100,4,3,1,38,0,0
499896,-100,4,3,1,36,0,0
499958,-100,4,3,1,34,0,0
500021,-100,4,3,1,32,0,0
500083,-100,4,3,1,30,0,0
500146,-100,4,3,1,28,0,0
500208,-100,4,3,1,26,0,0
500271,-100,4,3,1,24,0,0
500333,-100,4,3,1,22,0,0
500396,-100,4,3,1,20,0,0
500458,-100,4,3,1,18,0,0
500521,-100,4,3,1,5,0,0

[Colours]
Combo1 : 107,104,129
Combo2 : 147,27,37
Combo3 : 99,50,85
Combo4 : 192,57,64

[HitObjects]
256,192,53069,12,0,54381,0:0:0:0:
237,95,54569,5,4,0:0:0:0:
361,96,54631,1,0,0:0:0:0:
487,97,54694,2,0,L|488:153,1,50
362,157,54819,2,0,L|361:213,1,50,2|0,0:0|0:0,0:0:0:0:
235,219,54944,2,0,L|234:275,1,50
360,315,55069,6,0,L|419:315,1,50,2|0,0:0|0:0,0:0:0:0:
284,255,55194,2,0,L|283:199,1,50
157,193,55319,2,0,L|156:137,1,50,2|0,0:0|0:0,0:0:0:0:
30,124,55444,2,0,L|29:68,1,50
155,60,55569,6,0,L|99:91,1,50,10|0,0:0|0:0,0:0:0:0:
238,107,55694,2,0,L|242:164,1,50
368,126,55819,6,0,L|424:157,1,50,2|0,0:0|0:0,0:0:0:0:
285,173,55944,2,0,L|281:230,1,50
155,264,56069,6,0,L|97:264,1,50,2|0,0:0|0:0,0:0:0:0:
231,313,56194,2,0,L|289:313,1,50
155,355,56319,5,2,0:0:0:0:
31,353,56381,1,0,0:0:0:0:
157,292,56444,1,0,0:0:0:0:
281,290,56506,1,0,0:0:0:0:
155,195,56569,5,6,0:0:0:0:
279,194,56631,1,0,0:0:0:0:
405,193,56694,2,0,L|406:137,1,50
280,133,56819,2,0,L|279:77,1,50,2|0,0:0|0:0,0:0:0:0:
153,71,56944,2,0,L|152:15,1,50
278,41,57069,6,0,L|335:41,1,50,2|0,0:0|0:0,0:0:0:0:
202,142,57194,2,0,L|201:198,1,50
327,202,57319,2,0,L|328:258,1,50,2|0,0:0|0:0,0:0:0:0:
454,264,57444,2,0,L|455:320,1,50
329,331,57569,6,0,L|385:362,1,50,10|0,0:0|0:0,0:0:0:0:
246,315,57694,2,0,L|242:258,1,50
116,296,57819,6,0,L|60:265,1,50,2|0,0:0|0:0,0:0:0:0:
199,249,57944,2,0,L|203:192,1,50
329,158,58069,6,0,L|387:158,1,50,2|0,0:0|0:0,0:0:0:0:
253,109,58194,2,0,L|195:109,1,50
329,40,58319,5,2,0:0:0:0:
205,42,58381,1,0,0:0:0:0:
79,142,58444,1,0,0:0:0:0:
203,144,58506,1,0,0:0:0:0:
77,170,58569,5,6,0:0:0:0:
201,171,58631,1,0,0:0:0:0:
327,172,58694,2,0,L|328:228,1,50
454,234,58819,2,0,L|453:290,1,50,2|0,0:0|0:0,0:0:0:0:
327,296,58944,2,0,L|326:352,1,50
452,358,59069,6,0,L|504:358,1,50,2|0,0:0|0:0,0:0:0:0:
376,340,59194,2,0,L|375:290,1,50
249,217,59319,2,0,L|249:167,1,50,2|0,0:0|0:0,0:0:0:0:
123,92,59444,2,0,L|123:141,1,50
248,77,59569,6,0,L|192:46,1,50,10|0,0:0|0:0,0:0:0:0:
331,93,59694,2,0,L|335:150,1,50
461,180,59819,6,0,L|517:211,1,50,2|0,0:0|0:0,0:0:0:0:
378,227,59944,2,0,L|374:284,1,50
248,305,60069,6,0,L|190:305,1,50,2|0,0:0|0:0,0:0:0:0:
324,354,60194,2,0,L|382:354,1,50
248,235,60319,5,2,0:0:0:0:
124,234,60381,1,0,0:0:0:0:
250,173,60444,1,0,0:0:0:0:
374,172,60506,1,0,0:0:0:0:
248,77,60569,5,6,0:0:0:0:
372,78,60631,1,0,0:0:0:0:
498,79,60694,2,0,L|499:135,1,50
373,139,60819,2,0,L|372:195,1,50,2|0,0:0|0:0,0:0:0:0:
246,201,60944,2,0,L|245:257,1,50
119,279,61069,6,0,L|61:279,1,50,2|0,0:0|0:0,0:0:0:0:
195,299,61194,2,0,L|196:355,1,50
322,342,61319,2,0,L|323:286,1,50,2|0,0:0|0:0,0:0:0:0:
449,340,61444,2,0,L|450:284,1,50
324,218,61569,6,0,B|75:218|75:218|61:92,1,375,8|0,0:0|0:0,0:0:0:0:
188,218,61819,6,0,B|437:218|437:218|451:92,1,375,8|0,0:0|0:0,0:0:0:0:
324,166,62069,6,0,B|75:166|75:166|61:292,1,375,8|0,0:0|0:0,0:0:0:0:
188,166,62319,6,0,B|437:166|437:166|451:292,1,375,8|0,0:0|0:0,0:0:0:0:
275,289,62569,5,6,0:0:0:0:
151,288,62631,1,0,0:0:0:0:
25,287,62694,2,0,L|24:231,1,50
150,227,62819,2,0,L|151:171,1,50,2|0,0:0|0:0,0:0:0:0:
277,165,62944,2,0,L|278:109,1,50
152,69,63069,6,0,L|93:69,1,50,2|0,0:0|0:0,0:0:0:0:
228,129,63194,2,0,L|229:185,1,50
355,191,63319,2,0,L|356:247,1,50,2|0,0:0|0:0,0:0:0:0:
482,260,63444,2,0,L|483:316,1,50
357,324,63569,6,0,L|413:293,1,50,10|0,0:0|0:0,0:0:0:0:
274,277,63694,2,0,L|270:220,1,50
144,258,63819,6,0,L|88:227,1,50,2|0,0:0|0:0,0:0:0:0:
227,211,63944,2,0,L|231:154,1,50
357,120,64069,6,0,L|415:120,1,50,2|0,0:0|0:0,0:0:0:0:
281,71,64194,2,0,L|223:71,1,50
357,29,64319,5,2,0:0:0:0:
481,31,64381,1,0,0:0:0:0:
355,92,64444,1,0,0:0:0:0:
231,94,64506,1,0,0:0:0:0:
357,189,64569,5,6,0:0:0:0:
233,190,64631,1,0,0:0:0:0:
107,191,64694,2,0,L|106:247,1,50
232,251,64819,2,0,L|233:307,1,50,2|0,0:0|0:0,0:0:0:0:
359,313,64944,2,0,L|360:369,1,50
234,343,65069,6,0,L|177:343,1,50,2|0,0:0|0:0,0:0:0:0:
310,242,65194,2,0,L|311:186,1,50
185,182,65319,2,0,L|184:126,1,50,2|0,0:0|0:0,0:0:0:0:
58,120,65444,2,0,L|57:64,1,50
183,53,65569,6,0,L|127:22,1,50,10|0,0:0|0:0,0:0:0:0:
266,69,65694,2,0,L|270:126,1,50
396,88,65819,6,0,L|452:119,1,50,2|0,0:0|0:0,0:0:0:0:
313,135,65944,2,0,L|309:192,1,50
183,226,66069,6,0,L|125:226,1,50,2|0,0:0|0:0,0:0:0:0:
259,275,66194,2,0,L|317:275,1,50
183,344,66319,5,2,0:0:0:0:
307,342,66381,1,0,0:0:0:0:
433,242,66444,1,0,0:0:0:0:
309,240,66506,1,0,0:0:0:0:
435,214,66569,5,6,0:0:0:0:
311,213,66631,1,0,0:0:0:0:
185,212,66694,2,0,L|184:156,1,50
58,150,66819,2,0,L|59:94,1,50,2|0,0:0|0:0,0:0:0:0:
185,88,66944,2,0,L|186:32,1,50
60,26,67069,6,0,L|8:26,1,50,2|0,0:0|0:0,0:0:0:0:
136,44,67194,2,0,L|137:94,1,50
263,167,67319,2,0,L|263:217,1,50,2|0,0:0|0:0,0:0:0:0:
389,292,67444,2,0,L|389:243,1,50
264,307,67569,6,0,L|320:338,1,50,10|0,0:0|0:0,0:0:0:0:
181,291,67694,2,0,L|177:234,1,50
51,204,67819,6,0,L|-5:173,1,50,2|0,0:0|0:0,0:0:0:0:
134,157,67944,2,0,L|138:100,1,50
264,79,68069,6,0,L|322:79,1,50,2|0,0:0|0:0,0:0:0:0:
188,30,68194,2,0,L|130:30,1,50
264,149,68319,5,2,0:0:0:0:
388,150,68381,1,0,0:0:0:0:
262,211,68444,1,0,0:0:0:0:
138,212,68506,1,0,0:0:0:0:
264,307,68569,5,6,0:0:0:0:
140,306,68631,1,0,0:0:0:0:
14,305,68694,2,0,L|13:249,1,50
139,245,68819,2,0,L|140:189,1,50,2|0,0:0|0:0,0:0:0:0:
266,183,68944,2,0,L|267:127,1,50
393,105,69069,6,0,L|451:105,1,50,2|0,0:0|0:0,0:0:0:0:
317,85,69194,2,0,L|316:29,1,50
190,42,69319,2,0,L|189:98,1,50,2|0,0:0|0:0,0:0:0:0:
63,44,69444,2,0,L|62:100,1,50
188,166,69569,6,0,B|437:166|437:166|451:292,1,375,8|0,0:0|0:0,0:0:0:0:
324,166,69819,6,0,B|75:166|75:166|61:292,1,375,8|0,0:0|0:0,0:0:0:0:
188,218,70069,6,0,B|437:218|437:218|451:92,1,375,8|0,0:0|0:0,0:0:0:0:
324,218,70319,6,0,B|75:218|75:218|61:92,1,375,8|0,0:0|0:0,0:0:0:0:
237,95,70569,6,0,L|23:95,1,200,4|8,0:0|0:0,0:0:0:0:
86,94,70881,1,8,0:0:0:0:
136,94,70944,1,8,0:0:0:0:
86,94,71006,1,8,0:0:0:0:
212,174,71069,5,8,0:0:0:0:
112,173,71194,1,8,0:0:0:0:
212,174,71319,1,8,0:0:0:0:
112,173,71444,1,8,0:0:0:0:
292,247,71569,5,10,0:0:0:0:
92,247,71819,1,8,0:0:0:0:
192,247,71944,1,8,0:0:0:0:
12,317,72069,5,10,0:0:0:0:
211,314,72319,1,8,0:0:0:0:
141,313,72381,1,8,0:0:0:0:
211,314,72444,1,8,0:0:0:0:
141,313,72506,1,8,0:0:0:0:
275,95,72569,6,0,P|340:107|264:331,1,400,4|8,0:0|0:0,0:0:0:0:
173,328,73194,1,8,0:0:0:0:
273,332,73319,1,8,0:0:0:0:
173,328,73444,1,8,0:0:0:0:
353,231,73569,5,2,0:0:0:0:
153,234,73819,1,8,0:0:0:0:
223,233,73881,1,8,0:0:0:0:
153,234,73944,1,8,0:0:0:0:
223,233,74006,1,8,0:0:0:0:
97,168,74069,5,10,0:0:0:0:
296,171,74319,2,0,L|402:172,1,100,8|0,0:0|0:0,0:0:0:0:
215,99,74569,6,0,L|429:99,1,200,4|8,0:0|0:0,0:0:0:0:
366,98,74881,1,8,0:0:0:0:
316,98,74944,1,8,0:0:0:0:
366,98,75006,1,8,0:0:0:0:
240,178,75069,5,8,0:0:0:0:
340,177,75194,1,8,0:0:0:0:
240,178,75319,1,8,0:0:0:0:
340,177,75444,1,8,0:0:0:0:
160,251,75569,5,10,0:0:0:0:
360,251,75819,1,8,0:0:0:0:
260,251,75944,1,8,0:0:0:0:
440,321,76069,5,10,0:0:0:0:
241,318,76319,1,8,0:0:0:0:
311,317,76381,1,8,0:0:0:0:
241,318,76444,1,8,0:0:0:0:
311,317,76506,1,8,0:0:0:0:
185,85,76569,6,8,P|120:97|196:321,1,400,12|8,0:0|0:0,0:0:0:0:
287,318,77194,1,8,0:0:0:0:
187,322,77319,1,8,0:0:0:0:
287,318,77444,1,8,0:0:0:0:
107,221,77569,5,10,0:0:0:0:
307,224,77819,1,8,0:0:0:0:
237,223,77881,1,8,0:0:0:0:
307,224,77944,1,8,0:0:0:0:
237,223,78006,1,8,0:0:0:0:
363,158,78069,5,10,0:0:0:0:
163,154,78319,1,8,0:0:0:0:
482,201,78569,5,4,0:0:0:0:
358,200,78631,1,0,0:0:0:0:
232,203,78694,2,0,L|277:241,1,50
396,290,78819,5,2,0:0:0:0:
272,289,78881,1,0,0:0:0:0:
146,292,78944,2,0,L|191:330,1,50
310,350,79069,5,2,0:0:0:0:
434,349,79131,1,0,0:0:0:0:
308,300,79194,2,0,L|304:244,1,50
178,210,79319,5,2,0:0:0:0:
54,209,79381,1,0,0:0:0:0:
180,160,79444,2,0,L|184:104,1,50
310,65,79569,6,0,L|360:65,1,50,2|0,0:0|0:0,0:0:0:0:
234,142,79694,2,0,L|231:200,1,50
105,237,79819,6,0,L|55:237,1,50,2|0,0:0|0:0,0:0:0:0:
181,314,79944,2,0,L|184:372,1,50
310,350,80069,6,0,L|381:351,1,50,2|0,0:0|0:0,0:0:0:0:
234,289,80194,2,0,L|174:289,1,50
58,192,80319,6,0,L|-13:193,1,50,2|0,0:0|0:0,0:0:0:0:
134,131,80444,2,0,L|194:131,1,50
325,133,80569,6,0,L|400:133,3,69.9999978637696,2|0|0|0,0:0|0:0|0:0|0:0,0:0:0:0:
254,201,80819,5,2,0:0:0:0:
115,197,80881,1,0,0:0:0:0:
254,201,80944,1,0,0:0:0:0:
115,197,81006,1,0,0:0:0:0:
256,250,81069,6,0,L|331:250,3,69.9999978637696,2|0|0|0,0:0|0:0|0:0|0:0,0:0:0:0:
185,294,81319,6,0,L|248:324,3,69.9999978637696,2|0|0|0,0:0|0:0|0:0|0:0,0:0:0:0:
114,347,81569,6,0,L|39:347,3,69.9999978637696,2|0|0|0,0:0|0:0|0:0|0:0,0:0:0:0:
185,351,81819,6,0,L|260:351,3,69.9999978637696,2|0|0|0,0:0|0:0|0:0|0:0,0:0:0:0:
381,279,82069,5,2,0:0:0:0:
257,278,82131,1,0,0:0:0:0:
131,270,82194,2,0,L|75:270,1,50
207,209,82319,5,2,0:0:0:0:
331,208,82381,1,0,0:0:0:0:
205,151,82444,2,0,L|143:151,1,50
29,58,82569,5,6,0:0:0:0:
153,57,82631,1,0,0:0:0:0:
279,60,82694,2,0,L|234:98,1,50
115,147,82819,5,2,0:0:0:0:
239,146,82881,1,0,0:0:0:0:
365,149,82944,2,0,L|320:187,1,50
201,83,83069,5,2,0:0:0:0:
77,84,83131,1,0,0:0:0:0:
203,133,83194,2,0,L|207:189,1,50
333,223,83319,5,2,0:0:0:0:
457,224,83381,1,0,0:0:0:0:
331,273,83444,2,0,L|327:329,1,50
201,321,83569,5,2,0:0:0:0:
131,319,83631,1,0,0:0:0:0:
201,321,83694,1,0,0:0:0:0:
131,319,83756,1,0,0:0:0:0:
257,271,83819,6,0,L|259:214,1,50,2|0,0:0|0:0,0:0:0:0:
385,174,83944,2,0,L|387:117,1,50
261,108,84069,6,0,L|317:77,1,50,2|0,0:0|0:0,0:0:0:0:
178,97,84194,2,0,L|176:40,1,50
50,153,84319,6,0,L|0:153,1,50,2|0,0:0|0:0,0:0:0:0:
126,191,84444,2,0,L|176:191,1,50
302,191,84569,5,2,0:0:0:0:
178,246,84631,1,0,0:0:0:0:
52,295,84694,2,0,L|108:326,1,50
222,328,84819,5,2,0:0:0:0:
346,273,84881,1,0,0:0:0:0:
472,224,84944,2,0,L|416:193,1,50
302,152,85069,5,2,0:0:0:0:
178,97,85131,1,0,0:0:0:0:
304,62,85194,2,0,L|359:62,1,50
228,197,85319,5,2,0:0:0:0:
104,142,85381,1,0,0:0:0:0:
230,107,85444,2,0,L|285:107,1,50
154,220,85569,5,0,0:0:0:0:
30,219,85631,1,0,0:0:0:0:
156,262,85694,2,0,L|157:313,1,50
283,276,85819,5,0,0:0:0:0:
407,275,85881,1,0,0:0:0:0:
281,318,85944,2,0,L|280:369,1,50
154,96,86069,5,10,0:0:0:0:
30,96,86131,1,8,0:0:0:0:
154,96,86194,1,0,0:0:0:0:
30,96,86256,1,0,0:0:0:0:
156,151,86319,5,0,0:0:0:0:
280,151,86381,1,0,0:0:0:0:
159,190,86444,1,0,0:0:0:0:
282,198,86506,1,0,0:0:0:0:
423,256,86569,6,0,L|495:256,11,69.9999978637696,4|0|0|0|2|0|0|0|2|0|0|0,0:0|0:0|0:0|0:0|0:0|0:0|0:0|0:0|0:0|0:0|0:0|0:0,0:0:0:0:
352,294,87319,5,2,0:0:0:0:
213,291,87381,1,0,0:0:0:0:
352,294,87444,1,0,0:0:0:0:
213,291,87506,1,0,0:0:0:0:
354,199,87569,6,0,L|426:199,3,69.9999978637696,10|0|0|0,0:0|0:0|0:0|0:0,0:0:0:0:
283,161,87819,6,0,L|211:161,3,69.9999978637696,2|0|0|0,0:0|0:0|0:0|0:0,0:0:0:0:
354,115,88069,6,0,L|426:115,3,69.9999978637696,6|0|0|0,0:0|0:0|0:0|0:0,0:0:0:0:
283,62,88319,6,0,L|350:35,3,69.9999978637696,6|0|0|0,0:0|0:0|0:0|0:0,0:0:0:0:
227,91,88569,5,6,0:0:0:0:
103,89,88631,1,0,0:0:0:0:
229,159,88694,1,0,0:0:0:0:
353,157,88756,1,0,0:0:0:0:
227,213,88819,6,0,L|175:213,1,50,2|0,0:0|0:0,0:0:0:0:
303,266,88944,2,0,L|309:213,1,50
435,277,89069,6,0,L|487:277,1,50,2|0,0:0|0:0,0:0:0:0:
359,330,89194,2,0,L|353:277,1,50
227,268,89319,6,0,L|283:237,1,50,2|0,0:0|0:0,0:0:0:0:
143,221,89444,2,0,L|137:168,1,50
264,153,89569,6,0,L|270:100,1,50,10|0,0:0|0:0,0:0:0:0:
396,117,89694,2,0,L|402:64,1,50
275,216,89819,6,0,L|269:269,1,50,2|0,0:0|0:0,0:0:0:0:
143,252,89944,2,0,L|137:305,1,50
264,328,90069,5,6,0:0:0:0:
388,323,90131,2,0,L|443:323,2,50
261,269,90319,5,6,0:0:0:0:
137,264,90381,2,0,L|82:264,2,50
263,173,90569,5,6,0:0:0:0:
139,167,90631,1,0,0:0:0:0:
13,161,90694,2,0,L|69:130,1,50
183,108,90819,5,2,0:0:0:0:
307,102,90881,1,0,0:0:0:0:
433,96,90944,2,0,L|377:65,1,50
263,209,91069,5,2,0:0:0:0:
139,203,91131,1,0,0:0:0:0:
265,289,91194,2,0,L|317:289,1,50
189,259,91319,5,2,0:0:0:0:
65,253,91381,1,0,0:0:0:0:
191,339,91444,2,0,L|243:339,1,50
115,140,91569,5,10,0:0:0:0:
239,141,91631,1,0,0:0:0:0:
365,75,91694,1,0,0:0:0:0:
241,76,91756,1,0,0:0:0:0:
115,72,91819,6,0,L|110:125,1,50,2|0,0:0|0:0,0:0:0:0:
237,173,91944,2,0,L|242:226,1,50
368,228,92069,5,6,0:0:0:0:
492,229,92131,1,0,0:0:0:0:
366,273,92194,2,0,L|310:273,1,50
442,315,92319,5,6,0:0:0:0:
318,316,92381,1,0,0:0:0:0:
192,246,92444,1,0,0:0:0:0:
316,247,92506,1,0,0:0:0:0:
190,311,92569,6,0,L|121:311,1,50,6|0,0:0|0:0,0:0:0:0:
266,272,92694,2,0,L|271:220,1,50
397,170,92819,6,0,L|466:170,1,50,2|0,0:0|0:0,0:0:0:0:
321,131,92944,2,0,L|316:79,1,50
190,99,93069,6,0,L|121:99,1,50,2|0,0:0|0:0,0:0:0:0:
266,60,93194,2,0,L|271:8,1,50
397,63,93319,6,0,L|341:94,1,50,2|0,0:0|0:0,0:0:0:0:
480,143,93444,2,0,L|485:195,1,50
359,199,93569,5,10,0:0:0:0:
235,200,93631,1,0,0:0:0:0:
109,255,93694,2,0,L|41:255,1,50
185,326,93819,6,0,L|189:273,1,50,2|0,0:0|0:0,0:0:0:0:
315,268,93944,2,0,L|319:215,1,50
445,175,94069,5,6,0:0:0:0:
321,168,94131,1,0,0:0:0:0:
195,161,94194,2,0,L|238:136,1,50
365,85,94319,5,6,0:0:0:0:
241,78,94381,1,0,0:0:0:0:
115,71,94444,2,0,L|158:46,1,50
285,258,94569,5,6,0:0:0:0:
409,253,94631,1,0,0:0:0:0:
285,258,94694,1,0,0:0:0:0:
409,253,94756,1,0,0:0:0:0:
283,306,94819,5,2,0:0:0:0:
159,301,94881,1,0,0:0:0:0:
283,306,94944,1,0,0:0:0:0:
159,301,95006,1,0,0:0:0:0:
285,258,95069,5,2,0:0:0:0:
409,253,95131,1,0,0:0:0:0:
285,258,95194,1,0,0:0:0:0:
409,253,95256,1,0,0:0:0:0:
283,207,95319,6,0,L|280:153,1,50,2|0,0:0|0:0,0:0:0:0:
154,134,95444,2,0,L|151:80,1,50
292,66,95569,6,0,L|364:66,3,69.9999978637696,10|0|0|0,0:0|0:0|0:0|0:0,0:0:0:0:
221,153,95819,6,0,L|149:153,3,69.9999978637696,2|0|0|0,0:0|0:0|0:0|0:0,0:0:0:0:
292,253,96069,6,0,L|223:286,3,69.9999978637696,6|0|0|0,0:0|0:0|0:0|0:0,0:0:0:0:
372,180,96319,2,0,L|376:253,1,69.9999978637696,6|0,0:0|0:0,0:0:0:0:
221,334,96444,6,0,L|151:334,1,69.9999978637696
277,142,96569,5,6,0:0:0:0:
401,137,96631,1,0,0:0:0:0:
277,142,96694,1,0,0:0:0:0:
401,137,96756,1,0,0:0:0:0:
275,70,96819,5,2,0:0:0:0:
151,65,96881,1,0,0:0:0:0:
275,70,96944,1,0,0:0:0:0:
151,65,97006,1,0,0:0:0:0:
277,142,97069,5,2,0:0:0:0:
401,137,97131,1,0,0:0:0:0:
277,142,97194,1,0,0:0:0:0:
401,137,97256,1,0,0:0:0:0:
275,182,97319,6,0,L|272:236,1,50,2|0,0:0|0:0,0:0:0:0:
146,255,97444,2,0,L|143:309,1,50
269,165,97569,6,0,L|275:112,1,50,10|0,0:0|0:0,0:0:0:0:
401,129,97694,2,0,L|407:76,1,50
280,228,97819,6,0,L|274:281,1,50,2|0,0:0|0:0,0:0:0:0:
148,264,97944,2,0,L|142:317,1,50
269,340,98069,5,6,0:0:0:0:
393,335,98131,2,0,L|339:336,2,50
266,281,98319,5,6,0:0:0:0:
142,276,98381,2,0,L|202:275,2,50
268,169,98569,5,6,0:0:0:0:
144,163,98631,1,0,0:0:0:0:
18,157,98694,2,0,L|74:126,1,50
188,104,98819,5,2,0:0:0:0:
312,98,98881,1,0,0:0:0:0:
438,92,98944,2,0,L|382:61,1,50
268,205,99069,5,2,0:0:0:0:
144,199,99131,1,0,0:0:0:0:
270,285,99194,2,0,L|322:285,1,50
194,255,99319,5,2,0:0:0:0:
70,249,99381,1,0,0:0:0:0:
196,335,99444,2,0,L|248:335,1,50
120,136,99569,5,10,0:0:0:0:
244,137,99631,1,0,0:0:0:0:
370,71,99694,1,0,0:0:0:0:
246,72,99756,1,0,0:0:0:0:
120,68,99819,6,0,L|115:121,1,50,2|0,0:0|0:0,0:0:0:0:
242,169,99944,2,0,L|247:222,1,50
373,224,100069,5,6,0:0:0:0:
497,225,100131,1,0,0:0:0:0:
371,269,100194,2,0,L|315:269,1,50
447,311,100319,5,6,0:0:0:0:
323,312,100381,1,0,0:0:0:0:
197,242,100444,1,0,0:0:0:0:
321,243,100506,1,0,0:0:0:0:
195,307,100569,6,0,L|126:307,1,50,6|0,0:0|0:0,0:0:0:0:
271,268,100694,2,0,L|276:216,1,50
402,166,100819,6,0,L|471:166,1,50,2|0,0:0|0:0,0:0:0:0:
326,127,100944,2,0,L|321:75,1,50
195,95,101069,6,0,L|126:95,1,50,2|0,0:0|0:0,0:0:0:0:
271,56,101194,2,0,L|276:4,1,50
402,59,101319,6,0,L|346:90,1,50,2|0,0:0|0:0,0:0:0:0:
485,139,101444,2,0,L|490:191,1,50
364,195,101569,5,10,0:0:0:0:
240,196,101631,1,0,0:0:0:0:
114,251,101694,2,0,L|46:251,1,50
190,322,101819,6,0,L|194:269,1,50,10|8,0:0|0:0,0:0:0:0:
320,264,101944,2,0,L|324:211,1,50,8|8,0:0|0:0,0:0:0:0:
450,171,102069,5,6,0:0:0:0:
326,164,102131,1,0,0:0:0:0:
200,157,102194,2,0,L|243:132,1,50
370,81,102319,5,6,0:0:0:0:
246,74,102381,1,0,0:0:0:0:
120,67,102444,2,0,L|163:42,1,50
288,23,102569,5,6,0:0:0:0:
330,44,102631,1,0,0:0:0:0:
331,92,102694,1,0,0:0:0:0:
289,115,102756,1,0,0:0:0:0:
163,134,102819,5,2,0:0:0:0:
287,172,102881,1,0,0:0:0:0:
413,177,102944,2,0,L|370:202,1,50
244,217,103069,5,2,0:0:0:0:
120,214,103131,1,0,0:0:0:0:
246,266,103194,2,0,L|307:267,1,50
422,280,103319,5,2,0:0:0:0:
298,318,103381,1,0,0:0:0:0:
172,323,103444,2,0,L|215:348,1,50
341,295,103569,5,2,0:0:0:0:
465,298,103631,1,0,0:0:0:0:
339,246,103694,2,0,L|278:245,1,50
415,155,103819,5,10,0:0:0:0:
291,154,103881,1,0,0:0:0:0:
165,160,103944,1,0,0:0:0:0:
289,109,104006,1,0,0:0:0:0:
415,187,104069,5,10,0:0:0:0:
235,232,104194,1,0,0:0:0:0:
485,277,104319,1,10,0:0:0:0:
85,353,104569,5,6,0:0:0:0:
99,305,104631,1,0,0:0:0:0:
136,273,104694,1,0,0:0:0:0:
185,266,104756,1,0,0:0:0:0:
311,148,104819,5,2,0:0:0:0:
187,149,104881,1,0,0:0:0:0:
61,143,104944,2,0,L|104:118,1,50
230,85,105069,5,2,0:0:0:0:
354,86,105131,1,0,0:0:0:0:
480,80,105194,2,0,L|437:55,1,50
311,40,105319,5,2,0:0:0:0:
187,40,105381,1,0,0:0:0:0:
313,197,105444,2,0,L|374:197,1,50
237,276,105569,5,2,0:0:0:0:
113,276,105631,1,0,0:0:0:0:
239,330,105694,1,0,0:0:0:0:
363,338,105756,1,0,0:0:0:0:
489,345,105819,5,10,0:0:0:0:
23,345,106069,1,10,0:0:0:0:
489,39,106319,1,10,0:0:0:0:
23,39,106569,5,6,0:0:0:0:
147,39,106631,1,0,0:0:0:0:
273,38,106694,1,0,0:0:0:0:
397,38,106756,1,0,0:0:0:0:
271,99,106819,5,2,0:0:0:0:
147,98,106881,1,0,0:0:0:0:
273,152,106944,2,0,L|331:152,1,50
450,251,107069,5,2,0:0:0:0:
326,252,107131,1,0,0:0:0:0:
200,246,107194,2,0,L|243:221,1,50
369,313,107319,5,2,0:0:0:0:
245,314,107381,1,0,0:0:0:0:
119,308,107444,2,0,L|162:283,1,50
288,197,107569,5,2,0:0:0:0:
412,197,107631,1,0,0:0:0:0:
286,162,107694,1,0,0:0:0:0:
162,162,107756,1,0,0:0:0:0:
288,120,107819,6,0,L|245:95,1,50,10|0,0:0|0:0,0:0:0:0:
371,125,107944,2,0,L|328:100,1,50
454,161,108069,5,2,0:0:0:0:
499,147,108131,1,0,0:0:0:0:
500,101,108194,1,0,0:0:0:0:
455,87,108256,1,0,0:0:0:0:
328,246,108319,5,10,0:0:0:0:
284,259,108381,1,0,0:0:0:0:
283,305,108444,1,0,0:0:0:0:
328,319,108506,1,0,0:0:0:0:
454,58,108569,5,6,0:0:0:0:
330,58,108631,1,0,0:0:0:0:
204,57,108694,1,0,0:0:0:0:
80,57,108756,1,0,0:0:0:0:
206,122,108819,5,2,0:0:0:0:
330,121,108881,1,0,0:0:0:0:
204,175,108944,2,0,L|146:175,1,50
280,250,109069,5,2,0:0:0:0:
156,251,109131,1,0,0:0:0:0:
30,245,109194,2,0,L|73:220,1,50
199,272,109319,5,2,0:0:0:0:
323,273,109381,1,0,0:0:0:0:
449,267,109444,2,0,L|406:242,1,50
280,156,109569,5,10,0:0:0:0:
156,156,109631,1,0,0:0:0:0:
282,121,109694,1,0,0:0:0:0:
406,121,109756,1,0,0:0:0:0:
280,79,109819,6,0,L|323:54,1,50,2|0,0:0|0:0,0:0:0:0:
197,84,109944,2,0,L|240:59,1,50
114,120,110069,5,2,0:0:0:0:
69,106,110131,1,0,0:0:0:0:
68,60,110194,1,0,0:0:0:0:
113,46,110256,1,0,0:0:0:0:
240,205,110319,5,2,0:0:0:0:
288,210,110381,1,0,0:0:0:0:
325,243,110444,1,0,0:0:0:0:
336,291,110506,1,0,0:0:0:0:
210,299,110569,5,6,0:0:0:0:
86,350,110631,1,0,0:0:0:0:
212,361,110694,2,0,L|215:296,1,50
341,352,110819,6,0,L|344:287,1,50,2|0,0:0|0:0,0:0:0:0:
217,247,110944,2,0,L|214:182,1,50
341,117,111069,5,2,0:0:0:0:
465,168,111131,1,0,0:0:0:0:
339,179,111194,2,0,L|336:114,1,50
210,170,111319,6,0,L|207:105,1,50,2|0,0:0|0:0,0:0:0:0:
334,65,111444,2,0,L|337:0,1,50
210,250,111569,5,2,0:0:0:0:
86,199,111631,1,0,0:0:0:0:
212,188,111694,2,0,L|215:253,1,50
341,197,111819,6,0,L|344:262,1,50,2|0,0:0|0:0,0:0:0:0:
217,302,111944,2,0,L|214:367,1,50
88,347,112069,5,2,0:0:0:0:
212,362,112131,1,0,0:0:0:0:
338,357,112194,6,0,L|341:292,1,50
214,264,112319,2,0,L|211:199,1,50,2|0,0:0|0:0,0:0:0:0:
85,205,112444,2,0,L|82:140,1,50
209,32,112569,5,2,0:0:0:0:
333,83,112631,1,0,0:0:0:0:
207,94,112694,2,0,L|204:29,1,50
78,138,112819,6,0,L|75:73,1,50,2|0,0:0|0:0,0:0:0:0:
202,205,112944,2,0,L|205:140,1,50
331,143,113069,5,2,0:0:0:0:
455,177,113131,1,0,0:0:0:0:
329,204,113194,1,0,0:0:0:0:
205,238,113256,1,0,0:0:0:0:
331,267,113319,5,2,0:0:0:0:
207,301,113381,1,0,0:0:0:0:
81,323,113444,1,0,0:0:0:0:
205,357,113506,1,0,0:0:0:0:
331,361,113569,5,2,0:0:0:0:
455,310,113631,1,0,0:0:0:0:
329,299,113694,2,0,L|326:364,1,50
200,242,113819,6,0,L|197:177,1,50,2|0,0:0|0:0,0:0:0:0:
324,148,113944,2,0,L|327:83,1,50
200,48,114069,5,2,0:0:0:0:
76,99,114131,1,0,0:0:0:0:
202,110,114194,2,0,L|205:45,1,50
331,167,114319,6,0,L|334:232,1,50,2|0,0:0|0:0,0:0:0:0:
207,261,114444,2,0,L|204:326,1,50
78,336,114569,5,6,0:0:0:0:
202,336,114631,1,0,0:0:0:0:
328,335,114694,1,0,0:0:0:0:
452,335,114756,1,0,0:0:0:0:
326,224,114819,5,2,0:0:0:0:
202,250,114881,1,0,0:0:0:0:
76,237,114944,2,0,L|119:212,1,50
245,164,115069,5,2,0:0:0:0:
369,152,115131,1,0,0:0:0:0:
243,91,115194,1,0,0:0:0:0:
119,79,115256,1,0,0:0:0:0:
245,42,115319,6,0,L|299:42,1,50,2|0,0:0|0:0,0:0:0:0:
245,42,115444,2,0,L|191:42,1,50
321,120,115569,5,2,0:0:0:0:
445,130,115631,1,0,0:0:0:0:
319,180,115694,1,0,0:0:0:0:
195,190,115756,1,0,0:0:0:0:
321,240,115819,6,0,L|324:296,1,50,10|0,0:0|0:0,0:0:0:0:
450,302,115944,2,0,L|453:358,1,50
326,346,116069,5,2,0:0:0:0:
201,343,116131,1,0,0:0:0:0:
327,273,116194,2,0,L|402:273,1,50
251,215,116319,5,10,0:0:0:0:
126,212,116381,1,0,0:0:0:0:
252,138,116444,2,0,L|320:138,1,50
428,53,116569,5,6,0:0:0:0:
304,53,116631,1,0,0:0:0:0:
178,52,116694,1,0,0:0:0:0:
54,52,116756,1,0,0:0:0:0:
180,126,116819,5,10,0:0:0:0:
304,161,116881,1,0,0:0:0:0:
178,207,116944,2,0,L|221:232,1,50
347,312,117069,5,2,0:0:0:0:
223,312,117131,1,0,0:0:0:0:
97,310,117194,2,0,L|140:285,1,50
266,238,117319,5,2,0:0:0:0:
390,238,117381,1,0,0:0:0:0:
264,196,117444,2,0,L|207:196,1,50
340,127,117569,5,6,0:0:0:0:
464,121,117631,2,0,L|442:75,1,50
392,73,117756,1,0,0:0:0:0:
265,71,117819,5,10,0:0:0:0:
141,77,117881,2,0,L|163:123,1,50
213,125,118006,1,0,0:0:0:0:
340,127,118069,5,2,0:0:0:0:
464,121,118131,2,0,L|442:75,1,50
392,73,118256,1,0,0:0:0:0:
265,71,118319,5,10,0:0:0:0:
141,77,118381,2,0,L|163:123,1,50
213,125,118506,1,0,0:0:0:0:
339,84,118569,5,6,0:0:0:0:
463,33,118631,1,0,0:0:0:0:
337,22,118694,2,0,L|334:87,1,50
208,31,118819,6,0,L|205:96,1,50,2|0,0:0|0:0,0:0:0:0:
332,136,118944,2,0,L|335:201,1,50
208,266,119069,5,2,0:0:0:0:
84,215,119131,1,0,0:0:0:0:
210,204,119194,2,0,L|213:269,1,50
339,213,119319,6,0,L|342:278,1,50,2|0,0:0|0:0,0:0:0:0:
215,318,119444,2,0,L|212:383,1,50
339,133,119569,5,2,0:0:0:0:
463,184,119631,1,0,0:0:0:0:
337,195,119694,2,0,L|334:130,1,50
208,186,119819,6,0,L|205:121,1,50,2|0,0:0|0:0,0:0:0:0:
332,81,119944,2,0,L|335:16,1,50
461,36,120069,5,2,0:0:0:0:
337,21,120131,1,0,0:0:0:0:
211,26,120194,6,0,L|208:91,1,50
335,119,120319,2,0,L|338:184,1,50,2|0,0:0|0:0,0:0:0:0:
464,178,120444,2,0,L|467:243,1,50
340,351,120569,5,2,0:0:0:0:
216,300,120631,1,0,0:0:0:0:
342,289,120694,2,0,L|345:354,1,50
471,245,120819,6,0,L|474:310,1,50,2|0,0:0|0:0,0:0:0:0:
347,178,120944,2,0,L|344:243,1,50
218,240,121069,5,2,0:0:0:0:
94,206,121131,1,0,0:0:0:0:
220,179,121194,1,0,0:0:0:0:
344,145,121256,1,0,0:0:0:0:
218,116,121319,5,2,0:0:0:0:
342,82,121381,1,0,0:0:0:0:
468,60,121444,1,0,0:0:0:0:
344,26,121506,1,0,0:0:0:0:
218,22,121569,5,10,0:0:0:0:
94,73,121631,1,0,0:0:0:0:
218,22,121694,1,0,0:0:0:0:
94,73,121756,1,0,0:0:0:0:
220,88,121819,6,0,L|223:153,1,50,2|0,0:0|0:0,0:0:0:0:
96,182,121944,2,0,L|93:247,1,50
220,306,122069,5,10,0:0:0:0:
344,255,122131,1,0,0:0:0:0:
220,306,122194,1,0,0:0:0:0:
344,255,122256,1,0,0:0:0:0:
218,240,122319,6,0,L|215:175,1,50,2|0,0:0|0:0,0:0:0:0:
342,146,122444,2,0,L|345:81,1,50
471,335,122569,5,6,0:0:0:0:
347,335,122631,1,0,0:0:0:0:
221,334,122694,1,0,0:0:0:0:
97,334,122756,1,0,0:0:0:0:
223,223,122819,5,2,0:0:0:0:
347,249,122881,1,0,0:0:0:0:
473,236,122944,2,0,L|430:211,1,50
304,163,123069,5,2,0:0:0:0:
180,151,123131,1,0,0:0:0:0:
306,90,123194,1,0,0:0:0:0:
430,78,123256,1,0,0:0:0:0:
304,41,123319,6,0,L|250:41,1,50,2|0,0:0|0:0,0:0:0:0:
304,41,123444,2,0,L|358:41,1,50
228,119,123569,5,14,0:0:0:0:
104,129,123631,1,0,0:0:0:0:
230,179,123694,1,0,0:0:0:0:
354,189,123756,1,0,0:0:0:0:
228,239,123819,6,0,L|225:295,1,50,10|0,0:0|0:0,0:0:0:0:
99,301,123944,2,0,L|96:357,1,50
223,345,124069,5,2,0:0:0:0:
348,342,124131,1,0,0:0:0:0:
222,272,124194,2,0,L|147:272,1,50
298,214,124319,5,10,0:0:0:0:
423,211,124381,1,0,0:0:0:0:
297,137,124444,2,0,L|229:137,1,50
121,52,124569,5,6,0:0:0:0:
245,52,124631,1,0,0:0:0:0:
371,51,124694,1,0,0:0:0:0:
495,51,124756,1,0,0:0:0:0:
369,125,124819,5,2,0:0:0:0:
245,160,124881,1,0,0:0:0:0:
371,206,124944,2,0,L|328:231,1,50
202,311,125069,5,2,0:0:0:0:
326,311,125131,1,0,0:0:0:0:
452,309,125194,2,0,L|409:284,1,50
283,237,125319,5,2,0:0:0:0:
159,237,125381,1,0,0:0:0:0:
285,195,125444,2,0,L|342:195,1,50
209,126,125569,5,10,0:0:0:0:
85,120,125631,2,0,L|107:74,1,50
157,72,125756,1,0,0:0:0:0:
284,70,125819,5,2,0:0:0:0:
408,76,125881,2,0,L|386:122,1,50
336,124,126006,1,0,0:0:0:0:
209,126,126069,5,6,0:0:0:0:
85,120,126131,2,0,L|107:74,1,50
157,72,126256,1,0,0:0:0:0:
284,70,126319,5,6,0:0:0:0:
408,76,126381,2,0,L|386:122,1,50
232,139,126506,1,0,0:0:0:0:
17,185,126569,5,4,0:0:0:0:
156,182,126631,1,0,0:0:0:0:
297,176,126694,1,0,0:0:0:0:
436,173,126756,1,0,0:0:0:0:
295,121,126819,6,0,L|217:121,3,69.9999978637696,2|0|0|0,0:0|0:0|0:0|0:0,0:0:0:0:
366,231,127069,6,0,L|444:231,3,69.9999978637696,2|0|0|0,0:0|0:0|0:0|0:0,0:0:0:0:
295,121,127319,6,0,L|217:121,3,69.9999978637696,2|0|0|0,0:0|0:0|0:0|0:0,0:0:0:0:
366,276,127569,6,0,L|297:309,3,69.9999978637696,2|0|0|0,0:0|0:0|0:0|0:0,0:0:0:0:
437,335,127819,6,0,L|466:260,1,69.9999978637696,2|0,0:0|0:0,0:0:0:0:
321,228,127944,2,0,L|318:154,1,69.9999978637696
177,152,128069,5,2,0:0:0:0:
38,149,128131,2,0,L|112:149,2,69.9999978637696
179,100,128319,5,2,0:0:0:0:
318,97,128381,2,0,L|244:97,2,69.9999978637696
177,232,128569,5,6,0:0:0:0:
38,225,128631,1,0,0:0:0:0:
179,271,128694,1,0,0:0:0:0:
40,264,128756,1,0,0:0:0:0:
181,315,128819,6,0,L|185:234,1,69.9999978637696,2|0,0:0|0:0,0:0:0:0:
326,245,128944,2,0,L|330:164,1,69.9999978637696
188,84,129069,5,6,0:0:0:0:
327,77,129131,1,0,0:0:0:0:
186,123,129194,1,0,0:0:0:0:
325,116,129256,1,0,0:0:0:0:
184,199,129319,6,0,L|180:118,1,69.9999978637696,2|0,0:0|0:0,0:0:0:0:
39,129,129444,2,0,L|35:48,1,69.9999978637696
177,259,129569,5,6,0:0:0:0:
302,260,129631,1,0,0:0:0:0:
177,259,129694,1,0,0:0:0:0:
302,260,129756,1,0,0:0:0:0:
108,259,129819,6,0,L|51:298,1,69.9999978637696,2|0,0:0|0:0,0:0:0:0:
177,309,129944,2,0,L|115:353,1,69.9999978637696
248,347,130069,5,6,0:0:0:0:
387,348,130131,1,0,0:0:0:0:
246,299,130194,1,0,0:0:0:0:
107,300,130256,1,0,0:0:0:0:
248,237,130319,6,0,L|322:237,1,69.9999978637696,6|0,0:0|0:0,0:0:0:0:
318,237,130444,2,0,L|248:237,1,69.9999978637696
107,217,130569,6,0,L|36:217,3,69.9999978637696,6|0|0|0,0:0|0:0|0:0|0:0,0:0:0:0:
178,155,130819,6,0,L|114:125,3,69.9999978637696,2|0|0|0,0:0|0:0|0:0|0:0,0:0:0:0:
249,143,131069,6,0,L|320:143,3,69.9999978637696,2|0|0|0,0:0|0:0|0:0|0:0,0:0:0:0:
178,81,131319,6,0,L|241:50,3,69.9999978637696,2|0|0|0,0:0|0:0|0:0|0:0,0:0:0:0:
107,195,131569,6,0,L|36:195,3,69.9999978637696,2|0|0|0,0:0|0:0|0:0|0:0,0:0:0:0:
185,210,131819,6,0,L|264:210,1,69.9999978637696,2|0,0:0|0:0,0:0:0:0:
114,272,131944,2,0,L|176:316,1,69.9999978637696
318,151,132069,5,2,0:0:0:0:
457,151,132131,1,0,0:0:0:0:
316,177,132194,1,0,0:0:0:0:
455,177,132256,1,0,0:0:0:0:
314,220,132319,5,2,0:0:0:0:
175,220,132381,1,0,0:0:0:0:
316,246,132444,1,0,0:0:0:0:
177,246,132506,1,0,0:0:0:0:
318,298,132569,5,6,0:0:0:0:
478,298,132631,1,0,0:0:0:0:
316,350,132694,1,0,0:0:0:0:
156,348,132756,1,0,0:0:0:0:
318,84,132819,6,0,L|263:32,1,69.9999978637696,2|0,0:0|0:0,0:0:0:0:
408,158,132944,2,0,L|353:106,1,69.9999978637696
216,155,133069,6,0,L|126:155,3,69.9999978637696,6|0|0|0,0:0|0:0|0:0|0:0,0:0:0:0:
287,136,133319,6,0,L|232:84,1,69.9999978637696,2|0,0:0|0:0,0:0:0:0:
377,210,133444,2,0,L|322:158,1,69.9999978637696
185,224,133569,6,0,L|104:224,3,69.9999978637696,4|0|0|0,0:0|0:0|0:0|0:0,0:0:0:0:
256,346,133819,6,0,L|260:272,1,69.9999978637696,4|0,0:0|0:0,0:0:0:0:
401,271,133944,2,0,L|405:197,1,69.9999978637696
264,204,134069,6,0,L|260:130,1,69.9999978637696,4|0,0:0|0:0,0:0:0:0:
119,129,134194,2,0,L|115:55,1,69.9999978637696
256,55,134319,5,12,0:0:0:0:
117,50,134381,1,8,0:0:0:0:
254,159,134444,1,8,0:0:0:0:
115,159,134506,1,8,0:0:0:0:
256,116,134569,5,4,0:0:0:0:
395,114,134631,1,0,0:0:0:0:
219,233,134694,1,0,0:0:0:0:
75,237,134756,1,0,0:0:0:0:
217,263,134819,6,0,L|295:263,3,69.9999978637696,2|0|0|0,0:0|0:0|0:0|0:0,0:0:0:0:
146,153,135069,6,0,L|68:153,3,69.9999978637696,2|0|0|0,0:0|0:0|0:0|0:0,0:0:0:0:
217,263,135319,6,0,L|295:263,3,69.9999978637696,2|0|0|0,0:0|0:0|0:0|0:0,0:0:0:0:
146,108,135569,6,0,L|214:75,3,69.9999978637696,2|0|0|0,0:0|0:0|0:0|0:0,0:0:0:0:
75,49,135819,6,0,L|46:124,1,69.9999978637696,2|0,0:0|0:0,0:0:0:0:
191,156,135944,2,0,L|194:230,1,69.9999978637696
335,232,136069,5,2,0:0:0:0:
474,235,136131,2,0,L|400:235,2,69.9999978637696
333,284,136319,5,2,0:0:0:0:
194,287,136381,2,0,L|268:287,2,69.9999978637696
335,152,136569,5,6,0:0:0:0:
474,159,136631,1,0,0:0:0:0:
333,113,136694,1,0,0:0:0:0:
472,120,136756,1,0,0:0:0:0:
331,69,136819,6,0,L|327:150,1,69.9999978637696,2|0,0:0|0:0,0:0:0:0:
186,139,136944,2,0,L|182:220,1,69.9999978637696
324,300,137069,5,6,0:0:0:0:
185,307,137131,1,0,0:0:0:0:
326,261,137194,1,0,0:0:0:0:
187,268,137256,1,0,0:0:0:0:
328,185,137319,6,0,L|332:266,1,69.9999978637696,2|0,0:0|0:0,0:0:0:0:
473,255,137444,2,0,L|477:336,1,69.9999978637696
335,125,137569,5,6,0:0:0:0:
210,130,137631,1,0,0:0:0:0:
335,125,137694,1,0,0:0:0:0:
210,130,137756,1,0,0:0:0:0:
406,48,137819,6,0,L|465:89,1,69.9999978637696,2|0,0:0|0:0,0:0:0:0:
336,97,137944,2,0,L|398:141,1,69.9999978637696
264,37,138069,5,14,0:0:0:0:
125,36,138131,1,8,0:0:0:0:
266,85,138194,1,8,0:0:0:0:
405,84,138256,1,8,0:0:0:0:
264,147,138319,6,0,L|190:147,1,69.9999978637696,6|0,0:0|0:0,0:0:0:0:
194,147,138444,2,0,L|264:147,1,69.9999978637696
405,167,138569,6,0,L|476:167,3,69.9999978637696,6|0|0|0,0:0|0:0|0:0|0:0,0:0:0:0:
334,229,138819,6,0,L|397:259,3,69.9999978637696,2|0|0|0,0:0|0:0|0:0|0:0,0:0:0:0:
263,241,139069,6,0,L|192:241,3,69.9999978637696,2|0|0|0,0:0|0:0|0:0|0:0,0:0:0:0:
334,303,139319,6,0,L|271:334,3,69.9999978637696,2|0|0|0,0:0|0:0|0:0|0:0,0:0:0:0:
405,189,139569,6,0,L|476:189,3,69.9999978637696,2|0|0|0,0:0|0:0|0:0|0:0,0:0:0:0:
333,173,139819,6,0,L|254:173,1,69.9999978637696,2|0,0:0|0:0,0:0:0:0:
404,111,139944,2,0,L|342:67,1,69.9999978637696
194,233,140069,5,2,0:0:0:0:
55,233,140131,1,0,0:0:0:0:
196,207,140194,1,0,0:0:0:0:
57,207,140256,1,0,0:0:0:0:
198,164,140319,5,2,0:0:0:0:
337,164,140381,1,0,0:0:0:0:
196,138,140444,1,0,0:0:0:0:
335,138,140506,1,0,0:0:0:0:
194,86,140569,5,6,0:0:0:0:
34,89,140631,1,0,0:0:0:0:
196,34,140694,1,0,0:0:0:0:
356,37,140756,1,0,0:0:0:0:
194,300,140819,6,0,L|249:352,1,69.9999978637696,2|0,0:0|0:0,0:0:0:0:
104,226,140944,2,0,L|159:278,1,69.9999978637696
296,229,141069,6,0,L|386:229,3,69.9999978637696,6|0|0|0,0:0|0:0|0:0|0:0,0:0:0:0:
225,248,141319,6,0,L|280:300,1,69.9999978637696,2|0,0:0|0:0,0:0:0:0:
135,174,141444,2,0,L|190:226,1,69.9999978637696
327,305,141569,6,0,L|382:253,1,69.9999978637696,4|0,0:0|0:0,0:0:0:0:
237,277,141694,2,0,L|236:191,1,69.9999978637696
95,177,141819,6,0,L|40:125,1,69.9999978637696
185,149,141944,2,0,L|186:63,1,69.9999978637696
327,305,142069,6,0,L|382:253,1,69.9999978637696,4|0,0:0|0:0,0:0:0:0:
237,277,142194,2,0,L|236:191,1,69.9999978637696
95,217,142319,6,0,L|8:217,3,69.9999978637696
237,95,142569,5,4,0:0:0:0:
361,96,142631,1,0,0:0:0:0:
487,97,142694,2,0,L|488:153,1,50
362,157,142819,2,0,L|361:213,1,50,2|0,0:0|0:0,0:0:0:0:
235,219,142944,2,0,L|234:275,1,50
360,315,143069,6,0,L|419:315,1,50,2|0,0:0|0:0,0:0:0:0:
284,255,143194,2,0,L|283:199,1,50
157,193,143319,2,0,L|156:137,1,50,2|0,0:0|0:0,0:0:0:0:
30,124,143444,2,0,L|29:68,1,50
155,60,143569,6,0,L|99:91,1,50,10|0,0:0|0:0,0:0:0:0:
238,107,143694,2,0,L|242:164,1,50
368,126,143819,6,0,L|424:157,1,50,2|0,0:0|0:0,0:0:0:0:
285,173,143944,2,0,L|281:230,1,50
155,264,144069,6,0,L|97:264,1,50,2|0,0:0|0:0,0:0:0:0:
231,313,144194,2,0,L|289:313,1,50
155,355,144319,5,2,0:0:0:0:
31,353,144381,1,0,0:0:0:0:
157,292,144444,1,0,0:0:0:0:
281,290,144506,1,0,0:0:0:0:
155,195,144569,5,6,0:0:0:0:
279,194,144631,1,0,0:0:0:0:
405,193,144694,2,0,L|406:137,1,50
280,133,144819,2,0,L|279:77,1,50,2|0,0:0|0:0,0:0:0:0:
153,71,144944,2,0,L|152:15,1,50
278,41,145069,6,0,L|335:41,1,50,2|0,0:0|0:0,0:0:0:0:
202,142,145194,2,0,L|201:198,1,50
327,202,145319,2,0,L|328:258,1,50,2|0,0:0|0:0,0:0:0:0:
454,264,145444,2,0,L|455:320,1,50
329,331,145569,6,0,L|385:362,1,50,10|0,0:0|0:0,0:0:0:0:
246,315,145694,2,0,L|242:258,1,50
116,296,145819,6,0,L|60:265,1,50,2|0,0:0|0:0,0:0:0:0:
199,249,145944,2,0,L|203:192,1,50
329,158,146069,6,0,L|387:158,1,50,2|0,0:0|0:0,0:0:0:0:
253,109,146194,2,0,L|195:109,1,50
329,40,146319,5,2,0:0:0:0:
205,42,146381,1,0,0:0:0:0:
79,142,146444,1,0,0:0:0:0:
203,144,146506,1,0,0:0:0:0:
77,170,146569,5,6,0:0:0:0:
201,171,146631,1,0,0:0:0:0:
327,172,146694,2,0,L|328:228,1,50
454,234,146819,2,0,L|453:290,1,50,2|0,0:0|0:0,0:0:0:0:
327,296,146944,2,0,L|326:352,1,50
452,358,147069,6,0,L|504:358,1,50,2|0,0:0|0:0,0:0:0:0:
376,340,147194,2,0,L|375:290,1,50
249,217,147319,2,0,L|249:167,1,50,2|0,0:0|0:0,0:0:0:0:
123,92,147444,2,0,L|123:141,1,50
248,77,147569,6,0,L|192:46,1,50,10|0,0:0|0:0,0:0:0:0:
331,93,147694,2,0,L|335:150,1,50
461,180,147819,6,0,L|517:211,1,50,2|0,0:0|0:0,0:0:0:0:
378,227,147944,2,0,L|374:284,1,50
248,305,148069,6,0,L|190:305,1,50,2|0,0:0|0:0,0:0:0:0:
324,354,148194,2,0,L|382:354,1,50
248,235,148319,5,2,0:0:0:0:
124,234,148381,1,0,0:0:0:0:
250,173,148444,1,0,0:0:0:0:
374,172,148506,1,0,0:0:0:0:
248,77,148569,5,6,0:0:0:0:
372,78,148631,1,0,0:0:0:0:
498,79,148694,2,0,L|499:135,1,50
373,139,148819,2,0,L|372:195,1,50,2|0,0:0|0:0,0:0:0:0:
246,201,148944,2,0,L|245:257,1,50
119,279,149069,6,0,L|61:279,1,50,2|0,0:0|0:0,0:0:0:0:
195,299,149194,2,0,L|196:355,1,50
322,342,149319,2,0,L|323:286,1,50,2|0,0:0|0:0,0:0:0:0:
449,340,149444,2,0,L|450:284,1,50
324,218,149569,6,0,B|75:218|75:218|61:92,1,375,8|0,0:0|0:0,0:0:0:0:
188,218,149819,6,0,B|437:218|437:218|451:92,1,375,8|0,0:0|0:0,0:0:0:0:
324,166,150069,6,0,B|75:166|75:166|61:292,1,375,8|0,0:0|0:0,0:0:0:0:
188,166,150319,6,0,B|437:166|437:166|451:292,1,375,8|0,0:0|0:0,0:0:0:0:
275,289,150569,5,6,0:0:0:0:
151,288,150631,1,0,0:0:0:0:
25,287,150694,2,0,L|24:231,1,50
150,227,150819,2,0,L|151:171,1,50,2|0,0:0|0:0,0:0:0:0:
277,165,150944,2,0,L|278:109,1,50
152,69,151069,6,0,L|93:69,1,50,2|0,0:0|0:0,0:0:0:0:
228,129,151194,2,0,L|229:185,1,50
355,191,151319,2,0,L|356:247,1,50,2|0,0:0|0:0,0:0:0:0:
482,260,151444,2,0,L|483:316,1,50
357,324,151569,6,0,L|413:293,1,50,10|0,0:0|0:0,0:0:0:0:
274,277,151694,2,0,L|270:220,1,50
144,258,151819,6,0,L|88:227,1,50,2|0,0:0|0:0,0:0:0:0:
227,211,151944,2,0,L|231:154,1,50
357,120,152069,6,0,L|415:120,1,50,2|0,0:0|0:0,0:0:0:0:
281,71,152194,2,0,L|223:71,1,50
357,29,152319,5,2,0:0:0:0:
481,31,152381,1,0,0:0:0:0:
355,92,152444,1,0,0:0:0:0:
231,94,152506,1,0,0:0:0:0:
357,189,152569,5,6,0:0:0:0:
233,190,152631,1,0,0:0:0:0:
107,191,152694,2,0,L|106:247,1,50
232,251,152819,2,0,L|233:307,1,50,2|0,0:0|0:0,0:0:0:0:
359,313,152944,2,0,L|360:369,1,50
234,343,153069,6,0,L|177:343,1,50,2|0,0:0|0:0,0:0:0:0:
310,242,153194,2,0,L|311:186,1,50
185,182,153319,2,0,L|184:126,1,50,2|0,0:0|0:0,0:0:0:0:
58,120,153444,2,0,L|57:64,1,50
183,53,153569,6,0,L|127:22,1,50,10|0,0:0|0:0,0:0:0:0:
266,69,153694,2,0,L|270:126,1,50
396,88,153819,6,0,L|452:119,1,50,2|0,0:0|0:0,0:0:0:0:
313,135,153944,2,0,L|309:192,1,50
183,226,154069,6,0,L|125:226,1,50,2|0,0:0|0:0,0:0:0:0:
259,275,154194,2,0,L|317:275,1,50
183,344,154319,5,2,0:0:0:0:
307,342,154381,1,0,0:0:0:0:
433,242,154444,1,0,0:0:0:0:
309,240,154506,1,0,0:0:0:0:
435,214,154569,5,6,0:0:0:0:
311,213,154631,1,0,0:0:0:0:
185,212,154694,2,0,L|184:156,1,50
58,150,154819,2,0,L|59:94,1,50,2|0,0:0|0:0,0:0:0:0:
185,88,154944,2,0,L|186:32,1,50
60,26,155069,6,0,L|8:26,1,50,2|0,0:0|0:0,0:0:0:0:
136,44,155194,2,0,L|137:94,1,50
263,167,155319,2,0,L|263:217,1,50,2|0,0:0|0:0,0:0:0:0:
389,292,155444,2,0,L|389:243,1,50
264,307,155569,6,0,L|320:338,1,50,10|0,0:0|0:0,0:0:0:0:
181,291,155694,2,0,L|177:234,1,50
51,204,155819,6,0,L|-5:173,1,50,2|0,0:0|0:0,0:0:0:0:
134,157,155944,2,0,L|138:100,1,50
264,79,156069,6,0,L|322:79,1,50,2|0,0:0|0:0,0:0:0:0:
188,30,156194,2,0,L|130:30,1,50
264,149,156319,5,2,0:0:0:0:
388,150,156381,1,0,0:0:0:0:
262,211,156444,1,0,0:0:0:0:
138,212,156506,1,0,0:0:0:0:
264,307,156569,5,6,0:0:0:0:
140,306,156631,1,0,0:0:0:0:
14,305,156694,2,0,L|13:249,1,50
139,245,156819,2,0,L|140:189,1,50,2|0,0:0|0:0,0:0:0:0:
266,183,156944,2,0,L|267:127,1,50
393,105,157069,6,0,L|451:105,1,50,2|0,0:0|0:0,0:0:0:0:
317,85,157194,2,0,L|316:29,1,50
190,42,157319,2,0,L|189:98,1,50,2|0,0:0|0:0,0:0:0:0:
63,44,157444,2,0,L|62:100,1,50
188,166,157569,6,0,B|437:166|437:166|451:292,1,375,14|0,0:0|0:0,0:0:0:0:
324,166,157819,6,0,B|75:166|75:166|61:292,1,375,6|0,0:0|0:0,0:0:0:0:
188,218,158069,6,0,B|437:218|437:218|451:92,1,375,6|0,0:0|0:0,0:0:0:0:
324,218,158319,6,0,B|75:218|75:218|61:92,1,375,6|0,0:0|0:0,0:0:0:0:
237,95,158569,5,4,0:0:0:0:
312,96,159091,1,0,2:2:0:0:
384,96,159570,1,0,2:2:0:0:
448,96,160079,1,0,2:2:0:0:
480,96,160578,1,0,2:2:0:0:
496,96,161087,1,0,2:2:0:0:
225,348,161557,6,0,B|150:347|150:255|229:256|229:256|317:256|317:151|218:151|218:151|151:150|150:31|261:37|261:37|373:37|370:150|261:150|261:150|150:152|149:261|264:261|264:261|365:266|366:362|236:356|236:356|151:358|150:267,1,1350.00005149842
382,66,164068,6,0,L|431:70,1,50
59,0,164598,6,0,L|27:408,1,400,2|0,0:0|0:0,0:0:0:0:
431,376,165523,6,0,L|462:338,1,50
32,192,166554,5,2,0:0:0:0:
32,192,166814,5,0,0:0:0:0:
480,192,167583,5,2,0:0:0:0:
480,192,167839,5,0,0:0:0:0:
25,209,168499,6,0,L|79:161,1,66.6666666666667
254,187,168824,5,0,0:0:0:0:
49,165,169081,5,2,0:0:0:0:
460,160,169596,5,2,0:0:0:0:
74,174,170078,5,2,0:0:0:0:
373,164,170448,6,0,L|330:130,1,50
208,127,170568,6,0,L|123:94,1,75,0|2,0:0|0:0,0:0:0:0:
472,191,172578,6,0,L|489:135,1,50
135,235,173078,6,0,L|118:179,1,50
281,181,173328,5,0,0:0:0:0:
87,180,173557,5,0,0:0:0:0:
472,191,173976,6,0,L|491:111,1,75
84,188,174554,5,0,0:0:0:0:
472,191,175055,6,0,L|489:129,1,50
42,184,176046,5,0,0:0:0:0:
468,215,176977,5,0,0:0:0:0:
480,192,177062,5,0,0:0:0:0:
56,184,178014,5,0,0:0:0:0:
29,140,178076,5,0,0:0:0:0:
436,183,178576,5,0,0:0:0:0:
40,192,179073,6,0,L|33:70,1,100,4|0,0:0|0:0,0:0:0:0:
154,86,179448,2,0,L|40:86,1,100
305,133,179823,5,8,0:0:0:0:
375,168,179916,1,0,0:0:0:0:
274,172,180010,1,0,0:0:0:0:
344,207,180103,1,0,0:0:0:0:
242,204,180198,1,0,0:0:0:0:
312,239,180291,1,0,0:0:0:0:
211,243,180385,1,0,0:0:0:0:
281,278,180478,1,0,0:0:0:0:
129,312,180573,6,0,L|125:199,1,100,2|0,0:0|0:0,0:0:0:0:
245,212,180948,5,0,0:0:0:0:
165,211,181073,1,0,0:0:0:0:
85,211,181198,1,0,0:0:0:0:
285,54,181323,1,8,0:0:0:0:
355,89,181416,1,0,0:0:0:0:
254,93,181510,1,0,0:0:0:0:
324,128,181603,1,0,0:0:0:0:
172,301,181698,5,2,0:0:0:0:
97,282,181791,1,0,0:0:0:0:
97,234,181885,1,0,0:0:0:0:
172,214,181979,1,0,0:0:0:0:
323,213,182073,6,0,L|430:213,1,100,2|0,0:0|0:0,0:0:0:0:
281,231,182448,2,0,L|386:231,1,100
130,194,182823,5,8,0:0:0:0:
60,229,182916,1,0,0:0:0:0:
161,233,183010,1,0,0:0:0:0:
91,268,183103,1,0,0:0:0:0:
193,265,183198,1,0,0:0:0:0:
123,300,183291,1,0,0:0:0:0:
224,304,183385,1,0,0:0:0:0:
154,339,183479,1,0,0:0:0:0:
305,342,183573,5,2,0:0:0:0:
380,340,183666,2,0,L|437:340,2,50
227,151,183948,5,0,0:0:0:0:
152,149,184041,2,0,L|95:149,2,50
304,211,184323,6,0,L|361:211,2,50,2|0|0,0:0|0:0|0:0,0:0:0:0:
229,209,184604,1,0,0:0:0:0:
380,269,184698,6,0,L|437:269,2,50
305,267,184979,1,0,0:0:0:0:
154,292,185073,6,0,L|97:292,2,50
229,290,185354,1,0,0:0:0:0:
379,337,185448,6,0,L|483:336,1,100,10|0,0:0|0:0,0:0:0:0:
228,55,185823,5,2,0:0:0:0:
158,90,185916,1,0,0:0:0:0:
259,94,186010,1,2,0:0:0:0:
189,129,186103,1,0,0:0:0:0:
341,177,186198,6,0,L|456:178,1,100,10|0,0:0|0:0,0:0:0:0:
190,276,186573,5,10,0:0:0:0:
339,302,186666,1,8,0:0:0:0:
190,276,186760,1,8,0:0:0:0:
441,348,186948,6,0,L|498:348,2,50,6|0|0,0:0|0:0|0:0,0:0:0:0:
366,346,187229,1,0,0:0:0:0:
215,189,187323,6,0,L|158:189,2,50
290,187,187604,1,0,0:0:0:0:
441,187,187698,6,0,L|498:187,2,50
366,185,187979,1,0,0:0:0:0:
214,247,188073,5,0,0:0:0:0:
139,245,188166,2,0,L|82:245,2,50
291,297,188448,5,0,0:0:0:0:
366,295,188541,2,0,L|423:295,2,50
213,178,188823,6,0,L|156:178,2,50
288,176,189104,1,0,0:0:0:0:
137,289,189198,6,0,L|33:289,1,100,2|0,0:0|0:0,0:0:0:0:
289,30,189573,5,2,0:0:0:0:
359,65,189666,1,0,0:0:0:0:
258,69,189760,1,2,0:0:0:0:
328,104,189853,1,0,0:0:0:0:
176,152,189948,6,0,L|75:152,1,100,10|0,0:0|0:0,0:0:0:0:
327,234,190323,5,8,0:0:0:0:
178,260,190416,1,8,0:0:0:0:
327,234,190510,1,8,0:0:0:0:
76,338,190698,6,0,L|237:337,1,150,4|0,0:0|0:0,0:0:0:0:
377,313,191073,6,0,L|267:313,1,100,2|0,0:0|0:0,0:0:0:0:
397,312,191448,2,0,L|494:239,1,100
226,107,191823,5,0,0:0:0:0:
156,142,191916,1,0,0:0:0:0:
257,146,192010,1,0,0:0:0:0:
187,181,192103,1,0,0:0:0:0:
289,178,192198,1,0,0:0:0:0:
219,213,192291,1,0,0:0:0:0:
320,217,192385,1,0,0:0:0:0:
250,252,192478,1,0,0:0:0:0:
402,286,192573,6,0,L|406:173,1,100,2|0,0:0|0:0,0:0:0:0:
286,186,192948,5,0,0:0:0:0:
366,185,193073,1,0,0:0:0:0:
446,185,193198,1,0,0:0:0:0:
246,28,193323,1,8,0:0:0:0:
176,63,193416,1,0,0:0:0:0:
277,67,193510,1,0,0:0:0:0:
207,102,193603,1,0,0:0:0:0:
359,275,193698,5,2,0:0:0:0:
434,261,193791,1,0,0:0:0:0:
434,213,193885,1,0,0:0:0:0:
359,188,193979,1,0,0:0:0:0:
208,187,194073,6,0,L|101:187,1,100,4|0,0:0|0:0,0:0:0:0:
359,299,194448,2,0,L|464:299,1,100,4|0,0:0|0:0,0:0:0:0:
208,187,194823,2,0,L|103:187,1,100,4|0,0:0|0:0,0:0:0:0:
359,240,195198,5,0,0:0:0:0:
429,275,195291,1,0,0:0:0:0:
328,279,195385,1,0,0:0:0:0:
398,314,195479,1,0,0:0:0:0:
297,288,195573,1,0,0:0:0:0:
367,323,195666,1,0,0:0:0:0:
266,327,195760,1,0,0:0:0:0:
336,362,195854,1,0,0:0:0:0:
185,350,195948,5,10,0:0:0:0:
110,348,196041,2,0,L|53:348,2,50
262,125,196323,6,0,L|319:125,2,50
187,127,196604,1,0,0:0:0:0:
337,200,196698,6,0,L|394:200,2,50,2|0|0,0:0|0:0|0:0,0:0:0:0:
262,198,196979,1,0,0:0:0:0:
111,240,197073,6,0,L|54:240,2,50,8|0|0,0:0|0:0|0:0,0:0:0:0:
186,238,197354,1,0,0:0:0:0:
337,263,197448,6,0,L|394:263,2,50,2|0|0,0:0|0:0|0:0,0:0:0:0:
262,261,197729,1,0,0:0:0:0:
112,308,197823,6,0,L|8:307,1,100
263,26,198198,5,0,0:0:0:0:
333,61,198291,1,0,0:0:0:0:
232,65,198385,1,0,0:0:0:0:
302,100,198478,1,0,0:0:0:0:
150,148,198573,6,0,L|35:149,1,100,2|0,0:0|0:0,0:0:0:0:
326,242,198948,5,8,0:0:0:0:
177,268,199041,1,8,0:0:0:0:
326,242,199135,1,8,0:0:0:0:
75,314,199323,6,0,L|18:314,2,50,4|0|0,0:0|0:0|0:0,0:0:0:0:
150,312,199604,1,0,0:0:0:0:
301,155,199698,6,0,L|358:155,2,50
226,153,199979,1,0,0:0:0:0:
75,153,200073,6,0,L|18:153,2,50,10|0|0,0:0|0:0|0:0,0:0:0:0:
150,151,200354,1,0,0:0:0:0:
302,213,200448,5,0,0:0:0:0:
377,211,200541,2,0,L|434:211,2,50
225,263,200823,5,10,0:0:0:0:
150,261,200916,2,0,L|93:261,2,50
303,144,201198,6,0,L|360:144,2,50
228,142,201479,1,0,0:0:0:0:
379,222,201573,6,0,L|436:222,2,50,0|0|8,0:0|0:0|0:0,0:0:0:0:
304,220,201854,1,0,0:0:0:0:
153,250,201948,5,0,0:0:0:0:
83,285,202041,1,0,0:0:0:0:
184,289,202135,1,0,0:0:0:0:
114,324,202228,1,0,0:0:0:0:
267,340,202323,6,0,L|367:340,1,100,8|0,0:0|0:0,0:0:0:0:
115,176,202698,5,8,0:0:0:0:
264,202,202791,1,8,0:0:0:0:
115,176,202885,1,8,0:0:0:0:
480,192,203083,5,4,0:0:0:0:
32,192,203446,6,0,P|42:124|170:70,1,200,6|0,0:0|0:0,0:0:0:0:
300,67,204196,1,0,0:0:0:0:
150,67,204446,2,0,P|112:105|157:185,1,150
223,180,204946,2,0,L|389:59,2,200,10|0|0,0:0|0:0|0:0,0:0:0:0:
480,192,206446,6,0,P|470:124|342:70,1,200,6|0,0:0|0:0,0:0:0:0:
212,67,207196,1,0,0:0:0:0:
362,67,207446,2,0,L|257:67,1,100
112,69,207946,6,0,L|273:186,1,200,10|0,0:0|0:0,0:0:0:0:
423,190,208696,1,0,0:0:0:0:
273,186,208946,2,0,L|191:130,1,100,0|2,0:0|0:0,0:0:0:0:
338,103,209446,5,6,0:0:0:0:
487,103,209696,2,0,L|374:102,2,100
412,103,210321,1,0,0:0:0:0:
338,103,210446,2,0,L|451:102,1,100
288,100,210946,6,0,P|231:105|159:228,1,200,10|0,0:0|0:0,0:0:0:0:
457,216,211946,2,0,L|344:216,1,100
207,215,212446,5,2,0:0:0:0:
356,217,212696,2,0,P|403:189|349:81,1,200
204,101,213446,2,0,L|312:101,1,100
154,102,213946,6,0,L|39:102,1,100,2|0,0:0|0:0,0:0:0:0:
203,103,214446,2,0,L|207:214,1,100
281,198,214821,1,0,0:0:0:0:
355,196,214946,1,2,0:0:0:0:
205,194,215196,1,2,0:0:0:0:
354,190,215446,6,0,L|137:190,1,200,6|0,0:0|0:0,0:0:0:0:
253,189,216112,1,0,0:0:0:0:
153,188,216279,1,0,0:0:0:0:
254,189,216446,1,0,0:0:0:0:
354,189,216612,1,0,0:0:0:0:
254,189,216779,1,0,0:0:0:0:
153,186,216946,6,0,P|75:173|41:49,2,200,2|0|0,0:0|0:0|0:0,0:0:0:0:
452,190,218446,6,0,L|213:190,1,200,6|2,0:0|0:0,0:0:0:0:
102,179,219196,1,0,0:0:0:0:
251,180,219446,2,0,L|251:293,1,100,2|0,0:0|0:0,0:0:0:0:
102,259,219946,6,0,L|416:259,1,300,2|0,0:0|0:0,0:0:0:0:
252,265,220946,2,0,L|137:265,1,100,4|2,0:0|0:0,0:0:0:0:
301,265,221446,5,6,0:0:0:0:
400,264,221612,1,0,0:0:0:0:
301,265,221779,1,0,0:0:0:0:
202,266,221946,5,0,0:0:0:0:
202,266,222196,1,0,0:0:0:0:
127,265,222362,1,0,0:0:0:0:
52,265,222529,5,0,0:0:0:0:
127,251,222696,1,0,0:0:0:0:
52,265,222862,1,0,0:0:0:0:
127,251,222946,6,0,L|354:251,1,200,10|0,0:0|0:0,0:0:0:0:
51,257,223946,2,0,P|47:185|125:140,1,150,2|0,0:0|0:0,0:0:0:0:
179,140,224446,6,0,L|296:140,1,100,2|0,0:0|0:0,0:0:0:0:
129,139,224946,1,2,0:0:0:0:
54,140,225071,2,0,L|55:207,1,50
204,184,225446,2,0,L|95:184,1,100
354,174,225946,6,0,L|470:174,1,100,10|0,0:0|0:0,0:0:0:0:
203,180,226446,2,0,L|198:245,1,50
123,228,226696,2,0,L|118:293,1,50
43,274,226946,1,0,0:0:0:0:
117,275,227071,1,0,0:0:0:0:
193,278,227196,1,0,0:0:0:0:
119,277,227321,1,0,0:0:0:0:
369,295,227446,6,0,L|373:181,1,100,6|0,0:0|0:0,0:0:0:0:
222,205,227946,2,0,L|345:204,1,100,2|8,0:0|0:0,0:0:0:0:
172,202,228446,6,0,L|65:201,2,100,2|0|2,0:0|0:0|0:0,0:0:0:0:
322,202,229196,5,0,0:0:0:0:
172,204,229446,2,0,L|170:88,1,100,2|8,0:0|0:0,0:0:0:0:
320,107,229946,6,0,L|431:107,1,100,2|0,0:0|0:0,0:0:0:0:
70,65,230446,5,8,0:0:0:0:
420,159,230696,1,8,0:0:0:0:
20,127,230946,1,8,0:0:0:0:
470,211,231196,1,8,0:0:0:0:
32,192,231446,5,4,0:0:0:0:
416,192,231946,5,2,0:0:0:0:
441,192,232008,5,2,0:0:0:0:
398,230,232071,5,0,0:0:0:0:
423,230,232133,5,0,0:0:0:0:
380,153,232196,5,0,0:0:0:0:
405,153,232258,5,0,0:0:0:0:
362,278,232321,5,0,0:0:0:0:
387,278,232383,5,2,0:0:0:0:
143,295,232446,6,0,L|139:181,1,100,6|0,0:0|0:0,0:0:0:0:
290,205,232946,2,0,L|167:204,1,100,2|8,0:0|0:0,0:0:0:0:
340,202,233446,6,0,L|447:201,2,100,2|0|2,0:0|0:0|0:0,0:0:0:0:
190,202,234196,5,0,0:0:0:0:
340,204,234446,2,0,L|342:88,1,100,2|8,0:0|0:0,0:0:0:0:
192,107,234946,6,0,L|81:107,1,100,2|0,0:0|0:0,0:0:0:0:
442,65,235446,5,8,0:0:0:0:
42,211,235696,1,8,0:0:0:0:
492,127,235946,1,8,0:0:0:0:
92,159,236196,1,8,0:0:0:0:
480,192,236446,5,4,0:0:0:0:
96,192,236946,5,2,0:0:0:0:
71,192,237008,5,2,0:0:0:0:
114,230,237071,5,2,0:0:0:0:
89,230,237133,5,2,0:0:0:0:
132,153,237196,5,2,0:0:0:0:
107,153,237258,5,2,0:0:0:0:
150,278,237321,5,2,0:0:0:0:
125,278,237383,5,2,0:0:0:0:
369,295,237446,6,0,L|372:184,1,100,4|0,0:0|0:0,0:0:0:0:
71,234,237926,5,8,0:0:0:0:
33,234,237986,2,0,P|52:141|135:119,1,175,0|2,0:0|0:0,0:0:0:0:
157,118,238466,1,2,0:0:0:0:
119,117,238526,1,0,0:0:0:0:
81,117,238586,1,0,0:0:0:0:
118,118,238646,1,2,0:0:0:0:
155,118,238706,1,2,0:0:0:0:
117,118,238766,1,2,0:0:0:0:
79,118,238826,1,2,0:0:0:0:
229,177,238886,6,0,L|331:177,1,100,4|0,0:0|0:0,0:0:0:0:
29,355,239366,2,0,L|17:247,1,100,8|0,0:0|0:0,0:0:0:0:
319,106,239846,5,8,0:0:0:0:
19,108,240086,2,0,L|131:108,1,100,4|0,0:0|0:0,0:0:0:0:
419,159,240566,5,0,0:0:0:0:
119,182,240806,1,2,0:0:0:0:
168,182,240886,1,0,0:0:0:0:
218,180,240966,1,0,0:0:0:0:
267,181,241046,1,2,0:0:0:0:
318,180,241126,1,0,0:0:0:0:
367,181,241206,1,0,0:0:0:0:
143,295,241286,6,0,L|140:184,1,100,4|0,0:0|0:0,0:0:0:0:
441,234,241766,5,8,0:0:0:0:
479,234,241826,2,0,P|460:141|377:119,1,175,0|2,0:0|0:0,0:0:0:0:
355,118,242306,1,2,0:0:0:0:
393,117,242366,1,2,0:0:0:0:
431,117,242426,1,2,0:0:0:0:
394,118,242486,1,0,0:0:0:0:
357,118,242546,1,0,0:0:0:0:
395,118,242606,1,0,0:0:0:0:
433,118,242666,1,0,0:0:0:0:
283,177,242726,6,0,L|181:177,1,100,4|0,0:0|0:0,0:0:0:0:
483,355,243206,2,0,L|495:247,1,100,8|0,0:0|0:0,0:0:0:0:
193,106,243686,5,8,0:0:0:0:
493,108,243926,2,0,L|381:108,1,100,4|0,0:0|0:0,0:0:0:0:
93,159,244406,5,0,0:0:0:0:
393,182,244646,1,2,0:0:0:0:
344,182,244726,1,0,0:0:0:0:
294,180,244806,1,0,0:0:0:0:
245,181,244886,1,2,0:0:0:0:
194,180,244966,1,0,0:0:0:0:
145,181,245046,1,0,0:0:0:0:
306,280,245126,6,0,L|420:280,1,100,4|0,0:0|0:0,0:0:0:0:
206,304,245366,2,0,L|320:304,1,100,2|0,0:0|0:0,0:0:0:0:
106,321,245606,6,0,L|2:321,1,100,8|0,0:0|0:0,0:0:0:0:
206,252,245846,2,0,L|207:149,1,100,2|0,0:0|0:0,0:0:0:0:
407,85,246086,6,0,L|299:85,1,100
107,211,246326,2,0,L|106:111,1,100,2|0,0:0|0:0,0:0:0:0:
306,222,246566,6,0,L|415:222,1,100,8|0,0:0|0:0,0:0:0:0:
206,360,246806,2,0,L|88:360,1,100,2|8,0:0|0:0,0:0:0:0:
306,340,247046,6,0,L|413:340,1,100
206,298,247286,2,0,L|204:190,1,100,2|0,0:0|0:0,0:0:0:0:
406,144,247526,6,0,L|410:43,1,100,8|0,0:0|0:0,0:0:0:0:
209,109,247766,2,0,L|92:109,1,100,2|0,0:0|0:0,0:0:0:0:
309,210,248006,6,0,L|192:210,1,100
412,319,248246,2,0,L|414:211,1,100,2|0,0:0|0:0,0:0:0:0:
211,240,248486,6,0,L|314:240,1,100,8|0,0:0|0:0,0:0:0:0:
111,203,248726,2,0,L|214:203,1,100,2|0,0:0|0:0,0:0:0:0:
414,306,248966,6,0,L|414:192,1,100
213,91,249206,2,0,L|320:91,1,100,2|0,0:0|0:0,0:0:0:0:
113,275,249446,6,0,L|109:162,1,100,8|0,0:0|0:0,0:0:0:0:
311,236,249686,2,0,L|200:236,1,100,2|0,0:0|0:0,0:0:0:0:
412,226,249926,6,0,L|416:120,1,100
211,46,250166,2,0,L|85:46,1,100,2|0,0:0|0:0,0:0:0:0:
312,51,250406,6,0,L|314:168,1,100,8|0,0:0|0:0,0:0:0:0:
109,175,250646,1,2,0:0:0:0:
313,222,250766,1,8,0:0:0:0:
106,234,250886,6,0,L|215:234,1,100
403,269,251126,2,0,L|512:269,1,100,2|0,0:0|0:0,0:0:0:0:
300,339,251366,2,0,L|296:232,1,100,8|0,0:0|0:0,0:0:0:0:
90,195,251606,5,10,0:0:0:0:
291,191,251726,5,0,0:0:0:0:
485,187,251846,5,8,0:0:0:0:
293,145,251966,5,8,0:0:0:0:
484,134,252086,5,2,0:0:0:0:
291,99,252206,5,0,0:0:0:0:
87,96,252326,5,0,0:0:0:0:
289,56,252446,5,0,0:0:0:0:
87,49,252566,2,0,L|80:163,1,100,2|0,0:0|0:0,0:0:0:0:
369,295,252806,6,0,L|372:184,1,100,4|0,0:0|0:0,0:0:0:0:
71,234,253286,5,8,0:0:0:0:
33,234,253346,2,0,P|52:141|135:119,1,175,0|2,0:0|0:0,0:0:0:0:
157,118,253826,1,2,0:0:0:0:
119,117,253886,1,2,0:0:0:0:
81,117,253946,1,2,0:0:0:0:
118,118,254006,1,0,0:0:0:0:
155,118,254066,1,0,0:0:0:0:
117,118,254126,1,0,0:0:0:0:
79,118,254186,1,0,0:0:0:0:
229,177,254246,6,0,L|331:177,1,100,4|0,0:0|0:0,0:0:0:0:
29,355,254726,2,0,L|17:247,1,100,8|0,0:0|0:0,0:0:0:0:
319,106,255206,5,8,0:0:0:0:
19,108,255446,2,0,L|131:108,1,100,4|0,0:0|0:0,0:0:0:0:
419,159,255926,5,8,0:0:0:0:
119,182,256166,1,2,0:0:0:0:
168,182,256246,1,0,0:0:0:0:
218,180,256326,1,0,0:0:0:0:
267,181,256406,1,2,0:0:0:0:
318,180,256486,1,0,0:0:0:0:
367,181,256566,1,0,0:0:0:0:
143,295,256646,6,0,L|140:184,1,100,4|0,0:0|0:0,0:0:0:0:
441,234,257126,5,8,0:0:0:0:
479,234,257186,2,0,P|460:141|377:119,1,175,0|2,0:0|0:0,0:0:0:0:
355,118,257666,1,0,0:0:0:0:
393,117,257726,1,0,0:0:0:0:
431,117,257786,1,0,0:0:0:0:
394,118,257846,1,0,0:0:0:0:
357,118,257906,1,0,0:0:0:0:
395,118,257966,1,0,0:0:0:0:
433,118,258026,1,0,0:0:0:0:
283,177,258086,6,0,L|181:177,1,100,4|0,0:0|0:0,0:0:0:0:
483,355,258566,2,0,L|495:247,1,100,8|0,0:0|0:0,0:0:0:0:
193,106,259046,5,8,0:0:0:0:
493,108,259286,2,0,L|381:108,1,100,4|0,0:0|0:0,0:0:0:0:
318,108,259646,1,0,0:0:0:0:
93,159,259766,5,0,0:0:0:0:
168,159,259886,1,0,0:0:0:0:
393,182,260006,1,2,0:0:0:0:
344,182,260086,1,0,0:0:0:0:
294,180,260166,1,0,0:0:0:0:
245,181,260246,1,2,0:0:0:0:
194,180,260326,1,0,0:0:0:0:
145,181,260406,1,0,0:0:0:0:
306,280,260486,6,0,L|387:280,2,66.6666666666667,4|0|0,0:0|0:0|0:0,0:0:0:0:
441,237,260726,6,0,L|360:237,2,66.6666666666667,2|0|0,0:0|0:0|0:0,0:0:0:0:
306,198,260966,6,0,L|239:198,2,66.6666666666667,8|0|0,0:0|0:0|0:0,0:0:0:0:
171,197,261206,6,0,L|104:197,2,66.6666666666667,2|0|0,0:0|0:0|0:0,0:0:0:0:
306,121,261446,6,0,L|373:121,2,66.6666666666667,8|0|0,0:0|0:0|0:0,0:0:0:0:
441,120,261686,6,0,L|508:120,2,66.6666666666667,2|0|0,0:0|0:0|0:0,0:0:0:0:
303,59,261926,6,0,L|236:59,2,66.6666666666667,8|0|0,0:0|0:0|0:0,0:0:0:0:
134,59,262166,6,0,L|201:59,2,66.6666666666667,2|0|0,0:0|0:0|0:0,0:0:0:0:
272,121,262406,6,0,L|191:121,2,66.6666666666667,8|0|0,0:0|0:0|0:0,0:0:0:0:
137,164,262646,6,0,L|218:164,2,66.6666666666667,2|0|0,0:0|0:0|0:0,0:0:0:0:
272,203,262886,6,0,L|339:203,2,66.6666666666667,8|0|0,0:0|0:0|0:0,0:0:0:0:
407,204,263126,6,0,L|474:204,2,66.6666666666667,2|0|0,0:0|0:0|0:0,0:0:0:0:
272,280,263366,6,0,L|205:280,2,66.6666666666667,8|0|0,0:0|0:0|0:0,0:0:0:0:
137,281,263606,6,0,L|70:281,2,66.6666666666667,2|0|0,0:0|0:0|0:0,0:0:0:0:
275,342,263846,6,0,L|342:342,2,66.6666666666667,8|0|0,0:0|0:0|0:0,0:0:0:0:
444,342,264086,6,0,L|377:342,2,66.6666666666667,2|0|0,0:0|0:0|0:0,0:0:0:0:
275,276,264326,6,0,L|197:276,2,66.6666666666667,4|0|0,0:0|0:0|0:0,0:0:0:0:
139,222,264566,6,0,L|217:222,2,66.6666666666667,2|0|0,0:0|0:0|0:0,0:0:0:0:
275,202,264806,6,0,L|353:202,2,66.6666666666667,8|0|0,0:0|0:0|0:0,0:0:0:0:
411,148,265046,6,0,L|333:148,2,66.6666666666667,2|0|0,0:0|0:0|0:0,0:0:0:0:
275,276,265286,6,0,L|197:276,2,66.6666666666667,8|0|0,0:0|0:0|0:0,0:0:0:0:
139,222,265526,6,0,L|217:222,2,66.6666666666667,2|0|0,0:0|0:0|0:0,0:0:0:0:
275,180,265766,6,0,L|386:180,1,100,8|0,0:0|0:0,0:0:0:0:
175,122,266006,1,10,0:0:0:0:
376,121,266126,1,8,0:0:0:0:
176,161,266246,6,0,L|254:161,2,66.6666666666667,8|0|0,0:0|0:0|0:0,0:0:0:0:
312,215,266486,6,0,L|234:215,2,66.6666666666667,2|0|0,0:0|0:0|0:0,0:0:0:0:
176,235,266726,6,0,L|98:235,2,66.6666666666667,8|0|0,0:0|0:0|0:0,0:0:0:0:
40,289,266966,6,0,L|118:289,2,66.6666666666667,2|0|0,0:0|0:0|0:0,0:0:0:0:
176,161,267206,6,0,L|254:161,2,66.6666666666667,8|0|0,0:0|0:0|0:0,0:0:0:0:
312,164,267446,5,0,0:0:0:0:
245,165,267526,1,0,0:0:0:0:
178,166,267606,1,0,0:0:0:0:
32,192,267686,5,12,0:0:0:0:
480,192,267926,1,12,0:0:0:0:
32,64,268166,5,4,0:0:0:0:
212,63,268286,1,8,0:0:0:0:
112,63,268406,5,0,0:0:0:0:
292,118,268526,1,8,0:0:0:0:
41,167,268646,5,0,0:0:0:0:
291,225,268766,1,8,0:0:0:0:
111,232,268886,5,0,0:0:0:0:
211,232,269006,1,8,0:0:0:0:
461,298,269126,5,0,0:0:0:0:
211,316,269246,1,8,0:0:0:0:
391,255,269366,5,0,0:0:0:0:
291,255,269486,1,8,0:0:0:0:
111,254,269606,5,0,0:0:0:0:
291,193,269726,1,8,0:0:0:0:
41,163,269846,6,0,L|41:52,1,100,8|8,0:0|0:0,0:0:0:0:
291,47,270086,5,4,0:0:0:0:
111,124,270206,1,8,0:0:0:0:
211,122,270326,5,0,0:0:0:0:
391,124,270446,1,8,0:0:0:0:
141,221,270566,5,0,0:0:0:0:
391,231,270686,1,8,0:0:0:0:
211,287,270806,5,0,0:0:0:0:
311,288,270926,1,8,0:0:0:0:
21,332,271046,6,0,L|21:216,1,100
256,352,271286,6,0,L|373:352,3,100
106,169,271766,6,0,L|221:169,1,100,8|8,0:0|0:0,0:0:0:0:
480,64,272006,5,4,0:0:0:0:
300,63,272126,1,8,0:0:0:0:
400,63,272246,5,0,0:0:0:0:
220,118,272366,1,8,0:0:0:0:
471,167,272486,5,0,0:0:0:0:
221,225,272606,1,8,0:0:0:0:
401,232,272726,5,0,0:0:0:0:
301,232,272846,1,8,0:0:0:0:
51,298,272966,5,0,0:0:0:0:
301,316,273086,1,8,0:0:0:0:
121,255,273206,5,0,0:0:0:0:
221,255,273326,1,8,0:0:0:0:
401,254,273446,5,0,0:0:0:0:
221,193,273566,1,8,0:0:0:0:
471,163,273686,6,0,L|471:52,1,100,8|8,0:0|0:0,0:0:0:0:
221,47,273926,5,4,0:0:0:0:
401,124,274046,1,8,0:0:0:0:
301,122,274166,5,0,0:0:0:0:
121,124,274286,1,8,0:0:0:0:
371,221,274406,5,0,0:0:0:0:
121,231,274526,1,8,0:0:0:0:
301,287,274646,5,0,0:0:0:0:
201,288,274766,1,8,0:0:0:0:
480,192,274886,5,4,0:0:0:0:
32,192,275126,1,0,0:0:0:0:
232,192,275366,5,0,0:0:0:0:
270,163,275426,1,0,0:0:0:0:
269,115,275486,1,0,0:0:0:0:
228,90,275546,1,0,0:0:0:0:
103,84,275606,6,0,L|271:84,1,150,8|0,0:0|0:0,0:0:0:0:
32,192,275846,5,4,0:0:0:0:
480,192,276086,1,0,0:0:0:0:
280,192,276326,5,0,0:0:0:0:
241,163,276386,1,0,0:0:0:0:
242,115,276446,1,0,0:0:0:0:
283,90,276506,1,0,0:0:0:0:
409,84,276566,6,0,L|241:84,1,150,8|0,0:0|0:0,0:0:0:0:
480,192,276806,5,4,0:0:0:0:
230,248,276926,1,8,0:0:0:0:
410,290,277046,5,0,0:0:0:0:
310,292,277166,1,8,0:0:0:0:
130,337,277286,5,0,0:0:0:0:
230,339,277406,1,8,0:0:0:0:
480,355,277526,5,8,0:0:0:0:
230,190,277646,1,0,0:0:0:0:
480,80,277766,5,4,0:0:0:0:
230,75,277886,1,8,0:0:0:0:
410,157,278006,5,0,0:0:0:0:
230,140,278126,1,8,0:0:0:0:
330,139,278246,5,0,0:0:0:0:
150,164,278366,1,8,0:0:0:0:
330,230,278486,5,0,0:0:0:0:
150,223,278606,1,0,0:0:0:0:
400,315,278726,5,4,0:0:0:0:
150,315,278846,1,8,0:0:0:0:
330,324,278966,5,0,0:0:0:0:
230,323,279086,1,8,0:0:0:0:
480,192,279206,5,0,0:0:0:0:
380,192,279326,1,8,0:0:0:0:
130,180,279446,5,0,0:0:0:0:
230,180,279566,1,8,0:0:0:0:
480,134,279686,5,4,0:0:0:0:
230,116,279806,1,8,0:0:0:0:
410,129,279926,1,0,0:0:0:0:
310,126,280046,1,8,0:0:0:0:
130,265,280166,6,0,L|68:265,3,50,4|0|0|0,0:0|0:0|0:0|0:0,0:0:0:0:
205,267,280406,5,4,0:0:0:0:
249,251,280466,1,0,0:0:0:0:
249,204,280526,1,0,0:0:0:0:
205,188,280586,1,0,0:0:0:0:
32,192,280646,5,4,0:0:0:0:
282,248,280766,1,8,0:0:0:0:
102,290,280886,5,0,0:0:0:0:
202,292,281006,1,8,0:0:0:0:
382,337,281126,5,0,0:0:0:0:
282,339,281246,1,8,0:0:0:0:
32,355,281366,5,8,0:0:0:0:
282,190,281486,1,8,0:0:0:0:
32,80,281606,5,4,0:0:0:0:
282,75,281726,1,8,0:0:0:0:
102,157,281846,5,0,0:0:0:0:
282,140,281966,1,8,0:0:0:0:
182,139,282086,5,0,0:0:0:0:
362,164,282206,1,8,0:0:0:0:
182,230,282326,5,8,0:0:0:0:
362,223,282446,1,8,0:0:0:0:
112,315,282566,6,0,L|39:315,2,66.6666666666667,4|0|0,0:0|0:0|0:0,0:0:0:0:
247,310,282806,6,0,L|174:310,2,66.6666666666667
382,286,283046,6,0,L|455:286,2,66.6666666666667
247,281,283286,6,0,L|320:281,2,66.6666666666667
112,277,283526,2,0,L|106:202,1,66.6666666666667,4|0,0:0|0:0,0:0:0:0:
174,212,283686,1,0,0:0:0:0:
307,199,283766,2,0,L|313:124,1,66.6666666666667
245,134,283926,1,0,0:0:0:0:
382,265,284006,6,0,L|444:265,3,50,4|0|0|0,0:0|0:0|0:0|0:0,0:0:0:0:
307,267,284246,5,4,0:0:0:0:
262,251,284306,1,0,0:0:0:0:
262,204,284366,1,0,0:0:0:0:
306,188,284426,1,0,0:0:0:0:
480,192,284486,5,4,0:0:0:0:
230,248,284606,1,8,0:0:0:0:
410,290,284726,5,0,0:0:0:0:
310,292,284846,1,0,0:0:0:0:
130,337,284966,5,0,0:0:0:0:
230,339,285086,1,0,0:0:0:0:
480,355,285206,5,8,0:0:0:0:
230,190,285326,1,8,0:0:0:0:
480,80,285446,5,4,0:0:0:0:
230,75,285566,1,8,0:0:0:0:
410,157,285686,5,0,0:0:0:0:
230,140,285806,1,0,0:0:0:0:
330,139,285926,5,0,0:0:0:0:
150,164,286046,1,0,0:0:0:0:
330,230,286166,5,8,0:0:0:0:
150,223,286286,1,8,0:0:0:0:
400,315,286406,5,4,0:0:0:0:
150,315,286526,1,8,0:0:0:0:
330,324,286646,5,0,0:0:0:0:
230,323,286766,1,0,0:0:0:0:
480,192,286886,5,0,0:0:0:0:
380,192,287006,1,0,0:0:0:0:
130,180,287126,5,8,0:0:0:0:
230,180,287246,1,8,0:0:0:0:
480,134,287366,5,4,0:0:0:0:
230,116,287486,1,8,0:0:0:0:
410,129,287606,1,8,0:0:0:0:
310,126,287726,1,8,0:0:0:0:
130,265,287846,6,0,L|68:265,3,50,4|0|0|0,0:0|0:0|0:0|0:0,0:0:0:0:
205,267,288086,5,4,0:0:0:0:
249,251,288146,1,0,0:0:0:0:
249,204,288206,1,0,0:0:0:0:
205,188,288266,1,0,0:0:0:0:
32,192,288326,5,4,0:0:0:0:
282,248,288446,1,8,0:0:0:0:
102,290,288566,5,0,0:0:0:0:
202,292,288686,1,0,0:0:0:0:
382,337,288806,5,0,0:0:0:0:
282,339,288926,1,0,0:0:0:0:
32,355,289046,5,8,0:0:0:0:
282,190,289166,1,8,0:0:0:0:
32,80,289286,5,4,0:0:0:0:
282,75,289406,1,8,0:0:0:0:
102,157,289526,5,0,0:0:0:0:
282,140,289646,1,0,0:0:0:0:
182,139,289766,5,0,0:0:0:0:
362,164,289886,1,0,0:0:0:0:
182,230,290006,5,8,0:0:0:0:
362,223,290126,1,8,0:0:0:0:
112,315,290246,6,0,L|39:315,2,66.6666666666667,4|0|0,0:0|0:0|0:0,0:0:0:0:
247,310,290486,6,0,L|174:310,2,66.6666666666667
382,286,290726,6,0,L|455:286,2,66.6666666666667
247,281,290966,6,0,L|320:281,2,66.6666666666667,8|0|0,0:0|0:0|0:0,0:0:0:0:
112,277,291206,2,0,L|106:202,1,66.6666666666667,4|0,0:0|0:0,0:0:0:0:
174,212,291366,1,0,0:0:0:0:
307,199,291446,2,0,L|313:124,1,66.6666666666667,4|0,0:0|0:0,0:0:0:0:
245,134,291606,1,0,0:0:0:0:
382,265,291686,6,0,L|444:265,3,50,4|0|0|0,0:0|0:0|0:0|0:0,0:0:0:0:
307,267,291926,5,4,0:0:0:0:
262,251,291986,1,0,0:0:0:0:
262,204,292046,1,0,0:0:0:0:
306,188,292106,1,0,0:0:0:0:
480,32,292166,5,12,0:0:0:0:
180,41,292286,1,8,0:0:0:0:
360,33,292406,1,8,0:0:0:0:
60,36,292526,1,8,0:0:0:0:
430,32,292646,5,8,0:0:0:0:
180,41,292766,1,8,0:0:0:0:
360,33,292886,1,8,0:0:0:0:
110,40,293006,1,8,0:0:0:0:
432,56,293126,5,12,0:0:0:0:
80,56,293246,1,12,0:0:0:0:
432,56,293366,1,12,0:0:0:0:
80,56,293486,1,12,0:0:0:0:
480,192,293606,5,4,0:0:0:0:
32,192,293846,1,4,0:0:0:0:
480,352,294086,5,4,0:0:0:0:
161,334,294326,5,2,0:0:0:0:
111,332,294386,2,0,L|108:276,1,50,2|2,0:0|0:0,0:0:0:0:
351,334,294566,1,2,0:0:0:0:
401,332,294626,2,0,L|404:276,1,50,2|2,0:0|0:0,0:0:0:0:
32,352,294806,5,8,0:0:0:0:
480,352,295046,1,4,0:0:0:0:
161,334,295286,5,2,0:0:0:0:
111,332,295346,2,0,L|108:276,1,50
480,352,295526,5,8,0:0:0:0:
185,335,295766,5,2,0:0:0:0:
135,333,295826,2,0,L|132:277,1,50,2|2,0:0|0:0,0:0:0:0:
480,352,296006,5,8,0:0:0:0:
470,303,296066,1,0,0:0:0:0:
441,262,296126,1,8,0:0:0:0:
398,237,296186,1,0,0:0:0:0:
349,232,296246,1,0,0:0:0:0:
249,230,296366,1,0,0:0:0:0:
429,194,296486,6,0,L|436:39,1,150,4|0,0:0|0:0,0:0:0:0:
283,37,296726,2,0,P|224:41|295:144,1,250,4|0,0:0|0:0,0:0:0:0:
436,156,297086,2,0,L|168:157,1,250,4|0,0:0|0:0,0:0:0:0:
36,216,297446,2,0,L|190:216,1,150,4|0,0:0|0:0,0:0:0:0:
32,352,297686,5,4,0:0:0:0:
351,334,297926,5,2,0:0:0:0:
401,332,297986,2,0,L|404:276,1,50,2|2,0:0|0:0,0:0:0:0:
161,334,298166,1,2,0:0:0:0:
111,332,298226,2,0,L|108:276,1,50,2|2,0:0|0:0,0:0:0:0:
480,352,298406,5,8,0:0:0:0:
32,352,298646,1,4,0:0:0:0:
351,334,298886,5,2,0:0:0:0:
401,332,298946,2,0,L|404:276,1,50,2|2,0:0|0:0,0:0:0:0:
32,352,299126,5,8,0:0:0:0:
376,334,299366,5,2,0:0:0:0:
426,332,299426,2,0,L|429:276,1,50,2|2,0:0|0:0,0:0:0:0:
32,352,299606,6,0,L|28:288,1,50,8|0,0:0|0:0,0:0:0:0:
100,298,299726,2,0,L|104:234,1,50,8|0,0:0|0:0,0:0:0:0:
175,241,299846,1,0,0:0:0:0:
75,238,299966,1,0,0:0:0:0:
480,192,300086,5,4,0:0:0:0:
280,197,300326,1,8,0:0:0:0:
380,197,300446,2,0,L|382:143,1,50,8|0,0:0|0:0,0:0:0:0:
312,147,300566,2,0,L|310:93,1,50,8|0,0:0|0:0,0:0:0:0:
380,98,300686,1,8,0:0:0:0:
32,192,300806,5,4,0:0:0:0:
231,189,301046,1,0,0:0:0:0:
131,190,301166,1,0,0:0:0:0:
311,243,301286,1,0,0:0:0:0:
131,246,301406,1,0,0:0:0:0:
381,159,301526,2,0,L|195:159,1,150,8|0,0:0|0:0,0:0:0:0:
32,192,301766,5,4,0:0:0:0:
37,143,301826,1,0,0:0:0:0:
69,106,301886,1,0,0:0:0:0:
117,96,301946,1,0,0:0:0:0:
242,95,302006,6,0,L|296:96,3,50,2|0|0|0,0:0|0:0|0:0|0:0,0:0:0:0:
165,174,302246,6,0,L|103:174,1,50,8|0,0:0|0:0,0:0:0:0:
165,174,302366,2,0,L|226:174,1,50
340,241,302486,6,0,L|301:278,1,50,2|0,0:0|0:0,0:0:0:0:
254,272,302606,2,0,L|185:272,1,50
329,324,302726,5,2,0:0:0:0:
378,318,302786,1,0,0:0:0:0:
415,287,302846,1,0,0:0:0:0:
429,240,302906,1,0,0:0:0:0:
305,229,302966,6,0,L|303:170,1,50,8|0,0:0|0:0,0:0:0:0:
178,356,303086,2,0,L|176:297,1,50
51,297,303206,5,2,0:0:0:0:
65,250,303266,1,0,0:0:0:0:
102,219,303326,1,0,0:0:0:0:
151,213,303386,1,0,0:0:0:0:
276,162,303446,6,0,L|237:125,1,50,8|0,0:0|0:0,0:0:0:0:
190,131,303566,2,0,L|121:131,1,50
265,46,303686,6,0,L|266:101,1,50,8|0,0:0|0:0,0:0:0:0:
196,107,303806,2,0,L|195:162,1,50,8|0,0:0|0:0,0:0:0:0:
267,194,303926,1,0,0:0:0:0:
167,195,304046,1,0,0:0:0:0:
480,192,304166,6,0,L|319:192,1,150,4|0,0:0|0:0,0:0:0:0:
180,267,304406,2,0,P|121:263|192:160,1,250,4|0,0:0|0:0,0:0:0:0:
331,308,304766,2,0,L|63:307,1,250,4|0,0:0|0:0,0:0:0:0:
231,231,305126,2,0,L|231:67,1,150,4|0,0:0|0:0,0:0:0:0:
480,192,305366,5,4,0:0:0:0:
475,143,305426,1,0,0:0:0:0:
443,106,305486,1,0,0:0:0:0:
395,96,305546,1,0,0:0:0:0:
270,95,305606,6,0,L|216:96,3,50,2|0|0|0,0:0|0:0|0:0|0:0,0:0:0:0:
347,174,305846,6,0,L|409:174,1,50,8|0,0:0|0:0,0:0:0:0:
347,174,305966,2,0,L|286:174,1,50
172,241,306086,6,0,L|211:278,1,50,2|0,0:0|0:0,0:0:0:0:
258,272,306206,2,0,L|327:272,1,50
183,324,306326,5,8,0:0:0:0:
134,318,306386,1,0,0:0:0:0:
97,287,306446,1,0,0:0:0:0:
83,240,306506,1,0,0:0:0:0:
207,229,306566,6,0,L|209:170,1,50,2|0,0:0|0:0,0:0:0:0:
334,356,306686,2,0,L|336:297,1,50
461,297,306806,5,8,0:0:0:0:
447,250,306866,1,0,0:0:0:0:
410,219,306926,1,0,0:0:0:0:
361,213,306986,1,0,0:0:0:0:
236,162,307046,6,0,L|275:125,1,50,2|0,0:0|0:0,0:0:0:0:
322,131,307166,2,0,L|391:131,1,50
247,46,307286,6,0,L|246:101,1,50,8|0,0:0|0:0,0:0:0:0:
316,107,307406,2,0,L|317:162,1,50,8|0,0:0|0:0,0:0:0:0:
245,194,307526,1,8,0:0:0:0:
345,195,307646,1,8,0:0:0:0:
32,192,307766,5,4,0:0:0:0:
231,193,308006,2,0,L|235:135,1,50,8|0,0:0|0:0,0:0:0:0:
164,140,308126,2,0,L|160:82,1,50,8|0,0:0|0:0,0:0:0:0:
231,112,308246,2,0,L|235:54,1,50,8|0,0:0|0:0,0:0:0:0:
305,66,308366,2,0,L|309:8,1,50,8|0,0:0|0:0,0:0:0:0:
480,192,308486,5,4,0:0:0:0:
280,192,308726,1,0,0:0:0:0:
460,294,308846,1,0,0:0:0:0:
210,286,308966,1,0,0:0:0:0:
460,334,309086,1,0,0:0:0:0:
209,331,309206,6,0,L|-5:331,1,200,6|0,0:0|0:0,0:0:0:0:
108,332,309566,1,0,0:0:0:0:
308,332,309686,6,0,L|94:332,1,200,2|0,0:0|0:0,0:0:0:0:
207,333,310046,1,0,0:0:0:0:
407,333,310166,6,0,L|193:333,1,200,2|0,0:0|0:0,0:0:0:0:
306,334,310526,1,0,0:0:0:0:
506,334,310646,6,0,L|292:334,1,200,2|0,0:0|0:0,0:0:0:0:
405,335,311006,1,0,0:0:0:0:
232,320,311126,6,0,L|229:259,1,50,2|0,0:0|0:0,0:0:0:0:
280,320,311246,6,0,L|283:259,1,50
229,270,311366,6,0,L|220:210,1,50,8|8,0:0|0:0,0:0:0:0:
282,270,311486,6,0,L|292:210,1,50,8|8,0:0|0:0,0:0:0:0:
221,220,311606,6,0,L|204:168,1,50,8|8,0:0|0:0,0:0:0:0:
291,220,311726,6,0,L|308:168,1,50,8|8,0:0|0:0,0:0:0:0:
205,172,311846,6,8,L|180:123,1,50
307,172,311966,6,8,L|332:123,1,50
182,127,312086,6,8,L|148:81,1,50
329,127,312206,6,8,L|364:81,1,50
152,87,312326,6,8,L|112:49,1,50
359,87,312446,6,8,L|400:49,1,50
116,52,312566,6,8,L|63:29,1,50
395,52,312686,6,8,L|449:29,1,50
70,32,312806,6,0,L|70:143,1,100,2|0,0:0|0:0,0:0:0:0:
305,318,313046,6,0,L|519:318,1,200,6|0,0:0|0:0,0:0:0:0:
406,319,313406,1,0,0:0:0:0:
206,319,313526,6,0,L|420:319,1,200,2|0,0:0|0:0,0:0:0:0:
307,320,313886,1,0,0:0:0:0:
107,320,314006,6,0,L|321:320,1,200,2|0,0:0|0:0,0:0:0:0:
208,321,314366,1,0,0:0:0:0:
8,321,314486,6,0,L|222:321,1,200,2|0,0:0|0:0,0:0:0:0:
109,322,314846,1,0,0:0:0:0:
307,320,314966,6,0,B|103:320|103:320|103:111,1,400,6|0,0:0|0:0,0:0:0:0:
206,321,315326,1,0,0:0:0:0:
406,321,315446,6,0,L|192:321,1,200,2|0,0:0|0:0,0:0:0:0:
305,322,315806,1,0,0:0:0:0:
105,322,315926,6,0,L|319:322,1,200,2|0,0:0|0:0,0:0:0:0:
206,323,316286,1,0,0:0:0:0:
4,336,316406,6,0,L|204:336,1,200,2|0,0:0|0:0,0:0:0:0:
105,337,316766,1,0,0:0:0:0:
303,53,316886,6,0,L|517:53,1,200,6|0,0:0|0:0,0:0:0:0:
404,52,317246,1,0,0:0:0:0:
204,52,317366,6,0,L|418:52,1,200,2|0,0:0|0:0,0:0:0:0:
305,51,317726,1,0,0:0:0:0:
105,51,317846,6,0,L|319:51,1,200,2|0,0:0|0:0,0:0:0:0:
206,50,318206,1,0,0:0:0:0:
6,50,318326,6,0,L|188:50,1,150,2|0,0:0|0:0,0:0:0:0:
305,51,318566,6,0,L|155:51,1,150
305,318,318806,6,0,B|502:317|502:317|502:112,1,400,6|0,0:0|0:0,0:0:0:0:
406,319,319166,1,0,0:0:0:0:
206,319,319286,6,0,L|420:319,1,200,2|0,0:0|0:0,0:0:0:0:
307,320,319646,1,0,0:0:0:0:
107,320,319766,6,0,L|321:320,1,200,2|0,0:0|0:0,0:0:0:0:
208,321,320126,1,0,0:0:0:0:
8,321,320246,5,10,0:0:0:0:
188,271,320366,1,8,0:0:0:0:
368,237,320486,1,0,0:0:0:0:
268,235,320606,1,0,0:0:0:0:
480,192,320726,6,0,L|372:192,3,100,6|0|0|0,0:0|0:0|0:0|0:0,0:0:0:0:
200,156,321206,6,0,L|308:156,3,100,2|0|0|0,0:0|0:0|0:0|0:0,0:0:0:0:
120,212,321686,6,0,L|12:212,3,100,2|0|0|0,0:0|0:0|0:0|0:0,0:0:0:0:
200,196,322166,6,0,L|308:196,3,100,2|0|0|0,0:0|0:0|0:0|0:0,0:0:0:0:
32,352,322646,6,0,L|32:243,1,100,6|0,0:0|0:0,0:0:0:0:
132,246,322886,2,0,L|132:137,1,100
232,141,323126,2,0,L|232:250,1,100
132,247,323366,2,0,L|132:356,1,100
480,352,323606,6,0,L|480:243,1,100,2|0,0:0|0:0,0:0:0:0:
380,246,323846,2,0,L|380:137,1,100
280,141,324086,2,0,L|280:250,1,100
480,200,324326,2,0,L|480:309,1,100,8|0,0:0|0:0,0:0:0:0:
32,192,324566,6,0,L|140:192,3,100,6|0|0|0,0:0|0:0|0:0|0:0,0:0:0:0:
312,156,325046,6,0,L|204:156,3,100,2|0|0|0,0:0|0:0|0:0|0:0,0:0:0:0:
392,212,325526,6,0,L|500:212,3,100,2|0|0|0,0:0|0:0|0:0|0:0,0:0:0:0:
312,196,326006,6,0,L|204:196,1,100,2|0,0:0|0:0,0:0:0:0:
392,257,326246,6,0,L|284:257,1,100
32,352,326486,6,0,L|32:243,1,100,6|0,0:0|0:0,0:0:0:0:
132,246,326726,2,0,L|132:137,1,100
232,141,326966,2,0,L|232:250,1,100
132,247,327206,2,0,L|132:356,1,100
480,352,327446,6,0,L|480:243,1,100,2|0,0:0|0:0,0:0:0:0:
380,246,327686,2,0,L|380:137,1,100
280,141,327926,2,0,L|280:250,1,100,2|0,0:0|0:0,0:0:0:0:
480,200,328166,2,0,L|480:309,1,100,8|0,0:0|0:0,0:0:0:0:
132,192,328406,6,0,L|32:192,3,100,6|0|0|0,0:0|0:0|0:0|0:0,0:0:0:0:
212,253,328886,6,0,L|112:253,3,100,2|0|0|0,0:0|0:0|0:0|0:0,0:0:0:0:
292,135,329366,6,0,L|392:135,3,100,10|0|0|0,0:0|0:0|0:0|0:0,0:0:0:0:
212,196,329846,6,0,L|312:196,3,100,2|0|0|0,0:0|0:0|0:0|0:0,0:0:0:0:
492,190,330326,6,0,L|392:190,3,100,2|0|0|0,0:0|0:0|0:0|0:0,0:0:0:0:
212,230,330806,6,0,L|112:230,3,100
292,306,331286,6,0,P|345:293|356:34,1,350,10|0,0:0|0:0,0:0:0:0:
220,306,331766,6,0,P|167:293|156:34,1,350,10|0,0:0|0:0,0:0:0:0:
380,192,332246,6,0,L|480:192,3,100,6|0|0|0,0:0|0:0|0:0|0:0,0:0:0:0:
300,253,332726,6,0,L|400:253,3,100,2|0|0|0,0:0|0:0|0:0|0:0,0:0:0:0:
220,135,333206,6,0,L|120:135,3,100,10|0|0|0,0:0|0:0|0:0|0:0,0:0:0:0:
300,196,333686,6,0,L|200:196,3,100,2|0|0|0,0:0|0:0|0:0|0:0,0:0:0:0:
20,190,334166,6,0,L|120:190,3,100,2|0|0|0,0:0|0:0|0:0|0:0,0:0:0:0:
300,230,334646,6,0,L|400:230,3,100,2|0|0|0,0:0|0:0|0:0|0:0,0:0:0:0:
220,274,335126,6,0,L|120:274,3,100,10|0|0|0,0:0|0:0|0:0|0:0,0:0:0:0:
169,274,335546,1,0,0:0:0:0:
294,196,335606,6,0,L|189:196,1,100,10|0,0:0|0:0,0:0:0:0:
14,163,335846,2,0,L|119:163,1,100,8|0,0:0|0:0,0:0:0:0:
380,192,336086,6,0,L|480:192,3,100,6|0|0|0,0:0|0:0|0:0|0:0,0:0:0:0:
300,253,336566,6,0,L|400:253,3,100,2|0|0|0,0:0|0:0|0:0|0:0,0:0:0:0:
220,135,337046,6,0,L|120:135,3,100,10|0|0|0,0:0|0:0|0:0|0:0,0:0:0:0:
300,196,337526,6,0,L|200:196,3,100
20,190,338006,6,0,L|120:190,3,100,2|0|0|0,0:0|0:0|0:0|0:0,0:0:0:0:
300,230,338486,6,0,L|400:230,3,100
220,306,338966,6,0,P|167:293|156:34,1,350,10|0,0:0|0:0,0:0:0:0:
292,306,339446,6,0,P|345:293|356:34,1,350,10|0,0:0|0:0,0:0:0:0:
132,192,339926,6,0,L|32:192,3,100,6|0|0|0,0:0|0:0|0:0|0:0,0:0:0:0:
212,253,340406,6,0,L|112:253,3,100,2|0|0|0,0:0|0:0|0:0|0:0,0:0:0:0:
292,135,340886,6,0,L|392:135,3,100,10|0|0|0,0:0|0:0|0:0|0:0,0:0:0:0:
212,196,341366,6,0,L|312:196,3,100,2|0|0|0,0:0|0:0|0:0|0:0,0:0:0:0:
492,190,341846,5,10,0:0:0:0:
312,131,341966,2,0,L|415:131,1,100
232,263,342206,1,8,0:0:0:0:
412,131,342326,6,0,L|312:131,1,100,10|0,0:0|0:0,0:0:0:0:
132,161,342566,2,0,L|232:161,1,100
52,226,342806,6,0,L|152:226,2,100,10|8|8,0:0|0:0|0:0,0:0:0:0:
232,242,343166,1,8,0:0:0:0:
412,224,343286,5,10,0:0:0:0:
232,192,343406,1,0,0:0:0:0:
412,148,343526,2,0,L|312:148,1,100
74,193,343766,5,6,0:0:0:0:
24,165,343826,1,0,0:0:0:0:
24,105,343886,1,0,0:0:0:0:
74,79,343946,1,0,0:0:0:0:
199,88,344006,2,0,L|203:143,1,50
330,87,344126,2,0,L|333:140,1,50
74,193,344246,5,2,0:0:0:0:
24,165,344306,1,0,0:0:0:0:
24,105,344366,1,0,0:0:0:0:
74,79,344426,1,0,0:0:0:0:
199,88,344486,2,0,L|203:143,1,50,8|0,0:0|0:0,0:0:0:0:
330,87,344606,2,0,L|333:140,1,50
74,193,344726,5,10,0:0:0:0:
24,165,344786,1,0,0:0:0:0:
24,105,344846,1,0,0:0:0:0:
74,79,344906,1,0,0:0:0:0:
199,88,344966,2,0,L|203:143,1,50
330,87,345086,2,0,L|333:140,1,50
74,193,345206,5,10,0:0:0:0:
24,165,345266,1,0,0:0:0:0:
24,105,345326,1,0,0:0:0:0:
74,79,345386,1,0,0:0:0:0:
199,88,345446,2,0,L|203:143,1,50
330,87,345566,2,0,L|333:140,1,50
74,191,345686,5,6,0:0:0:0:
24,219,345746,1,0,0:0:0:0:
24,279,345806,1,0,0:0:0:0:
74,305,345866,1,0,0:0:0:0:
199,337,345926,2,0,L|255:337,1,50
124,266,346046,2,0,L|177:266,1,50
424,257,346166,5,2,0:0:0:0:
474,229,346226,1,0,0:0:0:0:
474,169,346286,1,0,0:0:0:0:
424,143,346346,1,0,0:0:0:0:
299,111,346406,2,0,L|243:111,1,50
374,182,346526,2,0,L|321:182,1,50
139,359,346646,5,6,0:0:0:0:
93,340,346706,1,0,0:0:0:0:
58,304,346766,1,0,0:0:0:0:
40,258,346826,1,0,0:0:0:0:
41,208,346886,1,0,0:0:0:0:
62,163,346946,1,0,0:0:0:0:
99,130,347006,1,0,0:0:0:0:
146,114,347066,1,0,0:0:0:0:
315,265,347126,5,10,0:0:0:0:
365,237,347186,1,0,0:0:0:0:
365,177,347246,1,0,0:0:0:0:
315,151,347306,1,0,0:0:0:0:
190,266,347366,5,8,0:0:0:0:
140,238,347426,1,0,0:0:0:0:
140,178,347486,1,0,0:0:0:0:
190,152,347546,1,0,0:0:0:0:
438,193,347606,5,6,0:0:0:0:
488,165,347666,1,0,0:0:0:0:
488,105,347726,1,0,0:0:0:0:
438,79,347786,1,0,0:0:0:0:
313,88,347846,2,0,L|309:143,1,50
182,87,347966,2,0,L|179:140,1,50
438,193,348086,5,2,0:0:0:0:
488,165,348146,1,0,0:0:0:0:
488,105,348206,1,0,0:0:0:0:
438,79,348266,1,0,0:0:0:0:
313,88,348326,2,0,L|309:143,1,50,8|0,0:0|0:0,0:0:0:0:
182,87,348446,2,0,L|179:140,1,50
438,193,348566,5,10,0:0:0:0:
488,165,348626,1,0,0:0:0:0:
488,105,348686,1,0,0:0:0:0:
438,79,348746,1,0,0:0:0:0:
313,88,348806,2,0,L|309:143,1,50
182,87,348926,2,0,L|179:140,1,50
438,193,349046,5,2,0:0:0:0:
488,165,349106,1,0,0:0:0:0:
488,105,349166,1,0,0:0:0:0:
438,79,349226,1,0,0:0:0:0:
313,88,349286,2,0,L|309:143,1,50
182,87,349406,2,0,L|179:140,1,50
438,191,349526,5,6,0:0:0:0:
488,219,349586,1,0,0:0:0:0:
488,279,349646,1,0,0:0:0:0:
438,305,349706,1,0,0:0:0:0:
313,337,349766,2,0,L|257:337,1,50
388,266,349886,2,0,L|335:266,1,50
74,193,350006,5,10,0:0:0:0:
24,165,350066,1,0,0:0:0:0:
24,105,350126,1,0,0:0:0:0:
74,79,350186,1,0,0:0:0:0:
199,88,350246,2,0,L|203:143,1,50,8|0,0:0|0:0,0:0:0:0:
330,87,350366,2,0,L|333:140,1,50
74,193,350486,5,6,0:0:0:0:
24,165,350546,1,0,0:0:0:0:
24,105,350606,1,0,0:0:0:0:
74,79,350666,1,0,0:0:0:0:
199,47,350726,2,0,L|255:47,1,50
124,118,350846,2,0,L|177:118,1,50
438,191,350966,5,10,0:0:0:0:
488,219,351026,1,0,0:0:0:0:
488,279,351086,1,0,0:0:0:0:
438,305,351146,1,0,0:0:0:0:
313,296,351206,2,0,L|309:241,1,50
182,297,351326,2,0,L|179:244,1,50
438,193,351446,5,6,0:0:0:0:
488,165,351506,1,0,0:0:0:0:
488,105,351566,1,0,0:0:0:0:
438,79,351626,1,0,0:0:0:0:
313,88,351686,2,0,L|309:143,1,50
182,87,351806,2,0,L|179:140,1,50
438,193,351926,5,2,0:0:0:0:
488,165,351986,1,0,0:0:0:0:
488,105,352046,1,0,0:0:0:0:
438,79,352106,1,0,0:0:0:0:
313,88,352166,2,0,L|309:143,1,50
182,87,352286,2,0,L|179:140,1,50
438,193,352406,5,2,0:0:0:0:
488,165,352466,1,0,0:0:0:0:
488,105,352526,1,0,0:0:0:0:
438,79,352586,1,0,0:0:0:0:
313,88,352646,2,0,L|309:143,1,50
182,87,352766,2,0,L|179:140,1,50
438,193,352886,5,10,0:0:0:0:
488,165,352946,1,0,0:0:0:0:
488,105,353006,1,0,0:0:0:0:
438,79,353066,1,0,0:0:0:0:
313,88,353126,2,0,L|309:143,1,50
182,87,353246,2,0,L|179:140,1,50
438,191,353366,5,6,0:0:0:0:
488,219,353426,1,0,0:0:0:0:
488,279,353486,1,0,0:0:0:0:
438,305,353546,1,0,0:0:0:0:
313,337,353606,2,0,L|257:337,1,50
388,266,353726,2,0,L|335:266,1,50
88,257,353846,5,2,0:0:0:0:
38,229,353906,1,0,0:0:0:0:
38,169,353966,1,0,0:0:0:0:
88,143,354026,1,0,0:0:0:0:
213,111,354086,2,0,L|269:111,1,50
138,182,354206,2,0,L|191:182,1,50
373,359,354326,5,6,0:0:0:0:
419,340,354386,1,0,0:0:0:0:
454,304,354446,1,0,0:0:0:0:
472,258,354506,1,0,0:0:0:0:
471,208,354566,1,0,0:0:0:0:
450,163,354626,1,0,0:0:0:0:
413,130,354686,1,0,0:0:0:0:
366,114,354746,1,0,0:0:0:0:
197,265,354806,5,10,0:0:0:0:
147,237,354866,1,0,0:0:0:0:
147,177,354926,1,0,0:0:0:0:
197,151,354986,1,0,0:0:0:0:
322,266,355046,5,8,0:0:0:0:
372,238,355106,1,0,0:0:0:0:
372,178,355166,1,0,0:0:0:0:
322,152,355226,1,0,0:0:0:0:
74,193,355286,5,6,0:0:0:0:
24,165,355346,1,0,0:0:0:0:
24,105,355406,1,0,0:0:0:0:
74,79,355466,1,0,0:0:0:0:
199,88,355526,2,0,L|203:143,1,50
330,87,355646,2,0,L|333:140,1,50
74,193,355766,5,2,0:0:0:0:
24,165,355826,1,0,0:0:0:0:
24,105,355886,1,0,0:0:0:0:
74,79,355946,1,0,0:0:0:0:
199,88,356006,2,0,L|203:143,1,50,8|0,0:0|0:0,0:0:0:0:
330,87,356126,2,0,L|333:140,1,50
74,191,356246,5,10,0:0:0:0:
24,219,356306,1,0,0:0:0:0:
24,279,356366,1,0,0:0:0:0:
74,305,356426,1,0,0:0:0:0:
199,337,356486,2,0,L|255:337,1,50
124,266,356606,2,0,L|177:266,1,50
438,191,356726,5,10,0:0:0:0:
488,219,356786,1,0,0:0:0:0:
488,279,356846,1,0,0:0:0:0:
438,305,356906,1,0,0:0:0:0:
313,337,356966,2,0,L|257:337,1,50
388,266,357086,2,0,L|335:266,1,50
74,193,357206,5,12,0:0:0:0:
24,165,357266,1,8,0:0:0:0:
24,105,357326,1,8,0:0:0:0:
74,79,357386,1,0,0:0:0:0:
199,88,357446,2,0,L|203:143,1,50
330,87,357566,2,0,L|333:140,1,50
74,191,357686,5,12,0:0:0:0:
24,219,357746,1,8,0:0:0:0:
24,279,357806,1,8,0:0:0:0:
74,305,357866,1,0,0:0:0:0:
199,337,357926,2,0,L|255:337,1,50
124,266,358046,2,0,L|177:266,1,50
438,191,358166,5,12,0:0:0:0:
488,219,358226,1,8,0:0:0:0:
488,279,358286,1,8,0:0:0:0:
438,305,358346,1,0,0:0:0:0:
313,337,358406,2,0,L|257:337,1,50
388,266,358526,2,0,L|335:266,1,50
74,193,358646,5,4,0:0:0:0:
24,165,358706,1,0,0:0:0:0:
24,105,358766,1,0,0:0:0:0:
74,79,358826,1,0,0:0:0:0:
199,88,358886,2,0,L|203:143,1,50
330,87,359006,2,0,L|333:140,1,50
480,192,359126,5,4,0:0:0:0:
300,193,359237,2,0,L|401:193,2,100,0|12|0,0:0|0:0|0:0,0:0:0:0:
120,170,359570,2,0,L|226:170,1,100,12|0,0:0|0:0,0:0:0:0:
400,161,359792,1,12,0:0:0:0:
220,145,359903,1,0,0:0:0:0:
470,103,360014,5,12,0:0:0:0:
218,224,360126,1,0,0:0:0:0:
398,228,360237,5,12,0:0:0:0:
218,272,360348,1,0,0:0:0:0:
468,187,360459,5,12,0:0:0:0:
216,308,360571,1,0,0:0:0:0:
396,312,360682,5,12,0:0:0:0:
216,356,360793,1,12,0:0:0:0:
32,192,360903,5,12,0:0:0:0:
212,193,361014,2,0,L|111:193,2,100,0|12|0,0:0|0:0|0:0,0:0:0:0:
392,170,361347,2,0,L|286:170,1,100,12|0,0:0|0:0,0:0:0:0:
112,161,361569,1,12,0:0:0:0:
292,145,361680,1,0,0:0:0:0:
42,103,361791,5,12,0:0:0:0:
294,224,361903,1,0,0:0:0:0:
114,228,362014,5,12,0:0:0:0:
294,272,362125,1,0,0:0:0:0:
44,187,362236,5,12,0:0:0:0:
296,308,362348,1,0,0:0:0:0:
46,242,362459,5,12,0:0:0:0:
296,356,362570,1,12,0:0:0:0:
32,352,362681,5,12,0:0:0:0:
32,283,362736,1,0,0:0:0:0:
75,229,362792,1,8,0:0:0:0:
142,215,362847,1,0,0:0:0:0:
283,207,362903,6,0,L|344:166,3,69.9999978637696,8|0|8|0,0:0|0:0|0:0|0:0,0:0:0:0:
197,191,363126,2,0,L|155:135,1,69.9999978637696,8|0,0:0|0:0,0:0:0:0:
296,57,363237,2,0,L|299:127,1,69.9999978637696,8|0,0:0|0:0,0:0:0:0:
440,228,363348,2,0,L|482:284,1,69.9999978637696,8|0,0:0|0:0,0:0:0:0:
341,247,363459,2,0,L|336:316,1,69.9999978637696,8|0,0:0|0:0,0:0:0:0:
193,333,363570,6,0,L|132:292,3,69.9999978637696,12|0|8|0,0:0|0:0|0:0|0:0,0:0:0:0:
325,317,363792,2,0,L|367:261,1,69.9999978637696,8|0,0:0|0:0,0:0:0:0:
226,183,363903,2,0,L|223:253,1,69.9999978637696,8|0,0:0|0:0,0:0:0:0:
82,288,364014,6,0,L|124:232,1,69.9999978637696,12|0,0:0|0:0,0:0:0:0:
268,181,364126,2,0,L|226:125,1,69.9999978637696,8|0,0:0|0:0,0:0:0:0:
85,117,364237,1,8,0:0:0:0:
224,94,364292,1,8,0:0:0:0:
365,148,364348,1,8,0:0:0:0:
172,153,364403,1,8,0:0:0:0:
32,192,364459,5,4,0:0:0:0:
212,193,364570,2,0,L|111:193,2,100,0|12|0,0:0|0:0|0:0,0:0:0:0:
392,170,364903,2,0,L|286:170,1,100,12|0,0:0|0:0,0:0:0:0:
112,161,365125,1,12,0:0:0:0:
292,145,365236,1,0,0:0:0:0:
42,103,365347,5,12,0:0:0:0:
294,224,365459,1,0,0:0:0:0:
114,228,365570,5,12,0:0:0:0:
294,272,365681,1,0,0:0:0:0:
44,187,365792,5,12,0:0:0:0:
296,308,365904,1,0,0:0:0:0:
116,312,366015,5,12,0:0:0:0:
296,356,366126,1,12,0:0:0:0:
480,192,366236,5,12,0:0:0:0:
300,193,366347,2,0,L|401:193,2,100,0|12|0,0:0|0:0|0:0,0:0:0:0:
120,170,366680,6,0,L|226:170,1,100,12|0,0:0|0:0,0:0:0:0:
400,161,366902,1,12,0:0:0:0:
220,145,367013,1,0,0:0:0:0:
470,103,367126,5,12,0:0:0:0:
218,224,367236,1,0,0:0:0:0:
398,228,367347,5,12,0:0:0:0:
218,272,367458,1,0,0:0:0:0:
468,187,367569,5,12,0:0:0:0:
216,308,367681,1,0,0:0:0:0:
466,242,367792,5,12,0:0:0:0:
216,356,367903,1,12,0:0:0:0:
480,352,368014,5,12,0:0:0:0:
480,283,368069,1,0,0:0:0:0:
437,229,368125,1,8,0:0:0:0:
370,215,368180,1,0,0:0:0:0:
229,207,368236,6,0,L|168:166,3,69.9999978637696,8|0|8|0,0:0|0:0|0:0|0:0,0:0:0:0:
315,191,368459,2,0,L|357:135,1,69.9999978637696,8|0,0:0|0:0,0:0:0:0:
216,57,368570,2,0,L|213:127,1,69.9999978637696,8|0,0:0|0:0,0:0:0:0:
72,228,368681,2,0,L|30:284,1,69.9999978637696,8|0,0:0|0:0,0:0:0:0:
171,247,368792,2,0,L|178:321,1,69.9999978637696,8|0,0:0|0:0,0:0:0:0:
319,334,368903,6,0,L|380:293,3,69.9999978637696,12|0|8|0,0:0|0:0|0:0|0:0,0:0:0:0:
187,317,369125,2,0,L|145:261,1,69.9999978637696,8|0,0:0|0:0,0:0:0:0:
286,183,369236,2,0,L|289:253,1,69.9999978637696,8|0,0:0|0:0,0:0:0:0:
430,288,369347,6,0,L|388:232,1,69.9999978637696,12|0,0:0|0:0,0:0:0:0:
244,181,369459,2,0,L|286:125,1,69.9999978637696,8|0,0:0|0:0,0:0:0:0:
427,117,369570,1,8,0:0:0:0:
288,94,369625,1,8,0:0:0:0:
147,148,369681,1,8,0:0:0:0:
340,153,369736,1,8,0:0:0:0:
480,192,369792,6,0,L|426:192,1,50,4|0,0:0|0:0,0:0:0:0:
300,188,369903,1,8,0:0:0:0:
480,192,370014,1,0,0:0:0:0:
178,149,370126,5,0,0:0:0:0:
358,145,370237,1,12,0:0:0:0:
178,149,370348,1,8,0:0:0:0:
480,192,370459,5,8,0:0:0:0:
300,188,370570,1,8,0:0:0:0:
50,282,370681,5,12,0:0:0:0:
230,278,370792,1,8,0:0:0:0:
50,282,370903,1,0,0:0:0:0:
352,236,371015,5,0,0:0:0:0:
172,232,371126,1,12,0:0:0:0:
352,236,371237,1,8,0:0:0:0:
50,282,371348,5,8,0:0:0:0:
230,278,371459,1,8,0:0:0:0:
480,192,371570,5,12,0:0:0:0:
256,192,371681,1,8,0:0:0:0:
32,192,371792,5,8,0:0:0:0:
256,192,371904,1,8,0:0:0:0:
480,40,372014,5,12,0:0:0:0:
151,87,372126,1,0,0:0:0:0:
369,81,372237,5,12,0:0:0:0:
32,40,372348,1,0,0:0:0:0:
355,297,372459,5,12,0:0:0:0:
157,297,372570,1,0,0:0:0:0:
480,344,372681,5,12,0:0:0:0:
256,192,372792,1,0,0:0:0:0:
32,192,372903,6,0,L|86:192,1,50,4|0,0:0|0:0,0:0:0:0:
212,196,373014,1,8,0:0:0:0:
32,192,373125,1,0,0:0:0:0:
334,240,373237,5,0,0:0:0:0:
154,244,373348,1,12,0:0:0:0:
334,240,373459,1,8,0:0:0:0:
32,192,373570,5,8,0:0:0:0:
212,196,373681,1,8,0:0:0:0:
462,102,373792,5,12,0:0:0:0:
282,106,373903,1,8,0:0:0:0:
462,102,374014,1,0,0:0:0:0:
160,144,374126,5,0,0:0:0:0:
340,148,374237,1,12,0:0:0:0:
160,144,374348,1,8,0:0:0:0:
462,102,374459,5,8,0:0:0:0:
282,106,374570,1,8,0:0:0:0:
32,192,374681,5,12,0:0:0:0:
256,192,374792,1,8,0:0:0:0:
480,192,374903,5,8,0:0:0:0:
256,192,375015,1,8,0:0:0:0:
32,344,375125,5,12,0:0:0:0:
355,297,375237,1,0,0:0:0:0:
32,344,375348,5,12,0:0:0:0:
256,192,375459,1,0,0:0:0:0:
480,344,375570,5,12,0:0:0:0:
157,297,375682,1,0,0:0:0:0:
480,344,375793,5,12,0:0:0:0:
157,297,375903,1,0,0:0:0:0:
480,192,376014,6,0,L|426:192,1,50,4|0,0:0|0:0,0:0:0:0:
300,196,376125,1,8,0:0:0:0:
480,192,376236,1,8,0:0:0:0:
178,231,376348,5,8,0:0:0:0:
358,235,376459,1,12,0:0:0:0:
178,231,376570,1,8,0:0:0:0:
480,192,376681,5,8,0:0:0:0:
300,196,376792,1,8,0:0:0:0:
50,102,376903,5,12,0:0:0:0:
230,106,377014,1,8,0:0:0:0:
50,102,377125,1,0,0:0:0:0:
352,154,377237,5,0,0:0:0:0:
172,158,377348,1,12,0:0:0:0:
352,154,377459,1,8,0:0:0:0:
50,102,377570,5,8,0:0:0:0:
230,106,377681,1,8,0:0:0:0:
480,192,377792,5,12,0:0:0:0:
256,192,377903,1,8,0:0:0:0:
32,192,378014,5,8,0:0:0:0:
256,192,378126,1,8,0:0:0:0:
480,344,378236,5,12,0:0:0:0:
157,297,378348,1,0,0:0:0:0:
355,297,378459,5,12,0:0:0:0:
32,344,378570,1,0,0:0:0:0:
355,87,378681,5,12,0:0:0:0:
157,87,378792,1,0,0:0:0:0:
480,40,378903,5,12,0:0:0:0:
256,192,379014,1,0,0:0:0:0:
32,192,379126,6,0,L|89:192,1,50,4|0,0:0|0:0,0:0:0:0:
212,188,379236,1,8,0:0:0:0:
32,192,379347,1,0,0:0:0:0:
334,145,379459,5,0,0:0:0:0:
154,141,379570,1,12,0:0:0:0:
334,145,379681,1,8,0:0:0:0:
32,192,379792,5,8,0:0:0:0:
212,188,379903,1,8,0:0:0:0:
462,282,380014,5,12,0:0:0:0:
282,278,380125,1,8,0:0:0:0:
462,282,380236,1,0,0:0:0:0:
160,235,380348,5,0,0:0:0:0:
340,231,380459,1,12,0:0:0:0:
160,235,380570,1,8,0:0:0:0:
462,282,380681,5,8,0:0:0:0:
282,278,380792,1,8,0:0:0:0:
32,192,380903,5,12,0:0:0:0:
256,192,381014,1,8,0:0:0:0:
480,192,381125,5,8,0:0:0:0:
256,192,381237,1,8,0:0:0:0:
32,40,381347,5,12,0:0:0:0:
480,32,381459,1,0,0:0:0:0:
32,40,381570,5,12,0:0:0:0:
480,32,381682,1,0,0:0:0:0:
32,192,381792,5,12,0:0:0:0:
256,192,381903,1,0,0:0:0:0:
480,192,382014,5,12,0:0:0:0:
256,192,382126,1,0,0:0:0:0:
32,344,382237,5,12,0:0:0:0:
171,337,382308,1,0,0:0:0:0:
217,336,382379,1,0,0:0:0:0:
258,315,382450,1,0,0:0:0:0:
286,278,382522,1,0,0:0:0:0:
295,233,382593,1,0,0:0:0:0:
154,229,382665,5,12,0:0:0:0:
295,206,382737,1,0,0:0:0:0:
339,201,382808,1,0,0:0:0:0:
360,161,382879,1,0,0:0:0:0:
339,121,382951,1,0,0:0:0:0:
295,116,383022,1,0,0:0:0:0:
154,96,383094,5,12,0:0:0:0:
293,53,383165,1,0,0:0:0:0:
305,97,383236,1,0,0:0:0:0:
293,141,383307,1,0,0:0:0:0:
260,173,383379,1,0,0:0:0:0:
215,183,383450,1,0,0:0:0:0:
74,194,383522,5,12,0:0:0:0:
215,246,383594,1,0,0:0:0:0:
354,254,383665,2,0,L|405:254,1,46.6666652425131
354,254,383808,2,0,L|303:254,1,46.6666652425131
449,315,383951,5,12,0:0:0:0:
310,308,384022,1,0,0:0:0:0:
264,307,384093,1,0,0:0:0:0:
223,286,384164,1,0,0:0:0:0:
195,249,384236,1,0,0:0:0:0:
186,204,384307,1,0,0:0:0:0:
327,200,384379,5,12,0:0:0:0:
186,177,384451,1,0,0:0:0:0:
142,172,384522,1,0,0:0:0:0:
121,132,384593,1,0,0:0:0:0:
142,92,384665,1,0,0:0:0:0:
186,87,384736,1,0,0:0:0:0:
327,67,384808,5,12,0:0:0:0:
188,24,384879,1,0,0:0:0:0:
176,68,384950,1,0,0:0:0:0:
188,112,385021,1,0,0:0:0:0:
221,144,385093,1,0,0:0:0:0:
266,154,385164,1,0,0:0:0:0:
407,165,385236,5,12,0:0:0:0:
266,217,385308,1,0,0:0:0:0:
127,228,385379,1,0,0:0:0:0:
268,280,385451,1,0,0:0:0:0:
407,281,385522,1,0,0:0:0:0:
266,333,385594,1,0,0:0:0:0:
127,339,385665,6,0,L|44:339,1,69.9999978637696,4|0,0:0|0:0,0:0:0:0:
232,308,385879,2,0,L|235:234,1,69.9999978637696
411,210,386094,2,0,L|266:210,1,139.999995727539,4|0,0:0|0:0,0:0:0:0:
224,210,386379,2,0,L|287:210,1,46.6666652425131
412,117,386522,5,8,0:0:0:0:
314,118,386629,1,8,0:0:0:0:
413,72,386737,1,8,0:0:0:0:
252,72,386844,1,8,0:0:0:0:
413,192,386951,1,8,0:0:0:0:
238,191,387058,1,8,0:0:0:0:
63,244,387165,1,8,0:0:0:0:
238,243,387272,1,8,0:0:0:0:
413,344,387379,6,0,L|496:344,1,69.9999978637696,4|0,0:0|0:0,0:0:0:0:
308,313,387593,2,0,L|305:239,1,69.9999978637696
129,215,387808,2,0,L|274:215,1,139.999995727539,4|0,0:0|0:0,0:0:0:0:
316,215,388093,2,0,L|253:215,1,46.6666652425131
128,122,388236,5,8,0:0:0:0:
226,123,388343,1,8,0:0:0:0:
127,77,388451,1,8,0:0:0:0:
288,77,388558,1,8,0:0:0:0:
127,197,388665,1,8,0:0:0:0:
302,196,388772,1,8,0:0:0:0:
477,249,388879,1,8,0:0:0:0:
302,248,388986,1,8,0:0:0:0:
480,40,389094,5,12,0:0:0:0:
341,47,389165,1,0,0:0:0:0:
295,48,389236,1,0,0:0:0:0:
254,69,389307,1,0,0:0:0:0:
226,106,389379,1,0,0:0:0:0:
217,151,389450,1,0,0:0:0:0:
358,155,389522,5,12,0:0:0:0:
217,178,389594,1,0,0:0:0:0:
173,183,389665,1,0,0:0:0:0:
152,223,389736,1,0,0:0:0:0:
173,263,389808,1,0,0:0:0:0:
217,268,389879,1,0,0:0:0:0:
358,288,389951,5,12,0:0:0:0:
219,331,390022,1,0,0:0:0:0:
207,287,390093,1,0,0:0:0:0:
219,243,390164,1,0,0:0:0:0:
252,211,390236,1,0,0:0:0:0:
297,201,390307,1,0,0:0:0:0:
438,190,390379,5,12,0:0:0:0:
297,138,390451,1,0,0:0:0:0:
158,130,390522,2,0,L|107:130,1,46.6666652425131
158,130,390665,2,0,L|209:130,1,46.6666652425131
63,69,390808,5,12,0:0:0:0:
202,76,390879,1,0,0:0:0:0:
248,77,390950,1,0,0:0:0:0:
289,98,391021,1,0,0:0:0:0:
317,135,391093,1,0,0:0:0:0:
326,180,391164,1,0,0:0:0:0:
185,184,391236,5,12,0:0:0:0:
326,207,391308,1,0,0:0:0:0:
370,212,391379,1,0,0:0:0:0:
391,252,391450,1,0,0:0:0:0:
370,292,391522,1,0,0:0:0:0:
326,297,391593,1,0,0:0:0:0:
185,317,391665,5,12,0:0:0:0:
324,360,391736,1,0,0:0:0:0:
336,316,391807,1,0,0:0:0:0:
324,272,391878,1,0,0:0:0:0:
291,240,391950,1,0,0:0:0:0:
246,230,392021,1,0,0:0:0:0:
105,219,392093,5,12,0:0:0:0:
246,167,392165,1,0,0:0:0:0:
385,156,392236,1,0,0:0:0:0:
244,104,392308,1,0,0:0:0:0:
105,103,392379,1,0,0:0:0:0:
246,51,392451,1,0,0:0:0:0:
385,45,392522,6,0,L|468:45,1,69.9999978637696,4|0,0:0|0:0,0:0:0:0:
280,76,392736,2,0,L|277:150,1,69.9999978637696
101,174,392951,2,0,L|246:174,1,139.999995727539,4|0,0:0|0:0,0:0:0:0:
288,174,393236,2,0,L|225:174,1,46.6666652425131
100,267,393379,5,0,0:0:0:0:
198,266,393486,1,0,0:0:0:0:
99,312,393594,1,0,0:0:0:0:
260,312,393701,1,0,0:0:0:0:
99,192,393808,1,0,0:0:0:0:
274,193,393915,1,0,0:0:0:0:
449,140,394022,1,8,0:0:0:0:
274,141,394129,1,8,0:0:0:0:
99,40,394236,6,0,L|16:40,1,69.9999978637696,4|0,0:0|0:0,0:0:0:0:
204,71,394450,2,0,L|207:145,1,69.9999978637696
383,169,394665,2,0,L|238:169,1,139.999995727539,4|0,0:0|0:0,0:0:0:0:
196,169,394950,2,0,L|259:169,1,46.6666652425131
384,262,395093,5,0,0:0:0:0:
286,261,395200,1,0,0:0:0:0:
385,307,395308,1,0,0:0:0:0:
224,307,395415,1,0,0:0:0:0:
385,187,395522,1,0,0:0:0:0:
210,188,395629,1,0,0:0:0:0:
35,135,395736,1,8,0:0:0:0:
210,136,395843,1,8,0:0:0:0:
32,192,395951,5,0,0:0:0:0:
207,220,396058,1,0,0:0:0:0:
138,220,396165,1,0,0:0:0:0:
69,220,396272,1,0,0:0:0:0:
244,284,396379,5,0,0:0:0:0:
69,312,396486,1,0,0:0:0:0:
138,312,396593,1,0,0:0:0:0:
207,312,396700,1,0,0:0:0:0:
384,158,396808,6,0,L|342:158,1,34.9999989318848,4|0,0:0|0:0,0:0:0:0:
236,143,396915,2,0,L|271:143,1,34.9999989318848
384,99,397022,1,8,0:0:0:0:
314,99,397129,1,8,0:0:0:0:
137,241,397237,6,0,L|179:241,1,34.9999989318848,4|0,0:0|0:0,0:0:0:0:
285,226,397344,2,0,L|250:226,1,34.9999989318848
137,182,397451,1,8,0:0:0:0:
207,181,397558,1,8,0:0:0:0:
382,164,397665,6,0,L|224:164,1,139.999995727539,12|8,0:0|0:0,0:0:0:0:
312,164,397987,1,8,0:0:0:0:
137,333,398094,6,0,L|295:333,1,139.999995727539,12|0,0:0|0:0,0:0:0:0:
207,333,398416,1,0,0:0:0:0:
380,318,398522,6,0,L|376:277,1,34.9999989318848
264,258,398629,2,0,L|260:217,1,34.9999989318848
146,210,398737,1,2,0:0:0:0:
113,205,398790,1,0,0:0:0:0:
104,174,398844,1,0,0:0:0:0:
130,153,398897,1,0,0:0:0:0:
243,171,398951,6,0,L|247:130,1,34.9999989318848
359,111,399058,2,0,L|363:70,1,34.9999989318848
247,84,399166,1,2,0:0:0:0:
215,79,399219,1,0,0:0:0:0:
206,48,399273,1,0,0:0:0:0:
232,27,399326,1,0,0:0:0:0:
356,41,399379,5,8,0:0:0:0:
405,41,399454,1,8,0:0:0:0:
230,224,399561,1,0,0:0:0:0:
160,224,399668,1,0,0:0:0:0:
335,303,399775,1,8,0:0:0:0:
265,303,399882,1,8,0:0:0:0:
440,355,399989,1,0,0:0:0:0:
265,358,400096,1,0,0:0:0:0:
440,355,400204,5,2,0:0:0:0:
462,346,400261,1,0,0:0:0:0:
472,323,400319,1,0,0:0:0:0:
463,301,400377,1,0,0:0:0:0:
440,291,400434,1,0,0:0:0:0:
370,284,400550,1,0,0:0:0:0:
182,271,400665,6,0,P|130:266|87:176,1,150,2|0,0:0|0:0,0:0:0:0:
260,154,401093,6,0,L|340:154,3,69.9999978637696,6|0|0|0,0:0|0:0|0:0|0:0,0:0:0:0:
225,185,401521,6,0,L|145:185,3,69.9999978637696,2|0|0|0,0:0|0:0|0:0|0:0,0:0:0:0:
261,257,401950,6,0,L|181:257,3,69.9999978637696,2|0|0|0,0:0|0:0|0:0|0:0,0:0:0:0:
296,288,402378,6,0,L|376:288,3,69.9999978637696,2|0|0|0,0:0|0:0|0:0|0:0,0:0:0:0:
189,345,402807,6,0,L|109:345,3,69.9999978637696,6|0|0|0,0:0|0:0|0:0|0:0,0:0:0:0:
224,314,403235,6,0,L|304:314,3,69.9999978637696,2|0|0|0,0:0|0:0|0:0|0:0,0:0:0:0:
188,242,403664,6,0,L|268:242,3,69.9999978637696,2|0|0|0,0:0|0:0|0:0|0:0,0:0:0:0:
153,211,404092,6,0,L|73:211,1,69.9999978637696,10|0,0:0|0:0,0:0:0:0:
260,205,404307,6,0,L|263:132,1,69.9999978637696,8|0,0:0|0:0,0:0:0:0:
438,237,404521,6,0,L|358:237,3,69.9999978637696,6|0|0|0,0:0|0:0|0:0|0:0,0:0:0:0:
262,302,404950,6,0,L|342:302,3,69.9999978637696,2|0|0|0,0:0|0:0|0:0|0:0,0:0:0:0:
227,249,405378,6,0,L|147:249,3,69.9999978637696,2|0|0|0,0:0|0:0|0:0|0:0,0:0:0:0:
334,152,405807,6,0,L|414:152,1,69.9999978637696,10|0,0:0|0:0,0:0:0:0:
227,146,406022,6,0,L|224:73,1,69.9999978637696,8|0,0:0|0:0,0:0:0:0:
49,178,406236,6,0,L|129:178,3,69.9999978637696,6|0|0|0,0:0|0:0|0:0|0:0,0:0:0:0:
224,212,406664,6,0,L|304:212,3,69.9999978637696,2|0|0|0,0:0|0:0|0:0|0:0,0:0:0:0:
117,305,407093,5,10,0:0:0:0:
292,326,407200,5,8,0:0:0:0:
117,244,407307,6,0,L|197:244,1,69.9999978637696,8|0,0:0|0:0,0:0:0:0:
362,134,407521,5,2,0:0:0:0:
187,155,407628,5,0,0:0:0:0:
362,73,407735,6,0,L|282:73,1,69.9999978637696
115,84,407950,6,0,L|33:84,3,69.9999978637696,6|0|0|0,0:0|0:0|0:0|0:0,0:0:0:0:
220,188,408378,6,0,L|302:188,3,69.9999978637696,2|0|0|0,0:0|0:0|0:0|0:0,0:0:0:0:
113,264,408807,6,0,L|195:264,3,69.9999978637696,2|0|0|0,0:0|0:0|0:0|0:0,0:0:0:0:
358,264,409235,6,0,L|428:264,1,69.9999978637696,10|0,0:0|0:0,0:0:0:0:
392,263,409396,1,0,0:0:0:0:
356,263,409450,1,0,0:0:0:0:
390,263,409503,1,0,0:0:0:0:
425,263,409557,1,0,0:0:0:0:
250,131,409664,6,0,L|180:131,3,69.9999978637696,6|0|0|0,0:0|0:0|0:0|0:0,0:0:0:0:
286,172,410093,6,0,L|216:172,3,69.9999978637696,2|0|0|0,0:0|0:0|0:0|0:0,0:0:0:0:
118,280,410521,6,0,L|188:280,3,69.9999978637696,2|0|0|0,0:0|0:0|0:0|0:0,0:0:0:0:
365,134,410950,6,0,L|441:134,1,69.9999978637696,10|0,0:0|0:0,0:0:0:0:
260,176,411164,6,0,L|184:176,1,69.9999978637696,8|0,0:0|0:0,0:0:0:0:
365,281,411378,5,6,0:0:0:0:
190,273,411485,2,0,L|269:273,1,69.9999978637696
83,228,411700,5,0,0:0:0:0:
258,220,411807,2,0,L|179:220,1,69.9999978637696,2|0,0:0|0:0,0:0:0:0:
363,139,412021,6,0,L|442:139,1,69.9999978637696
258,97,412235,5,2,0:0:0:0:
81,97,412343,1,0,0:0:0:0:
256,141,412450,2,0,L|330:141,1,69.9999978637696
151,228,412664,6,0,L|70:228,1,69.9999978637696,2|0,0:0|0:0,0:0:0:0:
256,349,412878,6,0,L|260:279,1,69.9999978637696
437,216,413093,6,0,L|392:216,1,34.9999989318848,0|0,2:0|0:0,0:0:0:0:
366,216,413200,1,0,2:0:0:0:
261,167,413307,2,0,L|343:167,1,69.9999978637696,0|0,2:0|2:0,0:0:0:0:
156,120,413521,5,0,2:0:0:0:
331,111,413628,2,0,L|413:111,2,69.9999978637696,0|0|0,2:0|2:0|2:0,0:0:0:0:
154,267,413950,6,0,L|74:267,1,69.9999978637696,0|0,2:0|2:0,0:0:0:0:
259,352,414164,6,0,L|179:352,1,69.9999978637696,0|0,2:0|2:0,0:0:0:0:
364,285,414378,6,0,L|444:285,1,69.9999978637696,0|0,2:0|2:0,0:0:0:0:
257,267,414593,6,0,L|254:193,1,69.9999978637696,0|0,2:0|2:0,0:0:0:0:
79,202,414807,6,0,L|-2:202,3,69.9999978637696,6|0|0|0,0:0|0:0|0:0|0:0,0:0:0:0:
114,242,415235,6,0,L|33:242,3,69.9999978637696,2|0|0|0,0:0|0:0|0:0|0:0,0:0:0:0:
150,162,415664,6,0,L|69:162,3,69.9999978637696,2|0|0|0,0:0|0:0|0:0|0:0,0:0:0:0:
309,192,416093,6,0,L|383:192,1,69.9999978637696,6|0,0:0|0:0,0:0:0:0:
204,192,416307,2,0,L|130:192,1,69.9999978637696,4|0,0:0|0:0,0:0:0:0:
433,202,416521,6,0,L|514:202,3,69.9999978637696,6|0|0|0,0:0|0:0|0:0|0:0,0:0:0:0:
398,242,416949,6,0,L|479:242,3,69.9999978637696,2|0|0|0,0:0|0:0|0:0|0:0,0:0:0:0:
362,162,417378,6,0,L|443:162,3,69.9999978637696,2|0|0|0,0:0|0:0|0:0|0:0,0:0:0:0:
168,191,417807,6,0,L|94:191,1,69.9999978637696,6|0,0:0|0:0,0:0:0:0:
344,191,418021,2,0,L|418:191,1,69.9999978637696,4|0,0:0|0:0,0:0:0:0:
79,202,418235,6,0,L|-2:202,3,69.9999978637696,6|0|0|0,0:0|0:0|0:0|0:0,0:0:0:0:
114,242,418663,6,0,L|33:242,3,69.9999978637696,2|0|0|0,0:0|0:0|0:0|0:0,0:0:0:0:
150,162,419092,6,0,L|69:162,3,69.9999978637696,2|0|0|0,0:0|0:0|0:0|0:0,0:0:0:0:
380,191,419521,6,0,L|454:191,1,69.9999978637696,6|0,0:0|0:0,0:0:0:0:
132,191,419735,2,0,L|58:191,1,69.9999978637696,4|0,0:0|0:0,0:0:0:0:
433,202,419950,6,0,L|514:202,3,69.9999978637696,6|0|0|0,0:0|0:0|0:0|0:0,0:0:0:0:
398,162,420378,6,0,L|479:162,3,69.9999978637696,2|0|0|0,0:0|0:0|0:0|0:0,0:0:0:0:
291,215,420807,5,2,2:0:0:0:
258,204,420860,1,0,0:0:0:0:
234,179,420914,1,0,0:0:0:0:
225,145,420967,1,0,0:0:0:0:
233,112,421021,1,2,2:0:0:0:
257,86,421074,1,0,0:0:0:0:
290,76,421128,1,0,0:0:0:0:
465,74,421235,5,2,2:0:0:0:
430,74,421288,1,0,0:0:0:0:
395,74,421342,1,0,0:0:0:0:
218,56,421450,5,2,2:0:0:0:
183,56,421504,1,0,0:0:0:0:
148,56,421557,1,0,0:0:0:0:
433,202,421664,6,0,L|514:202,3,69.9999978637696,6|0|0|0,0:0|0:0|0:0|0:0,0:0:0:0:
398,242,422092,6,0,L|479:242,3,69.9999978637696,2|0|0|0,0:0|0:0|0:0|0:0,0:0:0:0:
362,162,422521,6,0,L|443:162,3,69.9999978637696,2|0|0|0,0:0|0:0|0:0|0:0,0:0:0:0:
132,191,422950,6,0,L|206:191,1,69.9999978637696,6|0,0:0|0:0,0:0:0:0:
380,191,423164,2,0,L|306:191,1,69.9999978637696,4|0,0:0|0:0,0:0:0:0:
79,202,423378,6,0,L|-2:202,3,69.9999978637696,6|0|0|0,0:0|0:0|0:0|0:0,0:0:0:0:
114,242,423806,6,0,L|33:242,3,69.9999978637696,2|0|0|0,0:0|0:0|0:0|0:0,0:0:0:0:
150,162,424235,6,0,L|69:162,3,69.9999978637696,2|0|0|0,0:0|0:0|0:0|0:0,0:0:0:0:
414,190,424664,6,0,L|340:190,1,69.9999978637696,6|0,0:0|0:0,0:0:0:0:
98,190,424878,2,0,L|172:190,1,69.9999978637696,4|0,0:0|0:0,0:0:0:0:
433,202,425093,6,0,L|514:202,3,69.9999978637696,6|0|0|0,0:0|0:0|0:0|0:0,0:0:0:0:
398,242,425521,6,0,L|479:242,3,69.9999978637696,2|0|0|0,0:0|0:0|0:0|0:0,0:0:0:0:
362,162,425950,6,0,L|443:162,3,69.9999978637696,2|0|0|0,0:0|0:0|0:0|0:0,0:0:0:0:
60,190,426378,6,0,L|134:190,1,69.9999978637696,6|0,0:0|0:0,0:0:0:0:
452,190,426593,2,0,L|378:190,1,69.9999978637696,4|0,0:0|0:0,0:0:0:0:
79,202,426807,6,0,L|-2:202,3,69.9999978637696,6|0|0|0,0:0|0:0|0:0|0:0,0:0:0:0:
114,242,427235,6,0,L|33:242,3,69.9999978637696,2|0|0|0,0:0|0:0|0:0|0:0,0:0:0:0:
280,192,427664,6,0,L|499:192,1,209.999993591309,4|0,0:0|0:0,0:0:0:0:
232,192,428093,2,0,L|13:192,1,209.999993591309,4|0,0:0|0:0,0:0:0:0:
327,187,428521,5,4,0:0:0:0:
466,142,428583,1,0,0:0:0:0:
325,114,428646,1,0,0:0:0:0:
186,110,428708,1,0,0:0:0:0:
327,55,428771,1,2,0:0:0:0:
466,101,428833,1,0,0:0:0:0:
325,151,428896,1,0,0:0:0:0:
186,156,428958,1,0,0:0:0:0:
327,294,429021,5,2,0:0:0:0:
188,290,429083,1,0,0:0:0:0:
47,271,429146,2,0,L|102:219,1,69.9999978637696
239,201,429271,1,2,0:0:0:0:
378,197,429333,1,0,0:0:0:0:
237,118,429396,2,0,L|182:66,1,69.9999978637696
327,80,429521,5,2,0:0:0:0:
188,80,429583,1,0,0:0:0:0:
47,113,429646,2,0,L|102:165,1,69.9999978637696
239,239,429771,2,0,L|314:239,3,69.9999978637696,10|8|0|0,0:0|0:0|0:0|0:0,0:0:0:0:
168,342,430021,5,8,0:0:0:0:
29,338,430083,1,0,0:0:0:0:
170,298,430146,2,0,L|249:298,1,69.9999978637696,8|0,0:0|0:0,0:0:0:0:
81,238,430271,2,0,L|29:187,1,69.9999978637696,10|8,0:0|0:0,0:0:0:0:
171,188,430396,2,0,L|116:136,1,69.9999978637696
260,99,430521,5,6,0:0:0:0:
399,95,430583,1,0,0:0:0:0:
222,51,430646,1,0,0:0:0:0:
83,47,430708,1,0,0:0:0:0:
260,173,430771,1,2,0:0:0:0:
399,169,430833,1,0,0:0:0:0:
222,125,430896,1,0,0:0:0:0:
83,121,430958,1,0,0:0:0:0:
260,256,431021,5,2,0:0:0:0:
399,252,431083,1,0,0:0:0:0:
222,208,431146,1,0,0:0:0:0:
83,204,431208,1,0,0:0:0:0:
260,310,431271,2,0,L|333:310,1,69.9999978637696,2|0,0:0|0:0,0:0:0:0:
471,313,431396,2,0,L|416:261,1,69.9999978637696
278,220,431521,6,0,L|274:148,1,69.9999978637696,2|0,0:0|0:0,0:0:0:0:
133,172,431646,2,0,L|129:100,1,69.9999978637696
341,97,431771,5,4,0:0:0:0:
32,192,432021,5,4,0:0:0:0:
480,192,432271,5,4,0:0:0:0:
32,264,432521,5,6,0:0:0:0:
171,268,432583,1,0,0:0:0:0:
348,205,432646,1,0,0:0:0:0:
209,209,432708,1,0,0:0:0:0:
32,208,432771,1,2,0:0:0:0:
171,212,432833,1,0,0:0:0:0:
348,149,432896,1,0,0:0:0:0:
209,153,432958,1,0,0:0:0:0:
32,154,433021,5,2,0:0:0:0:
171,158,433083,1,0,0:0:0:0:
348,95,433146,1,0,0:0:0:0:
209,99,433208,1,0,0:0:0:0:
32,67,433271,2,0,L|87:119,1,69.9999978637696,2|0,0:0|0:0,0:0:0:0:
224,228,433396,2,0,L|169:280,1,69.9999978637696
314,325,433521,5,2,0:0:0:0:
453,280,433583,1,0,0:0:0:0:
312,252,433646,1,0,0:0:0:0:
173,248,433708,1,0,0:0:0:0:
314,193,433771,1,10,0:0:0:0:
453,239,433833,1,0,0:0:0:0:
312,289,433896,1,0,0:0:0:0:
173,294,433958,1,0,0:0:0:0:
314,362,434021,5,2,0:0:0:0:
453,349,434083,2,0,L|508:297,2,69.9999978637696
309,315,434271,1,10,0:0:0:0:
135,297,434333,2,0,L|80:245,2,69.9999978637696
311,230,434521,5,6,0:0:0:0:
102,197,434583,2,0,L|47:145,2,69.9999978637696
349,177,434771,2,0,L|404:125,2,69.9999978637696,2|0|0,0:0|0:0|0:0,0:0:0:0:
279,178,434958,1,0,0:0:0:0:
102,197,435021,6,0,L|47:145,2,69.9999978637696,2|0|0,0:0|0:0|0:0,0:0:0:0:
172,198,435208,1,0,0:0:0:0:
313,326,435271,2,0,L|368:274,1,69.9999978637696,2|0,0:0|0:0,0:0:0:0:
364,215,435396,2,0,L|313:263,1,69.9999978637696
172,306,435521,6,0,L|170:232,1,69.9999978637696,2|0,0:0|0:0,0:0:0:0:
29,242,435646,2,0,L|27:168,1,69.9999978637696
168,178,435771,2,0,L|170:104,1,69.9999978637696,10|0,0:0|0:0,0:0:0:0:
240,106,435896,2,0,L|242:32,1,69.9999978637696
100,73,436021,6,0,L|45:21,2,69.9999978637696,2|0|0,0:0|0:0|0:0,0:0:0:0:
170,74,436208,1,0,0:0:0:0:
312,72,436271,2,0,L|367:20,2,69.9999978637696,10|0|0,0:0|0:0|0:0,0:0:0:0:
242,73,436458,1,0,0:0:0:0:
101,210,436521,6,0,L|28:210,3,69.9999978637696,6|0|0|0,0:0|0:0|0:0|0:0,0:0:0:0:
172,265,436771,6,0,L|104:298,3,69.9999978637696,2|0|0|0,0:0|0:0|0:0|0:0,0:0:0:0:
243,158,437021,5,2,0:0:0:0:
382,225,437083,1,0,0:0:0:0:
241,221,437146,1,0,0:0:0:0:
380,263,437208,1,0,0:0:0:0:
239,343,437271,6,0,L|181:288,1,69.9999978637696,2|0,0:0|0:0,0:0:0:0:
320,311,437396,2,0,L|265:259,1,69.9999978637696
400,166,437521,6,0,L|473:166,1,69.9999978637696,2|0,0:0|0:0,0:0:0:0:
329,152,437646,1,0,0:0:0:0:
468,121,437708,1,0,0:0:0:0:
327,91,437771,5,2,0:0:0:0:
188,88,437833,1,0,0:0:0:0:
43,70,437896,1,0,0:0:0:0:
190,62,437958,1,0,0:0:0:0:
331,206,438021,6,0,L|336:292,1,69.9999978637696,2|0,0:0|0:0,0:0:0:0:
477,297,438146,2,0,L|482:383,1,69.9999978637696
338,357,438271,6,0,L|333:271,1,69.9999978637696,2|0,0:0|0:0,0:0:0:0:
192,266,438396,2,0,L|104:266,1,69.9999978637696
256,192,438521,5,2,0:0:0:0:
395,168,438583,1,0,0:0:0:0:
256,192,438646,1,0,0:0:0:0:
117,168,438708,1,0,0:0:0:0:
256,192,438771,1,2,0:0:0:0:
429,167,438833,1,0,0:0:0:0:
256,192,438896,1,0,0:0:0:0:
83,167,438958,1,0,0:0:0:0:
256,192,439021,5,2,0:0:0:0:
464,166,439083,1,0,0:0:0:0:
256,192,439146,1,0,0:0:0:0:
48,166,439208,1,0,0:0:0:0:
256,192,439271,1,2,0:0:0:0:
499,164,439333,1,0,0:0:0:0:
256,192,439396,1,0,0:0:0:0:
13,164,439458,1,0,0:0:0:0:
256,192,439521,5,2,0:0:0:0:
499,164,439583,1,0,0:0:0:0:
256,192,439646,1,0,0:0:0:0:
13,164,439708,1,0,0:0:0:0:
256,192,439771,1,2,0:0:0:0:
464,166,439833,1,0,0:0:0:0:
256,192,439896,1,0,0:0:0:0:
48,166,439958,1,0,0:0:0:0:
256,192,440021,5,2,0:0:0:0:
429,167,440083,1,0,0:0:0:0:
256,192,440146,1,0,0:0:0:0:
83,167,440208,1,0,0:0:0:0:
256,192,440271,1,10,0:0:0:0:
395,168,440333,1,8,0:0:0:0:
256,192,440396,1,0,0:0:0:0:
117,168,440458,1,0,0:0:0:0:
256,112,440521,6,0,L|337:112,1,69.9999978637696,6|0,0:0|0:0,0:0:0:0:
174,210,440646,2,0,L|169:281,1,69.9999978637696
312,215,440771,2,0,L|317:301,1,69.9999978637696,2|0,0:0|0:0,0:0:0:0:
457,297,440896,2,0,L|462:383,1,69.9999978637696
321,333,441021,6,0,L|244:332,3,69.9999978637696,2|0|0|0,0:0|0:0|0:0|0:0,0:0:0:0:
110,259,441271,6,0,L|33:258,3,69.9999978637696,2|0|0|0,0:0|0:0|0:0|0:0,0:0:0:0:
181,152,441521,5,2,0:0:0:0:
320,158,441583,1,0,0:0:0:0:
179,109,441646,1,0,0:0:0:0:
318,115,441708,1,0,0:0:0:0:
177,92,441771,5,10,0:0:0:0:
38,98,441833,1,0,0:0:0:0:
179,49,441896,1,0,0:0:0:0:
40,55,441958,1,0,0:0:0:0:
181,209,442021,6,0,L|255:209,3,69.9999978637696,2|0|0|0,0:0|0:0|0:0|0:0,0:0:0:0:
392,243,442271,6,0,L|466:243,3,69.9999978637696,10|0|0|0,0:0|0:0|0:0|0:0,0:0:0:0:
321,334,442521,6,0,L|316:248,1,69.9999978637696,6|0,0:0|0:0,0:0:0:0:
176,252,442646,2,0,L|171:166,1,69.9999978637696
314,232,442771,2,0,L|319:146,1,69.9999978637696,2|0,0:0|0:0,0:0:0:0:
459,150,442896,2,0,L|464:64,1,69.9999978637696
322,36,443021,6,0,L|317:122,1,69.9999978637696,2|0,0:0|0:0,0:0:0:0:
177,118,443146,2,0,L|172:204,1,69.9999978637696
32,241,443271,6,0,L|27:171,1,69.9999978637696,2|0,0:0|0:0,0:0:0:0:
170,274,443396,2,0,L|175:360,1,69.9999978637696
315,346,443521,6,0,L|390:346,3,69.9999978637696,2|0|0|0,0:0|0:0|0:0|0:0,0:0:0:0:
244,228,443771,6,0,L|169:228,3,69.9999978637696,10|0|0|0,0:0|0:0|0:0|0:0,0:0:0:0:
315,152,444021,5,2,0:0:0:0:
454,158,444083,1,0,0:0:0:0:
313,109,444146,1,0,0:0:0:0:
452,115,444208,1,0,0:0:0:0:
275,300,444271,5,10,0:0:0:0:
136,306,444333,1,0,0:0:0:0:
277,257,444396,1,0,0:0:0:0:
138,263,444458,1,0,0:0:0:0:
315,269,444521,5,6,0:0:0:0:
454,224,444583,1,0,0:0:0:0:
313,196,444646,1,0,0:0:0:0:
174,192,444708,1,0,0:0:0:0:
315,152,444771,5,2,0:0:0:0:
454,107,444833,1,0,0:0:0:0:
313,79,444896,1,0,0:0:0:0:
174,75,444958,1,0,0:0:0:0:
33,186,445021,5,2,0:0:0:0:
172,141,445083,1,0,0:0:0:0:
313,228,445146,1,0,0:0:0:0:
452,183,445208,1,0,0:0:0:0:
311,334,445271,5,2,0:0:0:0:
172,336,445333,1,0,0:0:0:0:
30,337,445396,2,0,L|85:285,1,69.9999978637696
223,268,445521,5,2,0:0:0:0:
362,270,445583,1,0,0:0:0:0:
221,225,445646,2,0,L|166:173,1,69.9999978637696
312,95,445771,5,2,0:0:0:0:
451,91,445833,1,0,0:0:0:0:
274,47,445896,1,0,0:0:0:0:
135,43,445958,1,0,0:0:0:0:
312,169,446021,5,2,0:0:0:0:
451,165,446083,1,0,0:0:0:0:
274,127,446146,1,0,0:0:0:0:
135,123,446208,1,0,0:0:0:0:
277,190,446271,6,0,L|332:242,1,69.9999978637696,2|0,0:0|0:0,0:0:0:0:
186,264,446396,2,0,L|182:348,1,69.9999978637696
40,270,446521,5,2,0:0:0:0:
179,274,446583,1,0,0:0:0:0:
320,210,446646,1,0,0:0:0:0:
181,214,446708,1,0,0:0:0:0:
40,169,446771,5,2,0:0:0:0:
179,173,446833,1,0,0:0:0:0:
320,109,446896,1,0,0:0:0:0:
181,113,446958,1,0,0:0:0:0:
40,39,447021,5,2,0:0:0:0:
179,37,447083,1,0,0:0:0:0:
321,36,447146,2,0,L|266:88,1,69.9999978637696
129,98,447271,5,2,0:0:0:0:
268,96,447333,1,0,0:0:0:0:
410,95,447396,2,0,L|355:147,1,69.9999978637696
218,188,447521,6,0,L|140:188,3,69.9999978637696,6|0|0|0,0:0|0:0|0:0|0:0,0:0:0:0:
289,253,447771,5,2,0:0:0:0:
428,252,447833,1,0,0:0:0:0:
287,297,447896,1,0,0:0:0:0:
148,296,447958,1,0,0:0:0:0:
290,348,448021,6,0,P|378:314|415:194,1,209.999993591309,6|0,0:0|0:0,0:0:0:0:
276,148,448271,6,0,L|331:96,3,69.9999978637696,10|0|0|0,0:0|0:0|0:0|0:0,0:0:0:0:
186,85,448521,5,6,0:0:0:0:
47,82,448583,1,0,0:0:0:0:
188,130,448646,1,0,0:0:0:0:
327,127,448708,1,0,0:0:0:0:
469,185,448771,5,2,0:0:0:0:
330,182,448833,1,0,0:0:0:0:
189,189,448896,1,0,0:0:0:0:
50,186,448958,1,0,0:0:0:0:
191,249,449021,5,2,0:0:0:0:
330,246,449083,1,0,0:0:0:0:
471,255,449146,1,0,0:0:0:0:
297,301,449208,1,0,0:0:0:0:
120,314,449271,1,2,0:0:0:0:
294,360,449333,1,0,0:0:0:0:
471,333,449396,1,0,0:0:0:0:
297,287,449458,1,0,0:0:0:0:
120,252,449521,5,2,0:0:0:0:
259,177,449583,1,0,0:0:0:0:
400,125,449646,2,0,L|345:73,1,69.9999978637696
208,99,449771,2,0,L|153:47,1,69.9999978637696,10|0,0:0|0:0,0:0:0:0:
299,47,449896,5,0,0:0:0:0:
160,122,449958,1,0,0:0:0:0:
19,174,450021,2,0,L|74:226,1,69.9999978637696,2|0,0:0|0:0,0:0:0:0:
211,200,450146,2,0,L|266:252,1,69.9999978637696
121,326,450271,5,10,0:0:0:0:
262,327,450333,1,0,0:0:0:0:
404,319,450396,2,0,L|459:267,1,69.9999978637696
314,236,450521,5,6,0:0:0:0:
175,232,450583,1,0,0:0:0:0:
316,198,450646,2,0,L|371:146,1,69.9999978637696
226,132,450771,5,2,0:0:0:0:
87,128,450833,1,0,0:0:0:0:
228,77,450896,1,0,0:0:0:0:
367,73,450958,1,0,0:0:0:0:
226,32,451021,5,2,0:0:0:0:
87,28,451083,1,0,0:0:0:0:
228,63,451146,2,0,L|283:115,1,69.9999978637696
137,170,451271,5,2,0:0:0:0:
276,166,451333,1,0,0:0:0:0:
418,173,451396,2,0,L|363:225,1,69.9999978637696
190,285,451521,5,10,0:0:0:0:
329,288,451583,1,0,0:0:0:0:
470,329,451646,1,0,0:0:0:0:
331,332,451708,1,0,0:0:0:0:
190,203,451771,5,2,0:0:0:0:
329,206,451833,1,0,0:0:0:0:
470,247,451896,1,0,0:0:0:0:
331,250,451958,1,0,0:0:0:0:
189,98,452021,5,10,0:0:0:0:
328,101,452083,1,0,0:0:0:0:
469,142,452146,1,0,0:0:0:0:
330,145,452208,1,0,0:0:0:0:
187,23,452271,5,10,0:0:0:0:
48,63,452333,1,0,0:0:0:0:
189,70,452396,1,0,0:0:0:0:
328,73,452458,1,0,0:0:0:0:
495,199,452521,5,4,0:0:0:0:
356,202,452583,1,0,0:0:0:0:
215,208,452646,1,0,0:0:0:0:
76,211,452708,1,0,0:0:0:0:
217,263,452771,6,0,L|295:263,3,69.9999978637696,2|0|0|0,0:0|0:0|0:0|0:0,0:0:0:0:
146,153,453021,6,0,L|68:153,3,69.9999978637696,2|0|0|0,0:0|0:0|0:0|0:0,0:0:0:0:
217,263,453271,6,0,L|295:263,3,69.9999978637696,2|0|0|0,0:0|0:0|0:0|0:0,0:0:0:0:
146,108,453521,6,0,L|215:74,3,69.9999978637696,2|0|0|0,0:0|0:0|0:0|0:0,0:0:0:0:
75,49,453771,6,0,L|46:124,1,69.9999978637696,2|0,0:0|0:0,0:0:0:0:
191,156,453896,2,0,L|194:230,1,69.9999978637696
335,232,454021,5,2,0:0:0:0:
474,235,454083,2,0,L|400:235,2,69.9999978637696
333,284,454271,5,2,0:0:0:0:
194,287,454333,2,0,L|268:287,2,69.9999978637696
335,152,454521,5,6,0:0:0:0:
474,159,454583,1,0,0:0:0:0:
333,113,454646,1,0,0:0:0:0:
472,120,454708,1,0,0:0:0:0:
331,69,454771,6,0,L|327:150,1,69.9999978637696,2|0,0:0|0:0,0:0:0:0:
186,139,454896,2,0,L|182:220,1,69.9999978637696
324,300,455021,5,6,0:0:0:0:
185,307,455083,1,0,0:0:0:0:
326,261,455146,1,0,0:0:0:0:
187,268,455208,1,0,0:0:0:0:
328,185,455271,6,0,L|332:266,1,69.9999978637696,2|0,0:0|0:0,0:0:0:0:
473,255,455396,2,0,L|477:336,1,69.9999978637696
335,125,455521,5,6,0:0:0:0:
210,129,455583,1,0,0:0:0:0:
335,125,455646,1,0,0:0:0:0:
210,129,455708,1,0,0:0:0:0:
407,70,455771,6,0,L|470:116,1,69.9999978637696,2|0,0:0|0:0,0:0:0:0:
336,136,455896,2,0,L|398:180,1,69.9999978637696
264,37,456021,5,6,0:0:0:0:
125,36,456083,1,0,0:0:0:0:
266,85,456146,1,0,0:0:0:0:
405,84,456208,1,0,0:0:0:0:
264,147,456271,6,0,L|190:147,1,69.9999978637696,6|0,0:0|0:0,0:0:0:0:
194,147,456396,2,0,L|264:147,1,69.9999978637696
405,167,456521,6,0,L|476:167,3,69.9999978637696,6|0|0|0,0:0|0:0|0:0|0:0,0:0:0:0:
334,229,456771,6,0,L|398:259,3,69.9999978637696,2|0|0|0,0:0|0:0|0:0|0:0,0:0:0:0:
263,241,457021,6,0,L|192:241,3,69.9999978637696,2|0|0|0,0:0|0:0|0:0|0:0,0:0:0:0:
334,303,457271,6,0,L|269:335,3,69.9999978637696,2|0|0|0,0:0|0:0|0:0|0:0,0:0:0:0:
405,189,457521,6,0,L|476:189,3,69.9999978637696,2|0|0|0,0:0|0:0|0:0|0:0,0:0:0:0:
331,167,457771,6,0,L|269:211,1,69.9999978637696,2|0,0:0|0:0,0:0:0:0:
399,227,457896,2,0,L|337:271,1,69.9999978637696
194,233,458021,5,2,0:0:0:0:
55,233,458083,1,0,0:0:0:0:
196,207,458146,1,0,0:0:0:0:
57,207,458208,1,0,0:0:0:0:
198,164,458271,5,2,0:0:0:0:
337,164,458333,1,0,0:0:0:0:
196,138,458396,1,0,0:0:0:0:
335,138,458458,1,0,0:0:0:0:
194,86,458521,5,6,0:0:0:0:
34,92,458583,1,0,0:0:0:0:
196,34,458646,1,0,0:0:0:0:
356,35,458708,1,0,0:0:0:0:
194,300,458771,6,0,L|249:352,1,69.9999978637696,2|0,0:0|0:0,0:0:0:0:
104,226,458896,2,0,L|159:278,1,69.9999978637696
296,229,459021,6,0,L|386:229,3,69.9999978637696,6|0|0|0,0:0|0:0|0:0|0:0,0:0:0:0:
225,248,459271,6,0,L|280:300,1,69.9999978637696,2|0,0:0|0:0,0:0:0:0:
135,174,459396,2,0,L|190:226,1,69.9999978637696
327,160,459521,6,0,L|408:160,3,69.9999978637696,4|0|0|0,0:0|0:0|0:0|0:0,0:0:0:0:
256,38,459771,6,0,L|252:112,1,69.9999978637696,4|0,0:0|0:0,0:0:0:0:
111,113,459896,2,0,L|107:187,1,69.9999978637696
248,180,460021,6,0,L|252:254,1,69.9999978637696,4|0,0:0|0:0,0:0:0:0:
393,255,460146,2,0,L|397:329,1,69.9999978637696
256,329,460271,5,12,0:0:0:0:
399,351,460333,1,8,0:0:0:0:
258,225,460396,1,8,0:0:0:0:
397,225,460458,1,8,0:0:0:0:
255,275,460521,5,4,0:0:0:0:
116,280,460583,1,0,0:0:0:0:
297,175,460646,1,0,0:0:0:0:
436,172,460708,1,0,0:0:0:0:
295,121,460771,6,0,L|217:121,3,69.9999978637696,2|0|0|0,0:0|0:0|0:0|0:0,0:0:0:0:
366,231,461021,6,0,L|444:231,3,69.9999978637696,2|0|0|0,0:0|0:0|0:0|0:0,0:0:0:0:
295,121,461271,6,0,L|217:121,3,69.9999978637696,2|0|0|0,0:0|0:0|0:0|0:0,0:0:0:0:
366,276,461521,6,0,L|294:310,3,69.9999978637696,2|0|0|0,0:0|0:0|0:0|0:0,0:0:0:0:
437,335,461771,6,0,L|466:260,1,69.9999978637696,2|0,0:0|0:0,0:0:0:0:
321,228,461896,2,0,L|318:154,1,69.9999978637696
177,152,462021,5,2,0:0:0:0:
38,149,462083,2,0,L|112:149,2,69.9999978637696
179,100,462271,5,2,0:0:0:0:
318,97,462333,2,0,L|244:97,2,69.9999978637696
177,232,462521,5,6,0:0:0:0:
38,225,462583,1,0,0:0:0:0:
179,271,462646,1,0,0:0:0:0:
40,264,462708,1,0,0:0:0:0:
181,315,462771,6,0,L|185:234,1,69.9999978637696,2|0,0:0|0:0,0:0:0:0:
326,245,462896,2,0,L|330:164,1,69.9999978637696
188,84,463021,5,6,0:0:0:0:
327,77,463083,1,0,0:0:0:0:
186,123,463146,1,0,0:0:0:0:
325,116,463208,1,0,0:0:0:0:
184,199,463271,6,0,L|180:118,1,69.9999978637696,2|0,0:0|0:0,0:0:0:0:
39,129,463396,2,0,L|35:48,1,69.9999978637696
177,248,463521,5,6,0:0:0:0:
302,251,463583,1,0,0:0:0:0:
177,248,463646,1,0,0:0:0:0:
302,251,463708,1,0,0:0:0:0:
107,234,463771,6,0,L|47:279,1,69.9999978637696,2|0,0:0|0:0,0:0:0:0:
178,300,463896,2,0,L|116:344,1,69.9999978637696
248,347,464021,5,14,0:0:0:0:
387,348,464083,1,8,0:0:0:0:
246,299,464146,1,8,0:0:0:0:
107,300,464208,1,8,0:0:0:0:
248,237,464271,6,0,L|322:237,1,69.9999978637696,6|0,0:0|0:0,0:0:0:0:
318,237,464396,2,0,L|248:237,1,69.9999978637696
107,217,464521,6,0,L|36:217,3,69.9999978637696,6|0|0|0,0:0|0:0|0:0|0:0,0:0:0:0:
178,155,464771,6,0,L|114:125,3,69.9999978637696,2|0|0|0,0:0|0:0|0:0|0:0,0:0:0:0:
249,143,465021,6,0,L|320:143,3,69.9999978637696,2|0|0|0,0:0|0:0|0:0|0:0,0:0:0:0:
178,81,465271,6,0,L|241:51,3,69.9999978637696,2|0|0|0,0:0|0:0|0:0|0:0,0:0:0:0:
107,195,465521,6,0,L|36:195,3,69.9999978637696,2|0|0|0,0:0|0:0|0:0|0:0,0:0:0:0:
185,171,465771,6,0,L|264:171,1,69.9999978637696,2|0,0:0|0:0,0:0:0:0:
114,233,465896,2,0,L|176:277,1,69.9999978637696
318,151,466021,5,2,0:0:0:0:
457,151,466083,1,0,0:0:0:0:
316,177,466146,1,0,0:0:0:0:
455,177,466208,1,0,0:0:0:0:
314,220,466271,5,2,0:0:0:0:
175,220,466333,1,0,0:0:0:0:
316,246,466396,1,0,0:0:0:0:
177,246,466458,1,0,0:0:0:0:
318,298,466521,5,6,0:0:0:0:
478,299,466583,1,0,0:0:0:0:
316,350,466646,1,0,0:0:0:0:
156,348,466708,1,0,0:0:0:0:
318,84,466771,6,0,L|263:32,1,69.9999978637696,2|0,0:0|0:0,0:0:0:0:
408,158,466896,2,0,L|353:106,1,69.9999978637696
216,155,467021,6,0,L|126:155,3,69.9999978637696,6|0|0|0,0:0|0:0|0:0|0:0,0:0:0:0:
287,136,467271,6,0,L|232:84,1,69.9999978637696,2|0,0:0|0:0,0:0:0:0:
377,210,467396,2,0,L|322:158,1,69.9999978637696
185,79,467521,6,0,L|130:131,1,69.9999978637696,4|0,0:0|0:0,0:0:0:0:
275,107,467646,2,0,L|276:193,1,69.9999978637696
417,207,467771,6,0,L|472:259,1,69.9999978637696
327,235,467896,2,0,L|326:321,1,69.9999978637696
185,79,468021,6,0,L|130:131,1,69.9999978637696,4|0,0:0|0:0,0:0:0:0:
275,107,468146,2,0,L|276:193,1,69.9999978637696
417,167,468271,6,0,L|504:167,3,69.9999978637696
336,293,468521,6,0,P|269:288|202:168,4,200,2|0|2|0|2,0:0|0:0|0:0|0:0|0:0,0:0:0:0:
336,293,470021,5,2,0:0:0:0:
236,293,470146,1,0,0:0:0:0:
96,292,470271,1,0,0:0:0:0:
276,230,470396,1,0,0:0:0:0:
76,189,470521,6,0,P|102:98|204:55,3,200,2|0|0|0,0:0|0:0|0:0|0:0,0:0:0:0:
391,293,471521,6,0,P|478:251|506:158,3,200,2|0|2|0,0:0|0:0|0:0|0:0,0:0:0:0:
184,340,472521,6,0,L|349:209,5,200,6|0|2|0|2|0,0:0|0:0|0:0|0:0|0:0|0:0,0:0:0:0:
340,215,474021,5,2,0:0:0:0:
240,215,474146,1,0,0:0:0:0:
100,214,474271,1,0,0:0:0:0:
280,152,474396,1,0,0:0:0:0:
80,351,474521,5,2,0:0:0:0:
83,252,474646,1,0,0:0:0:0:
143,174,474771,1,0,0:0:0:0:
237,146,474896,1,0,0:0:0:0:
337,145,475021,2,0,L|172:14,1,200,2|0,0:0|0:0,0:0:0:0:
502,214,475521,6,0,L|337:345,3,200,2|0|2|0,0:0|0:0|0:0|0:0,0:0:0:0:
25,319,476521,6,0,L|106:319,4,69.9999978637696,4|0|0|0|0,0:0|0:0|0:0|0:0|0:0,0:0:0:0:
225,285,477021,2,0,L|285:201,1,100,8|0,0:0|0:0,0:0:0:0:
103,174,477271,1,8,0:0:0:0:
423,117,477521,5,4,0:0:0:0:
299,113,477583,1,0,0:0:0:0:
423,117,477646,1,0,0:0:0:0:
299,113,477708,1,0,0:0:0:0:
423,117,477771,1,8,0:0:0:0:
103,237,478021,5,4,0:0:0:0:
227,233,478083,1,0,0:0:0:0:
103,237,478146,1,0,0:0:0:0:
227,233,478208,1,0,0:0:0:0:
103,237,478271,1,0,0:0:0:0:
421,311,478521,6,0,L|340:311,4,69.9999978637696,4|0|0|0|0,0:0|0:0|0:0|0:0|0:0,0:0:0:0:
221,277,479021,2,0,L|161:193,1,100,8|0,0:0|0:0,0:0:0:0:
343,166,479271,1,8,0:0:0:0:
23,109,479521,5,4,0:0:0:0:
147,105,479583,1,0,0:0:0:0:
23,109,479646,1,0,0:0:0:0:
147,105,479708,1,0,0:0:0:0:
23,109,479771,6,0,L|20:183,1,50,8|0,0:0|0:0,0:0:0:0:
147,174,479896,2,0,L|150:248,1,50,8|0,0:0|0:0,0:0:0:0:
275,272,480021,5,12,0:0:0:0:
399,273,480083,1,8,0:0:0:0:
273,228,480146,1,0,0:0:0:0:
149,260,480208,1,0,0:0:0:0:
275,272,480271,6,0,L|333:273,1,50
199,356,480396,2,0,L|272:356,1,50
487,319,480521,6,0,L|420:277,4,69.9999978637696,4|0|0|0|0,0:0|0:0|0:0|0:0|0:0,0:0:0:0:
287,285,481021,2,0,L|227:201,1,100,8|0,0:0|0:0,0:0:0:0:
409,174,481271,1,8,0:0:0:0:
89,117,481521,5,4,0:0:0:0:
213,113,481583,1,0,0:0:0:0:
89,117,481646,1,0,0:0:0:0:
213,113,481708,1,0,0:0:0:0:
89,117,481771,1,8,0:0:0:0:
409,237,482021,5,4,0:0:0:0:
285,233,482083,1,0,0:0:0:0:
409,237,482146,1,0,0:0:0:0:
285,233,482208,1,0,0:0:0:0:
409,237,482271,1,8,0:0:0:0:
91,311,482521,6,0,L|172:311,4,69.9999978637696,4|0|0|0|0,0:0|0:0|0:0|0:0|0:0,0:0:0:0:
291,277,483021,2,0,L|351:193,1,100,8|0,0:0|0:0,0:0:0:0:
169,166,483271,1,8,0:0:0:0:
489,109,483521,5,6,0:0:0:0:
365,105,483583,1,0,0:0:0:0:
489,109,483646,1,0,0:0:0:0:
365,105,483708,1,0,0:0:0:0:
489,109,483771,6,0,L|492:183,1,50,2|0,0:0|0:0,0:0:0:0:
365,174,483896,2,0,L|362:248,1,50
237,272,484021,5,2,0:0:0:0:
113,273,484083,1,0,0:0:0:0:
239,228,484146,1,0,0:0:0:0:
363,260,484208,1,0,0:0:0:0:
237,272,484271,6,0,L|179:273,1,50,2|0,0:0|0:0,0:0:0:0:
313,356,484396,2,0,L|240:356,1,50
137,345,484521,6,0,L|239:345,1,100,12|8,0:0|0:0,0:0:0:0:
417,332,484771,5,0,0:0:0:0:
237,209,484896,1,0,0:0:0:0:
457,144,485021,5,0,0:0:0:0:
277,143,485146,1,0,0:0:0:0:
57,155,485271,5,8,0:0:0:0:
237,154,485396,1,8,0:0:0:0:
17,237,485521,6,0,L|122:237,1,100,12|8,0:0|0:0,0:0:0:0:
337,235,485771,5,0,0:0:0:0:
157,310,485896,1,0,0:0:0:0:
377,263,486021,5,12,0:0:0:0:
197,338,486146,1,8,0:0:0:0:
417,348,486271,6,0,L|312:348,1,100,8|8,0:0|0:0,0:0:0:0:
97,217,486521,6,0,L|202:217,1,100,12|8,0:0|0:0,0:0:0:0:
377,214,486771,6,0,L|272:214,1,100
457,263,487021,6,0,L|352:263,1,100
177,334,487271,6,0,L|282:334,1,100,8|8,0:0|0:0,0:0:0:0:
57,145,487521,5,12,0:0:0:0:
237,144,487646,1,8,0:0:0:0:
17,225,487771,5,0,0:0:0:0:
197,224,487896,1,0,0:0:0:0:
417,276,488021,6,0,L|477:276,3,50,12|0|0|0,0:0|0:0|0:0|0:0,0:0:0:0:
341,239,488271,6,0,L|281:239,3,50,12|0|8|0,0:0|0:0|0:0|0:0,0:0:0:0:
165,305,488521,6,0,L|62:305,1,100,12|8,0:0|0:0,0:0:0:0:
285,336,488771,5,0,0:0:0:0:
465,213,488896,1,0,0:0:0:0:
245,257,489021,5,0,0:0:0:0:
425,256,489146,1,0,0:0:0:0:
205,189,489271,5,8,0:0:0:0:
25,188,489396,1,8,0:0:0:0:
245,77,489521,6,0,L|345:77,1,100,12|8,0:0|0:0,0:0:0:0:
125,142,489771,5,0,0:0:0:0:
305,217,489896,1,0,0:0:0:0:
85,170,490021,5,12,0:0:0:0:
265,245,490146,1,8,0:0:0:0:
45,255,490271,6,0,L|150:255,1,100,8|8,0:0|0:0,0:0:0:0:
325,179,490521,6,0,L|220:179,1,100,12|8,0:0|0:0,0:0:0:0:
45,176,490771,6,0,L|150:176,1,100
325,240,491021,6,0,L|220:240,1,100
405,321,491271,6,0,L|305:321,1,100,8|8,0:0|0:0,0:0:0:0:
85,132,491521,5,12,0:0:0:0:
265,131,491646,1,8,0:0:0:0:
45,212,491771,5,0,0:0:0:0:
225,211,491896,1,0,0:0:0:0:
405,230,492021,6,0,L|467:230,3,50,12|0|0|0,0:0|0:0|0:0|0:0,0:0:0:0:
329,292,492271,6,0,L|267:292,3,50
480,192,492521,5,12,0:0:0:0:
166,190,492646,1,12,0:0:0:0:
346,187,492771,1,0,0:0:0:0:
32,192,492896,1,0,0:0:0:0:
480,192,493021,1,12,0:0:0:0:
166,190,493146,1,12,0:0:0:0:
346,187,493271,1,0,0:0:0:0:
32,192,493396,1,0,0:0:0:0:
480,192,493521,6,0,L|452:192,1,25,2|0,0:0|0:0,0:0:0:0:
32,192,494021,5,12,0:0:0:0:
346,190,494146,1,12,0:0:0:0:
166,187,494271,1,12,0:0:0:0:
480,192,494396,1,12,0:0:0:0:
480,192,494896,5,12,0:0:0:0:
166,190,495021,1,12,0:0:0:0:
346,187,495146,1,12,0:0:0:0:
32,192,495271,1,12,0:0:0:0:
480,192,495396,6,0,L|446:192,1,25,2|0,0:0|0:0,0:0:0:0:
32,192,495646,5,12,0:0:0:0:
346,190,495771,1,12,0:0:0:0:
166,187,495896,1,12,0:0:0:0:
480,192,496021,1,12,0:0:0:0:
480,192,496271,5,12,0:0:0:0:
136,192,496396,1,12,0:0:0:0:
376,184,496521,1,12,0:0:0:0:
32,192,496646,1,12,0:0:0:0:
32,192,496896,5,12,0:0:0:0:
408,192,497021,1,12,0:0:0:0:
104,184,497146,1,12,0:0:0:0:
480,192,497271,1,12,0:0:0:0:
480,192,497771,5,12,0:0:0:0:
72,192,497896,1,12,0:0:0:0:
440,184,498021,1,12,0:0:0:0:
32,192,498146,1,14,0:0:0:0:
256,192,498271,12,0,500521,0:0:0:0:
