osu file format v14

[General]
AudioFilename: audio.mp3
AudioLeadIn: 0
PreviewTime: 359000
Countdown: 0
SampleSet: Soft
StackLeniency: 0.2
Mode: 0
LetterboxInBreaks: 0
WidescreenStoryboard: 0

[Editor]
Bookmarks: 359055,369805,386501,468501,472501
DistanceSpacing: 2.8
BeatDivisor: 4
GridSize: 4
TimelineZoom: 1

[Metadata]
Title:Apparition
TitleUnicode:Apparition
Artist:Spawn Of Possession
ArtistUnicode:Spawn Of Possession
Creator:[Takaga]
Version:Takaga
Source:
Tags:
BeatmapID:1185135
BeatmapSetID:560429

[Difficulty]
HPDrainRate:8
CircleSize:4
OverallDifficulty:8
ApproachRate:10
SliderMultiplier:1.4
SliderTickRate:1

[Events]
//Background and Video events
0,0,"what.jpg",0,0
//Break Periods
2,372148,378667
2,383159,385176
2,389201,396301
2,398013,419105
2,442451,455676
//Storyboard Layer 0 (Background)
//Storyboard Layer 1 (Fail)
//Storyboard Layer 2 (Pass)
//Storyboard Layer 3 (Foreground)
//Storyboard Sound Samples

[TimingPoints]
54555,250,4,2,0,100,1,0
358992,-66.6666666666667,4,2,0,100,0,1
367805,-66.6666666666667,4,2,0,100,0,0
369805,214.285714285714,4,2,0,100,1,0
369805,-66.6666666666667,4,2,0,100,0,1
379126,250,4,2,0,100,1,0
382251,-200,4,2,0,100,0,0
382626,-133.333333333333,4,2,0,100,0,0
396751,-133.333333333333,4,2,0,100,0,0
420805,-200,4,2,0,100,0,0
421680,-200,4,2,0,100,0,0
428501,-66.6666666666667,4,2,0,100,0,1
429626,-133.333333333333,4,2,0,100,0,1
430188,-66.6666666666667,4,2,0,100,0,1
434876,-133.333333333333,4,2,0,100,0,1
435376,-200,4,2,0,100,0,1
436563,-50,4,2,0,100,0,1
438501,-200,4,2,0,100,0,1
440438,-50,4,2,0,100,0,1
442001,-100,4,2,0,100,0,1
463063,-66.6666666666667,4,2,0,100,0,1
472501,-66.6666666666667,4,2,0,100,0,0

[HitObjects]
60,52,367805,5,0,0:0:0:0:
81,99,367867,1,0,0:0:0:0:
121,132,367930,1,0,0:0:0:0:
171,146,367992,1,0,0:0:0:0:
220,156,368055,5,0,0:0:0:0:
270,167,368117,1,0,0:0:0:0:
319,150,368180,1,0,0:0:0:0:
351,110,368242,1,0,0:0:0:0:
356,58,368305,1,0,0:0:0:0:
332,36,368367,5,0,0:0:0:0:
308,82,368429,1,0,0:0:0:0:
302,134,368492,1,0,0:0:0:0:
314,185,368554,1,0,0:0:0:0:
343,229,368617,1,0,0:0:0:0:
384,260,368679,1,0,0:0:0:0:
392,224,368742,5,0,0:0:0:0:
360,265,368804,1,0,0:0:0:0:
318,297,368867,1,0,0:0:0:0:
270,317,368929,1,0,0:0:0:0:
218,324,368992,1,0,0:0:0:0:
166,317,369054,1,0,0:0:0:0:
118,297,369117,1,0,0:0:0:0:
92,324,369180,5,0,0:0:0:0:
74,274,369242,1,0,0:0:0:0:
74,222,369305,1,0,0:0:0:0:
93,174,369367,1,0,0:0:0:0:
128,135,369430,1,0,0:0:0:0:
174,110,369492,1,0,0:0:0:0:
176,148,369555,5,0,0:0:0:0:
148,188,369617,1,0,0:0:0:0:
178,227,369680,1,0,0:0:0:0:
68,48,369805,5,0,0:0:0:0:
352,128,369912,1,0,0:0:0:0:
124,312,370019,1,0,0:0:0:0:
236,40,370126,1,0,0:0:0:0:
380,296,370233,1,0,0:0:0:0:
116,164,370340,5,0,0:0:0:0:
392,60,370447,1,0,0:0:0:0:
260,324,370555,1,0,0:0:0:0:
120,64,370662,1,0,0:0:0:0:
396,164,370769,1,0,0:0:0:0:
124,312,370876,5,0,0:0:0:0:
276,60,370983,1,0,0:0:0:0:
440,304,371090,1,0,0:0:0:0:
36,128,371197,1,0,0:0:0:0:
328,124,371305,5,0,0:0:0:0:
224,340,371412,1,0,0:0:0:0:
104,72,371519,1,0,0:0:0:0:
400,48,371627,5,0,0:0:0:0:
152,204,371734,1,0,0:0:0:0:
440,148,371841,1,0,0:0:0:0:
300,348,371948,1,0,0:0:0:0:
220,48,379117,5,0,0:0:0:0:
408,104,379242,1,0,0:0:0:0:
144,232,379367,1,0,0:0:0:0:
328,296,379492,1,0,0:0:0:0:
216,136,379617,1,0,0:0:0:0:
408,180,379742,1,0,0:0:0:0:
244,288,379867,1,0,0:0:0:0:
328,112,379992,1,0,0:0:0:0:
140,168,380117,5,0,0:0:0:0:
92,48,382251,6,0,L|104:144,1,87.5
164,216,382626,6,0,L|140:64,1,140
420,28,385626,5,0,0:0:0:0:
436,58,385688,1,0,0:0:0:0:
412,60,385751,1,0,0:0:0:0:
400,92,385813,1,0,0:0:0:0:
428,84,385876,1,0,0:0:0:0:
439,117,385938,1,0,0:0:0:0:
416,112,386001,1,0,0:0:0:0:
400,143,386063,1,0,0:0:0:0:
424,124,386126,1,0,0:0:0:0:
436,156,386188,1,0,0:0:0:0:
176,36,386501,5,0,0:0:0:0:
32,248,386626,1,0,0:0:0:0:
368,56,386751,1,0,0:0:0:0:
384,352,386876,1,0,0:0:0:0:
84,88,387001,5,0,0:0:0:0:
460,144,387126,1,0,0:0:0:0:
176,352,387251,1,0,0:0:0:0:
280,28,387376,1,0,0:0:0:0:
460,268,387501,5,0,0:0:0:0:
56,240,387626,1,0,0:0:0:0:
456,32,387751,1,0,0:0:0:0:
312,360,387876,1,0,0:0:0:0:
36,28,388126,5,0,0:0:0:0:
456,124,388251,1,0,0:0:0:0:
136,360,388376,1,0,0:0:0:0:
260,20,388501,1,0,0:0:0:0:
492,348,388626,5,0,0:0:0:0:
32,176,388751,1,0,0:0:0:0:
468,24,388876,1,0,0:0:0:0:
256,364,389001,1,0,0:0:0:0:
364,28,396751,5,0,0:0:0:0:
384,43,396813,1,0,0:0:0:0:
403,62,396876,1,0,0:0:0:0:
417,84,396938,1,0,0:0:0:0:
429,108,397001,1,0,0:0:0:0:
436,133,397063,1,0,0:0:0:0:
439,159,397126,1,0,0:0:0:0:
438,185,397188,1,0,0:0:0:0:
433,211,397251,1,0,0:0:0:0:
424,228,397313,5,0,0:0:0:0:
409,249,397375,1,0,0:0:0:0:
387,264,397438,1,0,0:0:0:0:
362,269,397500,1,0,0:0:0:0:
336,264,397563,1,0,0:0:0:0:
315,249,397625,1,0,0:0:0:0:
300,227,397688,1,0,0:0:0:0:
296,202,397750,1,0,0:0:0:0:
301,176,397813,1,0,0:0:0:0:
48,32,419555,5,0,0:0:0:0:
472,344,419742,1,0,0:0:0:0:
48,32,419930,2,0,P|88:164|136:24,1,350
368,64,420805,5,0,0:0:0:0:
382,74,420867,1,0,0:0:0:0:
394,86,420930,1,0,0:0:0:0:
404,100,420992,1,0,0:0:0:0:
412,116,421055,1,0,0:0:0:0:
418,132,421117,1,0,0:0:0:0:
421,149,421180,1,0,0:0:0:0:
422,167,421242,1,0,0:0:0:0:
420,184,421305,1,0,0:0:0:0:
415,201,421367,1,0,0:0:0:0:
408,217,421430,1,0,0:0:0:0:
398,232,421492,1,0,0:0:0:0:
386,245,421555,1,0,0:0:0:0:
373,256,421617,1,0,0:0:0:0:
364,264,421688,6,0,P|288:276|364:160,1,315
408,56,422938,5,0,0:0:0:0:
56,336,423188,1,0,0:0:0:0:
408,56,423376,2,0,P|364:36|272:116,1,175
400,176,424188,6,0,L|416:208,1,35
48,40,424626,5,0,0:0:0:0:
460,344,424876,1,0,0:0:0:0:
72,68,425126,6,0,P|136:48|120:200,1,297.5
468,44,426376,5,0,0:0:0:0:
476,356,426626,1,0,0:0:0:0:
32,32,426876,2,0,P|160:68|100:236,1,350
72,72,428501,5,0,0:0:0:0:
78,123,428563,1,0,0:0:0:0:
99,171,428626,1,0,0:0:0:0:
133,210,428688,1,0,0:0:0:0:
178,237,428751,1,0,0:0:0:0:
224,256,428813,5,0,0:0:0:0:
274,261,428875,1,0,0:0:0:0:
310,225,428938,1,0,0:0:0:0:
305,174,429000,1,0,0:0:0:0:
262,147,429063,1,0,0:0:0:0:
214,163,429125,1,0,0:0:0:0:
176,188,429188,5,0,0:0:0:0:
153,234,429250,1,0,0:0:0:0:
155,286,429313,1,0,0:0:0:0:
182,331,429375,1,0,0:0:0:0:
226,358,429438,1,0,0:0:0:0:
278,360,429500,1,0,0:0:0:0:
325,338,429563,1,0,0:0:0:0:
364,308,429626,5,0,0:0:0:0:
379,287,429688,1,0,0:0:0:0:
389,262,429751,1,0,0:0:0:0:
392,237,429813,1,0,0:0:0:0:
389,211,429876,1,0,0:0:0:0:
378,187,429938,1,0,0:0:0:0:
362,166,430001,1,0,0:0:0:0:
340,151,430063,1,0,0:0:0:0:
316,142,430126,1,0,0:0:0:0:
268,140,430188,5,0,0:0:0:0:
217,151,430250,1,0,0:0:0:0:
186,192,430313,1,0,0:0:0:0:
188,244,430375,1,0,0:0:0:0:
222,282,430438,1,0,0:0:0:0:
252,320,430501,5,0,0:0:0:0:
210,351,430563,1,0,0:0:0:0:
158,353,430626,1,0,0:0:0:0:
114,327,430688,1,0,0:0:0:0:
91,281,430751,1,0,0:0:0:0:
64,240,430813,5,0,0:0:0:0:
47,190,430875,1,0,0:0:0:0:
54,138,430938,1,0,0:0:0:0:
83,95,431000,1,0,0:0:0:0:
128,69,431063,1,0,0:0:0:0:
180,64,431125,1,0,0:0:0:0:
228,83,431188,1,0,0:0:0:0:
272,108,431251,5,0,0:0:0:0:
316,133,431313,1,0,0:0:0:0:
338,180,431376,1,0,0:0:0:0:
328,231,431438,1,0,0:0:0:0:
290,265,431501,1,0,0:0:0:0:
238,271,431563,1,0,0:0:0:0:
192,264,431626,6,0,L|164:236,8,26.2500010013581
152,224,432001,5,0,0:0:0:0:
152,224,432251,5,0,0:0:0:0:
152,224,432501,5,0,0:0:0:0:
136,175,432563,1,0,0:0:0:0:
162,132,432626,1,0,0:0:0:0:
212,124,432688,1,0,0:0:0:0:
251,158,432751,1,0,0:0:0:0:
249,209,432813,1,0,0:0:0:0:
256,256,432876,5,0,0:0:0:0:
282,299,432938,1,0,0:0:0:0:
331,311,433001,1,0,0:0:0:0:
374,283,433063,1,0,0:0:0:0:
384,233,433126,1,0,0:0:0:0:
354,191,433188,1,0,0:0:0:0:
316,160,433251,5,0,0:0:0:0:
266,146,433313,1,0,0:0:0:0:
217,164,433376,1,0,0:0:0:0:
189,207,433438,1,0,0:0:0:0:
192,259,433501,1,0,0:0:0:0:
160,236,433563,5,0,0:0:0:0:
125,197,433625,1,0,0:0:0:0:
116,146,433688,1,0,0:0:0:0:
136,98,433750,1,0,0:0:0:0:
178,68,433813,1,0,0:0:0:0:
176,104,433876,5,0,0:0:0:0:
159,153,433938,1,0,0:0:0:0:
169,204,434001,1,0,0:0:0:0:
202,244,434063,1,0,0:0:0:0:
251,263,434126,1,0,0:0:0:0:
300,276,434188,5,0,0:0:0:0:
349,292,434250,1,0,0:0:0:0:
398,276,434313,1,0,0:0:0:0:
429,235,434375,1,0,0:0:0:0:
430,183,434438,1,0,0:0:0:0:
400,141,434500,1,0,0:0:0:0:
351,124,434563,1,0,0:0:0:0:
300,120,434626,5,0,0:0:0:0:
254,144,434688,1,0,0:0:0:0:
228,189,434751,1,0,0:0:0:0:
229,241,434813,1,0,0:0:0:0:
232,288,434876,5,0,0:0:0:0:
244,310,434938,1,0,0:0:0:0:
264,327,435001,1,0,0:0:0:0:
288,336,435063,1,0,0:0:0:0:
314,335,435126,1,0,0:0:0:0:
338,325,435188,1,0,0:0:0:0:
357,307,435251,1,0,0:0:0:0:
368,283,435313,1,0,0:0:0:0:
369,257,435376,1,0,0:0:0:0:
368,248,435438,5,0,0:0:0:0:
364,230,435500,1,0,0:0:0:0:
360,213,435563,1,0,0:0:0:0:
356,196,435625,1,0,0:0:0:0:
352,179,435688,1,0,0:0:0:0:
349,162,435750,1,0,0:0:0:0:
345,145,435813,1,0,0:0:0:0:
341,128,435875,1,0,0:0:0:0:
337,111,435938,1,0,0:0:0:0:
336,112,436001,5,0,0:0:0:0:
339,129,436063,1,0,0:0:0:0:
343,146,436126,1,0,0:0:0:0:
347,163,436188,1,0,0:0:0:0:
351,180,436251,1,0,0:0:0:0:
354,197,436313,1,0,0:0:0:0:
358,214,436376,1,0,0:0:0:0:
362,231,436438,1,0,0:0:0:0:
366,248,436501,1,0,0:0:0:0:
364,308,436563,5,0,0:0:0:0:
296,326,436625,1,0,0:0:0:0:
227,322,436688,1,0,0:0:0:0:
162,296,436750,1,0,0:0:0:0:
110,251,436813,1,0,0:0:0:0:
75,190,436875,1,0,0:0:0:0:
48,128,436938,5,0,0:0:0:0:
93,76,437000,1,0,0:0:0:0:
160,58,437063,1,0,0:0:0:0:
225,82,437125,1,0,0:0:0:0:
188,152,437188,5,0,0:0:0:0:
190,220,437250,1,0,0:0:0:0:
234,273,437313,1,0,0:0:0:0:
301,287,437375,1,0,0:0:0:0:
363,257,437438,1,0,0:0:0:0:
304,212,437501,5,0,0:0:0:0:
358,174,437563,1,0,0:0:0:0:
345,110,437626,1,0,0:0:0:0:
280,97,437688,1,0,0:0:0:0:
280,164,437751,5,0,0:0:0:0:
211,166,437813,1,0,0:0:0:0:
163,118,437876,1,0,0:0:0:0:
164,50,437938,1,0,0:0:0:0:
215,4,438001,1,0,0:0:0:0:
282,9,438063,1,0,0:0:0:0:
344,28,438126,5,0,0:0:0:0:
401,66,438188,1,0,0:0:0:0:
427,130,438251,1,0,0:0:0:0:
415,198,438313,1,0,0:0:0:0:
367,248,438376,1,0,0:0:0:0:
304,272,438438,5,0,0:0:0:0:
244,276,438501,5,0,0:0:0:0:
226,277,438563,1,0,0:0:0:0:
209,278,438626,1,0,0:0:0:0:
191,279,438688,1,0,0:0:0:0:
174,281,438751,1,0,0:0:0:0:
156,282,438813,1,0,0:0:0:0:
139,283,438876,1,0,0:0:0:0:
121,285,438938,1,0,0:0:0:0:
104,286,439001,1,0,0:0:0:0:
86,287,439063,1,0,0:0:0:0:
104,256,439126,5,0,0:0:0:0:
121,254,439188,1,0,0:0:0:0:
138,252,439251,1,0,0:0:0:0:
156,251,439313,1,0,0:0:0:0:
173,249,439376,1,0,0:0:0:0:
191,247,439438,1,0,0:0:0:0:
208,246,439501,1,0,0:0:0:0:
225,244,439563,1,0,0:0:0:0:
243,243,439626,1,0,0:0:0:0:
260,241,439688,1,0,0:0:0:0:
248,212,439751,5,0,0:0:0:0:
230,213,439813,1,0,0:0:0:0:
213,214,439876,1,0,0:0:0:0:
195,215,439938,1,0,0:0:0:0:
178,216,440001,1,0,0:0:0:0:
160,217,440063,1,0,0:0:0:0:
143,219,440126,1,0,0:0:0:0:
125,220,440188,1,0,0:0:0:0:
108,221,440251,1,0,0:0:0:0:
90,222,440313,1,0,0:0:0:0:
73,223,440376,1,0,0:0:0:0:
44,204,440438,5,0,0:0:0:0:
35,136,440500,1,0,0:0:0:0:
79,84,440563,1,0,0:0:0:0:
146,81,440625,1,0,0:0:0:0:
195,129,440688,1,0,0:0:0:0:
140,128,440751,5,0,0:0:0:0:
153,195,440813,1,0,0:0:0:0:
208,236,440876,1,0,0:0:0:0:
276,230,440938,1,0,0:0:0:0:
324,181,441001,1,0,0:0:0:0:
327,113,441063,1,0,0:0:0:0:
276,132,441126,5,0,0:0:0:0:
213,159,441188,1,0,0:0:0:0:
190,223,441251,1,0,0:0:0:0:
221,284,441313,1,0,0:0:0:0:
248,236,441376,5,0,0:0:0:0:
242,168,441438,1,0,0:0:0:0:
189,124,441501,1,0,0:0:0:0:
122,131,441563,1,0,0:0:0:0:
79,184,441626,1,0,0:0:0:0:
144,192,441688,5,0,0:0:0:0:
141,123,441750,1,0,0:0:0:0:
189,75,441813,1,0,0:0:0:0:
257,76,441875,1,0,0:0:0:0:
303,127,441938,1,0,0:0:0:0:
324,152,442001,5,0,0:0:0:0:
340,182,442063,1,0,0:0:0:0:
343,217,442126,1,0,0:0:0:0:
334,251,442188,1,0,0:0:0:0:
313,278,442251,1,0,0:0:0:0:
424,80,456126,5,0,0:0:0:0:
442,128,456188,1,0,0:0:0:0:
434,179,456251,1,0,0:0:0:0:
403,221,456313,1,0,0:0:0:0:
356,242,456376,1,0,0:0:0:0:
304,244,456438,5,0,0:0:0:0:
254,229,456500,1,0,0:0:0:0:
225,187,456563,1,0,0:0:0:0:
230,136,456625,1,0,0:0:0:0:
266,99,456688,1,0,0:0:0:0:
320,80,456751,5,0,0:0:0:0:
367,101,456813,1,0,0:0:0:0:
403,139,456876,1,0,0:0:0:0:
421,188,456938,1,0,0:0:0:0:
420,240,457001,1,0,0:0:0:0:
399,288,457063,1,0,0:0:0:0:
360,324,457126,5,0,0:0:0:0:
308,332,457188,1,0,0:0:0:0:
257,320,457251,1,0,0:0:0:0:
215,289,457313,1,0,0:0:0:0:
187,245,457376,1,0,0:0:0:0:
160,200,457438,5,0,0:0:0:0:
123,164,457500,1,0,0:0:0:0:
72,164,457563,1,0,0:0:0:0:
36,201,457625,1,0,0:0:0:0:
37,252,457688,1,0,0:0:0:0:
75,287,457750,1,0,0:0:0:0:
124,312,457813,5,0,0:0:0:0:
175,317,457875,1,0,0:0:0:0:
224,298,457938,1,0,0:0:0:0:
259,260,458000,1,0,0:0:0:0:
274,210,458063,1,0,0:0:0:0:
265,159,458125,1,0,0:0:0:0:
236,116,458188,5,0,0:0:0:0:
208,72,458250,1,0,0:0:0:0:
159,57,458313,1,0,0:0:0:0:
112,78,458375,1,0,0:0:0:0:
90,124,458438,1,0,0:0:0:0:
104,174,458500,1,0,0:0:0:0:
147,202,458563,1,0,0:0:0:0:
192,232,458626,5,0,0:0:0:0:
232,263,458688,1,0,0:0:0:0:
284,271,458751,1,0,0:0:0:0:
332,253,458813,1,0,0:0:0:0:
366,214,458876,1,0,0:0:0:0:
376,163,458938,1,0,0:0:0:0:
368,108,459001,5,0,0:0:0:0:
339,65,459063,1,0,0:0:0:0:
289,54,459126,1,0,0:0:0:0:
247,83,459188,1,0,0:0:0:0:
237,133,459251,1,0,0:0:0:0:
266,175,459313,1,0,0:0:0:0:
308,208,459376,5,0,0:0:0:0:
358,217,459438,1,0,0:0:0:0:
385,260,459501,1,0,0:0:0:0:
373,310,459563,1,0,0:0:0:0:
328,335,459626,1,0,0:0:0:0:
280,340,459688,5,0,0:0:0:0:
230,323,459750,1,0,0:0:0:0:
195,285,459813,1,0,0:0:0:0:
180,236,459875,1,0,0:0:0:0:
193,184,459938,1,0,0:0:0:0:
212,132,460001,5,0,0:0:0:0:
235,85,460063,1,0,0:0:0:0:
280,60,460126,1,0,0:0:0:0:
331,66,460188,1,0,0:0:0:0:
370,100,460251,1,0,0:0:0:0:
383,150,460313,1,0,0:0:0:0:
364,199,460376,1,0,0:0:0:0:
364,248,460438,5,0,0:0:0:0:
404,279,460500,1,0,0:0:0:0:
453,268,460563,1,0,0:0:0:0:
478,223,460625,1,0,0:0:0:0:
472,168,460688,5,0,0:0:0:0:
450,123,460750,1,0,0:0:0:0:
402,131,460813,1,0,0:0:0:0:
432,160,460876,5,0,0:0:0:0:
387,180,460938,1,0,0:0:0:0:
355,143,461001,1,0,0:0:0:0:
376,112,461063,5,0,0:0:0:0:
335,79,461125,1,0,0:0:0:0:
284,72,461188,1,0,0:0:0:0:
236,93,461250,1,0,0:0:0:0:
206,135,461313,1,0,0:0:0:0:
202,187,461375,1,0,0:0:0:0:
225,233,461438,1,0,0:0:0:0:
264,264,461501,5,0,0:0:0:0:
310,311,461563,1,0,0:0:0:0:
377,317,461626,1,0,0:0:0:0:
432,279,461688,1,0,0:0:0:0:
449,215,461751,1,0,0:0:0:0:
421,154,461813,1,0,0:0:0:0:
372,104,461876,5,0,0:0:0:0:
317,63,461938,1,0,0:0:0:0:
250,58,462001,1,0,0:0:0:0:
190,88,462063,1,0,0:0:0:0:
155,145,462126,1,0,0:0:0:0:
140,216,462188,5,0,0:0:0:0:
142,233,462250,1,0,0:0:0:0:
147,249,462313,1,0,0:0:0:0:
155,265,462375,1,0,0:0:0:0:
167,278,462438,1,0,0:0:0:0:
180,289,462500,1,0,0:0:0:0:
195,298,462563,1,0,0:0:0:0:
212,303,462625,1,0,0:0:0:0:
230,305,462688,1,0,0:0:0:0:
247,303,462750,1,0,0:0:0:0:
264,298,462813,1,0,0:0:0:0:
279,291,462875,1,0,0:0:0:0:
293,280,462938,1,0,0:0:0:0:
305,267,463000,1,0,0:0:0:0:
320,236,463063,5,0,0:0:0:0:
367,216,463125,1,0,0:0:0:0:
393,172,463188,1,0,0:0:0:0:
386,121,463250,1,0,0:0:0:0:
348,86,463313,1,0,0:0:0:0:
297,81,463375,1,0,0:0:0:0:
248,84,463438,5,0,0:0:0:0:
201,105,463500,1,0,0:0:0:0:
187,153,463563,1,0,0:0:0:0:
214,196,463625,1,0,0:0:0:0:
264,204,463688,1,0,0:0:0:0:
312,208,463751,5,0,0:0:0:0:
353,237,463813,1,0,0:0:0:0:
354,288,463876,1,0,0:0:0:0:
316,320,463938,1,0,0:0:0:0:
266,309,464001,1,0,0:0:0:0:
224,288,464063,5,0,0:0:0:0:
191,247,464125,1,0,0:0:0:0:
189,196,464188,1,0,0:0:0:0:
217,153,464250,1,0,0:0:0:0:
265,134,464313,1,0,0:0:0:0:
316,128,464376,5,0,0:0:0:0:
349,165,464438,1,0,0:0:0:0:
331,211,464501,1,0,0:0:0:0:
281,217,464563,1,0,0:0:0:0:
292,168,464626,5,0,0:0:0:0:
335,192,464688,1,0,0:0:0:0:
337,242,464751,1,0,0:0:0:0:
294,268,464813,1,0,0:0:0:0:
281,217,464876,5,0,0:0:0:0:
331,230,464938,1,0,0:0:0:0:
373,201,465001,1,0,0:0:0:0:
378,150,465063,1,0,0:0:0:0:
344,113,465126,1,0,0:0:0:0:
293,115,465188,1,0,0:0:0:0:
232,136,465251,5,0,0:0:0:0:
194,169,465313,1,0,0:0:0:0:
197,220,465376,1,0,0:0:0:0:
239,248,465438,1,0,0:0:0:0:
287,233,465501,1,0,0:0:0:0:
304,185,465563,1,0,0:0:0:0:
264,208,465626,5,0,0:0:0:0:
236,152,465688,1,0,0:0:0:0:
280,168,465751,1,0,0:0:0:0:
280,100,465813,1,0,0:0:0:0:
328,136,465876,1,0,0:0:0:0:
336,200,465938,1,0,0:0:0:0:
300,232,466001,1,0,0:0:0:0:
256,288,466063,1,0,0:0:0:0:
220,320,466126,5,0,0:0:0:0:
184,328,466188,1,0,0:0:0:0:
152,312,466251,1,0,0:0:0:0:
144,276,466313,1,0,0:0:0:0:
172,252,466376,1,0,0:0:0:0:
204,248,466438,1,0,0:0:0:0:
236,264,466501,1,0,0:0:0:0:
244,300,466563,1,0,0:0:0:0:
216,304,466626,1,0,0:0:0:0:
180,312,466688,1,0,0:0:0:0:
180,280,466751,1,0,0:0:0:0:
216,280,466813,1,0,0:0:0:0:
248,276,466876,5,0,0:0:0:0:
299,275,466938,1,0,0:0:0:0:
343,247,467001,1,0,0:0:0:0:
364,200,467063,1,0,0:0:0:0:
357,149,467126,1,0,0:0:0:0:
323,110,467188,1,0,0:0:0:0:
273,96,467251,1,0,0:0:0:0:
288,136,467313,5,0,0:0:0:0:
328,166,467375,1,0,0:0:0:0:
335,217,467438,1,0,0:0:0:0:
303,257,467500,1,0,0:0:0:0:
252,262,467563,1,0,0:0:0:0:
224,228,467626,5,0,0:0:0:0:
193,269,467688,1,0,0:0:0:0:
193,321,467751,1,0,0:0:0:0:
222,363,467813,1,0,0:0:0:0:
271,381,467876,1,0,0:0:0:0:
321,367,467938,1,0,0:0:0:0:
304,336,468001,5,0,0:0:0:0:
255,319,468063,1,0,0:0:0:0:
228,276,468126,1,0,0:0:0:0:
235,225,468188,1,0,0:0:0:0:
274,191,468251,1,0,0:0:0:0:
308,180,468313,1,0,0:0:0:0:
344,184,468376,1,0,0:0:0:0:
44,52,468501,5,0,0:0:0:0:
460,352,468751,5,0,0:0:0:0:
40,344,469001,5,0,0:0:0:0:
464,44,469251,5,0,0:0:0:0:
256,192,469501,5,0,0:0:0:0:
372,56,470001,5,0,0:0:0:0:
144,64,470126,1,0,0:0:0:0:
372,88,470251,1,0,0:0:0:0:
144,96,470376,1,0,0:0:0:0:
372,120,470501,1,0,0:0:0:0:
260,192,470751,1,0,0:0:0:0:
472,344,471001,5,0,0:0:0:0:
436,344,471251,1,0,0:0:0:0:
404,344,471501,1,0,0:0:0:0:
376,344,471751,1,0,0:0:0:0:
344,344,472001,1,0,0:0:0:0:
312,344,472251,1,0,0:0:0:0:
276,344,472501,1,0,0:0:0:0:
