osu file format v14

[General]
AudioFilename: audio.mp3
AudioLeadIn: 0
PreviewTime: 65354
Countdown: 0
SampleSet: Soft
StackLeniency: 0.4
Mode: 0
LetterboxInBreaks: 0
WidescreenStoryboard: 1

[Editor]
Bookmarks: 1355,12021,33354,44021,65354,88021,105590,138590,168590,190325,203659,247658,268992,277789,294789,300789,307789
DistanceSpacing: 0.6
BeatDivisor: 4
GridSize: 32
TimelineZoom: 3.2

[Metadata]
Title:Zinnober
TitleUnicode:Zinnober
Artist:Sparxe
ArtistUnicode:Sparxe
Creator:Nozuchi
Version:Incandescence
Source:Intermediate Global Taiko Showdown 2022
Tags:instrumental electronic grand finals gf tb tiebreaker igts bespoke gts sound team
BeatmapID:4140282
BeatmapSetID:1904860

[Difficulty]
HPDrainRate:6
CircleSize:3.8
OverallDifficulty:8.7
ApproachRate:9.3
SliderMultiplier:2.2
SliderTickRate:1

[Events]
//Background and Video events
0,0,"bg.jpg",0,0
//Break Periods
2,135695,138036
//Storyboard Layer 0 (Background)
//Storyboard Layer 1 (Fail)
//Storyboard Layer 2 (Pass)
//Storyboard Layer 3 (Foreground)
//Storyboard Layer 4 (Overlay)
//Storyboard Sound Samples

[TimingPoints]
1355,333.333333333333,4,2,5,35,1,0
1355,-166.666666666667,4,2,5,35,0,0
7354,-166.666666666667,4,2,1,35,0,0
7688,-166.666666666667,4,2,5,35,0,0
8688,-166.666666666667,4,2,1,35,0,0
9022,-166.666666666667,4,2,5,35,0,0
10021,-166.666666666667,4,2,1,35,0,0
10355,-166.666666666667,4,2,5,35,0,0
11854,-125,4,2,5,35,0,0
12021,-125,4,2,5,45,0,0
20021,-166.666666666667,4,2,1,45,0,0
22021,-166.666666666667,4,2,5,45,0,0
28021,-166.666666666667,4,2,1,50,0,0
32688,-100,4,2,1,50,0,0
33354,-100,4,2,1,60,0,0
34354,-166.666666666667,4,2,1,50,0,0
35021,-125,4,2,1,60,0,0
35354,-111.111111111111,4,2,1,60,0,0
35688,-100,4,2,1,60,0,0
36021,-166.666666666667,4,2,1,60,0,0
36354,-100,4,2,1,60,0,0
36688,-166.666666666667,4,2,1,60,0,0
37021,-100,4,2,1,60,0,0
38021,-125,4,2,1,60,0,0
38688,-100,4,2,1,55,0,0
40688,-125,4,2,1,55,0,0
41354,-125,4,2,1,60,0,0
42354,-83.3333333333333,4,2,1,60,0,0
43354,-62.5,4,2,1,65,0,0
44354,-83.3333333333333,4,2,1,60,0,0
45354,-83.3333333333333,4,2,1,60,0,0
45604,-125,4,2,1,55,0,0
45854,-166.666666666667,4,2,1,50,0,0
46188,-62.5,4,2,1,65,0,0
46854,-125,4,2,1,55,0,0
48271,-62.5,4,2,1,60,0,0
48688,-62.5,4,2,1,60,0,0
49021,-83.3333333333333,4,2,1,60,0,0
49354,-100,4,2,1,65,0,0
49688,-100,4,2,1,60,0,0
50021,-83.3333333333333,4,2,1,60,0,0
50688,-55.5555555555556,4,2,1,60,0,0
50938,-83.3333333333333,4,2,1,60,0,0
51188,-62.5,4,2,1,60,0,0
51521,-62.5,4,2,1,65,0,0
52188,-125,4,2,1,55,0,0
53354,-83.3333333333333,4,2,1,60,0,0
54521,-83.3333333333333,4,2,1,60,0,0
54688,-62.5,4,2,1,65,0,0
55021,-83.3333333333333,4,2,2,60,0,0
56021,-71.4285714285714,4,2,1,60,0,0
56688,-100,4,2,1,60,0,0
57521,-125,4,2,1,55,0,0
58854,-62.5,4,2,1,60,0,0
59021,-62.5,4,2,1,60,0,0
59354,-71.4285714285714,4,2,1,60,0,0
59688,-83.3333333333333,4,2,1,60,0,0
60021,-83.3333333333333,4,2,1,65,0,0
60354,-83.3333333333333,4,2,1,55,0,0
61354,-166.666666666667,4,2,1,55,0,0
61854,-83.3333333333333,4,2,1,60,0,0
62854,-125,4,2,1,55,0,0
64021,-100,4,2,1,60,0,0
64354,-83.3333333333333,4,2,1,65,0,0
64688,-71.4285714285714,4,2,1,70,0,0
65021,-71.4285714285714,4,2,5,70,0,0
65354,-100,4,2,1,60,0,0
74854,-83.3333333333333,4,2,1,60,0,0
76021,-83.3333333333333,4,2,1,60,0,0
76688,-100,4,2,1,60,0,0
77021,-83.3333333333333,4,2,1,60,0,0
77354,-125,4,2,1,60,0,0
78021,-100,4,2,1,60,0,0
80021,-83.3333333333333,4,2,1,60,0,0
81354,-83.3333333333333,4,2,1,70,0,0
83688,-100,4,2,1,70,0,0
85188,-83.3333333333333,4,2,1,70,0,0
86021,-83.3333333333333,4,2,1,65,0,0
86688,-250,4,2,1,60,0,0
87354,-100,4,2,1,60,0,0
88021,-166.666666666667,4,2,1,65,0,0
88104,-166.666666666667,4,2,1,60,0,0
89354,342.857142857143,4,2,1,60,1,0
89354,-166.666666666667,4,2,1,60,0,0
90039,-166.666666666667,4,2,1,65,0,0
90125,-166.666666666667,4,2,1,60,0,0
90725,352.941176470588,4,2,1,60,1,0
90725,-166.666666666667,4,2,1,65,0,0
90813,-166.666666666667,4,2,1,60,0,0
91960,-166.666666666667,4,2,1,65,0,0
92136,363.636363636364,4,2,1,65,1,0
92136,-166.666666666667,4,2,1,65,0,0
93590,375,4,2,1,65,1,0
93590,-166.666666666667,4,2,1,65,0,0
93683,-166.666666666667,4,2,1,60,0,0
94340,-166.666666666667,4,2,1,65,0,0
94527,-166.666666666667,4,2,1,60,0,0
95840,-166.666666666667,4,2,1,65,0,0
95933,-166.666666666667,4,2,1,60,0,0
96590,-166.666666666667,4,2,1,65,0,0
96683,-166.666666666667,4,2,1,60,0,0
97340,-166.666666666667,4,2,1,65,0,0
97433,-166.666666666667,4,2,1,60,0,0
98840,-125,4,2,1,65,0,0
98965,-125,4,2,1,60,0,0
99590,-100,4,2,1,70,0,0
99683,-100,4,2,1,65,0,0
100152,-125,4,2,1,65,0,0
101840,-100,4,2,1,65,0,0
102590,-100,4,2,1,70,0,0
102715,-100,4,2,1,65,0,0
104840,-100,4,2,1,70,0,0
105590,-100,4,2,1,50,0,0
108027,-100,4,2,1,55,0,0
108590,-100,4,2,1,60,0,0
110090,-71.4285714285714,4,2,1,65,0,0
110277,-76.9230769230769,4,2,1,65,0,0
110465,-83.3333333333333,4,2,1,60,0,0
110652,-90.9090909090909,4,2,1,60,0,0
110840,-100,4,2,1,60,0,0
111590,-100,4,2,1,60,0,0
116090,-125,4,2,1,55,0,0
116840,-71.4285714285714,4,2,1,60,0,0
117590,-83.3333333333333,4,2,1,65,0,0
117965,-100,4,2,1,60,0,0
119465,-83.3333333333333,4,2,1,60,0,0
120590,-100,4,2,1,60,0,0
122090,-71.4285714285714,4,2,1,60,0,0
122277,-76.9230769230769,4,2,1,60,0,0
122465,-83.3333333333333,4,2,1,60,0,0
122652,-90.9090909090909,4,2,1,60,0,0
122840,-71.4285714285714,4,2,1,65,0,0
123590,-83.3333333333333,4,2,1,65,0,0
134840,-83.3333333333333,4,2,1,65,0,0
135590,-83.3333333333333,4,2,1,50,0,0
138590,-83.3333333333333,4,2,6,60,0,0
138715,-83.3333333333333,4,2,6,5,0,0
139152,-83.3333333333333,4,2,6,60,0,0
139277,-83.3333333333333,4,2,6,5,0,0
140840,-250,4,2,1,50,0,0
141590,-83.3333333333333,4,2,6,60,0,0
141715,-83.3333333333333,4,2,6,5,0,0
142152,-83.3333333333333,4,2,6,60,0,0
142277,-83.3333333333333,4,2,6,5,0,0
142465,-166.666666666667,4,2,1,55,0,0
142840,-83.3333333333333,4,2,1,55,0,0
144215,-71.4285714285714,4,2,1,55,0,0
144590,-83.3333333333333,4,2,6,60,0,0
145340,-83.3333333333333,4,2,3,60,0,0
145902,-83.3333333333333,4,2,1,60,0,0
146840,-83.3333333333333,4,2,3,60,0,0
147027,-83.3333333333333,4,2,1,60,0,0
147308,-100,4,2,1,60,0,0
147590,-83.3333333333333,4,2,6,60,0,0
147715,-83.3333333333333,4,2,6,5,0,0
147965,-83.3333333333333,4,2,1,55,0,0
148152,-83.3333333333333,4,2,6,60,0,0
148340,-83.3333333333333,4,2,3,55,0,0
148590,-83.3333333333333,4,2,1,55,0,0
148840,-83.3333333333333,4,2,1,55,0,0
149090,-100,4,2,1,55,0,0
149840,-83.3333333333333,4,2,1,55,0,0
150215,-100,4,2,1,55,0,0
150590,-83.3333333333333,4,2,6,60,0,0
151340,-83.3333333333333,4,2,3,60,0,0
151902,-83.3333333333333,4,2,1,60,0,0
152840,-83.3333333333333,4,2,3,60,0,0
153027,-83.3333333333333,4,2,1,60,0,0
153308,-100,4,2,1,60,0,0
153777,-83.3333333333333,4,2,3,60,0,0
153965,-83.3333333333333,4,2,1,55,0,0
154152,-83.3333333333333,4,2,6,60,0,0
154340,-83.3333333333333,4,2,3,55,0,0
154590,-83.3333333333333,4,2,1,55,0,0
154840,-83.3333333333333,4,2,1,55,0,0
155090,-125,4,2,1,55,0,0
155840,-83.3333333333333,4,2,1,55,0,0
156590,-83.3333333333333,4,2,6,60,0,0
156777,-83.3333333333333,4,2,1,60,0,0
156965,-83.3333333333333,4,2,3,60,0,0
157152,-83.3333333333333,4,2,6,60,0,0
157246,-83.3333333333333,4,2,3,60,0,0
157902,-83.3333333333333,4,2,1,60,0,0
158465,-83.3333333333333,4,2,3,60,0,0
158652,-83.3333333333333,4,2,1,60,0,0
159308,-166.666666666667,4,2,1,60,0,0
159590,-83.3333333333333,4,2,6,60,0,0
159715,-83.3333333333333,4,2,6,5,0,0
159965,-83.3333333333334,4,2,6,55,0,0
160152,-83.3333333333334,4,2,6,60,0,0
160340,-83.3333333333333,4,2,3,55,0,0
160590,-83.3333333333333,4,2,1,55,0,0
160840,-83.3333333333333,4,2,1,55,0,0
161090,-100,4,2,1,60,0,0
161840,-83.3333333333333,4,2,6,60,0,0
162590,-83.3333333333333,4,2,6,65,0,0
162965,-83.3333333333334,4,2,3,65,0,0
163152,-83.3333333333333,4,2,6,65,0,0
163246,-83.3333333333333,4,2,3,65,0,0
163340,-83.3333333333333,4,2,1,65,0,0
164465,-83.3333333333333,4,2,3,65,0,0
164652,-83.3333333333333,4,2,1,65,0,0
165590,-83.3333333333333,4,2,6,60,0,0
165777,-83.3333333333333,4,2,6,60,0,0
166152,-83.3333333333333,4,2,6,65,0,0
166340,-83.3333333333333,4,2,3,60,0,0
166465,-83.3333333333333,4,2,1,60,0,0
166840,-83.3333333333333,4,2,1,60,0,0
167090,-83.3333333333333,4,2,1,65,0,0
167840,-62.5,4,2,1,60,0,0
168590,-125,4,2,1,55,0,0
170090,363.636363636364,4,2,1,55,1,0
170090,-125,4,2,1,55,0,0
170271,-125,4,2,1,55,0,0
171544,352.941176470588,4,2,1,55,1,0
171544,-125,4,2,1,55,0,0
172955,342.857142857143,4,2,1,55,1,0
173983,-166.666666666667,4,2,1,55,0,0
174326,333.333333333333,4,2,1,55,1,0
174326,-125,4,2,1,55,0,0
176326,-100,4,2,1,55,0,0
176659,-125,4,2,1,55,0,0
178326,-100,4,2,1,60,0,0
179659,-100,4,2,1,65,0,0
190325,-125,4,2,6,70,0,0
190659,-125,4,2,6,50,0,0
192825,-125,4,2,6,55,0,0
192992,-125,4,2,6,55,0,0
193325,-125,4,2,6,50,0,0
194659,-100,4,2,6,55,0,0
195242,-76.9230769230769,4,2,6,55,0,0
195659,-76.9230769230769,4,2,1,55,0,0
198325,-76.9230769230769,4,2,1,60,0,0
199659,-76.9230769230769,4,2,1,65,0,0
200992,-100,4,2,1,50,0,0
201992,-83.3333333333333,4,2,6,55,0,0
202159,-55.5555555555556,4,2,6,65,0,0
202659,-250,4,2,6,50,0,0
203325,-250,4,2,6,65,0,0
203659,-83.3333333333333,4,2,1,75,0,1
209159,-55.5555555555556,4,2,1,80,0,1
209492,-100,4,2,1,75,0,1
209659,-62.5,4,2,1,80,0,1
209825,-62.5,4,2,1,75,0,1
210159,-62.5,4,2,1,80,0,1
210325,-62.5,4,2,1,75,0,1
210659,-71.4285714285714,4,2,1,80,0,1
210992,-83.3333333333333,4,2,1,75,0,1
211325,-142.857142857143,4,2,1,70,0,1
211659,-142.857142857143,4,2,1,75,0,1
211992,-100,4,2,1,75,0,1
213325,-83.3333333333333,4,2,1,75,0,1
214325,-83.3333333333333,4,2,1,75,0,1
215492,-125,4,2,1,75,0,1
215825,-100,4,2,1,75,0,1
216325,-83.3333333333333,4,2,1,75,0,1
218159,-125,4,2,1,75,0,1
218325,-100,4,2,1,75,0,1
218992,-83.3333333333333,4,2,1,75,0,1
219825,-71.4285714285714,4,2,1,80,0,1
222325,-100,4,2,1,75,0,1
222825,-71.4285714285714,4,2,1,75,0,1
223992,-83.3333333333333,4,2,1,75,0,1
224325,-83.3333333333333,4,2,1,70,0,1
224659,-83.3333333333333,4,2,1,65,0,1
224992,-100,4,2,1,60,0,0
225909,-100,4,2,1,65,0,0
226325,333.333333333333,4,2,1,75,1,0
226325,-83.3333333333333,4,2,1,75,0,1
230658,-71.4285714285714,4,2,1,80,0,1
231658,-71.4285714285714,4,2,1,75,0,1
234324,-83.3333333333333,4,2,1,75,0,1
234991,-83.3333333333333,4,2,1,75,0,1
235991,-71.4285714285714,4,2,1,80,0,1
236991,-83.3333333333333,4,2,1,75,0,1
243658,-71.4285714285714,4,2,1,75,0,1
246324,-71.4285714285714,4,2,1,70,0,1
246991,-71.4285714285714,4,2,1,65,0,1
247658,-100,4,2,1,60,0,0
252991,-125,4,2,1,55,0,0
257824,-250,4,2,1,55,0,0
258324,-83.3333333333333,4,2,1,65,0,1
262324,-83.3333333333333,4,2,1,60,0,1
263658,-125,4,2,1,55,0,0
267324,-200,4,2,1,55,0,0
267658,-142.857142857143,4,2,1,55,0,0
268992,324.324324324324,4,2,6,60,1,0
269640,315.789473684211,4,2,6,60,1,8
270271,300,4,2,6,60,1,0
271471,285.714285714286,4,2,6,60,1,0
272613,272.727272727273,4,2,6,60,1,0
273703,260.869565217391,4,2,6,60,1,0
273703,-125,4,2,6,65,0,0
275789,250,4,2,6,70,1,0
277789,-100,4,2,7,75,0,1
293289,-100,4,2,7,80,0,1
293726,-100,4,2,7,60,0,0
294289,-100,4,2,7,60,0,0
294539,-62.5,4,2,7,65,0,1
294789,-100,4,2,1,75,0,1
298789,-100,4,2,1,80,0,1
300789,-125,4,2,1,60,0,0
307789,-125,4,2,1,5,0,0

[Colours]
Combo1 : 204,31,0
Combo2 : 201,96,73

[HitObjects]
119,87,1355,5,8,2:2:0:0:
127,113,1521,1,8,2:2:0:0:
134,139,1688,1,8,2:2:0:0:
177,35,1854,5,8,2:3:0:0:
28,154,2104,1,8,2:3:0:0:
208,220,2354,5,8,2:2:0:0:
208,220,2521,1,8,2:3:0:0:
134,139,2854,5,8,3:2:0:0:
161,134,3021,1,8,2:2:0:0:
188,129,3188,5,8,2:3:0:0:
284,151,3438,5,8,2:3:0:0:
380,174,3688,5,8,2:2:0:0:
91,329,4021,5,8,2:2:0:0:
98,302,4188,1,8,2:2:0:0:
120,286,4354,1,8,2:2:0:0:
1,292,4521,5,8,2:3:0:0:
171,376,4771,1,8,2:3:0:0:
155,185,5021,5,8,2:2:0:0:
155,185,5188,1,8,2:3:0:0:
120,286,5521,5,8,3:2:0:0:
147,290,5688,1,8,2:2:0:0:
173,295,5854,5,8,2:3:0:0:
262,281,6104,5,8,2:3:0:0:
352,272,6354,5,8,2:2:0:0:
431,63,6688,5,8,0:0:0:0:
420,94,6854,1,8,0:0:0:0:
418,127,7021,1,8,0:0:0:0:
349,55,7188,5,8,0:3:0:0:
349,55,7354,2,8,P|347:36|343:15,1,32.99999899292,8|0,0:0|0:0,0:0:0:0:
494,173,7688,5,8,0:0:0:0:
494,173,7854,1,8,0:3:0:0:
416,128,8188,5,8,3:0:0:0:
383,132,8354,1,8,0:0:0:0:
350,137,8521,1,8,0:0:0:0:
257,96,8688,6,8,P|240:93|224:91,1,32.99999899292,8|0,0:0|0:0,0:0:0:0:
349,145,9021,5,8,0:0:0:0:
65,40,9354,5,8,0:0:0:0:
96,49,9521,1,8,0:0:0:0:
107,80,9688,1,8,0:0:0:0:
56,185,9854,5,8,0:3:0:0:
56,185,10021,2,8,P|34:181|28:167,1,32.99999899292,8|0,0:0|0:0,0:0:0:0:
198,42,10354,5,8,0:0:0:0:
198,42,10521,1,8,0:3:0:0:
107,80,10854,5,8,3:0:0:0:
122,109,11021,1,8,0:0:0:0:
154,116,11188,1,8,0:0:0:0:
250,165,11354,5,8,0:3:0:0:
263,163,11438,1,8,0:3:0:0:
276,161,11521,1,8,0:3:0:0:
289,159,11604,1,8,0:3:0:0:
302,157,11688,1,8,0:3:0:0:
450,175,11854,6,4,L|478:180,3,22,4|4|4|4,0:3|0:3|0:3|0:3,0:3:0:0:
480,192,12021,5,12,0:0:0:0:
480,192,13021,1,4,0:3:0:0:
32,192,13354,5,12,0:3:0:0:
32,192,14021,5,4,0:3:0:0:
480,192,14354,1,4,0:3:0:0:
256,32,14688,5,12,0:0:0:0:
256,32,15688,1,4,0:3:0:0:
256,352,16021,5,8,0:0:0:0:
173,304,16188,5,8,0:0:0:0:
328,263,16438,5,8,0:0:0:0:
177,188,16688,5,10,0:0:0:0:
275,139,16938,5,10,0:0:0:0:
196,82,17188,5,10,0:0:0:0:
256,32,17354,5,12,0:0:0:0:
256,32,18354,1,4,0:3:0:0:
256,352,18688,5,12,0:3:0:0:
172,302,19354,5,4,0:3:0:0:
328,263,19688,1,4,0:3:0:0:
136,72,20021,6,0,P|124:88|122:117,3,32.99999899292,14|2|2|2,0:0|0:0|0:0|0:0,0:0:0:0:
41,119,20354,2,0,P|43:138|62:160,3,32.99999899292,2|2|6|2,0:0|0:0|0:3|0:0,0:0:0:0:
141,184,20688,6,0,P|167:188|189:192,1,32.99999899292,2|2,0:0|0:0,0:0:0:0:
183,184,20854,2,0,P|209:188|231:192,1,32.99999899292,10|2,0:0|0:0,0:0:0:0:
276,241,21021,6,0,P|302:237|324:233,1,32.99999899292,2|2,0:0|0:0,0:0:0:0:
318,241,21188,2,0,P|344:237|366:233,1,32.99999899292,6|2,0:3|0:0,0:0:0:0:
474,204,21354,6,0,P|473:164|411:140,1,98.9999969787599,10|0,0:0|0:0,0:0:0:0:
337,132,21688,1,4,0:3:0:0:
392,52,21854,1,8,0:0:0:0:
332,138,22021,2,0,P|282:130|194:120,1,131.99999597168,4|4,0:3|0:3,0:0:0:0:
88,100,22521,2,0,P|86:83|82:57,1,32.99999899292,2|2,0:0|0:0,0:0:0:0:
83,61,22688,5,12,0:3:0:0:
83,61,24021,1,2,0:0:0:0:
83,61,25354,1,2,0:0:0:0:
83,61,26688,1,2,0:0:0:0:
83,61,28021,6,0,P|112:87|216:69,1,131.99999597168,2|2,1:2|0:2,0:0:0:0:
254,24,28521,1,2,1:2:0:0:
192,158,28688,2,0,L|203:84,1,65.9999979858399,8|0,1:2|0:0,0:0:0:0:
345,16,29021,2,0,L|354:81,1,65.9999979858399,2|0,1:2|0:0,0:0:0:0:
426,220,29354,6,0,P|404:184|330:184,1,98.9999969787599,2|0,1:2|0:0,0:0:0:0:
332,184,29688,1,0,1:0:0:0:
277,258,29854,1,2,1:2:0:0:
310,114,30021,2,0,P|317:144|322:197,1,65.9999979858399,8|0,1:2|0:0,0:0:0:0:
179,288,30354,2,0,P|182:255|190:223,1,65.9999979858399,2|0,1:2|0:0,0:0:0:0:
413,88,30688,5,2,1:2:0:0:
458,96,30854,1,0,1:0:0:0:
473,139,31021,1,8,1:2:0:0:
422,204,31188,1,0,1:0:0:0:
470,350,31354,5,0,1:0:0:0:
456,305,31521,1,0,1:0:0:0:
410,295,31688,1,8,1:2:0:0:
339,343,31854,1,0,1:0:0:0:
231,360,32021,5,2,1:2:0:0:
209,350,32104,1,0,1:0:0:0:
185,346,32188,1,0,1:0:0:0:
107,278,32354,5,10,1:2:0:0:
85,288,32438,1,0,1:0:0:0:
61,292,32521,1,0,1:0:0:0:
197,178,32688,5,6,1:3:0:0:
196,191,32771,2,0,P|201:231|208:265,1,55,6|0,1:3|1:2,0:2:0:0:
100,357,32938,5,6,1:3:0:0:
99,344,33021,2,0,P|104:304|111:270,1,55,2|0,1:3|1:2,0:2:0:0:
283,95,33188,5,4,1:3:0:0:
283,95,33271,1,4,1:3:0:0:
283,95,33354,6,0,B|385:109|381:151|499:173,2,220,6|0|0,1:2|1:2|1:2,0:0:0:0:
87,29,34354,6,0,L|75:106,2,65.9999979858399,2|0|0,1:2|0:0|1:2,0:0:0:0:
169,72,34854,1,0,0:0:0:0:
15,231,35021,6,0,P|38:184|130:194,1,132,2|0,1:2|0:0,0:0:0:0:
206,165,35354,2,0,P|232:228|323:215,1,148.49999546814,2|0,1:2|0:0,0:0:0:0:
151,254,35688,6,0,P|156:196|169:72,1,165,2|0,1:2|0:0,0:0:0:0:
169,72,36021,6,0,P|194:48|249:60,1,65.9999979858399,2|0,1:2|0:0,0:0:0:0:
346,158,36354,2,0,P|415:143|403:35,1,165,10|0,1:2|0:0,0:0:0:0:
332,12,36688,6,0,P|338:49|341:92,1,65.9999979858399,0|0,1:2|0:0,0:0:0:0:
470,287,37021,2,0,P|401:288|214:320,1,220,10|0,1:2|1:2,0:0:0:0:
178,249,37521,1,0,0:0:0:0:
345,376,37688,6,0,P|380:344|357:283,1,110,10|0,1:2|0:0,0:0:0:0:
110,165,38021,2,0,P|78:193|99:248,1,88,2|0,1:2|0:0,0:0:0:0:
178,249,38354,1,8,1:2:0:0:
178,249,38521,1,0,1:2:0:0:
478,23,38688,5,6,1:2:0:0:
416,82,38854,2,0,P|354:71|278:62,2,110,8|2|10,0:0|1:2|0:0,0:0:0:0:
218,27,39354,1,2,1:2:0:0:
304,162,39521,1,8,0:0:0:0:
205,28,39688,2,0,P|195:65|192:99,1,55,2|0,1:2|0:0,0:0:0:0:
149,170,39854,1,0,1:0:0:0:
126,194,39938,1,0,1:0:0:0:
93,193,40021,1,0,1:0:0:0:
358,332,40188,5,10,0:0:0:0:
435,291,40354,2,0,P|437:256|373:214,1,110,2|8,1:2|0:0,0:0:0:0:
249,238,40688,2,0,P|214:261|217:319,1,88,2|8,1:2|0:0,0:0:0:0:
358,332,41021,5,0,1:0:0:0:
355,310,41104,1,0,1:0:0:0:
352,287,41188,1,0,1:0:0:0:
350,265,41271,1,0,1:0:0:0:
347,240,41354,6,0,P|352:202|356:177,3,44,10|0|0|0,1:2|1:0|1:0|1:0,0:0:0:0:
410,94,41688,2,0,P|413:116|416:138,1,44,2|0,1:2|1:0,0:0:0:0:
253,280,41854,2,0,P|248:242|244:217,1,44,10|0,1:2|1:0,0:0:0:0:
285,133,42021,2,0,P|282:110|279:95,6,22,2|0|0|0|0|0|0,1:2|1:0|1:0|1:0|1:0|1:0|1:0,0:0:0:0:
481,118,42354,6,0,P|445:108|393:100,1,65.9999979858399,10|0,1:2|1:0,1:0:0:0:
163,186,42521,2,0,P|127:176|75:168,1,65.9999979858399,10|0,1:2|1:0,1:0:0:0:
37,119,42688,1,0,1:0:0:0:
263,40,43021,6,8,P|268:65|269:86,4,32.99999899292,8|8|8|8|8,0:0|0:0|0:0|0:0|1:2,0:0:0:0:
285,15,43354,6,2,P|278:63|271:121,1,88,2|0,0:0|0:0,0:1:0:0:
163,186,43521,6,0,P|161:164|158:142,1,44,10|0,1:2|0:0,0:0:0:0:
156,190,43604,2,0,P|154:168|151:146,1,44,10|0,0:0|0:0,0:0:0:0:
144,150,43688,6,0,P|230:134|290:204,1,176,10|8,1:2|1:2,0:0:0:0:
444,357,44021,5,14,1:2:0:0:
452,352,44354,5,2,1:2:0:0:
436,310,44438,1,0,1:0:0:0:
395,294,44521,1,0,1:0:0:0:
354,311,44604,1,0,1:0:0:0:
341,353,44688,5,4,1:3:0:0:
362,314,44771,1,0,1:0:0:0:
347,272,44854,1,0,1:0:0:0:
307,252,44938,1,0,1:0:0:0:
267,262,45021,5,8,0:0:0:0:
267,262,45104,2,0,P|221:264|189:222,1,65.9999979858399,8|0,0:0|0:0,0:0:0:0:
35,107,45271,5,8,0:0:0:0:
35,107,45354,2,0,L|56:257,1,131.99999597168,2|0,1:2|0:0,0:0:0:0:
117,116,45604,2,0,L|131:221,1,88,0|0,1:2|0:0,0:0:0:0:
200,135,45854,2,0,L|208:196,1,32.99999899292,0|0,1:2|0:0,0:0:0:0:
208,180,46021,1,4,1:3:0:0:
473,344,46188,6,0,P|447:246|256:253,1,264,14|0,1:2|0:0,0:0:0:0:
200,353,46521,5,14,1:2:0:0:
473,67,46854,6,0,P|453:92|423:100,1,44,8|0,0:0|0:0,0:0:0:0:
375,142,47021,1,4,0:3:0:0:
411,173,47104,6,0,P|386:154|356:146,1,44,8|0,0:0|0:0,0:0:0:0:
266,91,47271,1,0,0:3:0:0:
354,64,47354,6,0,P|319:74|242:86,1,88,8|0,0:0|0:0,0:0:0:0:
221,155,47604,2,0,P|186:145|109:133,1,88,8|0,0:0|0:0,0:0:0:0:
86,75,47854,5,0,1:0:0:0:
25,129,48021,1,2,1:2:0:0:
452,166,48271,6,2,B|400:125|364:181|362:187|318:230|253:166,1,176,6|0,1:3|0:0,0:1:0:0:
226,139,48521,1,0,1:0:0:0:
442,270,48688,6,2,B|385:276|336:216|384:169|384:157|364:68|260:93,1,264,6|0,1:3|0:0,0:1:0:0:
144,172,49021,2,0,B|146:228|135:273|135:273|170:238|248:219,1,197.99999395752,6|0,1:3|1:0,0:0:0:0:
226,139,49354,5,14,1:2:0:0:
230,132,49688,6,0,P|226:94|224:75,1,55,2|0,1:2|1:2,0:0:0:0:
213,69,49854,2,0,P|209:31|207:12,1,55,2|0,1:2|1:2,0:0:0:0:
351,56,50021,6,0,P|329:85|295:90,1,65.9999979858399,2|0,1:2|1:2,0:0:0:0:
78,34,50188,2,0,P|114:38|135:65,1,65.9999979858399,2|0,1:2|1:2,0:0:0:0:
188,214,50354,5,10,0:0:0:0:
193,218,50438,2,0,P|200:264|203:302,1,65.9999979858399,8|0,0:0|0:0,0:0:0:0:
210,293,50563,6,8,P|233:300|254:305,2,32.99999899292
120,365,50688,6,0,B|149:310|88:268|73:328|1:245|53:198,1,197.99999395752,6|0,1:2|0:0,0:0:0:0:
58,136,50938,6,0,B|86:131|116:103|116:103|102:139|106:173,1,131.99999597168,6|0,1:3|0:0,0:0:0:0:
210,293,51188,6,0,B|230:295|251:315|251:315|240:290|244:266,1,88,6|0,1:3|0:0,0:0:0:0:
41,305,51354,6,0,P|105:279|145:271,1,88,6|0,1:3|0:0,0:0:0:0:
467,243,51521,6,0,P|377:216|181:184,1,264,14|0,1:2|0:0,0:0:0:0:
58,52,51854,5,14,1:2:0:0:
58,52,52188,6,0,P|66:79|69:104,1,44,8|0,0:0|0:0,0:0:0:0:
133,153,52354,1,0,1:2:0:0:
160,115,52438,6,0,P|134:132|128:157,1,44,8|0,0:0|0:0,3:0:0:0:
59,233,52604,1,0,0:0:0:0:
8,172,52688,6,0,P|35:176|65:229,1,88,8|0,0:0|1:0,0:0:0:0:
117,292,52938,1,8,0:0:0:0:
117,292,53021,2,0,P|156:306|189:276,1,88,0|0,1:0|1:0,0:0:0:0:
232,213,53271,1,0,1:0:0:0:
232,213,53354,6,0,P|267:217|309:226,2,65.9999979858399,4|0|0,1:3|1:0|1:0,0:0:0:0:
371,171,53604,2,0,P|403:174|436:180,2,65.9999979858399,4|0|0,1:3|1:0|1:0,0:0:0:0:
218,104,53854,2,0,P|183:108|141:117,2,65.9999979858399,4|0|0,1:3|1:0|1:0,0:0:0:0:
77,63,54104,2,0,P|42:67|0:76,2,65.9999979858399,4|0|0,1:3|1:0|1:0,0:0:0:0:
160,15,54354,1,0,1:0:0:0:
183,328,54521,5,0,1:2:0:0:
205,352,54604,1,0,1:2:0:0:
238,349,54688,6,0,P|273:320|491:246,1,264,14|0,1:2|0:0,0:0:0:0:
467,347,55021,5,6,1:3:0:0:
425,359,55104,1,0,1:0:0:0:
392,328,55188,1,0,1:0:0:0:
391,284,55271,1,0,1:0:0:0:
428,261,55354,5,6,1:3:0:0:
395,291,55438,1,0,1:0:0:0:
352,282,55521,1,0,1:0:0:0:
326,246,55604,1,0,1:0:0:0:
339,203,55688,5,8,0:0:0:0:
339,203,55771,2,0,P|356:170|331:126,1,65.9999979858399,8|0,0:0|0:0,0:0:0:0:
166,39,55938,5,8,0:0:0:0:
166,39,56021,2,0,P|255:61|336:68,1,153.999995300293,6|2,1:3|0:0,0:0:0:0:
345,62,56271,1,2,0:2:0:0:
375,57,56354,5,6,1:3:0:0:
225,161,56521,1,2,0:0:0:0:
491,12,56688,6,0,P|481:48|476:81,1,55,6|0,1:3|0:0,0:0:0:0:
391,205,56854,1,2,0:0:0:0:
391,205,56938,1,2,0:0:0:0:
391,205,57021,2,0,P|401:241|406:274,1,55,6|0,1:3|0:0,0:0:0:0:
468,318,57188,1,2,0:2:0:0:
468,318,57521,6,0,P|458:343|400:355,1,88,8|0,0:0|0:0,0:0:0:0:
341,306,57771,2,0,P|331:281|273:269,1,88,8|0,0:0|0:3,0:0:0:0:
193,228,58021,6,0,P|200:272|206:317,1,88,8|0,1:2|0:0,0:0:0:0:
113,220,58271,2,0,P|120:264|126:309,1,88,8|0,0:0|0:0,0:0:0:0:
84,369,58521,5,8,0:0:0:0:
19,298,58688,1,0,1:0:0:0:
236,88,58854,6,2,P|286:105|287:168,1,88,0|0,0:0|0:0,0:1:0:0:
313,298,59021,2,2,B|295:231|394:243|378:125,1,176,0|0,1:0|0:0,0:1:0:0:
456,50,59271,5,0,0:0:0:0:
456,50,59354,2,2,P|408:143|284:134,1,230.99999295044,4|0,1:3|0:0,0:1:0:0:
175,221,59688,2,2,P|165:151|131:19,1,197.99999395752,0|0,1:0|0:0,0:1:0:0:
236,88,60021,5,14,1:2:0:0:
236,88,60354,5,0,1:0:0:0:
206,115,60438,1,0,1:0:0:0:
168,127,60521,1,0,1:0:0:0:
128,127,60604,1,0,1:0:0:0:
133,134,60771,5,0,1:0:0:0:
98,115,60854,1,0,1:0:0:0:
58,110,60938,1,0,1:0:0:0:
23,118,61021,5,8,0:0:0:0:
23,118,61104,2,0,L|19:196,1,65.9999979858399,8|0,0:0|0:0,0:0:0:0:
127,333,61271,2,8,L|130:369,1,32.99999899292
110,319,61354,6,0,B|169:302|136:277|203:264,1,98.9999969787599,6|0,1:3|0:3,0:0:0:0:
25,236,61854,6,0,P|57:239|93:246,1,65.9999979858399,4|0,1:3|0:0,0:0:0:0:
270,351,62021,6,0,P|304:311|265:232,1,131.99999597168,6|0,1:3|0:0,1:0:0:0:
164,79,62271,2,0,P|130:119|169:198,1,131.99999597168,6|0,1:3|0:0,1:0:0:0:
383,229,62521,5,14,0:0:0:0:
477,197,62688,1,4,0:3:0:0:
477,197,62854,6,0,P|458:169|432:166,1,44,8|0,0:0|0:0,0:0:0:0:
368,114,63021,1,0,1:2:0:0:
465,80,63104,6,0,P|404:98|377:104,1,88,8|0,0:0|0:0,0:0:0:0:
304,177,63354,6,0,P|282:170|246:166,1,44,0|0,1:0|0:0,0:0:0:0:
206,68,63521,2,0,P|185:74|163:78,1,44,0|0,1:0|0:0,0:0:0:0:
127,158,63688,2,0,P|105:151|69:147,1,44,0|0,1:0|0:0,0:0:0:0:
7,87,63854,2,0,P|28:83|49:76,1,44,2|0,1:2|1:0,0:0:0:0:
304,177,64021,6,0,P|317:208|308:237,1,55,2|0,1:2|1:0,0:0:0:0:
375,269,64188,2,0,P|354:295|325:302,1,55,2|0,1:2|1:0,0:0:0:0:
188,36,64354,6,0,P|220:39|242:63,1,65.9999979858399,2|0,1:2|1:0,0:0:0:0:
127,158,64521,2,0,P|146:131|177:124,1,65.9999979858399,2|0,1:2|1:0,0:0:0:0:
51,353,64688,6,0,P|35:317|47:278,1,76.9999976501466,2|0,1:2|1:0,0:0:0:0:
216,350,64854,2,0,P|177:346|150:317,1,76.9999976501466,2|0,1:2|1:0,0:0:0:0:
54,102,65021,5,8,0:0:0:0:
26,22,65188,1,8,0:0:0:0:
26,22,65271,1,8,0:0:0:0:
26,22,65354,6,0,P|72:64|132:44,1,110,6|0,1:2|0:0,0:0:0:0:
220,19,65604,2,0,P|214:81|206:158,1,110,2|0,0:0|0:0,0:0:0:0:
209,128,65854,1,2,0:0:0:0:
105,318,66021,6,0,P|129:281|196:289,1,110,2|0,1:2|0:0,0:0:0:0:
267,340,66271,2,0,P|319:346|352:305,1,110,2|0,0:0|0:0,0:0:0:0:
193,292,66521,6,0,P|200:214|210:118,1,165,2|0,0:0|0:0,0:0:0:0:
143,48,66854,1,2,0:0:0:0:
288,165,67021,5,10,1:2:0:0:
340,94,67188,1,2,0:0:0:0:
279,30,67354,2,0,B|238:34|263:50|197:57,1,55,2|0,1:2|0:0,3:0:0:0:
102,127,67521,1,2,0:0:0:0:
69,122,67604,1,2,0:0:0:0:
49,94,67688,1,10,1:2:0:0:
390,14,67854,5,2,0:0:0:0:
436,19,67938,1,2,0:0:0:0:
464,57,68021,6,0,P|456:128|440:290,1,220,2|8,1:2|1:2,0:0:0:0:
301,311,68521,2,0,P|302:261|366:241,1,110,2|0,0:0|1:2,0:0:0:0:
392,357,68854,1,2,0:0:0:0:
392,357,69021,1,10,1:2:0:0:
358,241,69188,6,0,P|279:240|243:102,1,220,2|2,0:0|0:0,0:0:0:0:
312,71,69688,1,8,1:2:0:0:
454,48,69854,2,0,P|439:129|363:154,1,165,2|0,0:0|0:0,0:0:0:0:
237,130,70188,5,2,0:0:0:0:
194,140,70271,1,2,0:0:0:0:
164,107,70354,1,10,1:2:0:0:
163,62,70438,1,2,0:0:0:0:
132,30,70521,1,2,1:2:0:0:
88,30,70604,1,2,1:2:0:0:
54,58,70688,6,0,P|39:152|32:195,1,110,6|0,1:2|0:0,0:0:0:0:
101,248,70938,2,0,P|143:240|161:160,1,110,2|0,0:0|0:0,0:0:0:0:
170,184,71188,1,2,0:0:0:0:
286,75,71354,6,0,P|325:65|370:129,1,110,2|0,1:2|0:0,0:0:0:0:
449,152,71604,2,0,P|458:190|394:235,1,110,2|0,0:0|0:0,0:0:0:0:
334,200,71854,2,0,L|128:179,1,165,2|0,0:0|0:0,0:0:0:0:
91,141,72188,1,2,0:0:0:0:
58,146,72271,1,2,0:0:0:0:
25,151,72354,1,10,1:2:0:0:
222,289,72521,1,2,0:0:0:0:
29,348,72688,6,0,P|37:281|42:234,1,110,2|0,1:2|0:0,0:0:0:0:
139,354,72938,1,2,0:0:0:0:
139,354,73021,2,0,P|132:310|128:266,1,55,8|0,1:2|0:3,0:3:0:0:
166,118,73188,5,2,1:2:0:0:
169,74,73271,1,2,1:2:0:0:
174,30,73354,5,2,1:2:0:0:
253,165,73521,1,0,1:2:0:0:
75,75,73688,5,8,1:2:0:0:
271,11,73854,1,2,1:2:0:0:
286,15,73938,1,0,1:2:0:0:
302,19,74021,1,0,1:2:0:0:
387,45,74188,1,2,1:2:0:0:
343,260,74354,5,10,1:2:0:0:
428,234,74521,1,2,1:2:0:0:
444,230,74604,1,0,1:2:0:0:
459,226,74688,1,0,1:2:0:0:
205,217,74854,6,0,P|200:254|193:289,1,65.9999979858399,10|0,0:0|0:0,0:0:0:0:
246,348,75021,1,0,1:0:0:0:
343,260,75188,6,0,P|348:223|355:188,1,65.9999979858399,10|0,0:0|0:0,0:0:0:0:
302,129,75354,1,2,1:2:0:0:
263,135,75438,1,2,0:3:0:0:
229,114,75521,1,10,0:2:0:0:
219,75,75604,1,2,0:3:0:0:
238,40,75688,2,0,L|335:27,1,65.9999979858399,10|0,1:2|0:0,0:0:0:0:
437,141,75854,2,0,L|476:149,2,32.99999899292,0|0|0,1:2|1:2|1:2,1:2:0:0:
430,132,76021,6,0,P|361:147|345:263,1,197.99999395752,6|0,1:2|0:0,0:0:0:0:
421,336,76354,5,8,1:2:0:0:
460,337,76438,1,0,3:0:0:0:
488,309,76521,1,0,3:0:0:0:
489,269,76604,1,0,3:0:0:0:
459,242,76688,6,0,P|427:247|385:252,1,55,2|0,1:2|0:0,0:0:0:0:
292,336,76854,2,0,P|260:330|218:326,1,55,2|0,0:0|0:0,0:0:0:0:
408,341,77021,6,2,P|403:260|282:234,1,197.99999395752,10|0,1:2|0:0,1:2:0:0:
212,280,77354,6,0,P|216:321|297:339,1,132,2|0,1:2|0:0,0:0:0:0:
308,229,77688,5,8,1:2:0:0:
304,202,77771,1,0,3:0:0:0:
301,175,77854,1,0,3:0:0:0:
297,148,77938,1,0,3:0:0:0:
294,121,78021,6,0,P|297:93|302:66,1,55,2|0,1:2|0:0,0:0:0:0:
190,184,78188,1,2,0:0:0:0:
190,184,78271,1,2,0:0:0:0:
190,184,78354,2,0,P|186:156|181:129,1,55,10|0,1:2|0:0,0:0:0:0:
385,26,78521,5,2,0:0:0:0:
428,27,78604,1,2,0:0:0:0:
455,61,78688,6,0,P|453:103|441:184,1,110,2|2,1:2|1:2,0:0:0:0:
437,197,78938,1,2,0:0:0:0:
431,223,79021,1,10,1:2:0:0:
472,311,79188,5,2,1:2:0:0:
466,344,79271,1,2,1:2:0:0:
432,344,79354,1,2,1:2:0:0:
215,271,79521,5,2,0:0:0:0:
223,228,79604,1,2,0:0:0:0:
267,228,79688,1,8,1:2:0:0:
341,362,79854,5,2,0:0:0:0:
342,345,79938,1,2,0:0:0:0:
343,328,80021,6,0,P|339:286|334:245,1,65.9999979858399,6|0,1:2|0:0,0:0:0:0:
266,125,80188,2,0,P|262:83|257:42,1,65.9999979858399,2|0,1:2|0:0,0:0:0:0:
373,148,80354,5,4,3:0:0:0:
368,198,80438,1,0,3:0:0:0:
321,217,80521,1,0,3:0:0:0:
277,202,80604,1,4,3:0:0:0:
245,169,80688,1,0,3:0:0:0:
193,162,80771,1,0,3:0:0:0:
161,180,80854,1,4,3:0:0:0:
161,205,80938,1,4,3:0:0:0:
175,218,81021,6,0,P|215:208|244:205,1,65.9999979858399,6|0,1:3|0:0,0:0:0:0:
437,135,81188,2,0,P|397:145|368:148,1,65.9999979858399,2|0,1:2|1:2,0:2:0:0:
26,49,81354,6,0,P|78:53|102:137,1,131.99999597168,6|0,1:2|0:0,0:0:0:0:
3,168,81604,2,0,P|14:218|92:227,1,131.99999597168,2|0,0:0|0:0,0:0:0:0:
156,85,81854,2,0,P|128:95|115:141,1,65.9999979858399,2|0,0:0|0:0,0:0:0:0:
36,382,82021,6,0,B|110:367|67:326|146:311,1,131.99999597168,6|0,1:2|0:0,0:0:0:0:
179,236,82271,2,0,B|253:250|210:291|289:306,1,131.99999597168,2|0,0:0|0:0,0:0:0:0:
379,359,82521,2,0,P|370:319|366:280,1,65.9999979858399,2|0,0:0|0:0,0:0:0:0:
400,47,82688,6,0,P|377:97|296:111,1,131.99999597168,6|0,1:2|0:0,0:0:0:0:
254,42,82938,1,0,0:0:0:0:
254,42,83021,2,0,P|200:30|163:24,1,65.9999979858399,2|0,1:3|0:0,0:0:0:0:
361,196,83188,2,0,P|415:208|452:214,1,65.9999979858399,2|0,0:3|0:0,0:0:0:0:
495,82,83354,6,0,P|409:93|279:113,1,197.99999395752,2|0,1:3|1:2,0:0:0:0:
254,42,83688,1,4,1:3:0:0:
256,352,83854,5,4,0:3:0:0:
256,352,83938,1,4,0:3:0:0:
256,352,84021,2,0,P|249:318|242:285,1,55,6|0,1:3|0:3,0:3:0:0:
394,112,84188,2,0,P|368:135|343:157,1,55,4|0,0:3|0:3,0:3:0:0:
117,111,84354,2,0,P|150:122|182:133,1,55,4|0,1:3|0:3,0:3:0:0:
394,272,84521,5,6,0:3:0:0:
394,272,84604,1,4,0:3:0:0:
394,272,84688,2,0,P|368:263|342:254,1,55,4|0,1:3|0:3,0:3:0:0:
117,272,84854,2,0,P|138:253|158:235,1,55,6|0,0:3|0:3,0:3:0:0:
256,31,85021,2,0,P|263:66|270:99,1,55,6|0,1:3|0:3,0:3:0:0:
433,359,85188,5,6,0:3:0:0:
393,363,85271,1,4,0:3:0:0:
353,368,85354,1,4,1:3:0:0:
313,373,85438,1,4,0:3:0:0:
272,377,85521,6,0,P|260:321|249:267,1,65.9999979858399,8|0,0:0|1:2,0:3:0:0:
408,84,85688,2,0,P|365:122|324:160,1,65.9999979858399,4|0,1:3|1:2,0:3:0:0:
86,113,85854,2,0,P|141:131|194:148,1,65.9999979858399,8|0,0:0|1:2,0:3:0:0:
308,192,86021,5,2,1:2:0:0:
229,237,86132,5,0,1:2:0:0:
229,146,86243,5,0,1:2:0:0:
274,223,86354,5,0,1:2:0:0:
219,192,86466,5,0,1:2:0:0:
274,160,86577,5,0,1:2:0:0:
256,192,86688,6,8,L|247:121,2,58.6666666666667
367,62,87354,6,0,L|357:123,1,36.6666666666667,8|0,0:0|0:0,0:0:0:0:
158,168,87577,6,0,L|148:229,1,36.6666666666667,8|0,0:0|0:0,0:0:0:0:
337,255,87799,6,0,L|327:316,1,36.6666666666667,8|0,0:0|0:0,0:0:0:0:
255,351,88021,6,0,P|241:306|44:279,1,263.99999194336,14|8,0:2|0:0,0:0:0:0:
55,269,89354,1,0,1:2:0:0:
446,148,90039,6,0,B|378:160|405:209|336:221,1,131.99999597168,10|0,0:2|1:2,0:0:0:0:
482,364,90725,6,0,B|405:337|405:337|387:264|387:264|268:225,1,263.99999194336,14|8,0:2|0:2,0:0:0:0:
111,180,91960,5,0,1:2:0:0:
111,180,92136,2,0,B|75:123|75:123|130:64,1,131.99999597168,2|8,1:2|1:2,0:0:0:0:
250,37,92681,1,0,1:3:0:0:
250,37,92772,1,0,1:3:0:0:
250,37,92863,5,10,1:2:0:0:
329,90,93045,1,8,0:0:0:0:
214,191,93226,1,8,0:0:0:0:
347,279,93408,6,0,L|334:333,1,32.99999899292,8|0,0:0|0:0,0:0:0:0:
256,352,93590,6,0,L|51:313,1,197.99999395752,12|0,0:2|1:0,0:0:0:0:
189,251,94340,2,0,L|270:240,2,65.9999979858399,10|0|2,0:2|0:0|1:2,0:0:0:0:
50,140,95090,6,0,P|48:108|44:86,1,43.9999986572266,2|0,1:2|0:0,0:0:0:0:
134,125,95340,2,0,P|132:93|128:71,1,43.9999986572266,2|0,1:2|0:0,0:0:0:0:
218,110,95590,2,4,P|216:78|212:56,1,43.9999986572266,2|0,1:2|0:0,0:3:0:0:
300,23,95840,6,0,P|328:50|424:52,1,131.99999597168,10|0,0:2|0:0,0:0:0:0:
498,31,96340,2,0,P|493:51|490:86,1,43.9999986572266,2|0,1:2|1:0,0:0:0:0:
320,208,96590,6,0,P|422:216|447:304,1,197.99999395752,14|0,0:2|1:0,0:0:0:0:
374,352,97340,2,0,L|362:274,1,65.9999979858399,10|0,0:2|0:0,0:0:0:0:
288,356,97715,2,0,L|276:278,1,65.9999979858399,2|0,1:2|0:0,0:0:0:0:
333,59,98090,6,0,P|307:56|276:50,1,43.9999986572266,2|0,1:2|0:0,0:0:0:0:
244,124,98340,2,0,P|218:121|187:115,1,43.9999986572266,2|0,1:2|0:0,0:0:0:0:
160,39,98590,2,0,P|134:36|103:30,1,43.9999986572266,2|0,1:2|0:0,0:0:0:0:
345,42,98840,6,0,P|316:39|287:34,1,58.6666666666667,10|0,1:2|0:0,0:0:0:0:
255,150,99090,2,0,P|226:146|197:141,1,58.6666666666667,6|0,1:3|0:0,0:0:0:0:
175,21,99340,2,0,P|146:17|117:12,1,58.6666666666667,6|0,1:3|1:0,0:0:0:0:
32,192,99590,6,0,P|49:254|155:248,1,165,14|0,0:0|0:0,0:0:0:0:
209,221,99965,1,10,0:0:0:0:
278,334,100152,2,0,P|284:279|292:236,1,88,0|2,1:0|1:2,0:0:0:0:
132,100,100527,1,2,1:2:0:0:
132,100,100715,2,0,P|125:154|121:182,1,58.6666666666667,10|0,0:0|0:0,0:0:0:0:
130,211,100965,1,0,1:0:0:0:
138,263,101090,1,2,1:2:0:0:
335,116,101340,5,0,1:0:0:0:
357,94,101465,2,0,B|414:105|383:128|459:137,1,88,10|0,0:2|0:0,0:0:0:0:
441,128,101715,2,0,L|454:80,1,29.3333333333333,2|0,1:2|1:0,0:0:0:0:
250,115,101840,6,0,P|253:183|343:196,1,146.666666666667,6|2,1:3|1:2,0:0:0:0:
396,263,102215,1,10,1:2:0:0:
446,252,102340,1,2,1:2:0:0:
484,285,102465,1,2,1:2:0:0:
297,360,102590,6,0,P|291:319|284:280,1,73.3333333333333,6|0,1:2|0:0,0:0:0:0:
319,207,102840,1,2,1:2:0:0:
193,330,102965,6,0,P|200:285|208:196,1,110,6|2,1:3|1:2,0:0:0:0:
387,156,103340,6,0,P|381:115|374:76,1,55,6|0,1:3|0:0,0:0:0:0:
290,28,103527,2,0,P|294:55|297:82,1,55,2|0,1:2|0:0,0:0:0:0:
324,215,103715,5,6,1:3:0:0:
371,234,103840,1,0,1:0:0:0:
371,285,103965,1,0,1:0:0:0:
290,364,104090,6,0,P|251:357|207:350,1,73.3333333333333,2|0,1:2|1:0,0:0:0:0:
63,260,104340,2,0,P|99:254|135:247,1,73.3333333333333,6|0,0:3|0:0,0:0:0:0:
142,249,104527,1,0,1:0:0:0:
149,251,104590,1,6,1:3:0:0:
104,336,104715,1,6,1:3:0:0:
42,153,104840,5,6,1:3:0:0:
106,109,104965,1,2,1:2:0:0:
163,165,105090,1,6,1:3:0:0:
231,125,105215,1,2,1:2:0:0:
278,191,105340,1,6,1:3:0:0:
354,173,105465,1,6,1:3:0:0:
413,229,105590,5,4,1:3:0:0:
229,303,105777,5,2,0:0:0:0:
225,328,106152,1,2,0:0:0:0:
295,370,106527,5,2,0:0:0:0:
295,370,106621,1,2,0:0:0:0:
157,248,106808,5,2,0:0:0:0:
157,248,106902,1,2,0:0:0:0:
86,304,107090,1,2,1:2:0:0:
346,204,107277,5,2,0:0:0:0:
367,209,107652,1,2,0:0:0:0:
388,213,108027,5,10,0:0:0:0:
206,128,108215,5,10,1:2:0:0:
224,327,108402,5,10,0:0:0:0:
431,33,108590,5,2,1:2:0:0:
425,76,108683,1,2,0:2:0:0:
392,104,108777,1,10,0:2:0:0:
347,103,108871,1,2,0:2:0:0:
318,69,108965,2,0,P|323:32|330:6,1,55,2|2,1:2|0:2,0:2:0:0:
241,59,109152,2,0,P|246:22|253:-4,1,55,10|2,0:2|0:2,0:2:0:0:
411,210,109340,5,2,1:2:0:0:
368,200,109433,1,2,0:2:0:0:
324,193,109527,2,0,L|225:206,1,55,10|10,0:2|0:2,0:2:0:0:
147,242,109715,1,2,1:2:0:0:
104,232,109808,1,10,0:2:0:0:
60,224,109902,2,2,L|16:215,2,36.6666666666667,10|2|2,0:2|0:2|0:2,0:2:0:0:
154,359,110090,6,2,L|209:350,2,51.3333317667644,2|2|2,1:2|0:2|0:2,0:2:0:0:
260,269,110277,2,2,L|307:276,2,47.6666644846599,10|2|2,0:2|0:2|0:2,0:2:0:0:
343,358,110465,2,2,L|398:349,2,43.9999986572266,2|2|2,1:2|0:2|0:2,0:2:0:0:
441,290,110652,2,2,L|480:296,2,40.333334564209,10|2|2,0:2|0:2|0:2,0:2:0:0:
336,346,110840,5,2,1:2:0:0:
298,322,110933,1,2,0:2:0:0:
294,278,111027,1,10,0:2:0:0:
323,244,111121,1,10,0:2:0:0:
364,228,111215,1,10,1:2:0:0:
399,202,111308,1,2,0:2:0:0:
410,159,111402,1,10,0:2:0:0:
394,117,111496,1,2,0:2:0:0:
353,99,111590,6,0,P|326:100|294:106,1,55,2|0,1:2|1:0,0:0:0:0:
169,36,111777,5,8,1:2:0:0:
153,77,111871,1,0,1:0:0:0:
112,94,111965,2,0,P|89:91|65:70,1,55,6|0,1:3|1:0,0:0:0:0:
217,142,112152,5,8,1:2:0:0:
216,176,112246,1,0,1:0:0:0:
213,209,112340,2,0,P|208:247|198:278,1,55,2|0,1:2|1:0,0:0:0:0:
271,358,112527,1,10,1:2:0:0:
271,358,112621,2,0,P|276:320|286:289,1,55,2|4,1:2|1:3,0:0:0:0:
339,141,112808,5,2,1:2:0:0:
366,182,112902,1,2,1:2:0:0:
415,188,112996,1,2,1:2:0:0:
457,162,113090,1,2,1:2:0:0:
170,306,113277,5,2,1:2:0:0:
162,297,113340,5,0,1:0:0:0:
151,292,113402,5,0,1:0:0:0:
139,291,113465,5,2,1:2:0:0:
330,203,113652,6,0,P|335:155|347:96,1,55,6|0,1:3|0:0,0:0:0:0:
216,27,113840,2,0,P|225:81|230:135,1,110,2|2,1:2|1:2,0:0:0:0:
230,135,114121,5,2,1:3:0:0:
300,70,114215,1,4,1:3:0:0:
130,163,114402,1,4,1:3:0:0:
345,347,114590,5,2,1:2:0:0:
382,338,114683,1,0,1:0:0:0:
401,304,114777,2,0,P|402:279|376:245,1,55,8|0,1:2|1:0,0:0:0:0:
197,222,114965,5,6,1:3:0:0:
183,257,115058,1,0,1:0:0:0:
200,292,115152,2,0,P|219:307|262:305,1,55,8|0,1:2|1:0,0:0:0:0:
311,202,115340,6,0,P|315:168|325:127,1,55,2|0,1:2|1:0,0:0:0:0:
252,83,115527,1,10,1:2:0:0:
252,83,115621,2,0,P|249:55|243:28,1,55,2|4,1:2|1:3,0:0:0:0:
371,82,115808,5,2,1:2:0:0:
408,92,115902,1,2,1:2:0:0:
445,99,115996,2,0,L|478:94,1,27.5,0|0,1:0|1:0,0:0:0:0:
479,101,116090,6,0,P|483:66|486:52,1,44,4|0,0:3|0:3,0:3:0:0:
376,209,116277,2,0,P|372:174|369:160,1,44,0|0,3:0|0:0,0:0:0:0:
481,283,116465,2,0,P|485:248|488:234,1,44,0|0,3:0|0:0,0:0:0:0:
392,358,116652,2,0,P|388:323|385:309,1,44,4|0,0:3|0:0,0:0:0:0:
286,123,116840,6,0,B|202:139|241:202|154:208,1,153.999995300293,6|2,1:3|1:2,0:0:0:0:
138,190,117121,1,2,1:2:0:0:
112,173,117215,1,2,1:2:0:0:
296,204,117402,1,2,1:2:0:0:
29,374,117590,6,0,P|39:311|158:308,1,197.99999395752,14|0,0:0|0:0,0:0:0:0:
161,311,117965,6,0,P|220:315|279:326,1,110,2|0,1:2|1:0,0:0:0:0:
437,250,118340,6,0,P|398:256|359:258,1,55,6|0,1:3|0:0,0:0:0:0:
363,243,118527,1,2,1:2:0:0:
363,243,118621,1,2,0:0:0:0:
461,333,118808,1,2,0:0:0:0:
461,333,118902,1,2,1:2:0:0:
459,147,119090,6,0,P|465:110|468:86,2,55,0|0|2,1:0|1:0|1:2,0:0:0:0:
484,22,119465,6,0,P|429:83|377:61,1,131.99999597168,0|2,1:0|1:2,0:0:0:0:
308,43,119746,1,0,1:0:0:0:
308,43,119840,2,0,P|301:89|295:136,1,65.9999979858399,4|0,1:3|0:0,0:0:0:0:
169,203,120027,1,10,1:2:0:0:
169,203,120121,2,0,P|199:191|230:178,1,65.9999979858399,0|0,1:0|0:0,0:0:0:0:
372,240,120308,1,10,1:2:0:0:
372,240,120402,2,0,P|346:219|320:199,1,65.9999979858399,0|0,1:0|0:0,0:0:0:0:
126,37,120590,5,2,1:2:0:0:
84,24,120683,1,2,0:2:0:0:
41,37,120777,1,10,1:2:0:0:
24,77,120871,1,2,0:2:0:0:
36,119,120965,2,0,P|78:123|107:129,1,55,2|2,1:2|0:2,0:2:0:0:
32,196,121152,2,0,P|74:200|103:206,1,55,10|2,1:2|0:2,0:2:0:0:
219,131,121340,5,6,1:3:0:0:
249,100,121433,1,2,0:2:0:0:
293,97,121527,2,0,P|333:104|349:124,1,55,10|10,1:2|0:2,0:2:0:0:
407,170,121715,1,2,1:2:0:0:
444,193,121808,1,10,0:2:0:0:
486,182,121902,2,2,P|490:157|497:135,2,36.6666666666667,10|2|2,1:2|0:2|0:2,0:2:0:0:
401,275,122090,6,2,P|378:278|350:283,2,51.3333317667644,2|2|2,1:2|0:2|0:2,0:2:0:0:
296,354,122277,2,2,P|270:349|245:346,2,47.6666644846599,10|2|2,1:2|0:2|0:2,0:2:0:0:
221,268,122465,2,2,P|195:272|170:275,2,43.9999986572266,6|2|2,1:3|0:2|0:2,0:2:0:0:
137,343,122652,2,2,P|111:338|86:335,2,40.333334564209,10|2|2,1:2|0:2|0:2,0:2:0:0:
78,240,122840,6,0,P|157:254|236:264,1,153.999995300293,6|0,1:3|1:2,0:0:0:0:
304,220,123121,1,2,1:2:0:0:
304,220,123215,2,0,P|321:175|288:128,1,76.9999976501466,6|0,1:3|1:2,0:0:0:0:
185,83,123402,2,0,P|168:128|201:175,1,76.9999976501466,6|0,1:3|1:2,0:0:0:0:
248,346,123590,6,0,P|291:336|324:332,1,65.9999979858399,2|0,1:2|1:0,0:0:0:0:
439,319,123777,5,8,1:2:0:0:
474,302,123871,1,0,1:0:0:0:
481,263,123965,2,0,P|475:235|441:214,1,65.9999979858399,6|0,1:3|1:0,0:0:0:0:
314,77,124152,5,8,1:2:0:0:
304,115,124246,1,0,1:0:0:0:
298,154,124340,2,0,P|301:203|307:235,1,65.9999979858399,2|0,1:2|1:0,0:0:0:0:
392,364,124527,1,10,1:2:0:0:
392,364,124621,2,0,P|389:315|383:283,1,65.9999979858399,2|4,1:2|1:3,0:0:0:0:
188,154,124808,5,2,1:2:0:0:
136,142,124902,1,10,1:2:0:0:
86,161,124996,1,2,1:2:0:0:
74,212,125090,6,0,P|80:254|82:279,1,65.9999979858399,2|0,1:2|1:0,0:0:0:0:
166,328,125277,2,0,P|172:370|174:395,2,43.9999986572266,10|0|0,1:2|1:0|1:0,0:0:0:0:
178,300,125465,6,0,P|216:286|254:305,1,65.9999979858399,6|0,1:3|1:0,0:0:0:0:
327,357,125652,2,0,P|365:371|403:352,1,65.9999979858399,10|0,1:2|1:0,0:0:0:0:
479,296,125840,5,2,1:2:0:0:
474,257,125933,1,0,1:0:0:0:
469,217,126027,1,10,1:2:0:0:
463,177,126121,1,2,1:2:0:0:
458,137,126215,1,4,1:3:0:0:
164,17,126402,5,6,1:3:0:0:
164,17,126496,1,4,1:3:0:0:
164,17,126590,6,0,P|191:45|184:95,1,65.9999979858399,2|0,1:2|1:0,0:0:0:0:
63,235,126777,5,8,1:2:0:0:
24,224,126871,1,0,1:0:0:0:
11,186,126965,2,0,P|12:158|58:130,1,65.9999979858399,6|0,1:3|1:0,0:0:0:0:
148,165,127152,5,8,1:2:0:0:
186,174,127246,1,0,1:0:0:0:
224,182,127340,2,0,P|267:175|318:166,1,65.9999979858399,2|0,1:2|1:0,0:0:0:0:
352,80,127527,1,10,1:2:0:0:
352,80,127621,2,0,P|395:87|446:96,1,65.9999979858399,2|4,1:2|1:3,0:0:0:0:
469,177,127808,5,2,1:2:0:0:
462,215,127902,1,10,1:2:0:0:
455,254,127996,2,0,P|452:276|450:295,1,32.99999899292,0|0,1:0|1:0,0:0:0:0:
449,305,128090,6,0,P|416:287|370:300,1,65.9999979858399,2|0,1:2|1:0,0:0:0:0:
269,342,128277,2,0,L|203:352,2,43.9999986572266,10|0|0,1:2|1:0|1:0,0:0:0:0:
294,367,128465,6,0,P|298:332|306:280,1,65.9999979858399,2|0,1:2|1:0,0:0:0:0:
211,247,128652,2,0,P|215:212|223:160,1,65.9999979858399,10|0,1:2|1:0,0:0:0:0:
285,36,128840,5,2,1:2:0:0:
324,37,128933,1,0,1:0:0:0:
354,62,129027,1,10,1:2:0:0:
364,100,129121,1,2,1:2:0:0:
353,138,129215,1,4,1:3:0:0:
38,331,129402,5,6,1:3:0:0:
38,331,129496,1,4,1:3:0:0:
38,331,129590,6,0,P|35:291|75:265,1,65.9999979858399,0|0,1:0|1:0,0:0:0:0:
162,219,129777,5,8,1:2:0:0:
175,256,129871,1,0,1:0:0:0:
211,270,129965,2,0,P|246:263|267:231,1,65.9999979858399,6|0,1:3|1:0,0:0:0:0:
200,115,130152,5,8,1:2:0:0:
161,125,130246,1,0,1:0:0:0:
121,132,130340,2,0,L|43:121,1,65.9999979858399,2|0,1:2|1:0,0:0:0:0:
187,17,130527,1,10,1:2:0:0:
187,17,130621,2,0,L|265:28,1,65.9999979858399,2|4,1:2|1:3,0:0:0:0:
456,66,130808,5,2,1:2:0:0:
403,72,130902,1,10,1:2:0:0:
374,116,130996,1,2,1:2:0:0:
392,165,131090,6,0,P|405:208|409:245,1,65.9999979858399,2|0,1:2|1:0,0:0:0:0:
479,321,131277,2,0,P|472:344|469:368,2,43.9999986572266,10|0|0,1:2|1:0|1:0,0:0:0:0:
462,301,131465,6,0,P|428:308|382:311,1,65.9999979858399,6|0,1:3|1:0,0:0:0:0:
310,238,131652,2,0,P|276:231|230:228,1,65.9999979858399,10|0,1:2|1:0,0:0:0:0:
62,356,131840,5,2,1:2:0:0:
70,317,131933,1,0,1:0:0:0:
76,277,132027,1,10,1:2:0:0:
79,237,132121,1,2,1:2:0:0:
80,197,132215,1,4,1:3:0:0:
425,93,132402,5,6,1:3:0:0:
425,93,132496,1,4,1:3:0:0:
425,93,132590,6,0,P|410:131|368:143,1,65.9999979858399,2|0,1:2|1:0,0:0:0:0:
232,104,132777,5,8,1:2:0:0:
212,68,132871,1,0,1:0:0:0:
226,31,132965,2,0,P|265:12|297:26,1,65.9999979858399,6|0,1:3|1:0,0:0:0:0:
307,178,133152,5,8,1:2:0:0:
300,218,133246,1,0,1:0:0:0:
296,256,133340,2,0,P|290:299|285:352,1,65.9999979858399,2|0,1:2|1:0,0:0:0:0:
152,217,133527,1,10,1:2:0:0:
152,217,133621,2,0,P|158:174|163:121,1,65.9999979858399,2|4,1:2|1:3,0:0:0:0:
333,62,133808,5,2,1:2:0:0:
382,43,133902,1,2,1:2:0:0:
431,61,133996,1,2,1:2:0:0:
451,109,134090,1,2,1:2:0:0:
136,303,134277,5,6,1:3:0:0:
152,308,134340,5,0,1:0:0:0:
169,306,134402,5,0,1:0:0:0:
182,294,134465,5,2,1:2:0:0:
254,47,134652,5,6,1:3:0:0:
254,47,134746,1,0,1:0:0:0:
254,47,134840,6,0,P|264:82|272:118,1,65.9999979858399,2|0,1:2|0:0,0:0:0:0:
342,308,135027,2,0,P|313:285|286:261,1,65.9999979858399,2|0,1:2|0:0,0:0:0:0:
117,149,135215,2,0,P|154:150|190:153,1,65.9999979858399,2|0,1:2|0:0,0:0:0:0:
393,145,135402,2,0,P|362:165|331:184,1,65.9999979858399,2|0,1:2|0:0,0:0:0:0:
39,342,138590,6,0,P|51:298|107:306,1,87.9999973144532,8|0,0:0|0:0,0:0:0:0:
386,87,139152,2,0,P|431:91|433:147,1,87.9999973144532,8|0,0:0|0:0,0:0:0:0:
444,126,140840,6,2,P|397:118|350:113,1,88
48,33,141590,6,0,P|58:77|66:141,1,87.9999973144532,8|0,0:0|0:0,0:0:0:0:
464,351,142152,2,0,P|454:307|446:243,1,87.9999973144532,8|0,0:0|0:0,0:0:0:0:
447,264,142465,5,2,1:2:0:0:
372,227,142590,2,0,P|358:222|334:216,2,21.9999993286133,0|0|0,1:0|1:0|1:0,0:0:0:0:
481,174,142840,2,2,P|465:214|455:257,1,87.9999973144532,0|0,1:0|1:0,0:1:0:0:
447,264,143840,6,0,B|447:276|434:280|434:280|430:262|444:252,1,43.9999986572266,8|0,0:0|0:0,0:0:0:0:
382,206,143965,2,0,B|382:194|369:190|369:190|365:208|379:218,1,43.9999986572266,10|0,0:0|0:0,0:0:0:0:
322,274,144090,2,0,B|322:286|309:290|309:290|305:272|319:262,1,43.9999986572266,10|0,0:0|0:0,0:0:0:0:
453,270,144215,6,2,P|393:255|198:220,1,256.666658833822
22,222,144590,6,8,P|35:276|36:304,1,65.9999979858399,8|0,0:0|0:0,0:0:0:0:
110,254,144777,1,0,1:2:0:0:
110,254,144871,1,0,1:2:0:0:
315,121,145152,6,0,P|319:88|328:56,1,65.9999979858399,8|0,0:0|1:0,0:0:0:0:
328,56,145340,1,4,0:0:0:0:
178,166,145902,6,0,B|262:186|212:213|291:229,1,131.99999597168,4|0,0:3|0:0,0:0:0:0:
301,226,146183,2,0,P|330:222|355:221,2,32.99999899292,0|0|0,1:0|1:0|1:0,0:0:0:0:
114,113,146652,5,0,1:0:0:0:
178,176,146840,2,0,P|208:144|201:105,1,65.9999979858399,4|0,0:3|0:0,0:0:0:0:
14,124,147027,6,0,P|35:196|102:209,1,131.99999597168,0|0,1:0|0:0,0:0:0:0:
210,117,147308,6,0,P|190:57|150:36,1,110,0|0,1:0|0:0,0:0:0:0:
90,220,147590,6,0,P|132:223|177:228,1,87.9999973144532,8|0,0:0|0:0,0:0:0:0:
177,228,147965,2,0,P|219:231|251:235,1,65.9999979858399,0|0,1:0|0:0,0:0:0:0:
488,89,148152,5,8,0:0:0:0:
426,39,148277,1,0,1:0:0:0:
426,39,148340,2,0,P|376:50|312:60,1,87.9999973144532,4|2,0:0|0:0,0:0:0:0:
328,159,148590,2,0,P|349:155|371:150,2,43.9999986572266,0|0|0,1:0|1:0|1:0,0:0:0:0:
258,98,148840,2,2,B|263:77|240:62|240:62|228:91|257:105,1,87.9999973144532,0|0,1:2|1:2,1:0:0:0:
260,255,149090,6,0,P|202:247|163:334,1,146.666666666667,0|0,0:0|1:0,0:0:0:0:
217,375,149465,1,0,1:0:0:0:
85,155,149715,5,0,1:0:0:0:
85,155,149840,2,0,B|85:167|72:171|72:171|68:153|82:143,1,43.9999986572266,8|0,0:0|0:0,0:0:0:0:
135,79,149965,2,0,B|135:67|122:63|122:63|118:81|132:91,1,43.9999986572266,8|0,0:0|0:0,0:0:0:0:
176,168,150090,2,0,B|176:180|163:184|163:184|159:166|173:156,1,43.9999986572266,8|0,0:0|0:0,0:0:0:0:
258,71,150215,6,0,B|266:54|251:44|251:44|242:62|261:87,1,55,8|0,0:0|0:0,0:0:0:0:
339,198,150402,6,0,B|347:214|332:225|332:225|323:207|342:181,1,55,8|0,0:0|0:0,0:0:0:0:
505,13,150590,6,0,L|414:25,1,65.9999979858399,8|0,0:0|0:0,0:0:0:0:
404,91,150777,1,0,1:0:0:0:
404,91,150871,1,0,1:0:0:0:
167,321,151152,6,0,L|101:312,1,65.9999979858399,8|0,0:0|0:0,0:0:0:0:
101,312,151340,1,4,0:0:0:0:
305,239,151902,6,0,B|268:231|268:231|246:184|246:184|189:172,1,131.99999597168,0|0,1:2|0:0,0:0:0:0:
196,176,152183,2,0,L|144:182,2,32.99999899292,0|0|0,1:0|1:0|1:0,0:0:0:0:
452,78,152652,5,0,1:0:0:0:
359,135,152840,2,0,B|339:108|339:108|362:63,1,65.9999979858399,4|0,0:0|0:0,0:0:0:0:
509,188,153027,6,0,B|481:180|481:180|475:166|475:166|364:137,1,131.99999597168,0|0,1:0|0:0,0:0:0:0:
350,75,153308,6,0,B|322:83|322:83|316:97|316:97|231:119,1,110,0|0,1:0|0:0,0:0:0:0:
47,68,153777,6,0,B|32:37|32:37|72:74,1,65.9999979858399,8|0,0:0|0:0,0:0:0:0:
104,122,153965,1,0,1:0:0:0:
229,240,154152,5,8,0:0:0:0:
302,295,154277,1,0,1:0:0:0:
302,295,154340,2,0,L|317:203,1,87.9999973144532,4|2,0:0|0:0,0:0:0:0:
251,128,154590,2,0,L|237:77,2,43.9999986572266,0|0|0,1:0|1:0|1:0,0:0:0:0:
320,204,154840,2,2,B|345:169|345:169|302:196,1,87.9999973144532,0|0,1:0|1:0,1:0:0:0:
101,254,155090,6,0,L|119:117,1,117.333333333333,0|0,0:0|1:0,0:0:0:0:
79,70,155465,1,0,1:0:0:0:
373,115,155715,5,4,0:3:0:0:
373,115,155840,2,0,B|371:96|384:93|384:93|387:108|368:128,1,43.9999986572266,8|0,0:0|0:0,0:0:0:0:
366,124,155965,1,8,0:0:0:0:
439,174,156090,6,0,B|448:157|460:162|460:162|454:176|427:181,1,43.9999986572266,8|0,0:0|0:0,0:0:0:0:
304,233,156215,6,0,B|285:217|294:203|294:203|310:214|311:249,1,65.9999979858399,8|0,0:0|0:0,0:0:0:0:
434,334,156402,6,0,B|452:318|443:304|443:304|427:315|426:350,1,65.9999979858399,8|0,0:0|0:0,0:0:0:0:
352,376,156590,6,8,P|297:363|253:359,1,65.9999979858399,8|0,0:0|0:0,0:0:0:0:
194,308,156777,1,0,1:0:0:0:
164,323,156871,1,0,1:0:0:0:
131,326,156965,1,4,0:0:0:0:
309,230,157152,5,8,0:0:0:0:
281,210,157246,2,8,P|226:223|182:227,1,65.9999979858399,4|0,0:3|0:0,0:0:0:0:
122,330,157715,5,4,0:0:0:0:
30,281,157902,6,0,P|40:233|134:224,1,131.99999597168,0|0,1:0|0:0,0:0:0:0:
122,216,158183,2,0,P|128:247|128:261,2,32.99999899292,0|0|0,1:0|1:0|1:0,0:0:0:0:
49,53,158465,6,0,P|102:65|139:68,1,65.9999979858399,4|0,0:0|0:0,0:0:0:0:
176,130,158652,2,0,P|229:118|266:115,1,65.9999979858399,0|0,1:0|0:0,0:0:0:0:
406,56,158840,5,0,1:0:0:0:
483,80,159027,1,0,1:0:0:0:
56,223,159215,5,0,1:0:0:0:
56,223,159308,2,0,L|130:214,1,65.9999979858399,0|0,1:0|0:0,0:0:0:0:
442,198,159590,6,0,L|348:211,1,87.9999973144532,8|0,0:0|0:0,0:0:0:0:
355,211,159965,2,0,B|333:243|333:243|363:288,1,65.9999979858399,0|0,1:0|0:0,0:0:0:0:
455,329,160152,5,8,0:0:0:0:
385,373,160277,1,0,1:0:0:0:
372,377,160340,2,8,P|321:364|277:358,1,87.9999973144532,8|2,0:0|0:0,0:0:0:0:
153,315,160590,2,0,P|134:320|108:324,2,43.9999986572266,0|0|0,1:0|1:0|1:0,0:0:0:0:
131,231,160840,2,2,B|136:203|108:195|108:195|101:226|143:248,1,87.9999973144532,0|0,1:2|1:2,1:0:0:0:
243,307,161090,6,0,P|250:235|323:222,1,146.666666666667,0|0,0:0|1:0,0:0:0:0:
392,245,161465,1,0,1:0:0:0:
435,238,161590,1,0,1:0:0:0:
452,197,161715,2,0,P|449:176|445:150,1,36.6666666666667,0|0,1:0|1:0,0:0:0:0:
354,49,161840,6,0,P|347:99|341:136,1,87.9999973144532,8|0,0:0|0:0,0:0:0:0:
296,203,162027,1,0,1:0:0:0:
274,190,162121,1,0,1:0:0:0:
247,191,162215,1,0,1:0:0:0:
35,54,162402,5,0,1:0:0:0:
35,54,162496,1,0,1:0:0:0:
35,54,162590,6,0,P|74:66|81:120,1,65.9999979858399,8|0,0:0|0:0,0:0:0:0:
91,197,162777,1,0,1:0:0:0:
79,220,162871,1,0,1:0:0:0:
53,225,162965,1,4,0:0:0:0:
208,124,163152,5,8,0:0:0:0:
230,142,163246,2,8,P|260:132|305:124,1,65.9999979858399,4|0,0:0|0:0,0:0:0:0:
394,56,163433,1,0,1:2:0:0:
394,56,163527,2,2,P|398:38|390:12,2,43.9999986572266,2|2|2,1:2|0:0|0:0,0:0:0:0:
299,131,163715,6,0,P|387:149|456:158,1,131.99999597168,4|0,1:3|1:0,0:0:0:0:
250,248,164090,5,0,1:0:0:0:
243,256,164183,2,0,P|222:259|206:262,2,32.99999899292,0|0|0,1:0|1:0|1:0,0:0:0:0:
394,371,164465,6,0,P|397:337|405:293,1,65.9999979858399,8|0,0:0|0:0,0:0:0:0:
412,206,164652,1,0,1:0:0:0:
433,221,164746,1,0,1:0:0:0:
458,224,164840,1,0,1:0:0:0:
312,338,165027,1,0,1:0:0:0:
123,145,165215,5,0,1:0:0:0:
123,145,165308,2,0,P|133:92|218:79,1,131.99999597168,4|0,1:2|0:0,0:0:0:0:
353,36,165590,6,0,L|310:47,2,43.9999986572266,0|0|0,1:0|1:0|1:0,0:0:0:0:
361,26,165776,1,8,0:0:0:0:
429,99,165902,5,0,1:0:0:0:
442,103,165965,1,0,1:0:0:0:
260,207,166152,6,0,L|352:186,1,87.9999973144532,8|0,0:0|0:0,0:0:0:0:
345,187,166340,1,8,0:0:0:0:
272,91,166465,5,2,0:0:0:0:
272,91,166590,2,0,P|265:68|261:38,2,43.9999986572266,0|0|0,1:0|1:0|1:0,0:0:0:0:
172,45,166840,2,2,P|184:95|192:141,1,87.9999973144532,0|0,1:2|1:2,1:0:0:0:
51,341,167090,5,0,1:0:0:0:
123,372,167215,1,0,1:0:0:0:
174,311,167340,1,0,1:0:0:0:
330,251,167465,6,0,L|385:244,1,43.9999986572266,0|0,1:0|1:0,0:0:0:0:
379,250,167590,2,0,L|434:243,1,43.9999986572266,0|0,1:0|1:0,0:0:0:0:
431,248,167715,2,0,L|486:241,1,43.9999986572266,0|0,1:0|1:0,0:0:0:0:
497,310,167840,6,0,B|463:301|463:301|452:283|452:283|315:254,1,176,4|0,1:3|1:0,0:0:0:0:
308,262,168121,1,0,1:0:0:0:
281,266,168215,1,0,1:0:0:0:
84,189,168402,1,0,1:0:0:0:
58,183,168496,1,0,1:0:0:0:
34,177,168590,6,0,P|33:220|143:270,1,176,6|2,1:2|0:0,0:0:0:0:
242,190,169058,5,2,0:0:0:0:
246,184,169152,6,0,P|258:89|271:0,1,176,2|0,0:0|0:0,0:0:0:0:
463,88,169715,6,0,P|440:145|372:141,1,132,2|0,1:2|0:0,0:0:0:0:
342,72,170090,1,2,1:2:0:0:
492,255,170271,6,0,P|405:240|296:226,1,176,2|0,0:0|0:0,0:0:0:0:
64,93,170817,6,0,P|65:143|118:165,1,88,2|0,1:2|0:0,0:0:0:0:
143,276,171180,2,0,P|192:270|210:215,1,88,2|0,1:2|0:0,0:0:0:0:
271,139,171544,6,0,P|205:144|81:172,1,176,6|2,1:2|0:0,0:0:0:0:
273,145,172073,6,0,P|347:117|314:14,1,176,2|0,0:0|0:0,0:0:0:0:
221,0,172602,2,0,P|181:23|179:75,1,88,2|2,0:0|0:0,0:0:0:0:
323,328,172955,5,4,0:0:0:0:
323,328,173983,6,0,L|411:317,1,65.9999979858399,8|0,1:2|1:2,0:0:0:0:
232,367,174326,6,0,B|202:360|202:360|193:341|193:341|87:322,1,132,2|0,1:2|0:0,0:0:0:0:
92,340,174659,1,8,0:0:0:0:
193,178,174826,2,0,B|219:216|219:216|192:252,1,88,2|0,0:0|1:0,0:0:0:0:
92,340,175159,5,2,0:0:0:0:
88,312,175326,1,10,0:0:0:0:
84,285,175492,1,2,0:0:0:0:
18,190,175659,6,0,L|28:131,2,58.6666666666667,2|2|2,1:2|0:0|0:0,0:0:0:0:
25,199,175992,6,0,B|33:188|33:188|151:170,1,117.333333333333,10|0,0:0|0:0,0:0:0:0:
219,112,176326,6,0,B|229:132|229:132|373:164,1,165,2|0,1:2|0:0,0:0:0:0:
218,194,176659,6,0,L|350:172,1,132,10|0,0:0|0:0,0:0:0:0:
435,124,176992,6,0,P|444:63|321:36,1,176,2|8,1:2|0:0,0:0:0:0:
354,14,177492,1,0,1:0:0:0:
291,158,177659,2,0,P|336:145|347:108,1,88,2|0,0:0|1:0,0:0:0:0:
181,27,177992,6,0,L|186:90,1,44,8|0,0:0|0:0,0:0:0:0:
175,83,178159,2,0,L|180:146,1,44,0|0,1:0|0:0,0:0:0:0:
137,200,178326,6,0,B|89:173|89:173|20:212,2,110,2|8|8,1:2|0:0|0:0,0:0:0:0:
243,358,178826,1,0,1:0:0:0:
320,238,178992,6,0,B|348:252|348:252|355:304,1,55,6|0,1:3|0:0,0:0:0:0:
361,289,179159,2,0,B|357:320|357:320|310:344,1,55,0|0,1:0|0:0,0:0:0:0:
86,312,179326,6,0,B|116:307|116:307|126:291|126:291|250:271,1,165,6|0,1:3|0:0,0:0:0:0:
453,356,179659,5,6,1:2:0:0:
467,237,179826,2,0,L|438:379,1,110,2|0,0:0|0:0,0:0:0:0:
382,167,180159,6,0,B|313:118|313:118|202:171,1,165,2|0,0:0|0:0,0:0:0:0:
175,191,180492,2,0,B|102:225|102:225|33:176,1,165,2|0,0:0|0:0,0:0:0:0:
207,29,180826,6,0,L|182:205,1,165,2|0,1:2|0:0,0:0:0:0:
221,280,181159,5,2,1:2:0:0:
223,290,181214,1,2,0:0:0:0:
224,300,181270,1,2,0:0:0:0:
226,311,181326,6,0,L|289:304,1,55,2|0,1:2|0:0,0:0:0:0:
358,249,181492,2,0,L|421:242,1,55,2|0,0:0|0:0,0:0:0:0:
425,375,181659,6,0,B|375:313|375:313|430:228,1,165,6|0,1:3|0:0,0:0:0:0:
503,214,181992,1,2,1:2:0:0:
324,26,182159,5,0,1:0:0:0:
321,53,182242,1,0,1:0:0:0:
318,79,182326,6,0,P|278:128|166:105,1,165,2|0,1:2|0:0,0:0:0:0:
154,51,182659,1,2,0:0:0:0:
249,262,182826,1,2,1:2:0:0:
273,250,182909,1,0,1:2:0:0:
282,224,182992,2,0,P|281:191|233:160,1,55,4|0,1:3|0:3,0:3:0:0:
135,201,183159,6,0,P|158:266|259:246,1,165,2|0,1:2|0:0,0:0:0:0:
365,227,183492,2,0,L|443:243,1,55,2|0,1:2|0:0,0:0:0:0:
493,194,183659,1,2,0:0:0:0:
372,84,183826,6,0,B|317:144|317:144|362:235,1,165,6|0,1:3|0:0,0:0:0:0:
419,301,184159,2,0,L|433:229,1,55,0|0,1:0|0:0,0:0:0:0:
333,348,184326,5,4,1:3:0:0:
249,296,184492,1,0,1:0:0:0:
173,360,184659,1,0,1:0:0:0:
36,128,184992,6,0,P|41:62|150:45,1,165,2|0,1:2|0:0,0:0:0:0:
146,42,185326,1,2,0:0:0:0:
92,205,185492,1,2,1:2:0:0:
307,88,185659,6,0,B|259:99|259:99|243:120|243:120|147:141,1,165,4|0,1:3|0:0,0:0:0:0:
101,210,185992,2,0,L|227:226,1,110,2|0,1:2|0:0,0:0:0:0:
501,105,186326,6,0,P|436:103|401:216,1,165,2|0,1:2|0:0,0:0:0:0:
449,242,186659,1,0,1:0:0:0:
265,350,186826,1,2,1:2:0:0:
486,352,186992,2,0,B|444:342|444:342|439:326|439:326|321:302,1,165,6|0,1:3|0:0,0:0:0:0:
283,244,187326,2,0,L|196:256,1,55,2|0,1:2|0:0,0:0:0:0:
101,340,187492,1,0,1:0:0:0:
80,314,187576,1,0,1:0:0:0:
98,287,187659,5,2,1:2:0:0:
181,316,187826,1,0,1:0:0:0:
265,350,187992,1,8,1:2:0:0:
188,206,188159,1,0,1:2:0:0:
104,346,188326,5,0,1:2:0:0:
196,308,188492,1,0,1:2:0:0:
287,276,188659,1,8,1:2:0:0:
50,203,188825,5,0,1:0:0:0:
66,206,188909,1,0,1:0:0:0:
82,209,188992,1,0,1:0:0:0:
299,159,189159,6,0,P|321:134|312:88,1,55,6|0,1:3|1:0,0:0:0:0:
97,64,189325,5,2,1:3:0:0:
128,73,189409,1,2,1:3:0:0:
160,79,189492,2,0,P|200:76|233:68,1,55,6|0,1:3|1:0,0:0:0:0:
438,125,189659,2,0,P|374:117|295:109,1,110,6|0,1:3|1:3,0:0:0:0:
207,164,189909,5,6,1:3:0:0:
213,172,189992,2,0,P|218:207|220:234,1,55,6|0,1:3|1:0,0:0:0:0:
325,104,190159,2,0,P|327:76|331:49,1,55,6|0,1:3|1:0,0:0:0:0:
112,317,190325,5,6,1:2:0:0:
78,314,190659,1,0,1:0:0:0:
53,292,190992,1,0,1:0:0:0:
50,259,191325,1,0,1:0:0:0:
66,230,191659,1,0,1:0:0:0:
96,218,191992,1,0,1:0:0:0:
126,230,192325,5,0,1:0:0:0:
208,221,192575,1,0,1:0:0:0:
289,211,192825,6,0,L|359:222,1,58.6666666666667,4|0,1:3|0:0,0:0:0:0:
453,306,192992,6,0,L|426:144,1,132,4|0,1:3|0:0,0:0:0:0:
379,113,193325,5,0,1:0:0:0:
395,72,193492,1,0,1:0:0:0:
439,72,193659,1,0,1:0:0:0:
287,205,193909,5,0,1:0:0:0:
287,205,193992,1,0,1:0:0:0:
242,202,194159,1,0,1:0:0:0:
220,163,194325,1,0,1:0:0:0:
235,121,194492,1,0,1:0:0:0:
423,255,194659,6,0,P|417:299|412:333,1,55,4|0,1:3|0:0,0:0:0:0:
415,317,194825,1,0,1:0:0:0:
242,202,194992,6,0,P|248:246|253:280,1,55,4|0,1:3|0:0,0:0:0:0:
342,356,195159,5,2,1:2:0:0:
342,356,195242,2,0,P|325:233|311:138,1,214.49999018097,4|0,1:3|1:0,0:0:0:0:
120,32,195659,5,6,1:3:0:0:
86,36,195742,1,2,0:2:0:0:
63,66,195825,1,2,1:2:0:0:
65,108,195909,1,2,0:2:0:0:
99,136,195992,1,2,1:2:0:0:
141,168,196075,1,2,0:2:0:0:
157,211,196159,1,2,1:2:0:0:
142,245,196242,1,2,0:2:0:0:
115,259,196325,6,0,P|80:252|29:246,1,71.4999967269899,2|2,1:2|0:2,0:2:0:0:
245,157,196492,1,2,1:2:0:0:
280,155,196575,1,2,1:2:0:0:
315,149,196659,2,0,P|350:144|385:137,1,71.4999967269899,2|2,1:2|0:2,0:2:0:0:
442,250,196825,2,0,P|406:242|371:238,1,71.4999967269899,2|2,1:2|0:2,0:2:0:0:
116,269,196992,5,2,1:2:0:0:
112,304,197075,1,2,0:2:0:0:
127,336,197159,1,2,1:2:0:0:
161,345,197242,1,2,0:2:0:0:
196,339,197325,6,0,P|220:316|216:270,1,71.4999967269899,6|0,1:3|0:0,0:0:0:0:
294,207,197492,2,0,P|280:176|236:164,1,71.4999967269899,2|0,1:2|0:2,0:2:0:0:
101,177,197659,5,6,1:3:0:0:
86,179,197742,1,2,0:2:0:0:
71,181,197825,1,2,1:2:0:0:
56,183,197909,1,2,0:2:0:0:
15,167,197992,6,0,L|109:182,1,71.4999967269899,2|0,1:2|0:0,0:0:0:0:
124,270,198159,2,0,L|194:258,1,71.4999967269899,6|0,1:3|0:0,0:0:0:0:
448,80,198325,6,0,P|457:113|440:144,1,71.4999967269899,4|0,1:3|0:0,0:0:0:0:
345,127,198492,2,0,P|336:94|354:64,1,71.4999967269899,2|0,1:2|0:0,0:0:0:0:
441,241,198659,2,0,P|459:272|450:305,1,71.4999967269899,2|0,1:2|0:0,0:0:0:0:
356,322,198825,2,0,P|338:291|347:258,1,71.4999967269899,2|0,1:2|0:0,0:0:0:0:
502,190,198992,6,0,P|381:179|210:159,1,285.99998690796,4|0,0:3|1:0,0:0:0:0:
209,167,199492,6,0,P|174:170|117:181,1,71.4999967269899,0|0,1:0|0:0,0:0:0:0:
46,145,199659,5,6,1:3:0:0:
13,117,199742,1,2,0:0:0:0:
15,74,199825,2,0,P|43:43|92:55,1,71.4999967269899,2|2,1:2|0:0,0:0:0:0:
212,183,199992,5,6,1:3:0:0:
204,225,200075,1,2,0:0:0:0:
166,245,200159,2,0,P|125:236|111:187,1,71.4999967269899,2|2,1:2|0:0,0:0:0:0:
179,82,200325,5,6,1:3:0:0:
236,86,200409,1,2,0:0:0:0:
292,93,200492,1,2,1:2:0:0:
348,100,200575,1,2,1:2:0:0:
405,105,200659,6,0,L|486:93,1,71.4999967269899,6|2,1:3|0:0,0:0:0:0:
479,7,200825,2,0,L|408:17,1,71.4999967269899,6|2,1:3|0:0,0:0:0:0:
177,89,200992,5,0,1:0:0:0:
164,91,201075,1,0,1:0:0:0:
150,93,201159,1,0,1:0:0:0:
137,95,201242,1,0,1:0:0:0:
120,98,201325,5,2,1:2:0:0:
99,89,201409,1,2,1:2:0:0:
77,91,201492,1,2,1:2:0:0:
57,80,201575,1,2,1:2:0:0:
36,87,201659,6,0,P|40:133|40:166,1,55,0|0,1:2|1:0,0:0:0:0:
94,289,201825,2,0,P|90:318|90:338,2,27.5,2|0|0,1:2|1:0|1:0,0:0:0:0:
43,230,201992,2,0,P|77:212|125:218,1,65.9999979858399,0|0,1:0|1:0,0:0:0:0:
393,128,202159,6,0,P|426:173|392:226,1,98.9999969787599,14|0,0:3|0:0,0:0:0:0:
209,344,202325,2,0,P|176:299|210:246,1,98.9999969787599,14|0,0:3|0:0,0:0:0:0:
188,261,202659,6,2,L|216:265,3,22
369,318,202992,2,2,L|390:314,3,22
298,382,203325,5,0,1:0:0:0:
292,328,203409,1,0,1:0:0:0:
284,275,203492,1,0,1:0:0:0:
278,222,203575,1,0,1:0:0:0:
272,169,203659,6,4,B|304:79|396:111|396:111|367:133|370:155,1,197.99999395752,6|0,1:2|0:0,0:2:0:0:
417,313,203992,5,10,1:2:0:0:
447,324,204075,1,2,0:2:0:0:
485,313,204159,1,2,0:2:0:0:
504,271,204242,1,2,0:2:0:0:
485,225,204325,2,0,P|437:232|346:252,1,131.99999597168,2|0,1:2|0:0,0:0:0:0:
284,275,204575,2,0,P|232:263|180:255,1,65.9999979858399,2|8,0:0|1:2,0:0:0:0:
206,260,204714,1,2,0:0:0:0:
196,250,204770,1,2,0:0:0:0:
196,236,204825,2,0,P|214:181|294:189,1,131.99999597168,2|0,0:0|1:0,0:0:0:0:
417,313,205159,6,0,L|405:221,1,65.9999979858399,2|0,0:0|0:0,0:0:0:0:
458,157,205325,5,10,1:2:0:0:
426,167,205409,1,2,0:0:0:0:
390,156,205492,1,2,0:0:0:0:
370,117,205575,1,2,0:0:0:0:
384,73,205659,6,0,P|441:59|492:50,1,65.9999979858399,2|0,1:2|0:0,0:0:0:0:
259,124,205825,1,2,0:0:0:0:
259,124,205909,2,0,P|177:104|104:92,1,131.99999597168,2|2,0:0|0:0,0:0:0:0:
76,39,206159,1,2,0:0:0:0:
34,363,206325,6,0,P|105:355|119:304,1,131.99999597168,6|0,1:2|0:0,0:0:0:0:
56,243,206575,2,2,L|48:204,1,32.99999899292
42,208,206659,5,10,1:2:0:0:
79,221,206742,1,2,0:0:0:0:
124,223,206825,1,2,0:0:0:0:
169,214,206909,1,2,0:0:0:0:
214,195,206992,6,0,P|278:207|288:285,1,131.99999597168,2|0,1:2|0:0,0:0:0:0:
328,347,207242,2,0,P|308:371|261:375,1,65.9999979858399,2|8,0:0|1:2,0:0:0:0:
258,374,207381,1,2,0:0:0:0:
243,363,207437,1,2,0:0:0:0:
240,345,207492,2,0,P|284:318|395:311,1,131.99999597168,2|0,0:0|1:0,0:0:0:0:
507,180,207825,6,0,P|468:175|434:162,1,65.9999979858399,2|0,0:0|0:0,0:0:0:0:
367,44,207992,5,10,1:2:0:0:
386,91,208075,1,2,0:0:0:0:
367,129,208159,1,2,0:0:0:0:
328,137,208242,1,2,0:0:0:0:
300,125,208325,6,0,P|267:119|226:115,1,65.9999979858399,2|0,1:2|0:0,0:0:0:0:
77,36,208492,1,2,0:0:0:0:
77,36,208575,2,0,P|149:28|220:15,1,131.99999597168,2|2,0:0|0:0,0:0:0:0:
376,216,208825,5,2,1:2:0:0:
381,242,208909,1,2,0:0:0:0:
363,261,208992,1,2,1:2:0:0:
78,242,209159,6,0,B|171:261|156:143|269:194,1,197.99999395752,6|8,0:0|0:0,0:0:0:0:
354,264,209492,2,0,L|367:352,1,55,2|0,1:2|0:0,0:0:0:0:
106,153,209659,6,0,B|202:171|144:263|257:264,1,176,6|0,0:0|1:0,0:0:0:0:
240,260,209909,1,2,0:0:0:0:
248,257,209992,1,10,0:0:0:0:
394,73,210159,6,0,P|334:63|278:189,1,176,6|0,1:2|1:0,0:0:0:0:
354,264,210492,1,2,0:0:0:0:
162,339,210659,6,0,P|207:343|245:252,1,153.999995300293,14|0,1:2|1:0,0:0:0:0:
38,175,210992,6,0,P|25:209|95:268,1,131.99999597168,6|0,1:2|1:0,0:0:0:0:
241,244,211325,6,0,P|288:248|363:262,1,115.49999647522,14|0,1:2|0:0,0:0:0:0:
442,209,211659,5,2,1:2:0:0:
450,217,211742,1,2,0:0:0:0:
448,228,211825,1,2,0:0:0:0:
455,237,211909,1,2,0:0:0:0:
451,245,211992,6,0,P|442:285|439:328,1,55,8|0,1:2|0:0,0:0:0:0:
314,170,212159,2,0,P|322:129|326:87,1,55,2|0,1:2|0:0,0:0:0:0:
493,38,212325,6,0,P|462:98|386:93,1,110,2|0,1:2|1:2,0:0:0:0:
328,109,212575,1,2,0:0:0:0:
328,109,212659,2,0,P|291:97|246:95,1,55,8|0,1:2|0:0,0:0:0:0:
244,12,212825,2,0,P|207:24|162:26,1,55,2|0,1:2|0:0,0:0:0:0:
53,112,212992,6,2,P|46:107|52:83,1,27.5,2|2,1:2|0:0,0:0:0:0:
74,101,213075,6,2,P|72:92|93:79,1,27.5
110,100,213159,6,2,P|114:93|139:99,1,27.5,2|2,1:2|0:0,0:0:0:0:
148,121,213242,6,2,P|156:119|169:140,1,27.5
146,167,213325,6,0,P|182:159|233:154,1,65.9999979858399,8|0,1:2|0:0,0:0:0:0:
335,117,213492,2,0,P|367:124|399:128,1,65.9999979858399,2|0,1:2|0:3,0:3:0:0:
200,56,213659,2,0,P|236:64|287:69,1,65.9999979858399,10|0,1:2|0:3,0:3:0:0:
416,221,213825,2,0,P|448:213|480:209,1,65.9999979858399,0|0,1:2|0:3,0:3:0:0:
444,48,213992,5,0,1:0:0:0:
404,24,214075,1,0,1:0:0:0:
357,28,214159,1,0,1:0:0:0:
326,62,214242,1,0,1:0:0:0:
331,107,214325,6,0,P|316:162|172:186,1,197.99999395752,6|0,1:2|0:0,0:0:0:0:
129,124,214659,6,0,L|56:113,1,65.9999979858399,10|0,1:2|0:0,0:0:0:0:
193,263,214825,1,2,0:2:0:0:
212,235,214909,1,2,0:2:0:0:
196,205,214992,6,0,L|48:229,1,131.99999597168,2|0,1:2|0:0,0:0:0:0:
96,360,215242,2,0,L|226:338,1,131.99999597168,2|0,0:0|0:0,0:0:0:0:
305,246,215492,2,0,B|305:202|305:202|289:244,1,88,2|0,0:0|1:0,3:0:0:0:
234,344,215825,6,0,L|295:332,1,55,2|0,0:0|0:0,0:0:0:0:
393,215,215992,1,10,1:2:0:0:
428,218,216075,1,2,0:0:0:0:
458,240,216159,1,2,0:0:0:0:
463,284,216242,1,2,0:0:0:0:
438,323,216325,6,0,P|389:314|352:306,1,65.9999979858399,0|0,1:0|0:0,0:0:0:0:
236,222,216492,1,0,1:0:0:0:
213,181,216575,1,0,1:0:0:0:
242,143,216659,5,4,1:3:0:0:
385,217,216825,1,4,1:3:0:0:
83,359,216992,6,0,L|93:218,1,131.99999597168,6|0,1:2|0:0,0:0:0:0:
5,184,217242,2,2,L|0:152,1,32.99999899292
2,142,217325,5,10,1:2:0:0:
31,155,217409,1,2,0:0:0:0:
68,146,217492,1,2,0:0:0:0:
92,115,217575,1,2,0:0:0:0:
89,70,217659,6,0,P|102:120|176:117,1,131.99999597168,2|0,1:2|0:0,0:0:0:0:
272,134,217909,2,0,P|307:91|261:25,1,131.99999597168,2|0,0:0|0:0,0:0:0:0:
192,0,218159,2,0,L|201:61,1,44,2|0,0:0|0:0,0:0:0:0:
303,239,218325,6,0,B|332:232|332:232|346:216|346:216|474:199,1,165,4|0,1:3|0:0,0:0:0:0:
497,295,218659,5,10,1:2:0:0:
463,336,218742,1,2,0:0:0:0:
416,337,218825,1,2,0:0:0:0:
386,314,218909,1,2,0:0:0:0:
377,277,218992,2,0,P|381:240|389:197,1,65.9999979858399,0|0,1:0|0:0,0:0:0:0:
304,140,219159,2,0,P|299:103|292:60,1,65.9999979858399,2|2,1:2|0:0,0:0:0:0:
358,18,219325,1,4,1:3:0:0:
36,310,219492,5,0,1:0:0:0:
56,335,219575,1,0,1:0:0:0:
89,337,219659,2,0,P|114:325|120:280,1,65.9999979858399,2|0,1:2|0:0,0:0:0:0:
24,139,219825,6,0,P|38:188|137:194,1,153.999995300293,6|0,0:0|1:0,0:0:0:0:
250,310,220159,5,0,1:0:0:0:
262,303,220242,1,0,1:0:0:0:
274,297,220325,2,0,B|315:307|315:307|323:333|323:333|412:354,1,153.999995300293,6|0,1:3|1:0,0:0:0:0:
421,340,220575,1,0,1:0:0:0:
492,383,220659,6,4,B|511:361|511:361|494:310,1,76.9999976501466,4|0,1:3|1:0,0:3:0:0:
386,171,220825,2,0,B|405:193|405:193|388:244,1,76.9999976501466,2|0,1:2|1:0,0:0:0:0:
173,355,220992,1,4,1:3:0:0:
382,244,221159,6,0,L|284:260,1,76.9999976501466,2|0,1:2|0:0,0:0:0:0:
139,210,221325,5,6,1:3:0:0:
123,207,221409,1,2,1:2:0:0:
107,205,221492,2,0,B|87:170|87:170|117:126,1,76.9999976501466,0|0,1:0|0:0,0:0:0:0:
263,41,221659,6,0,L|228:295,1,230.99999295044,6|0,1:3|0:0,0:0:0:0:
173,355,221992,1,4,1:3:0:0:
356,220,222159,1,0,0:0:0:0:
32,48,222325,5,2,1:2:0:0:
41,54,222409,1,2,0:0:0:0:
52,52,222492,1,2,1:2:0:0:
61,58,222575,1,2,0:0:0:0:
72,58,222659,6,0,L|139:46,1,55,10|0,1:2|0:0,0:0:0:0:
389,141,222825,2,0,B|407:108|407:108|379:56,1,76.9999976501466,2|0,1:2|0:0,0:0:0:0:
232,75,222992,6,0,L|254:228,1,153.999995300293,6|0,1:2|1:0,0:0:0:0:
328,341,223325,1,8,1:2:0:0:
242,214,223492,6,0,L|252:137,1,76.9999976501466,2|0,1:2|1:2,0:2:0:0:
48,48,223659,5,2,1:2:0:0:
50,63,223742,1,0,1:0:0:0:
52,78,223825,1,4,1:3:0:0:
54,93,223909,1,0,1:0:0:0:
57,105,223992,6,0,L|133:124,1,65.9999979858399,10|0,1:2|1:0,0:0:0:0:
116,124,224159,2,0,L|192:143,1,65.9999979858399,4|0,1:3|1:0,0:0:0:0:
385,63,224325,6,0,L|329:119,1,65.9999979858399,10|0,1:2|1:0,0:0:0:0:
338,105,224492,2,0,L|282:161,1,65.9999979858399,4|0,1:3|1:0,0:0:0:0:
256,368,224659,6,0,L|234:292,1,65.9999979858399,10|0,1:2|1:0,0:0:0:0:
243,306,224825,2,0,L|221:230,1,65.9999979858399,4|0,1:3|1:0,0:0:0:0:
213,27,224992,6,0,L|230:88,1,55,2|0,0:0|0:0,0:0:0:0:
373,237,225325,6,0,L|312:222,1,55,2|0,0:0|0:0,0:0:0:0:
110,270,225659,6,0,L|154:225,1,55,2|0,0:0|0:0,0:0:0:0:
228,80,225909,5,0,1:2:0:0:
228,80,225992,1,2,1:2:0:0:
235,178,226159,1,0,1:2:0:0:
441,62,226325,6,0,B|442:38|465:22|465:22|402:-2|347:33|350:110,1,197.99999395752,6|0,1:2|0:0,0:0:0:0:
489,184,226658,5,10,1:2:0:0:
464,175,226741,1,2,0:0:0:0:
431,168,226825,1,2,0:0:0:0:
398,165,226908,1,2,0:0:0:0:
360,165,226991,6,0,P|285:183|223:186,1,131.99999597168,2|0,1:2|0:0,0:0:0:0:
141,232,227241,1,2,0:0:0:0:
134,226,227325,2,0,P|143:173|220:188,1,131.99999597168,10|0,1:2|0:0,0:0:0:0:
266,279,227658,1,0,1:0:0:0:
426,339,227825,6,0,L|320:327,1,65.9999979858399,2|0,0:0|0:0,0:0:0:0:
195,363,227991,5,10,1:2:0:0:
177,338,228075,1,2,0:3:0:0:
182,297,228158,1,2,0:0:0:0:
222,272,228241,1,2,0:3:0:0:
269,287,228325,6,0,P|303:283|322:239,1,65.9999979858399,2|0,1:2|0:0,0:0:0:0:
394,159,228491,1,2,0:0:0:0:
370,148,228575,1,2,0:0:0:0:
363,122,228658,2,0,P|367:84|377:41,1,65.9999979858399,10|0,1:2|0:0,0:0:0:0:
252,131,228825,2,0,P|258:163|261:196,1,65.9999979858399,2|0,0:0|0:0,0:0:0:0:
473,105,228991,6,0,P|446:51|368:68,1,131.99999597168,6|0,1:2|0:0,0:0:0:0:
281,21,229241,2,2,L|227:13,1,32.99999899292
240,23,229325,5,10,1:2:0:0:
228,54,229408,1,2,0:0:0:0:
194,75,229491,1,2,0:0:0:0:
146,72,229575,1,2,0:0:0:0:
117,35,229658,6,0,P|179:60|162:134,1,131.99999597168,2|0,1:2|0:0,0:0:0:0:
90,193,229908,1,0,0:0:0:0:
90,193,229991,2,0,P|156:178|233:165,1,131.99999597168,10|2,1:2|0:0,0:0:0:0:
460,21,230325,6,0,P|432:37|425:78,1,65.9999979858399,0|0,1:2|0:0,0:0:0:0:
298,151,230491,2,0,P|306:182|343:199,1,65.9999979858399,10|0,1:2|0:0,0:0:0:0:
493,204,230658,6,0,P|484:172|447:155,1,76.9999976501466,4|0,1:3|0:0,0:0:0:0:
255,23,230825,2,0,P|232:45|235:87,1,76.9999976501466,10|0,1:2|0:0,0:0:0:0:
217,319,230991,2,0,P|248:327|282:303,1,76.9999976501466,4|0,1:3|0:0,0:0:0:0:
370,108,231158,1,0,1:0:0:0:
370,108,231241,1,0,1:0:0:0:
370,108,231325,2,0,P|372:82|376:56,2,38.4999988250733,4|0|0,1:3|1:0|1:0,1:0:0:0:
449,120,231491,2,0,P|451:94|455:68,2,38.4999988250733,0|0|0,1:0|1:0|1:0,0:0:0:0:
493,204,231658,6,0,P|442:209|395:214,1,76.9999976501466,4|0,1:3|1:2,0:0:0:0:
239,234,231825,1,10,1:2:0:0:
213,204,231908,1,2,1:2:0:0:
247,167,231991,1,0,1:2:0:0:
218,145,232075,1,0,1:2:0:0:
231,126,232158,2,0,L|237:81,2,38.4999988250733,8|0|0,1:2|1:0|1:0,0:0:0:0:
80,236,232325,5,2,1:2:0:0:
86,273,232408,1,2,1:2:0:0:
94,306,232491,2,0,P|101:343|109:381,1,76.9999976501466,8|0,1:2|1:0,0:0:0:0:
174,306,232658,2,0,P|178:325|182:343,2,38.4999988250733,0|0|0,1:0|1:0|1:0,0:0:0:0:
392,187,232825,5,10,1:2:0:0:
387,219,232908,1,2,1:2:0:0:
380,250,232991,2,0,P|370:294|361:338,1,76.9999976501466,0|0,1:0|1:0,0:0:0:0:
299,250,233158,2,0,P|295:269|292:287,2,38.4999988250733,8|0|0,1:2|1:0|1:0,0:0:0:0:
108,146,233325,6,0,L|55:138,1,38.4999988250733,2|0,1:2|1:0,0:0:0:0:
59,148,233408,2,0,L|12:141,2,38.4999988250733,2|0|8,1:2|1:0|1:2,0:0:0:0:
223,84,233575,5,0,1:0:0:0:
236,90,233658,2,0,L|283:83,2,38.4999988250733,2|0|2,1:2|1:0|1:2,0:0:0:0:
121,2,233825,2,0,B|133:11|133:11|145:80,1,76.9999976501466,8|0,1:2|1:0,0:0:0:0:
202,199,233991,5,2,1:2:0:0:
198,237,234075,1,0,1:0:0:0:
194,275,234158,1,8,1:2:0:0:
191,313,234241,1,0,1:0:0:0:
188,351,234325,5,2,1:2:0:0:
175,341,234408,1,2,0:0:0:0:
159,342,234491,1,2,1:2:0:0:
148,330,234575,1,2,0:0:0:0:
132,332,234658,2,0,L|67:341,1,65.9999979858399,8|0,1:2|0:0,0:0:0:0:
14,274,234825,1,2,1:2:0:0:
315,178,234991,5,6,1:3:0:0:
323,181,235075,2,0,P|329:227|331:252,1,65.9999979858399,2|0,1:2|1:2,0:0:0:0:
122,165,235241,1,2,1:2:0:0:
130,162,235325,2,0,P|136:116|138:91,1,65.9999979858399,10|0,1:2|0:0,0:0:0:0:
376,29,235491,5,0,1:0:0:0:
414,35,235575,1,0,1:0:0:0:
430,71,235658,2,0,P|427:87|404:98,1,32.99999899292,2|0,1:2|0:0,0:0:0:0:
421,111,235741,2,0,P|408:121|383:114,1,32.99999899292,2|0,1:2|0:0,0:0:0:0:
388,135,235825,2,0,P|371:134|356:114,1,32.99999899292,2|0,1:2|0:0,0:0:0:0:
347,132,235908,2,0,P|334:121|336:95,1,32.99999899292,2|0,1:2|0:0,0:0:0:0:
263,25,235991,5,12,1:2:0:0:
210,19,236075,1,0,1:2:0:0:
176,59,236158,2,0,P|134:70|91:77,1,76.9999976501466,4|0,1:3|0:0,0:0:0:0:
233,160,236325,5,12,1:2:0:0:
283,178,236408,1,0,1:2:0:0:
289,230,236491,1,0,1:2:0:0:
255,270,236575,1,0,1:2:0:0:
204,286,236658,1,0,1:2:0:0:
195,337,236741,1,0,1:2:0:0:
222,376,236825,1,0,1:2:0:0:
262,373,236908,1,0,1:2:0:0:
272,352,236991,6,0,B|308:304|266:249|214:241|214:241|225:282|208:303,1,197.99999395752,6|0,1:2|0:0,0:0:0:0:
373,324,237325,5,10,1:2:0:0:
404,336,237408,1,2,0:0:0:0:
442,328,237491,1,2,0:0:0:0:
461,296,237575,1,2,0:0:0:0:
461,253,237658,6,0,L|436:104,1,131.99999597168,2|0,1:2|0:0,0:0:0:0:
345,83,237908,1,2,0:0:0:0:
342,76,237991,2,0,B|371:25|371:25|469:52,1,131.99999597168,10|2,1:2|0:0,0:0:0:0:
343,168,238325,1,0,1:0:0:0:
115,10,238491,6,0,P|105:44|102:75,1,65.9999979858399,2|0,0:0|0:0,0:0:0:0:
61,258,238658,5,10,1:2:0:0:
56,219,238741,1,2,0:0:0:0:
82,190,238825,1,2,0:0:0:0:
126,187,238908,1,2,0:0:0:0:
166,208,238991,6,0,P|208:216|253:225,1,65.9999979858399,2|0,1:2|0:0,0:0:0:0:
386,138,239158,5,0,1:2:0:0:
427,118,239241,1,0,1:2:0:0:
467,139,239325,1,4,1:3:0:0:
327,326,239491,1,4,1:3:0:0:
37,76,239658,6,0,L|179:61,1,131.99999597168,6|0,1:2|0:0,0:0:0:0:
253,15,239908,2,2,L|296:24,1,32.99999899292
294,24,239991,5,2,1:2:0:0:
322,45,240075,1,2,0:0:0:0:
331,85,240158,1,2,0:0:0:0:
317,120,240241,1,2,0:0:0:0:
281,134,240325,6,0,P|229:162|231:241,1,131.99999597168,2|0,1:2|0:0,0:0:0:0:
309,297,240575,1,0,0:0:0:0:
309,297,240658,2,0,P|361:269|359:190,1,131.99999597168,8|2,1:2|0:0,0:0:0:0:
191,343,240991,1,0,1:0:0:0:
387,35,241158,6,0,P|340:41|300:48,1,65.9999979858399,6|0,0:0|0:0,0:0:0:0:
195,114,241324,1,2,1:2:0:0:
157,93,241408,1,2,0:0:0:0:
130,104,241491,1,6,0:0:0:0:
108,92,241574,1,2,0:0:0:0:
90,103,241658,6,0,L|13:116,1,65.9999979858399,2|2,1:2|0:0,0:0:0:0:
139,221,241824,1,2,0:0:0:0:
164,226,241908,1,2,0:0:0:0:
183,230,241991,2,0,L|248:219,1,65.9999979858399,0|0,1:2|0:0,0:0:0:0:
463,293,242158,1,0,1:2:0:0:
462,332,242241,1,0,1:2:0:0:
423,350,242324,6,0,P|391:340|359:331,1,65.9999979858399,10|0,1:2|0:3,0:3:0:0:
142,353,242491,2,0,P|169:328|204:290,1,65.9999979858399,2|0,1:2|0:0,0:0:0:0:
279,109,242658,6,0,P|286:141|294:173,1,65.9999979858399,10|0,1:2|0:0,0:0:0:0:
373,247,242824,2,0,P|378:214|385:182,1,65.9999979858399,2|0,1:2|0:0,0:0:0:0:
147,57,242991,6,0,B|71:83|122:119|21:146,1,131.99999597168,10|0,1:2|1:2,0:0:0:0:
152,197,243241,1,2,0:0:0:0:
152,197,243324,2,0,P|157:164|164:132,1,65.9999979858399,10|0,1:2|0:0,0:0:0:0:
39,0,243491,2,0,P|33:32|26:64,1,65.9999979858399,2|0,1:2|0:0,0:0:0:0:
120,282,243658,6,0,P|185:295|239:218,1,153.999995300293,14|0,1:2|1:2,0:0:0:0:
239,211,243908,1,0,1:2:0:0:
232,188,243991,1,10,1:2:0:0:
416,32,244158,1,0,1:2:0:0:
412,54,244241,1,0,1:2:0:0:
408,76,244324,1,10,1:2:0:0:
457,242,244491,5,0,1:2:0:0:
424,263,244574,1,0,1:2:0:0:
394,237,244658,1,10,1:2:0:0:
177,73,244824,5,0,1:2:0:0:
144,52,244908,1,0,1:2:0:0:
114,78,244991,6,0,P|120:121|126:167,1,76.9999976501466,14|0,1:2|0:0,0:0:0:0:
265,205,245158,1,0,1:2:0:0:
265,205,245241,2,0,P|259:166|254:128,1,76.9999976501466,2|8,1:2|1:2,0:0:0:0:
316,22,245408,5,0,1:2:0:0:
345,46,245491,1,2,1:2:0:0:
383,48,245574,1,0,1:2:0:0:
418,33,245658,6,0,P|464:43|505:47,1,76.9999976501466,14|0,1:2|0:0,0:0:0:0:
430,158,245824,1,0,1:2:0:0:
430,158,245908,2,0,P|391:162|354:171,1,76.9999976501466,2|8,1:2|1:2,0:0:0:0:
132,341,246074,5,0,1:2:0:0:
136,302,246158,1,2,1:2:0:0:
141,264,246241,1,0,1:2:0:0:
146,226,246324,6,0,B|153:201|179:192|179:192|161:215|161:249,1,76.9999976501466,10|0,1:2|1:2,0:0:0:0:
54,288,246491,2,0,B|28:294|8:276|8:276|36:280|66:263,1,76.9999976501466,8|0,1:2|1:2,0:0:0:0:
250,251,246658,5,0,1:2:0:0:
287,256,246741,1,0,1:2:0:0:
311,285,246824,1,0,1:2:0:0:
311,323,246908,1,0,1:2:0:0:
283,350,246991,6,0,B|257:356|237:338|237:338|265:342|295:325,1,76.9999976501466,8|0,1:2|1:2,0:0:0:0:
382,232,247158,2,0,B|389:207|415:198|415:198|397:221|397:255,1,76.9999976501466,8|0,1:2|1:2,0:0:0:0:
501,360,247324,5,4,1:2:0:0:
455,349,247408,1,0,1:2:0:0:
409,340,247491,1,0,1:2:0:0:
363,333,247574,1,0,1:2:0:0:
317,326,247658,5,2,1:2:0:0:
388,46,247824,5,2,0:0:0:0:
357,77,247908,1,2,0:0:0:0:
346,72,247991,1,2,1:2:0:0:
325,61,248074,1,2,0:0:0:0:
309,67,248158,1,2,0:0:0:0:
272,42,248241,1,2,0:0:0:0:
234,51,248324,6,0,P|156:65|96:68,1,110,2|0,1:2|0:0,0:0:0:0:
88,0,248574,2,0,P|70:77|59:111,1,110,2|0,0:0|0:0,0:0:0:0:
118,164,248824,2,0,P|163:159|194:154,1,55,2|0,0:0|0:0,0:0:0:0:
183,160,248991,1,0,1:2:0:0:
230,327,249158,1,2,0:0:0:0:
137,352,249324,2,0,L|152:280,1,55,2|0,1:2|0:0,0:0:0:0:
267,121,249491,5,2,0:0:0:0:
302,106,249574,1,2,0:0:0:0:
338,117,249658,1,2,1:2:0:0:
363,145,249741,1,2,0:0:0:0:
369,182,249824,1,2,0:0:0:0:
403,200,249908,1,2,0:0:0:0:
439,189,249991,5,2,1:2:0:0:
406,218,250074,1,2,0:0:0:0:
407,262,250158,1,2,0:0:0:0:
439,291,250241,1,2,0:0:0:0:
482,291,250324,6,0,L|360:272,1,110,2|0,1:2|0:0,0:0:0:0:
303,319,250574,2,0,L|276:225,1,55,2|4,0:0|1:3,0:0:0:0:
198,201,250741,1,2,0:0:0:0:
198,201,250824,2,0,L|207:140,1,55,2|0,0:0|0:0,0:0:0:0:
49,264,250991,6,0,B|65:283|65:283|169:268,1,110,2|0,1:2|0:0,0:0:0:0:
290,197,251241,2,0,L|272:138,1,55,2|4,0:0|1:3,0:0:0:0:
103,92,251408,1,2,0:0:0:0:
103,92,251491,2,0,L|118:24,1,55,2|0,1:2|0:0,0:0:0:0:
391,14,251658,5,6,1:3:0:0:
358,58,251741,1,2,0:0:0:0:
325,48,251824,1,10,0:0:0:0:
307,33,251908,1,2,0:0:0:0:
278,59,251991,5,2,1:2:0:0:
272,79,252074,1,2,0:0:0:0:
224,93,252158,5,10,0:0:0:0:
229,112,252241,1,2,0:0:0:0:
208,152,252324,5,2,1:2:0:0:
170,129,252408,1,2,0:0:0:0:
123,135,252491,1,10,0:0:0:0:
90,174,252574,1,2,0:0:0:0:
96,227,252658,5,10,1:2:0:0:
80,209,252741,1,2,0:0:0:0:
56,210,252824,1,2,1:2:0:0:
40,195,252908,1,2,1:2:0:0:
11,190,252991,6,0,P|87:189|154:288,1,176,2|2,1:2|0:0,0:0:0:0:
231,313,253491,2,0,P|234:278|248:218,1,88,2|0,0:0|1:2,0:0:0:0:
164,42,253824,2,0,P|173:84|178:128,1,88,2|2,0:0|0:0,0:0:0:0:
347,258,254158,2,0,P|388:251|442:245,1,88,2|8,0:0|0:0,0:0:0:0:
482,181,254491,1,2,1:2:0:0:
269,296,254658,1,2,0:0:0:0:
348,342,254824,2,0,P|366:305|326:246,1,88,2|0,0:0|1:0,0:0:0:0:
199,189,255158,5,2,1:2:0:0:
127,217,255324,1,2,1:2:0:0:
141,294,255491,1,2,1:2:0:0:
405,108,255658,6,0,P|358:101|199:68,1,176,2|2,1:2|0:0,0:0:0:0:
143,121,256158,2,0,P|131:88|119:29,1,88,2|0,0:0|1:2,0:2:0:0:
334,130,256491,2,0,P|325:173|310:214,1,88,2|2,1:2|0:0,0:0:0:0:
216,267,256824,1,2,1:2:0:0:
479,347,256991,5,2,1:2:0:0:
472,349,257824,6,0,P|450:343|415:337,2,44,2|2|2,1:2|1:2|1:2,0:0:0:0:
480,338,258324,5,2,1:2:0:0:
482,128,258491,5,2,0:0:0:0:
454,149,258574,1,2,0:0:0:0:
418,143,258658,5,6,1:3:0:0:
408,149,258741,2,2,L|420:72,1,65.9999979858399,2|8,0:0|0:0,0:0:0:0:
225,192,258908,1,2,0:0:0:0:
235,198,258991,1,2,1:2:0:0:
245,204,259074,2,2,L|233:127,1,65.9999979858399,2|8,0:0|0:0,0:0:0:0:
366,268,259241,1,2,0:0:0:0:
356,274,259324,1,6,1:3:0:0:
346,280,259408,2,2,L|358:203,1,65.9999979858399,2|8,0:0|0:0,0:0:0:0:
186,344,259574,1,2,0:0:0:0:
196,350,259658,1,2,1:2:0:0:
206,356,259741,2,2,L|194:279,1,65.9999979858399,2|8,0:0|0:0,0:0:0:0:
72,274,259908,1,2,0:0:0:0:
62,280,259991,1,6,1:3:0:0:
52,286,260074,2,2,L|64:209,1,65.9999979858399,2|8,0:0|0:0,0:0:0:0:
225,192,260241,1,2,0:0:0:0:
235,198,260324,1,2,1:2:0:0:
245,204,260408,2,2,L|233:127,1,65.9999979858399,2|8,0:0|0:0,0:0:0:0:
50,86,260574,1,2,0:0:0:0:
43,94,260658,5,6,1:3:0:0:
36,64,260741,1,2,0:0:0:0:
50,27,260824,1,10,0:0:0:0:
92,10,260908,1,2,0:0:0:0:
138,25,260991,6,2,P|165:33|185:36,1,32.99999899292,2|2,1:2|0:0,0:0:0:0:
148,47,261074,2,2,P|176:45|195:41,1,32.99999899292
164,64,261158,2,2,P|189:52|207:42,1,32.99999899292,10|2,0:0|0:0,0:0:0:0:
184,74,261241,2,2,P|204:54|217:38,1,32.99999899292
203,79,261324,6,0,P|266:88|288:155,1,131.99999597168,6|10,1:3|0:0,0:0:0:0:
282,171,261574,1,2,0:0:0:0:
268,194,261658,1,2,1:2:0:0:
411,126,261824,2,0,P|415:162|421:193,1,65.9999979858399,10|0,0:0|0:0,0:0:0:0:
347,297,261991,5,6,1:3:0:0:
317,290,262074,1,2,0:0:0:0:
289,284,262158,2,2,L|245:274,1,32.99999899292,10|2,1:2|0:0,0:0:0:0:
221,286,262241,2,2,L|169:274,1,32.99999899292
127,228,262324,5,6,1:3:0:0:
76,240,262408,1,2,0:0:0:0:
63,283,262491,1,10,0:0:0:0:
85,312,262574,1,2,0:0:0:0:
152,365,262658,5,6,1:3:0:0:
194,364,262741,1,2,0:0:0:0:
215,343,262824,1,10,0:0:0:0:
216,313,262908,1,2,0:0:0:0:
175,242,262991,5,6,1:3:0:0:
178,216,263074,1,2,0:0:0:0:
182,198,263158,1,10,0:0:0:0:
189,185,263241,1,2,0:0:0:0:
223,153,263324,5,6,1:3:0:0:
170,168,263408,1,2,0:0:0:0:
119,147,263491,1,10,1:2:0:0:
105,93,263574,1,6,1:3:0:0:
132,45,263658,6,0,P|242:65|312:81,1,176,6|2,0:3|0:0,0:0:0:0:
401,113,264158,2,0,P|392:73|383:21,1,88,2|4,0:0|1:3,0:0:0:0:
295,181,264491,2,0,P|287:224|277:267,1,88,2|0,0:0|0:0,0:0:0:0:
458,343,264824,2,0,P|416:328|353:322,1,88,2|8,1:2|0:0,0:0:0:0:
273,353,265158,1,2,1:2:0:0:
483,181,265324,5,2,0:0:0:0:
405,234,265491,2,0,L|392:136,1,88,2|4,0:0|1:3,0:0:0:0:
427,20,265824,5,2,1:2:0:0:
404,68,265991,1,2,1:2:0:0:
351,65,266158,1,2,1:2:0:0:
139,134,266324,6,0,P|145:95|267:59,1,176,2|0,1:2|1:0,0:0:0:0:
310,136,266824,5,0,1:0:0:0:
126,231,266991,1,4,1:3:0:0:
383,258,267158,5,0,1:0:0:0:
243,219,267324,2,0,L|249:306,1,82.5,2|0,1:2|0:0,0:0:0:0:
277,65,267658,6,0,L|252:304,1,230.99999295044,2|0,0:0|0:0,0:0:0:0:
183,127,268324,6,0,L|169:5,1,115.49999647522,2|0,0:0|0:0,0:0:0:0:
169,12,268658,5,0,1:0:0:0:
411,273,268824,5,0,1:0:0:0:
411,273,268908,1,0,1:0:0:0:
411,273,268991,5,8,0:0:0:0:
248,17,270271,5,8,0:0:0:0:
108,285,271021,5,8,0:0:0:0:
411,273,271471,5,8,0:0:0:0:
411,273,271613,1,8,0:0:0:0:
229,93,272471,5,0,1:0:0:0:
248,17,272613,1,8,0:0:0:0:
283,291,272885,5,0,1:3:0:0:
263,366,273022,1,0,1:3:0:0:
263,366,273090,1,0,1:3:0:0:
263,366,273158,1,0,1:3:0:0:
108,285,273294,6,4,P|139:270|160:261,1,55,4|0,1:3|0:0,0:3:0:0:
209,134,273431,2,4,P|206:168|203:191,1,55,4|0,1:3|0:0,0:3:0:0:
283,291,273567,2,4,P|254:271|236:258,1,55,4|0,1:3|0:0,0:3:0:0:
33,100,273703,6,0,P|59:96|85:30,1,88,0|0,1:0|0:3,0:3:0:0:
283,64,273963,2,0,P|289:107|299:150,1,88,0|0,1:0|0:3,0:3:0:0:
142,169,274224,6,0,P|153:145|213:136,1,88,8|0,1:2|0:3,0:3:0:0:
371,227,274485,2,0,P|427:237|465:247,1,88,0|0,1:0|0:3,0:3:0:0:
235,379,274746,6,0,P|227:323|216:259,1,88,0|0,1:2|0:3,0:3:0:0:
354,357,275007,1,0,1:0:0:0:
354,357,275137,2,0,P|360:296|378:184,1,132,0|0,0:3|0:3,0:3:0:0:
370,226,275398,2,0,P|342:201|274:225,1,88,2|0,0:0|0:3,0:3:0:0:
46,277,275659,1,0,1:0:0:0:
46,277,275724,1,0,1:0:0:0:
46,277,275789,5,0,1:0:0:0:
118,197,275914,1,0,1:0:0:0:
27,188,276039,5,4,1:3:0:0:
157,278,276164,1,0,1:0:0:0:
70,359,276289,5,0,1:0:0:0:
203,195,276414,1,0,1:0:0:0:
221,358,276539,5,4,1:3:0:0:
99,111,276664,1,0,1:0:0:0:
99,111,277039,6,0,L|165:98,1,55,0|0,1:0|0:0,0:0:0:0:
260,174,277164,2,0,L|216:123,1,55,0|0,1:0|0:0,0:0:0:0:
234,4,277289,2,0,L|211:68,1,55,0|0,1:0|0:0,0:0:0:0:
159,195,277414,6,0,L|178:143,1,55,0|0,1:0|1:0,0:0:0:0:
301,81,277539,2,0,L|246:91,1,55,0|0,1:0|0:0,0:0:0:0:
133,14,277664,2,0,L|168:56,1,55,0|0,1:0|1:0,0:0:0:0:
293,300,277789,6,0,P|350:281|328:177,1,165,6|0,1:2|0:0,3:3:0:0:
260,174,278039,1,2,1:2:0:0:
260,174,278164,1,2,0:3:0:0:
169,304,278289,2,0,P|166:247|155:177,1,110,2|0,1:2|0:3,0:3:0:0:
382,32,278539,2,0,P|345:81|273:57,1,110,2|0,1:2|0:0,3:3:0:0:
54,220,278789,6,0,P|46:154|17:45,1,165,6|0,1:2|0:3,0:3:0:0:
103,17,279039,1,2,1:2:0:0:
145,147,279164,1,0,3:0:0:0:
145,147,279226,1,0,3:0:0:0:
145,147,279289,1,2,1:2:0:0:
66,215,279414,1,2,0:3:0:0:
223,195,279539,5,2,1:2:0:0:
57,113,279664,1,2,1:2:0:0:
235,199,279789,6,0,B|316:185|260:126|371:96,1,165,6|0,1:2|0:3,0:3:0:0:
431,145,280039,1,2,1:2:0:0:
470,293,280164,2,0,P|448:327|362:307,1,110,2|2,0:0|1:2,0:3:0:0:
366,315,280351,1,2,0:0:0:0:
354,296,280414,1,2,0:0:0:0:
290,362,280539,5,2,1:2:0:0:
290,362,280664,1,2,1:2:0:0:
235,208,280789,1,6,1:2:0:0:
232,229,280851,1,2,0:0:0:0:
228,250,280914,2,0,L|212:340,1,55,2|0,0:0|0:0,0:0:0:0:
146,347,281039,5,2,1:2:0:0:
320,220,281164,1,2,1:2:0:0:
157,118,281289,6,0,B|109:143|109:143|178:129,1,110,2|2,1:2|0:3,0:3:0:0:
281,130,281476,2,0,B|239:116|239:116|226:56|226:56|146:29,1,165,0|0,1:2|0:3,0:3:0:0:
72,15,281726,1,2,1:2:0:0:
72,15,281789,6,8,P|6:40|11:131,1,165,6|0,1:2|0:3,0:3:0:0:
56,200,282039,1,2,1:2:0:0:
56,200,282164,1,2,0:0:0:0:
245,57,282289,2,4,B|181:77|222:95|149:120,1,110,2|0,1:2|0:3,0:3:0:0:
45,290,282539,2,0,P|87:292|133:225,1,110,2|0,1:2|0:3,0:3:0:0:
156,117,282789,5,6,1:2:0:0:
56,200,282914,1,2,0:3:0:0:
195,207,283039,5,2,1:2:0:0:
16,130,283164,1,2,0:3:0:0:
125,354,283289,5,2,1:2:0:0:
138,272,283414,1,2,0:0:0:0:
202,325,283539,1,2,1:2:0:0:
135,356,283664,6,0,L|231:371,1,55,2|0,0:0|0:3,0:3:0:0:
363,302,283789,5,6,1:2:0:0:
364,291,283851,1,2,0:3:0:0:
365,280,283914,2,0,P|370:250|382:210,1,55,2|0,0:3|0:3,0:3:0:0:
311,161,284039,2,0,P|302:129|294:90,3,55,2|2|2|2,1:2|0:3|0:3|0:3,0:3:0:0:
472,134,284289,5,6,1:2:0:0:
452,131,284351,1,2,0:3:0:0:
433,128,284414,2,0,P|394:121|344:114,1,55,2|0,0:3|0:3,0:3:0:0:
239,190,284539,2,0,P|200:183|150:176,3,55,2|2|2|2,1:2|0:3|0:3|0:3,0:3:0:0:
18,285,284789,5,6,1:2:0:0:
95,138,284914,1,0,3:0:0:0:
95,138,284976,1,0,3:0:0:0:
95,138,285039,1,2,1:2:0:0:
195,345,285164,5,0,3:0:0:0:
195,345,285226,1,0,3:0:0:0:
195,345,285289,2,0,L|172:274,1,55,4|0,1:3|1:2,1:2:0:0:
37,209,285414,2,0,L|109:224,1,55,0|0,1:0|1:2,1:2:0:0:
260,99,285539,2,0,L|210:154,1,55,4|0,1:3|1:0,1:2:0:0:
179,218,285664,1,4,0:3:0:0:
179,218,285726,1,4,0:3:0:0:
179,218,285789,6,0,B|277:237|229:263|339:291,1,165,6|0,1:2|0:3,0:3:0:0:
398,236,286039,1,10,1:2:0:0:
398,236,286164,1,2,0:3:0:0:
336,366,286289,2,0,P|301:345|336:277,1,110,2|0,1:2|0:3,0:3:0:0:
498,125,286539,2,0,L|479:267,1,110,10|0,1:2|0:3,0:3:0:0:
208,176,286789,6,0,B|221:146|221:146|389:124,1,165,6|0,1:2|0:3,0:3:0:0:
422,84,287039,1,10,1:2:0:0:
302,14,287164,1,0,0:2:0:0:
302,14,287226,1,0,0:2:0:0:
302,14,287289,1,2,1:2:0:0:
352,128,287414,1,2,0:3:0:0:
384,0,287539,5,10,1:2:0:0:
284,204,287664,1,2,1:2:0:0:
385,10,287789,6,0,P|355:81|266:91,1,165,6|0,1:2|0:3,0:3:0:0:
223,32,288039,1,10,1:2:0:0:
95,185,288164,2,0,L|75:70,1,110,2|2,0:3|1:2,0:3:0:0:
82,61,288351,1,2,0:0:0:0:
88,45,288414,1,2,0:0:0:0:
173,111,288539,1,10,1:2:0:0:
177,115,288664,1,2,0:0:0:0:
83,285,288789,5,6,1:2:0:0:
66,282,288851,1,2,0:3:0:0:
49,279,288914,2,0,L|130:268,1,55,2|0,0:3|0:3,0:3:0:0:
312,178,289039,5,10,1:2:0:0:
291,301,289164,1,2,1:2:0:0:
207,223,289289,1,2,1:2:0:0:
331,76,289414,6,0,L|314:128,1,55,0|0,1:0|1:0,0:0:0:0:
386,249,289539,2,0,L|354:204,1,55,0|0,1:0|1:0,0:0:0:0:
215,215,289664,2,0,L|307:194,1,55,0|0,1:0|1:0,0:0:0:0:
504,50,289789,6,0,P|492:116|397:130,1,165,6|0,1:2|0:3,0:3:0:0:
331,76,290039,1,2,1:2:0:0:
331,76,290164,1,2,0:0:0:0:
386,249,290289,2,0,P|393:188|410:112,1,110,2|0,1:2|0:0,0:0:0:0:
228,39,290539,2,0,P|216:106|285:144,1,110,2|0,1:2|1:0,0:0:0:0:
393,254,290789,5,6,1:2:0:0:
294,372,290914,1,2,0:0:0:0:
240,260,291039,5,2,1:2:0:0:
240,260,291164,1,2,1:2:0:0:
128,335,291289,6,0,L|118:263,1,55,2|0,1:2|0:0,0:0:0:0:
103,275,291414,2,0,L|93:203,1,55,2|0,1:2|0:0,0:0:0:0:
184,155,291539,6,0,L|169:231,1,55,2|0,1:2|0:0,0:0:0:0:
16,338,291664,2,0,L|26:284,1,55,2|0,1:2|1:2,0:0:0:0:
27,50,291789,5,2,1:2:0:0:
39,60,291851,1,2,2:2:0:0:
53,68,291914,2,0,P|94:75|136:88,1,55,2|2,0:0|0:0,2:2:0:0:
174,209,292039,5,10,1:2:0:0:
186,199,292101,1,2,2:2:0:0:
200,191,292164,2,0,P|241:184|283:171,1,55,2|0,0:0|0:0,2:2:0:0:
179,18,292289,5,2,1:2:0:0:
194,24,292351,1,2,2:2:0:0:
207,34,292414,2,0,L|221:87,1,55,2|2,0:0|0:0,2:2:0:0:
42,230,292539,5,10,1:2:0:0:
57,224,292601,1,2,2:2:0:0:
70,214,292664,2,0,P|79:188|84:161,1,55,2|2,0:0|0:0,2:2:0:0:
298,57,292789,6,0,P|326:66|341:112,1,55,2|2,1:2|0:0,2:2:0:0:
375,83,292914,2,0,P|381:111|348:147,1,55,2|2,1:2|0:0,2:2:0:0:
390,162,293039,2,0,P|368:181|320:171,1,55,10|0,1:2|0:0,2:2:0:0:
329,214,293164,2,0,P|301:204|286:159,1,55,2|0,1:2|0:0,2:2:0:0:
134,68,293289,6,0,P|127:97|116:143,1,55,10|0,1:2|2:2,2:2:0:0:
82,261,293414,2,0,P|75:234|69:207,1,55,10|0,1:2|1:2,2:2:0:0:
30,24,293539,2,0,P|37:53|48:99,1,55,10|0,1:2|1:2,2:2:0:0:
154,300,293664,2,0,P|160:273|166:246,1,55,10|0,1:2|1:2,2:2:0:0:
100,161,294289,5,0,1:0:0:0:
99,169,294414,1,0,1:0:0:0:
13,208,294539,6,0,L|321:170,1,264,6|0,1:2|0:0,0:0:0:0:
344,224,294789,6,0,L|357:146,1,55,2|0,1:2|3:0,0:0:0:0:
418,98,294914,5,2,1:2:0:0:
407,95,294976,1,0,3:2:0:0:
396,92,295039,1,0,3:2:0:0:
385,89,295101,1,0,3:2:0:0:
374,86,295164,2,0,L|308:99,1,55,2|0,1:2|3:0,0:0:0:0:
308,95,295289,1,0,3:0:0:0:
297,94,295351,1,0,3:0:0:0:
286,92,295414,2,0,L|273:21,1,55,2|0,1:2|3:0,0:0:0:0:
265,34,295539,1,0,3:0:0:0:
254,31,295601,1,0,3:0:0:0:
242,31,295664,2,0,L|149:44,1,55,2|0,1:2|3:0,0:0:0:0:
93,93,295789,5,0,3:0:0:0:
93,93,295851,1,0,3:0:0:0:
93,93,295914,2,0,L|100:147,1,55,2|0,1:2|3:0,0:0:0:0:
110,152,296039,2,0,L|103:206,1,55,2|0,1:2|3:0,0:0:0:0:
101,217,296164,1,0,3:0:0:0:
99,227,296226,1,0,3:0:0:0:
97,237,296289,2,0,L|170:255,1,55,2|0,1:2|3:0,0:0:0:0:
157,258,296414,2,0,L|229:248,1,55,2|0,1:2|3:0,0:0:0:0:
221,244,296539,1,0,3:0:0:0:
231,245,296601,1,0,3:0:0:0:
241,247,296664,2,0,L|306:235,1,55,2|0,1:2|3:0,0:0:0:0:
434,131,296789,6,0,L|416:205,1,55,2|0,1:2|3:0,0:0:0:0:
472,274,296914,5,2,1:2:0:0:
466,283,296976,1,0,3:0:0:0:
456,287,297039,1,0,3:0:0:0:
445,289,297101,1,0,3:0:0:0:
434,287,297164,2,0,P|393:275|358:273,1,55,2|0,1:2|3:0,0:0:0:0:
370,278,297289,1,0,3:0:0:0:
361,284,297351,1,0,3:0:0:0:
353,292,297414,2,0,P|312:280|277:278,1,55,2|0,1:2|3:0,0:0:0:0:
289,283,297539,1,0,3:0:0:0:
280,289,297601,1,0,3:0:0:0:
272,297,297664,2,0,P|231:285|196:283,1,55,2|0,1:2|3:0,0:0:0:0:
148,246,297789,1,0,3:0:0:0:
399,112,297914,5,2,1:2:0:0:
399,112,297976,1,0,3:2:0:0:
399,112,298039,2,0,L|318:123,1,55,0|0,3:2|0:0,0:0:0:0:
266,125,298164,1,2,1:2:0:0:
508,225,298289,6,0,B|491:212|491:212|382:197,1,110,2|0,1:2|0:0,0:0:0:0:
148,34,298539,2,0,B|131:47|131:47|22:62,1,110,2|0,1:2|0:0,0:0:0:0:
254,361,298789,6,0,P|260:320|264:293,1,55,6|0,1:2|0:0,0:0:0:0:
351,381,298914,2,0,P|341:315|335:272,1,110,2|0,1:2|3:0,0:0:0:0:
139,281,299164,2,0,P|129:215|123:172,1,110,2|0,1:2|3:0,0:0:0:0:
335,42,299414,6,0,P|339:13|342:-5,6,27.5,2|0|0|0|0|0|0,1:2|3:0|3:0|3:0|3:0|3:0|3:0,3:0:0:0:
275,150,299664,2,0,P|270:122|267:95,1,55,2|0,1:2|0:0,0:0:0:0:
245,24,299789,1,0,3:0:0:0:
245,24,299851,1,0,3:0:0:0:
245,24,299914,6,0,P|251:65|255:92,1,55,2|0,1:2|3:0,0:0:0:0:
416,40,300039,2,0,P|404:119|396:171,1,110,2|0,1:2|3:0,0:0:0:0:
131,226,300289,6,0,P|137:267|141:294,1,55,2|0,1:2|3:0,0:0:0:0:
293,243,300414,2,0,P|281:322|273:374,1,110,2|0,1:2|3:0,0:0:0:0:
480,188,300664,6,0,P|474:229|470:256,1,55,2|0,1:2|0:0,0:0:0:0:
507,319,300789,5,2,0:0:0:0:
507,319,300914,2,0,L|407:329,1,88,2|0,0:0|0:0,0:0:0:0:
335,241,301164,1,2,0:0:0:0:
335,241,301289,6,0,L|291:236,2,44,0|0|2,0:0|0:0|0:0,0:0:0:0:
356,149,301539,2,0,L|259:162,1,88,2|0,0:0|0:0,0:0:0:0:
153,257,301789,1,2,0:0:0:0:
153,257,301914,2,0,L|56:244,1,88,2|0,0:0|0:0,0:0:0:0:
392,316,302164,6,0,L|195:343,1,176,2|0,0:0|0:0,0:0:0:0:
335,241,302539,2,0,L|247:229,1,88,10|0,0:0|0:0,0:0:0:0:
43,347,302789,5,12,0:3:0:0:
256,192,302914,12,0,307789,0:0:0:0:
