osu file format v14

[General]
AudioFilename: audio.mp3
AudioLeadIn: 0
PreviewTime: 199408
Countdown: 0
SampleSet: Normal
StackLeniency: 0.7
Mode: 1
LetterboxInBreaks: 0
WidescreenStoryboard: 1

[Editor]
Bookmarks: 7408,22177,36946,51715,66484,81254,96023,110792,125561,140331
DistanceSpacing: 1.4
BeatDivisor: 12
GridSize: 32
TimelineZoom: 1.5

[Metadata]
Title:Dream Elevator
TitleUnicode:Dream Elevator
Artist:Sparxe
ArtistUnicode:Sparxe
Creator:Cynplytholowazy
Version:Oni
Source:Expert Global Taiko Showdown 2022
Tags:Electronic Instrumental EGTS 2022 Round of 32 Ro32 DT1 Double Time 1 Doubletime DOUBLE_TIME_ONE atmospheric Sparxe
BeatmapID:3796631
BeatmapSetID:1837865

[Difficulty]
HPDrainRate:5.5
CircleSize:10
OverallDifficulty:4.5
ApproachRate:10
SliderMultiplier:1.4
SliderTickRate:3

[Events]
//Background and Video events
0,0,"dream_elevator_BG.png",0,-27
//Break Periods
2,246684,258034
//Storyboard Layer 0 (Background)
//Storyboard Layer 1 (Fail)
//Storyboard Layer 2 (Pass)
//Storyboard Layer 3 (Foreground)
//Storyboard Layer 4 (Overlay)
//Storyboard Sound Samples

[TimingPoints]
7408,461.538461538462,4,1,0,70,1,0
37178,-100,4,1,0,60,0,0
44216,-100,4,1,0,70,0,0
51601,-100,4,1,0,75,0,0
66408,-100,4,1,0,80,0,0
66484,-100,4,1,0,80,0,1
96023,-100,4,1,0,80,0,0
96255,-100,4,1,0,70,0,0
140101,-100,4,1,0,80,0,0
154985,-100,4,1,0,85,0,0
155100,-100,4,1,0,85,0,1
168023,-100,4,1,0,85,0,0
169755,-100,4,1,0,70,0,0
177197,-100,4,1,0,75,0,0
199293,-100,4,1,0,80,0,0
199408,-100,4,1,0,80,0,1
228831,-100,4,1,0,80,0,0
229062,-100,4,1,0,5,0,0
230678,-100,4,1,0,70,0,0

[HitObjects]
256,192,7408,5,2,0:0:0:0:
256,192,7523,1,2,0:0:0:0:
256,192,7638,1,0,0:0:0:0:
256,192,7869,1,2,0:0:0:0:
256,192,8100,1,0,0:0:0:0:
256,192,8331,1,2,0:0:0:0:
256,192,8561,1,0,0:0:0:0:
256,192,8792,1,2,0:0:0:0:
256,192,9254,1,2,0:0:0:0:
256,192,9369,1,2,0:0:0:0:
256,192,9484,1,0,0:0:0:0:
256,192,9715,1,2,0:0:0:0:
256,192,9946,1,0,0:0:0:0:
256,192,10177,1,2,0:0:0:0:
256,192,10408,1,2,0:0:0:0:
256,192,10638,1,0,0:0:0:0:
256,192,11100,1,2,0:0:0:0:
256,192,11215,1,2,0:0:0:0:
256,192,11331,1,0,0:0:0:0:
256,192,11561,1,2,0:0:0:0:
256,192,11792,1,0,0:0:0:0:
256,192,12023,1,2,0:0:0:0:
256,192,12254,1,0,0:0:0:0:
256,192,12484,1,2,0:0:0:0:
256,192,12946,1,2,0:0:0:0:
256,192,13177,1,0,0:0:0:0:
256,192,13292,1,0,0:0:0:0:
256,192,13408,1,2,0:0:0:0:
256,192,13638,1,0,0:0:0:0:
256,192,13869,1,2,0:0:0:0:
256,192,13984,1,2,0:0:0:0:
256,192,14100,1,0,0:0:0:0:
256,192,14331,1,2,0:0:0:0:
256,192,14792,1,2,0:0:0:0:
256,192,14908,1,2,0:0:0:0:
256,192,15023,1,0,0:0:0:0:
256,192,15254,1,2,0:0:0:0:
256,192,15484,1,0,0:0:0:0:
256,192,15715,1,2,0:0:0:0:
256,192,15946,1,0,0:0:0:0:
256,192,16177,1,2,0:0:0:0:
256,192,16638,1,2,0:0:0:0:
256,192,16754,1,2,0:0:0:0:
256,192,16869,1,0,0:0:0:0:
256,192,17100,1,2,0:0:0:0:
256,192,17331,1,0,0:0:0:0:
256,192,17446,1,0,0:0:0:0:
256,192,17561,1,2,0:0:0:0:
256,192,17677,1,0,0:0:0:0:
256,192,17792,1,2,0:0:0:0:
256,192,18023,1,0,0:0:0:0:
256,192,18484,1,2,0:0:0:0:
256,192,18600,1,2,0:0:0:0:
256,192,18715,1,0,0:0:0:0:
256,192,18946,1,2,0:0:0:0:
256,192,19177,1,0,0:0:0:0:
256,192,19408,1,2,0:0:0:0:
256,192,19638,1,0,0:0:0:0:
256,192,19869,1,2,0:0:0:0:
256,192,20331,1,2,0:0:0:0:
256,192,20561,1,0,0:0:0:0:
256,192,20677,1,0,0:0:0:0:
256,192,20792,1,2,0:0:0:0:
256,192,21023,1,0,0:0:0:0:
256,192,21254,1,2,0:0:0:0:
256,192,21408,1,2,0:0:0:0:
256,192,21561,1,2,0:0:0:0:
256,192,21715,1,0,0:0:0:0:
256,192,22177,1,2,0:0:0:0:
256,192,22638,1,0,0:0:0:0:
256,192,22869,1,0,0:0:0:0:
256,192,23100,1,2,0:0:0:0:
256,192,23561,1,2,0:0:0:0:
256,192,23792,1,0,0:0:0:0:
256,192,23908,1,0,0:0:0:0:
256,192,24023,1,2,0:0:0:0:
256,192,24254,1,2,0:0:0:0:
256,192,24484,1,0,0:0:0:0:
256,192,24946,1,2,0:0:0:0:
256,192,25177,1,2,0:0:0:0:
256,192,25408,1,0,0:0:0:0:
256,192,25561,1,0,0:0:0:0:
256,192,25715,1,0,0:0:0:0:
256,192,25869,1,2,0:0:0:0:
256,192,26331,1,2,0:0:0:0:
256,192,26561,1,0,0:0:0:0:
256,192,26792,1,2,0:0:0:0:
256,192,27254,1,0,0:0:0:0:
256,192,27484,1,2,0:0:0:0:
256,192,27715,1,2,0:0:0:0:
256,192,27946,1,0,0:0:0:0:
256,192,28061,1,0,0:0:0:0:
256,192,28177,1,2,0:0:0:0:
256,192,28408,1,0,0:0:0:0:
256,192,28638,1,2,0:0:0:0:
256,192,28754,1,2,0:0:0:0:
256,192,28869,1,0,0:0:0:0:
256,192,29100,1,2,0:0:0:0:
256,192,29331,1,0,0:0:0:0:
256,192,29561,1,2,0:0:0:0:
256,192,30023,1,0,0:0:0:0:
256,192,30484,1,0,0:0:0:0:
256,192,30946,1,2,0:0:0:0:
256,192,31408,1,0,0:0:0:0:
256,192,31638,1,0,0:0:0:0:
256,192,31869,1,2,0:0:0:0:
256,192,32100,1,0,0:0:0:0:
256,192,32215,1,0,0:0:0:0:
256,192,32331,1,2,0:0:0:0:
256,192,32446,1,0,0:0:0:0:
256,192,32561,1,2,0:0:0:0:
256,192,32792,1,0,0:0:0:0:
256,192,33023,1,0,0:0:0:0:
256,192,33254,1,2,0:0:0:0:
256,192,33715,1,0,0:0:0:0:
256,192,33946,1,0,0:0:0:0:
256,192,34177,1,2,0:0:0:0:
256,192,34638,1,2,0:0:0:0:
256,192,34869,1,0,0:0:0:0:
256,192,34984,1,0,0:0:0:0:
256,192,35100,1,2,0:0:0:0:
256,192,35331,1,0,0:0:0:0:
256,192,35561,1,2,0:0:0:0:
256,192,35792,1,0,0:0:0:0:
256,192,36023,1,2,0:0:0:0:
256,192,36177,1,2,0:0:0:0:
256,192,36331,1,2,0:0:0:0:
256,192,36484,1,0,0:0:0:0:
256,192,36946,1,0,0:0:0:0:
256,192,37408,1,0,0:0:0:0:
256,192,37869,1,0,0:0:0:0:
256,192,38331,1,0,0:0:0:0:
256,192,38561,1,2,0:0:0:0:
256,192,38792,1,0,0:0:0:0:
256,192,39254,1,0,0:0:0:0:
256,192,39715,1,0,0:0:0:0:
256,192,39946,1,2,0:0:0:0:
256,192,40177,1,2,0:0:0:0:
256,192,40408,1,2,0:0:0:0:
256,192,40638,1,2,0:0:0:0:
256,192,41100,1,0,0:0:0:0:
256,192,41561,1,0,0:0:0:0:
256,192,42023,1,0,0:0:0:0:
256,192,42254,1,2,0:0:0:0:
256,192,42484,1,0,0:0:0:0:
256,192,42946,1,0,0:0:0:0:
256,192,43408,1,0,0:0:0:0:
256,192,43638,1,2,0:0:0:0:
256,192,43869,1,2,0:0:0:0:
256,192,44100,1,2,0:0:0:0:
256,192,44331,1,0,0:0:0:0:
256,192,44792,1,2,0:0:0:0:
256,192,45023,1,0,0:0:0:0:
256,192,45254,1,2,0:0:0:0:
256,192,45484,1,2,0:0:0:0:
256,192,45715,1,0,0:0:0:0:
256,192,45946,1,0,0:0:0:0:
256,192,46408,1,0,0:0:0:0:
256,192,46638,1,2,0:0:0:0:
256,192,46869,1,2,0:0:0:0:
256,192,47331,1,0,0:0:0:0:
256,192,47561,1,2,0:0:0:0:
256,192,47792,1,0,0:0:0:0:
256,192,48023,1,0,0:0:0:0:
256,192,48484,1,2,0:0:0:0:
256,192,48715,1,0,0:0:0:0:
256,192,48946,1,2,0:0:0:0:
256,192,49177,1,2,0:0:0:0:
256,192,49408,1,0,0:0:0:0:
256,192,49638,1,0,0:0:0:0:
256,192,50100,1,0,0:0:0:0:
256,192,50331,1,2,0:0:0:0:
256,192,50561,1,2,0:0:0:0:
256,192,51023,1,0,0:0:0:0:
256,192,51254,1,0,0:0:0:0:
256,192,51715,1,2,0:0:0:0:
256,192,51946,1,0,0:0:0:0:
256,192,52408,1,0,0:0:0:0:
256,192,52869,1,0,0:0:0:0:
256,192,53331,1,0,0:0:0:0:
256,192,53561,1,2,0:0:0:0:
256,192,53792,1,0,0:0:0:0:
256,192,54254,1,0,0:0:0:0:
256,192,54484,1,2,0:0:0:0:
256,192,54715,1,0,0:0:0:0:
256,192,54946,1,2,0:0:0:0:
256,192,55061,1,2,0:0:0:0:
256,192,55177,1,2,0:0:0:0:
256,192,55408,1,2,0:0:0:0:
256,192,55638,1,0,0:0:0:0:
256,192,56100,1,0,0:0:0:0:
256,192,56561,1,0,0:0:0:0:
256,192,57023,1,0,0:0:0:0:
256,192,57254,1,2,0:0:0:0:
256,192,57484,1,0,0:0:0:0:
256,192,57946,1,0,0:0:0:0:
256,192,58177,1,2,0:0:0:0:
256,192,58408,1,0,0:0:0:0:
256,192,58638,1,2,0:0:0:0:
256,192,58754,1,2,0:0:0:0:
256,192,58869,1,2,0:0:0:0:
256,192,59100,1,2,0:0:0:0:
256,192,59331,1,0,0:0:0:0:
256,192,59792,1,0,0:0:0:0:
256,192,60023,1,2,0:0:0:0:
256,192,60254,1,0,0:0:0:0:
256,192,60715,1,0,0:0:0:0:
256,192,60946,1,2,0:0:0:0:
256,192,61177,1,0,0:0:0:0:
256,192,61638,1,0,0:0:0:0:
256,192,61869,1,2,0:0:0:0:
256,192,62100,1,0,0:0:0:0:
256,192,62561,1,0,0:0:0:0:
256,192,62792,1,2,0:0:0:0:
256,192,63023,1,0,0:0:0:0:
256,192,63254,1,2,0:0:0:0:
256,192,63484,1,0,0:0:0:0:
256,192,63715,1,2,0:0:0:0:
256,192,63946,1,2,0:0:0:0:
256,192,64177,1,0,0:0:0:0:
256,192,64408,1,0,0:0:0:0:
256,192,64638,1,2,0:0:0:0:
256,192,65100,1,2,0:0:0:0:
256,192,65331,1,0,0:0:0:0:
256,192,65561,1,2,0:0:0:0:
256,192,65715,1,2,0:0:0:0:
256,192,65869,1,2,0:0:0:0:
256,192,66023,1,0,0:0:0:0:
256,192,66484,1,6,0:0:0:0:
256,192,66946,1,0,0:0:0:0:
256,192,67408,1,2,0:0:0:0:
256,192,67869,1,2,0:0:0:0:
256,192,68100,1,0,0:0:0:0:
256,192,68331,1,2,0:0:0:0:
256,192,68792,1,0,0:0:0:0:
256,192,69023,1,0,0:0:0:0:
256,192,69254,1,2,0:0:0:0:
256,192,69484,1,0,0:0:0:0:
256,192,69600,1,0,0:0:0:0:
256,192,69715,1,2,0:0:0:0:
256,192,70177,1,0,0:0:0:0:
256,192,70638,1,2,0:0:0:0:
256,192,71100,1,0,0:0:0:0:
256,192,71561,1,0,0:0:0:0:
256,192,71792,1,0,0:0:0:0:
256,192,72023,1,2,0:0:0:0:
256,192,72254,1,0,0:0:0:0:
256,192,72484,1,2,0:0:0:0:
256,192,72715,1,0,0:0:0:0:
256,192,72946,1,2,0:0:0:0:
256,192,73177,1,0,0:0:0:0:
256,192,73292,1,0,0:0:0:0:
256,192,73408,1,2,0:0:0:0:
256,192,73523,1,2,0:0:0:0:
256,192,73638,1,0,0:0:0:0:
256,192,73869,1,2,0:0:0:0:
256,192,74331,1,0,0:0:0:0:
256,192,74792,1,2,0:0:0:0:
256,192,75254,1,2,0:0:0:0:
256,192,75484,1,0,0:0:0:0:
256,192,75715,1,2,0:0:0:0:
256,192,76177,1,0,0:0:0:0:
256,192,76408,1,0,0:0:0:0:
256,192,76638,1,2,0:0:0:0:
256,192,76869,1,0,0:0:0:0:
256,192,76984,1,0,0:0:0:0:
256,192,77100,1,2,0:0:0:0:
256,192,77331,1,2,0:0:0:0:
256,192,77561,1,0,0:0:0:0:
256,192,78023,1,2,0:0:0:0:
256,192,78484,1,0,0:0:0:0:
256,192,78946,1,2,0:0:0:0:
256,192,79177,1,0,0:0:0:0:
256,192,79292,1,0,0:0:0:0:
256,192,79408,1,2,0:0:0:0:
256,192,79638,1,2,0:0:0:0:
256,192,79869,1,0,0:0:0:0:
256,192,80100,1,2,0:0:0:0:
256,192,80215,1,2,0:0:0:0:
256,192,80331,1,2,0:0:0:0:
256,192,80561,1,0,0:0:0:0:
256,192,80792,1,2,0:0:0:0:
256,192,81254,1,4,0:0:0:0:
256,192,81484,1,2,0:0:0:0:
256,192,81946,1,2,0:0:0:0:
256,192,82177,1,0,0:0:0:0:
256,192,82408,1,2,0:0:0:0:
256,192,82869,1,2,0:0:0:0:
256,192,83100,1,0,0:0:0:0:
256,192,83331,1,2,0:0:0:0:
256,192,83792,1,2,0:0:0:0:
256,192,84023,1,0,0:0:0:0:
256,192,84254,1,2,0:0:0:0:
256,192,84369,1,2,0:0:0:0:
256,192,84484,1,0,0:0:0:0:
256,192,84715,1,2,0:0:0:0:
256,192,84946,1,0,0:0:0:0:
256,192,85177,1,2,0:0:0:0:
256,192,85638,1,2,0:0:0:0:
256,192,85869,1,0,0:0:0:0:
256,192,86100,1,2,0:0:0:0:
256,192,86561,1,2,0:0:0:0:
256,192,86792,1,0,0:0:0:0:
256,192,87023,1,2,0:0:0:0:
256,192,87254,1,0,0:0:0:0:
256,192,87484,1,0,0:0:0:0:
256,192,87715,1,2,0:0:0:0:
256,192,87946,1,0,0:0:0:0:
256,192,88061,1,0,0:0:0:0:
256,192,88177,1,2,0:0:0:0:
256,192,88292,1,0,0:0:0:0:
256,192,88408,1,2,0:0:0:0:
256,192,88638,1,0,0:0:0:0:
256,192,88869,1,2,0:0:0:0:
256,192,89331,1,2,0:0:0:0:
256,192,89561,1,0,0:0:0:0:
256,192,89792,1,2,0:0:0:0:
256,192,90254,1,2,0:0:0:0:
256,192,90484,1,0,0:0:0:0:
256,192,90715,1,2,0:0:0:0:
256,192,91177,1,2,0:0:0:0:
256,192,91408,1,0,0:0:0:0:
256,192,91638,1,2,0:0:0:0:
256,192,91754,1,2,0:0:0:0:
256,192,91869,1,0,0:0:0:0:
256,192,92100,1,0,0:0:0:0:
256,192,92331,1,2,0:0:0:0:
256,192,92792,1,0,0:0:0:0:
256,192,93023,1,0,0:0:0:0:
256,192,93254,1,2,0:0:0:0:
256,192,93484,1,2,0:0:0:0:
256,192,93715,1,0,0:0:0:0:
256,192,93946,1,0,0:0:0:0:
256,192,94177,1,2,0:0:0:0:
256,192,94408,1,0,0:0:0:0:
256,192,94638,1,2,0:0:0:0:
256,192,94869,1,0,0:0:0:0:
256,192,94984,1,0,0:0:0:0:
256,192,95100,1,2,0:0:0:0:
256,192,95331,1,0,0:0:0:0:
256,192,95561,1,2,0:0:0:0:
256,192,95677,1,2,0:0:0:0:
256,192,95792,1,2,0:0:0:0:
256,192,95908,1,2,0:0:0:0:
256,192,96023,1,0,0:0:0:0:
256,192,96484,1,0,0:0:0:0:
256,192,96946,1,0,0:0:0:0:
256,192,97292,1,2,0:0:0:0:
256,192,97638,1,2,0:0:0:0:
256,192,98100,1,2,0:0:0:0:
256,192,98331,1,0,0:0:0:0:
256,192,98792,1,0,0:0:0:0:
256,192,99138,1,2,0:0:0:0:
256,192,99715,1,0,0:0:0:0:
256,192,100177,1,0,0:0:0:0:
256,192,100638,1,0,0:0:0:0:
256,192,100984,1,2,0:0:0:0:
256,192,101331,1,2,0:0:0:0:
256,192,101792,1,2,0:0:0:0:
256,192,102023,1,0,0:0:0:0:
256,192,102484,1,2,0:0:0:0:
256,192,102831,1,2,0:0:0:0:
256,192,103177,1,2,0:0:0:0:
256,192,103408,1,0,0:0:0:0:
256,192,103869,1,0,0:0:0:0:
256,192,104331,1,0,0:0:0:0:
256,192,104677,1,2,0:0:0:0:
256,192,105023,1,2,0:0:0:0:
256,192,105484,1,2,0:0:0:0:
256,192,105715,1,0,0:0:0:0:
256,192,106177,1,0,0:0:0:0:
256,192,106523,1,2,0:0:0:0:
256,192,107100,1,0,0:0:0:0:
256,192,107561,1,0,0:0:0:0:
256,192,108023,1,0,0:0:0:0:
256,192,108369,1,2,0:0:0:0:
256,192,108715,1,2,0:0:0:0:
256,192,109177,1,2,0:0:0:0:
256,192,109408,1,0,0:0:0:0:
256,192,109638,1,0,0:0:0:0:
256,192,109869,1,2,0:0:0:0:
256,192,110100,1,0,0:0:0:0:
256,192,110215,1,0,0:0:0:0:
256,192,110331,1,2,0:0:0:0:
256,192,110446,1,2,0:0:0:0:
256,192,110792,1,4,0:0:0:0:
256,192,111946,1,2,0:0:0:0:
256,192,112638,1,4,0:0:0:0:
256,192,113792,1,2,0:0:0:0:
256,192,114484,1,4,0:0:0:0:
256,192,115638,1,0,0:0:0:0:
256,192,116331,1,4,0:0:0:0:
256,192,117484,1,0,0:0:0:0:
256,192,118177,1,2,0:0:0:0:
256,192,118292,1,2,0:0:0:0:
256,192,118408,1,0,0:0:0:0:
256,192,118638,1,2,0:0:0:0:
256,192,118869,1,0,0:0:0:0:
256,192,119100,1,2,0:0:0:0:
256,192,119331,1,2,0:0:0:0:
256,192,119446,1,2,0:0:0:0:
256,192,119561,1,2,0:0:0:0:
256,192,119792,1,0,0:0:0:0:
256,192,120023,1,2,0:0:0:0:
256,192,120138,1,2,0:0:0:0:
256,192,120254,1,0,0:0:0:0:
256,192,120484,1,2,0:0:0:0:
256,192,120715,1,0,0:0:0:0:
256,192,120946,1,2,0:0:0:0:
256,192,121177,1,2,0:0:0:0:
256,192,121638,1,0,0:0:0:0:
256,192,121869,1,2,0:0:0:0:
256,192,121984,1,2,0:0:0:0:
256,192,122100,1,0,0:0:0:0:
256,192,122331,1,2,0:0:0:0:
256,192,122561,1,0,0:0:0:0:
256,192,122792,1,2,0:0:0:0:
256,192,123023,1,0,0:0:0:0:
256,192,123138,1,0,0:0:0:0:
256,192,123254,1,2,0:0:0:0:
256,192,123484,1,0,0:0:0:0:
256,192,123715,1,2,0:0:0:0:
256,192,124177,1,2,0:0:0:0:
256,192,124408,1,0,0:0:0:0:
256,192,124638,1,2,0:0:0:0:
256,192,124869,1,0,0:0:0:0:
256,192,125100,1,2,0:0:0:0:
256,192,125215,1,2,0:0:0:0:
256,192,125331,1,2,0:0:0:0:
256,192,125561,1,0,0:0:0:0:
256,192,126023,1,0,0:0:0:0:
256,192,126484,1,0,0:0:0:0:
256,192,126946,1,0,0:0:0:0:
256,192,127408,1,0,0:0:0:0:
256,192,127869,1,0,0:0:0:0:
256,192,128331,1,0,0:0:0:0:
256,192,128792,1,0,0:0:0:0:
256,192,129254,1,2,0:0:0:0:
256,192,129715,1,0,0:0:0:0:
256,192,130177,1,2,0:0:0:0:
256,192,130638,1,0,0:0:0:0:
256,192,130869,1,0,0:0:0:0:
256,192,131100,1,2,0:0:0:0:
256,192,131331,1,0,0:0:0:0:
256,192,131561,1,2,0:0:0:0:
256,192,131792,1,0,0:0:0:0:
256,192,132138,1,0,0:0:0:0:
256,192,132369,1,2,0:0:0:0:
256,192,132715,1,2,0:0:0:0:
256,192,132946,1,0,0:0:0:0:
256,192,133177,1,0,0:0:0:0:
256,192,133408,1,2,0:0:0:0:
256,192,133869,1,2,0:0:0:0:
256,192,134100,1,0,0:0:0:0:
256,192,134331,1,2,0:0:0:0:
256,192,134561,1,2,0:0:0:0:
256,192,134792,1,0,0:0:0:0:
256,192,135023,1,0,0:0:0:0:
256,192,135254,1,2,0:0:0:0:
256,192,135715,1,2,0:0:0:0:
256,192,135946,1,0,0:0:0:0:
256,192,136177,1,2,0:0:0:0:
256,192,136408,1,2,0:0:0:0:
256,192,136638,1,2,0:0:0:0:
256,192,136869,1,0,0:0:0:0:
256,192,137100,1,2,0:0:0:0:
256,192,137561,1,2,0:0:0:0:
256,192,137792,1,0,0:0:0:0:
256,192,138023,1,2,0:0:0:0:
256,192,138254,1,2,0:0:0:0:
256,192,138484,2,0,L|320:192,9,46.6666666666667
256,192,140331,1,4,0:0:0:0:
256,192,140792,1,2,0:0:0:0:
256,192,141023,1,0,0:0:0:0:
256,192,141254,1,2,0:0:0:0:
256,192,141484,1,2,0:0:0:0:
256,192,141600,1,2,0:0:0:0:
256,192,141715,1,0,0:0:0:0:
256,192,141946,1,0,0:0:0:0:
256,192,142177,1,2,0:0:0:0:
256,192,142638,1,0,0:0:0:0:
256,192,143100,1,2,0:0:0:0:
256,192,143331,1,0,0:0:0:0:
256,192,143561,1,2,0:0:0:0:
256,192,143792,1,2,0:0:0:0:
256,192,143908,1,2,0:0:0:0:
256,192,144023,1,2,0:0:0:0:
256,192,144484,1,2,0:0:0:0:
256,192,144715,1,0,0:0:0:0:
256,192,144946,1,2,0:0:0:0:
256,192,145177,1,2,0:0:0:0:
256,192,145408,1,0,0:0:0:0:
256,192,145869,1,2,0:0:0:0:
256,192,146100,1,0,0:0:0:0:
256,192,146215,1,0,0:0:0:0:
256,192,146331,1,2,0:0:0:0:
256,192,146561,1,0,0:0:0:0:
256,192,146792,1,2,0:0:0:0:
256,192,146908,1,2,0:0:0:0:
256,192,147023,1,0,0:0:0:0:
256,192,147254,1,2,0:0:0:0:
256,192,147715,1,0,0:0:0:0:
256,192,148177,1,2,0:0:0:0:
256,192,148408,1,0,0:0:0:0:
256,192,148523,1,0,0:0:0:0:
256,192,148638,1,2,0:0:0:0:
256,192,148869,1,2,0:0:0:0:
256,192,149100,1,0,0:0:0:0:
256,192,149331,1,0,0:0:0:0:
256,192,149561,1,2,0:0:0:0:
256,192,150023,1,0,0:0:0:0:
256,192,150484,1,2,0:0:0:0:
256,192,150715,1,0,0:0:0:0:
256,192,150946,1,2,0:0:0:0:
256,192,151177,1,2,0:0:0:0:
256,192,151292,1,2,0:0:0:0:
256,192,151408,1,2,0:0:0:0:
256,192,151869,1,2,0:0:0:0:
256,192,152100,1,0,0:0:0:0:
256,192,152331,1,2,0:0:0:0:
256,192,152561,1,2,0:0:0:0:
256,192,152792,1,0,0:0:0:0:
256,192,152908,1,0,0:0:0:0:
256,192,153023,1,0,0:0:0:0:
256,192,153254,1,2,0:0:0:0:
256,192,153484,1,0,0:0:0:0:
256,192,153600,1,0,0:0:0:0:
256,192,153715,1,2,0:0:0:0:
256,192,153946,1,0,0:0:0:0:
256,192,154177,1,2,0:0:0:0:
256,192,154292,1,2,0:0:0:0:
256,192,154408,1,0,0:0:0:0:
256,192,154638,1,2,0:0:0:0:
256,192,155100,1,6,0:0:0:0:
256,192,155446,1,0,0:0:0:0:
256,192,155561,1,2,0:0:0:0:
256,192,155792,1,2,0:0:0:0:
256,192,155908,1,0,0:0:0:0:
256,192,156254,1,2,0:0:0:0:
256,192,156484,1,0,0:0:0:0:
256,192,156715,1,0,0:0:0:0:
256,192,156946,1,2,0:0:0:0:
256,192,157292,1,0,0:0:0:0:
256,192,157408,1,2,0:0:0:0:
256,192,157638,1,2,0:0:0:0:
256,192,157754,1,0,0:0:0:0:
256,192,158100,1,2,0:0:0:0:
256,192,158331,1,0,0:0:0:0:
256,192,158792,1,2,0:0:0:0:
256,192,159138,1,0,0:0:0:0:
256,192,159254,1,2,0:0:0:0:
256,192,159484,1,2,0:0:0:0:
256,192,159600,1,0,0:0:0:0:
256,192,159946,1,2,0:0:0:0:
256,192,160177,1,0,0:0:0:0:
256,192,160408,1,0,0:0:0:0:
256,192,160638,1,2,0:0:0:0:
256,192,160984,1,0,0:0:0:0:
256,192,161100,1,2,0:0:0:0:
256,192,161331,1,2,0:0:0:0:
256,192,161446,1,2,0:0:0:0:
256,192,161561,1,2,0:0:0:0:
256,192,161792,1,0,0:0:0:0:
256,192,162023,1,2,0:0:0:0:
256,192,162138,1,2,0:0:0:0:
256,192,162254,1,0,0:0:0:0:
256,192,162484,1,6,0:0:0:0:
256,192,162831,1,0,0:0:0:0:
256,192,162946,1,2,0:0:0:0:
256,192,163177,1,0,0:0:0:0:
256,192,163408,1,2,0:0:0:0:
256,192,163869,1,0,0:0:0:0:
256,192,164100,1,0,0:0:0:0:
256,192,164331,1,2,0:0:0:0:
256,192,164561,1,2,0:0:0:0:
256,192,164677,1,0,0:0:0:0:
256,192,164908,1,2,0:0:0:0:
256,192,165023,1,0,0:0:0:0:
256,192,165254,1,2,0:0:0:0:
256,192,165600,1,0,0:0:0:0:
256,192,165715,1,2,0:0:0:0:
256,192,165946,1,2,0:0:0:0:
256,192,166177,1,0,0:0:0:0:
256,192,166523,1,0,0:0:0:0:
256,192,166638,1,2,0:0:0:0:
256,192,166869,1,2,0:0:0:0:
256,192,166984,1,0,0:0:0:0:
256,192,167331,1,2,0:0:0:0:
256,192,167561,1,0,0:0:0:0:
256,192,167792,1,0,0:0:0:0:
256,192,168023,1,2,0:0:0:0:
256,192,168254,8,0,169408,0:0:0:0:
256,192,169869,5,4,0:0:0:0:
256,192,170331,1,2,0:0:0:0:
256,192,170792,1,2,0:0:0:0:
256,192,171254,1,2,0:0:0:0:
256,192,171946,1,0,0:0:0:0:
256,192,172408,1,2,0:0:0:0:
256,192,172869,1,2,0:0:0:0:
256,192,173100,1,0,0:0:0:0:
256,192,173561,1,0,0:0:0:0:
256,192,174023,1,2,0:0:0:0:
256,192,174484,1,2,0:0:0:0:
256,192,174946,1,2,0:0:0:0:
256,192,175638,1,0,0:0:0:0:
256,192,176100,1,2,0:0:0:0:
256,192,176792,1,2,0:0:0:0:
256,192,177023,1,0,0:0:0:0:
256,192,177254,1,2,0:0:0:0:
256,192,177715,1,2,0:0:0:0:
256,192,177946,1,0,0:0:0:0:
256,192,178177,1,2,0:0:0:0:
256,192,178408,1,0,0:0:0:0:
256,192,178523,1,0,0:0:0:0:
256,192,178638,1,2,0:0:0:0:
256,192,178869,1,2,0:0:0:0:
256,192,179100,1,0,0:0:0:0:
256,192,179561,1,2,0:0:0:0:
256,192,179792,1,0,0:0:0:0:
256,192,180023,1,2,0:0:0:0:
256,192,180254,1,0,0:0:0:0:
256,192,180369,1,0,0:0:0:0:
256,192,180484,1,2,0:0:0:0:
256,192,180715,1,2,0:0:0:0:
256,192,180946,1,0,0:0:0:0:
256,192,181408,1,0,0:0:0:0:
256,192,181638,1,0,0:0:0:0:
256,192,181869,1,2,0:0:0:0:
256,192,181984,1,2,0:0:0:0:
256,192,182100,1,0,0:0:0:0:
256,192,182331,1,2,0:0:0:0:
256,192,182561,1,0,0:0:0:0:
256,192,182792,1,2,0:0:0:0:
256,192,183254,1,0,0:0:0:0:
256,192,183484,1,0,0:0:0:0:
256,192,183715,1,2,0:0:0:0:
256,192,183946,1,0,0:0:0:0:
256,192,184177,1,2,0:0:0:0:
256,192,184408,1,2,0:0:0:0:
256,192,184638,1,4,0:0:0:0:
256,192,185331,1,2,0:0:0:0:
256,192,185561,1,4,0:0:0:0:
256,192,186254,1,2,0:0:0:0:
256,192,186484,1,4,0:0:0:0:
256,192,187177,1,0,0:0:0:0:
256,192,187408,1,2,0:0:0:0:
256,192,187869,1,0,0:0:0:0:
256,192,188331,1,2,0:0:0:0:
256,192,188792,1,2,0:0:0:0:
256,192,189023,1,0,0:0:0:0:
256,192,189254,1,2,0:0:0:0:
256,192,189715,1,2,0:0:0:0:
256,192,189946,1,0,0:0:0:0:
256,192,190177,1,2,0:0:0:0:
256,192,190523,1,2,0:0:0:0:
256,192,190869,1,0,0:0:0:0:
256,192,191215,1,0,0:0:0:0:
256,192,191561,1,2,0:0:0:0:
256,192,192023,1,2,0:0:0:0:
256,192,192138,1,2,0:0:0:0:
256,192,192369,1,2,0:0:0:0:
256,192,192715,1,0,0:0:0:0:
256,192,192946,1,2,0:0:0:0:
256,192,193061,1,2,0:0:0:0:
256,192,193292,1,2,0:0:0:0:
256,192,193638,1,0,0:0:0:0:
256,192,193869,1,2,0:0:0:0:
256,192,193984,1,2,0:0:0:0:
256,192,194215,1,2,0:0:0:0:
256,192,194561,1,0,0:0:0:0:
256,192,194792,1,2,0:0:0:0:
256,192,194908,1,2,0:0:0:0:
256,192,195138,1,2,0:0:0:0:
256,192,195484,1,0,0:0:0:0:
256,192,195600,1,2,0:0:0:0:
256,192,195715,1,0,0:0:0:0:
256,192,196177,1,0,0:0:0:0:
256,192,196638,1,0,0:0:0:0:
256,192,197100,1,0,0:0:0:0:
256,192,197561,8,0,198484,0:0:0:0:
256,192,199408,5,6,0:0:0:0:
256,192,199869,1,0,0:0:0:0:
256,192,200331,1,2,0:0:0:0:
256,192,200792,1,2,0:0:0:0:
256,192,201023,1,0,0:0:0:0:
256,192,201254,1,2,0:0:0:0:
256,192,201715,1,0,0:0:0:0:
256,192,201946,1,0,0:0:0:0:
256,192,202177,1,2,0:0:0:0:
256,192,202408,1,0,0:0:0:0:
256,192,202523,1,0,0:0:0:0:
256,192,202638,1,2,0:0:0:0:
256,192,203100,1,0,0:0:0:0:
256,192,203561,1,2,0:0:0:0:
256,192,204023,1,0,0:0:0:0:
256,192,204484,1,0,0:0:0:0:
256,192,204715,1,0,0:0:0:0:
256,192,204946,1,2,0:0:0:0:
256,192,205177,1,0,0:0:0:0:
256,192,205408,1,2,0:0:0:0:
256,192,205638,1,0,0:0:0:0:
256,192,205869,1,2,0:0:0:0:
256,192,206100,1,0,0:0:0:0:
256,192,206215,1,0,0:0:0:0:
256,192,206331,1,2,0:0:0:0:
256,192,206446,1,2,0:0:0:0:
256,192,206561,1,0,0:0:0:0:
256,192,206792,1,2,0:0:0:0:
256,192,207254,1,0,0:0:0:0:
256,192,207715,1,2,0:0:0:0:
256,192,208177,1,2,0:0:0:0:
256,192,208408,1,0,0:0:0:0:
256,192,208638,1,2,0:0:0:0:
256,192,209100,1,0,0:0:0:0:
256,192,209331,1,0,0:0:0:0:
256,192,209561,1,2,0:0:0:0:
256,192,209792,1,0,0:0:0:0:
256,192,209908,1,0,0:0:0:0:
256,192,210023,1,2,0:0:0:0:
256,192,210254,1,2,0:0:0:0:
256,192,210484,1,0,0:0:0:0:
256,192,210946,1,2,0:0:0:0:
256,192,211408,1,0,0:0:0:0:
256,192,211869,1,2,0:0:0:0:
256,192,212100,1,0,0:0:0:0:
256,192,212215,1,0,0:0:0:0:
256,192,212331,1,2,0:0:0:0:
256,192,212561,1,2,0:0:0:0:
256,192,212792,1,0,0:0:0:0:
256,192,213023,1,2,0:0:0:0:
256,192,213138,1,2,0:0:0:0:
256,192,213254,1,2,0:0:0:0:
256,192,213484,1,0,0:0:0:0:
256,192,213715,1,2,0:0:0:0:
256,192,214177,1,4,0:0:0:0:
256,192,214638,1,0,0:0:0:0:
256,192,214754,1,0,0:0:0:0:
256,192,214869,1,2,0:0:0:0:
256,192,215100,1,0,0:0:0:0:
256,192,215215,1,0,0:0:0:0:
256,192,215331,1,2,0:0:0:0:
256,192,215561,1,0,0:0:0:0:
256,192,215792,1,2,0:0:0:0:
256,192,216023,1,0,0:0:0:0:
256,192,216484,1,2,0:0:0:0:
256,192,216715,1,2,0:0:0:0:
256,192,216831,1,0,0:0:0:0:
256,192,216946,1,2,0:0:0:0:
256,192,217177,1,2,0:0:0:0:
256,192,217292,1,2,0:0:0:0:
256,192,217408,1,0,0:0:0:0:
256,192,217638,1,2,0:0:0:0:
256,192,217869,1,0,0:0:0:0:
256,192,218331,1,2,0:0:0:0:
256,192,218561,1,2,0:0:0:0:
256,192,218792,1,0,0:0:0:0:
256,192,219023,1,2,0:0:0:0:
256,192,219484,1,2,0:0:0:0:
256,192,219600,1,2,0:0:0:0:
256,192,219715,1,0,0:0:0:0:
256,192,219946,1,2,0:0:0:0:
256,192,220177,1,0,0:0:0:0:
256,192,220408,1,2,0:0:0:0:
256,192,220638,1,2,0:0:0:0:
256,192,220869,1,0,0:0:0:0:
256,192,220984,1,0,0:0:0:0:
256,192,221100,1,2,0:0:0:0:
256,192,221215,1,0,0:0:0:0:
256,192,221331,1,2,0:0:0:0:
256,192,221561,1,0,0:0:0:0:
256,192,222023,1,2,0:0:0:0:
256,192,222254,1,2,0:0:0:0:
256,192,222484,1,0,0:0:0:0:
256,192,222946,1,2,0:0:0:0:
256,192,223177,1,2,0:0:0:0:
256,192,223408,1,0,0:0:0:0:
256,192,223638,1,0,0:0:0:0:
256,192,223869,1,2,0:0:0:0:
256,192,224100,1,2,0:0:0:0:
256,192,224331,1,0,0:0:0:0:
256,192,224561,1,2,0:0:0:0:
256,192,224677,1,2,0:0:0:0:
256,192,224792,1,0,0:0:0:0:
256,192,225023,1,0,0:0:0:0:
256,192,225254,1,2,0:0:0:0:
256,192,225715,1,0,0:0:0:0:
256,192,225946,1,0,0:0:0:0:
256,192,226177,1,2,0:0:0:0:
256,192,226408,1,2,0:0:0:0:
256,192,226638,1,0,0:0:0:0:
256,192,226869,1,0,0:0:0:0:
256,192,227100,1,2,0:0:0:0:
256,192,227331,1,0,0:0:0:0:
256,192,227561,1,2,0:0:0:0:
256,192,227792,1,0,0:0:0:0:
256,192,227908,1,0,0:0:0:0:
256,192,228023,1,2,0:0:0:0:
256,192,228254,1,0,0:0:0:0:
256,192,228484,1,2,0:0:0:0:
256,192,228600,1,0,0:0:0:0:
256,192,228715,1,2,0:0:0:0:
256,192,228831,1,2,0:0:0:0:
256,192,230792,1,2,0:0:0:0:
256,192,230908,1,2,0:0:0:0:
256,192,231023,1,0,0:0:0:0:
256,192,231254,1,2,0:0:0:0:
256,192,231484,1,0,0:0:0:0:
256,192,231715,1,2,0:0:0:0:
256,192,231946,1,0,0:0:0:0:
256,192,232177,1,2,0:0:0:0:
256,192,232638,1,2,0:0:0:0:
256,192,232754,1,2,0:0:0:0:
256,192,232869,1,0,0:0:0:0:
256,192,233100,1,2,0:0:0:0:
256,192,233331,1,0,0:0:0:0:
256,192,233561,1,2,0:0:0:0:
256,192,233792,1,2,0:0:0:0:
256,192,234023,1,0,0:0:0:0:
256,192,234484,1,2,0:0:0:0:
256,192,234600,1,2,0:0:0:0:
256,192,234715,1,0,0:0:0:0:
256,192,234946,1,2,0:0:0:0:
256,192,235177,1,0,0:0:0:0:
256,192,235408,1,2,0:0:0:0:
256,192,235638,1,0,0:0:0:0:
256,192,235869,1,2,0:0:0:0:
256,192,236331,1,2,0:0:0:0:
256,192,236561,1,0,0:0:0:0:
256,192,236677,1,0,0:0:0:0:
256,192,236792,1,2,0:0:0:0:
256,192,237023,1,0,0:0:0:0:
256,192,237254,1,2,0:0:0:0:
256,192,237369,1,2,0:0:0:0:
256,192,237484,1,0,0:0:0:0:
256,192,237715,1,2,0:0:0:0:
256,192,238177,1,2,0:0:0:0:
256,192,238292,1,2,0:0:0:0:
256,192,238408,1,0,0:0:0:0:
256,192,238638,1,2,0:0:0:0:
256,192,238869,1,0,0:0:0:0:
256,192,239100,1,2,0:0:0:0:
256,192,239331,1,0,0:0:0:0:
256,192,239561,1,2,0:0:0:0:
256,192,240023,1,2,0:0:0:0:
256,192,240138,1,2,0:0:0:0:
256,192,240254,1,0,0:0:0:0:
256,192,240484,1,2,0:0:0:0:
256,192,240715,1,0,0:0:0:0:
256,192,240831,1,0,0:0:0:0:
256,192,240946,1,2,0:0:0:0:
256,192,241061,1,0,0:0:0:0:
256,192,241177,1,2,0:0:0:0:
256,192,241408,1,0,0:0:0:0:
256,192,241869,1,2,0:0:0:0:
256,192,241984,1,2,0:0:0:0:
256,192,242100,1,0,0:0:0:0:
256,192,242331,1,2,0:0:0:0:
256,192,242561,1,0,0:0:0:0:
256,192,242792,1,2,0:0:0:0:
256,192,243023,1,0,0:0:0:0:
256,192,243254,1,2,0:0:0:0:
256,192,243715,1,2,0:0:0:0:
256,192,243946,1,0,0:0:0:0:
256,192,244061,1,0,0:0:0:0:
256,192,244177,1,2,0:0:0:0:
256,192,244408,1,0,0:0:0:0:
256,192,244638,1,2,0:0:0:0:
256,192,244792,1,2,0:0:0:0:
256,192,244946,1,2,0:0:0:0:
256,192,245100,1,0,0:0:0:0:
256,192,245561,12,0,246484,0:0:0:0:
256,192,258484,12,0,262177,0:0:0:0:
