osu file format v14

[General]
AudioFilename: audio.mp3
AudioLeadIn: 0
PreviewTime: 199408
Countdown: 0
SampleSet: Normal
StackLeniency: 0.7
Mode: 1
LetterboxInBreaks: 0
WidescreenStoryboard: 0

[Editor]
DistanceSpacing: 1.4
BeatDivisor: 4
GridSize: 32
TimelineZoom: 1.5

[Metadata]
Title:Dream Elevator
TitleUnicode:Dream Elevator
Artist:Sparxe
ArtistUnicode:Sparxe
Creator:Cynplytholowazy
Version:Descension
Source:Expert Global Taiko Showdown 2022
Tags:Electronic Instrumental EGTS 2022 Round of 32 Ro32 DT1 Double Time 1 Doubletime DOUBLE_TIME_ONE atmospheric Sparxe
BeatmapID:3773779
BeatmapSetID:1837865

[Difficulty]
HPDrainRate:5
CircleSize:10
OverallDifficulty:5.5
ApproachRate:10
SliderMultiplier:1.4
SliderTickRate:1

[Events]
//Background and Video events
0,0,"dream_elevator_BG.png",0,-27
//Break Periods
2,246684,258034
//Storyboard Layer 0 (Background)
//Storyboard Layer 1 (Fail)
//Storyboard Layer 2 (Pass)
//Storyboard Layer 3 (Foreground)
//Storyboard Layer 4 (Overlay)
//Storyboard Sound Samples

[TimingPoints]
7408,461.538461538462,4,1,0,70,1,0
21405,-98.7641110694987,4,1,0,70,0,0
21558,-97.5661319732565,4,1,0,70,0,0
21712,-96.3893167637,4,1,0,70,0,0
21789,-95.8114911506721,4,1,0,70,0,0
21866,-95.2405520443699,4,1,0,70,0,0
21943,-94.6763770643143,4,1,0,70,0,0
22020,-94.1188467127234,4,1,0,70,0,0
22097,-93.5678442901313,4,1,0,70,0,0
22174,-93.0232558139535,4,1,0,70,0,0
36174,-93.8731576672402,4,1,0,70,0,0
36328,-94.738732882278,4,1,0,70,0,0
36481,-95.6146408839779,4,1,0,70,0,0
36635,-96.5127829769436,4,1,0,70,0,0
36789,-97.4279581999226,4,1,0,70,0,0
36943,-98.3606557377049,4,1,0,70,0,0
37178,-100,4,1,0,60,0,0
37405,-101.269063380024,4,1,0,60,0,0
37866,-104.347826086957,4,1,0,60,0,0
38328,-107.626978651456,4,1,0,60,0,0
38558,-109.337518879379,4,1,0,60,0,0
38789,-111.111111111111,4,1,0,60,0,0
43635,-108.117605716294,4,1,0,60,0,0
43866,-105.269160583942,4,1,0,60,0,0
44097,-102.566951883543,4,1,0,60,0,0
44216,-100,4,1,0,70,0,0
51601,-100,4,1,0,75,0,0
59174,-99.7918750168933,4,1,0,75,0,0
59251,-99.5846145546744,4,1,0,75,0,0
59328,-99.3782132378671,4,1,0,75,0,0
59443,-99.0715397413192,4,1,0,75,0,0
59558,-98.7667531633718,4,1,0,75,0,0
59674,-98.4612102301518,4,1,0,75,0,0
59789,-98.1601616505371,4,1,0,75,0,0
60020,-97.5609756097561,4,1,0,75,0,0
60097,-97.3628691983122,4,1,0,75,0,0
60174,-97.1655657025555,4,1,0,75,0,0
60251,-96.96906025109,4,1,0,75,0,0
60366,-96.6770536018225,4,1,0,75,0,0
60481,-96.3868003341688,4,1,0,75,0,0
60597,-96.0957834461218,4,1,0,75,0,0
60712,-95.8090048008304,4,1,0,75,0,0
60943,-95.2380952380952,4,1,0,75,0,0
61020,-95.049301032361,4,1,0,75,0,0
61097,-94.8612538540596,4,1,0,75,0,0
61174,-94.6739492781496,4,1,0,75,0,0
61289,-94.3955819185928,4,1,0,75,0,0
61405,-94.1164474355053,4,1,0,75,0,0
61520,-93.8413440764558,4,1,0,75,0,0
61635,-93.5678442901313,4,1,0,75,0,0
61866,-93.0232558139535,4,1,0,75,0,0
61943,-92.843132324096,4,1,0,75,0,0
62020,-92.663705042291,4,1,0,75,0,0
62097,-92.4849699398798,4,1,0,75,0,0
62212,-92.2193081054078,4,1,0,75,0,0
62328,-91.9528778859804,4,1,0,75,0,0
62443,-91.6902597725128,4,1,0,75,0,0
62558,-91.4291374656398,4,1,0,75,0,0
62789,-90.9090909090909,4,1,0,75,0,0
62866,-90.7370542407039,4,1,0,75,0,0
62943,-90.565667467988,4,1,0,75,0,0
63020,-90.3949269152609,4,1,0,75,0,0
63135,-90.1411201718834,4,1,0,75,0,0
63251,-89.8865462336271,4,1,0,75,0,0
63328,-89.7183543534787,4,1,0,75,0,0
63405,-89.5507907247502,4,1,0,75,0,0
63481,-89.386015882239,4,1,0,75,0,0
63597,-89.1356832448093,4,1,0,75,0,0
63712,-88.8888888888889,4,1,0,75,0,0
63943,-88.397260929943,4,1,0,75,0,0
64174,-87.9110412648522,4,1,0,75,0,0
64405,-87.4301411385811,4,1,0,75,0,0
64462,-87.3122856805014,4,1,0,75,0,0
64520,-87.1926882837777,4,1,0,75,0,0
64635,-86.9565217391304,4,1,0,75,0,0
64866,-87.672013582988,4,1,0,75,0,0
64981,-88.0326188035003,4,1,0,75,0,0
65097,-88.3993774691728,4,1,0,75,0,0
65328,-89.1389113560366,4,1,0,75,0,0
65443,-89.5117102264462,4,1,0,75,0,0
65558,-89.8876404494382,4,1,0,75,0,0
65712,-90.3960335434902,4,1,0,75,0,0
65866,-90.9102101621462,4,1,0,75,0,0
66020,-91.4302695608029,4,1,0,75,0,0
66174,-91.9563132791193,4,1,0,75,0,0
66328,-92.4884452071095,4,1,0,75,0,0
66408,-100,4,1,0,80,0,0
66484,-93.0232558139535,4,1,0,80,0,1
96023,-93.0232558139535,4,1,0,80,0,0
96255,-100,4,1,0,70,0,0
96481,-94.6727354317585,4,1,0,70,0,0
96943,-96.3855421686747,4,1,0,70,0,0
97289,-97.7094388058911,4,1,0,70,0,0
97635,-99.0702105107805,4,1,0,70,0,0
97866,-100,4,1,0,70,0,0
118174,-93.0232558139535,4,1,0,70,0,0
118251,-93.1135799044148,4,1,0,70,0,0
118328,-93.2040795718469,4,1,0,70,0,0
118405,-93.2947553286922,4,1,0,70,0,0
118635,-93.5666586413574,4,1,0,70,0,0
118751,-93.7043946142816,4,1,0,70,0,0
118866,-93.8413440764558,4,1,0,70,0,0
118981,-93.9786944292424,4,1,0,70,0,0
119097,-94.1176470588235,4,1,0,70,0,0
119328,-94.3955819185928,4,1,0,70,0,0
119405,-94.4885920124893,4,1,0,70,0,0
119481,-94.580574092813,4,1,0,70,0,0
119558,-94.6739492781496,4,1,0,70,0,0
119674,-94.8149669996662,4,1,0,70,0,0
119789,-94.9551843421679,4,1,0,70,0,0
119905,-95.0970417401831,4,1,0,70,0,0
120020,-95.2380952380952,4,1,0,70,0,0
120097,-95.332773868698,4,1,0,70,0,0
120174,-95.4276409315309,4,1,0,70,0,0
120251,-95.5226969896896,4,1,0,70,0,0
120481,-95.8077616743003,4,1,0,70,0,0
120597,-95.9521798453642,4,1,0,70,0,0
120712,-96.0957834461218,4,1,0,70,0,0
120828,-96.2410718940618,4,1,0,70,0,0
120943,-96.3855421686747,4,1,0,70,0,0
121174,-96.6770536018225,4,1,0,70,0,0
121251,-96.7746163221976,4,1,0,70,0,0
121328,-96.872376154492,4,1,0,70,0,0
121405,-96.9703336966656,4,1,0,70,0,0
121520,-97.1170033670034,4,1,0,70,0,0
121635,-97.2641173913616,4,1,0,70,0,0
121751,-97.4129628896716,4,1,0,70,0,0
121866,-97.5609756097561,4,1,0,70,0,0
121943,-97.6603314420241,4,1,0,70,0,0
122020,-97.7598898480114,4,1,0,70,0,0
122097,-97.8596514478829,4,1,0,70,0,0
122328,-98.1601616505371,4,1,0,70,0,0
122443,-98.3104554713816,4,1,0,70,0,0
122558,-98.4612102301518,4,1,0,70,0,0
122674,-98.6137450252411,4,1,0,70,0,0
122789,-98.7654320987654,4,1,0,70,0,0
122905,-98.9189116776294,4,1,0,70,0,0
123020,-99.0715397413192,4,1,0,70,0,0
123135,-99.2246395312899,4,1,0,70,0,0
123251,-99.3795507462888,4,1,0,70,0,0
123366,-99.5336047232631,4,1,0,70,0,0
123481,-99.6881370576879,4,1,0,70,0,0
123597,-99.8445000338043,4,1,0,70,0,0
123712,-100,4,1,0,70,0,0
123943,-99.3782132378671,4,1,0,70,0,0
124058,-99.0715397413192,4,1,0,70,0,0
124174,-98.7641110694987,4,1,0,70,0,0
124289,-98.4612102301518,4,1,0,70,0,0
124405,-98.1575519102438,4,1,0,70,0,0
124520,-97.8583545377439,4,1,0,70,0,0
124635,-97.5609756097561,4,1,0,70,0,0
124751,-97.2628362180247,4,1,0,70,0,0
124866,-96.96906025109,4,1,0,70,0,0
124981,-96.6770536018225,4,1,0,70,0,0
125097,-96.3842840360266,4,1,0,70,0,0
125212,-96.0957834461218,4,1,0,70,0,0
125328,-95.8065185800291,4,1,0,70,0,0
125443,-95.5214612817262,4,1,0,70,0,0
125558,-95.2380952380952,4,1,0,70,0,0
126020,-96.3864855341972,4,1,0,70,0,0
126481,-97.5603312771606,4,1,0,70,0,0
126943,-98.7657622721742,4,1,0,70,0,0
127405,-100.001353931139,4,1,0,70,0,0
127866,-101.265475684495,4,1,0,70,0,0
128328,-102.564814686237,4,1,0,70,0,0
128789,-103.895007806895,4,1,0,70,0,0
129251,-100,4,1,0,70,0,0
129712,-99.0722043699644,4,1,0,70,0,0
130174,-98.159509202454,4,1,0,70,0,0
130635,-97.2653985984509,4,1,0,70,0,0
130866,-96.823471562039,4,1,0,70,0,0
131097,-96.3855421686747,4,1,0,70,0,0
131328,-95.9515564189694,4,1,0,70,0,0
131558,-95.5233148556607,4,1,0,70,0,0
131789,-95.0970417401831,4,1,0,70,0,0
132135,-94.4656244402937,4,1,0,70,0,0
132366,-94.0487183569495,4,1,0,70,0,0
132597,-93.6354759761092,4,1,0,70,0,0
132655,-93.5322878929902,4,1,0,70,0,0
132712,-93.4311002574923,4,1,0,70,0,0
132943,-93.0232558139535,4,1,0,70,0,0
133058,-93.2258492150167,4,1,0,70,0,0
133174,-93.4311002574923,4,1,0,70,0,0
133289,-93.6354759761092,4,1,0,70,0,0
133405,-93.8425366969562,4,1,0,70,0,0
133520,-94.0487183569495,4,1,0,70,0,0
133635,-94.255808016339,4,1,0,70,0,0
133751,-94.4656244402937,4,1,0,70,0,0
133866,-94.6745562130178,4,1,0,70,0,0
133981,-94.8844142326621,4,1,0,70,0,0
134097,-95.0970417401831,4,1,0,70,0,0
134328,-95.5233148556607,4,1,0,70,0,0
134558,-95.9515564189694,4,1,0,70,0,0
134789,-96.3855421686747,4,1,0,70,0,0
134905,-96.6049584614378,4,1,0,70,0,0
135020,-96.823471562039,4,1,0,70,0,0
135135,-97.0429754238402,4,1,0,70,0,0
135251,-97.2653985984509,4,1,0,70,0,0
135366,-97.4869130684481,4,1,0,70,0,0
135481,-97.7094388058911,4,1,0,70,0,0
135597,-97.9349310980543,4,1,0,70,0,0
135712,-98.159509202454,4,1,0,70,0,0
135828,-98.3870860287407,4,1,0,70,0,0
135943,-98.6137450252411,4,1,0,70,0,0
136174,-99.0722043699644,4,1,0,70,0,0
136405,-99.5349464177394,4,1,0,70,0,0
136635,-100,4,1,0,70,0,0
136751,-99.5309214428209,4,1,0,70,0,0
136866,-99.0702105107805,4,1,0,70,0,0
136981,-98.6137450252411,4,1,0,70,0,0
137097,-98.1575519102438,4,1,0,70,0,0
137212,-97.7094388058911,4,1,0,70,0,0
137328,-97.2615550784389,4,1,0,70,0,0
137443,-96.8215671876639,4,1,0,70,0,0
137558,-96.3855421686747,4,1,0,70,0,0
137674,-95.9496861883909,4,1,0,70,0,0
137789,-95.5214612817262,4,1,0,70,0,0
137905,-95.0933676754669,4,1,0,70,0,0
138020,-94.6727354317585,4,1,0,70,0,0
138135,-94.255808016339,4,1,0,70,0,0
138251,-93.8389589263928,4,1,0,70,0,0
138366,-93.4293269899915,4,1,0,70,0,0
138481,-93.0232558139535,4,1,0,70,0,0
138635,-94.2417283320575,4,1,0,70,0,0
138789,-95.4925450314574,4,1,0,70,0,0
138943,-96.7770110926718,4,1,0,70,0,0
139097,-98.0965028773794,4,1,0,70,0,0
139251,-99.4524728480388,4,1,0,70,0,0
139405,-100.846454901247,4,1,0,70,0,0
139558,-102.270629499723,4,1,0,70,0,0
139712,-103.74531835206,4,1,0,70,0,0
139866,-105.263157894737,4,1,0,70,0,0
140101,-93.0232558139535,4,1,0,80,0,0
153366,-92.7544970354738,4,1,0,80,0,0
153481,-92.4872867556802,4,1,0,80,0,0
153597,-92.2193081054078,4,1,0,80,0,0
153712,-91.9551681195517,4,1,0,80,0,0
153828,-91.6902597725128,4,1,0,80,0,0
153943,-91.4291374656398,4,1,0,80,0,0
154058,-91.1694982220466,4,1,0,80,0,0
154174,-90.9090909090909,4,1,0,80,0,0
154289,-90.6523927615587,4,1,0,80,0,0
154405,-90.3949269152609,4,1,0,80,0,0
154520,-90.1411201718834,4,1,0,80,0,0
154635,-89.8887346918901,4,1,0,80,0,0
154712,-89.7205346294046,4,1,0,80,0,0
154789,-89.5529628641424,4,1,0,80,0,0
154866,-89.386015882239,4,1,0,80,0,0
154985,-100,4,1,0,85,0,0
155100,-88.8888888888889,4,1,0,85,0,1
168023,-88.8888888888889,4,1,0,85,0,0
168135,-89.5084550578823,4,1,0,85,0,0
168251,-90.1422205945187,4,1,0,85,0,0
168308,-90.4569398505451,4,1,0,85,0,0
168366,-90.7794443078436,4,1,0,85,0,0
168943,-94.1176470588235,4,1,0,85,0,0
169174,-95.5239327296248,4,1,0,85,0,0
169289,-96.2398175301401,4,1,0,85,0,0
169635,-98.4598973264884,4,1,0,85,0,0
169755,-100,4,1,0,70,0,0
177197,-100,4,1,0,75,0,0
184635,-93.0232558139535,4,1,0,75,0,0
184866,-93.4309893362681,4,1,0,75,0,0
184981,-93.6353091068135,4,1,0,75,0,0
185097,-93.8423128966477,4,1,0,75,0,0
185212,-94.0484376193751,4,1,0,75,0,0
185328,-94.2572741194487,4,1,0,75,0,0
185558,-94.6741011343972,4,1,0,75,0,0
185789,-95.0964676799475,4,1,0,75,0,0
185905,-95.3099897412074,4,1,0,75,0,0
186020,-95.5226196942655,4,1,0,75,0,0
186135,-95.7362004938464,4,1,0,75,0,0
186251,-95.9526082974453,4,1,0,75,0,0
186481,-96.384598821618,4,1,0,75,0,0
186712,-96.8224005033821,4,1,0,75,0,0
186828,-97.0437524635396,4,1,0,75,0,0
186943,-97.2641975308642,4,1,0,75,0,0
187058,-97.4856464066522,4,1,0,75,0,0
187174,-97.7100448466087,4,1,0,75,0,0
187405,-98.1599984051991,4,1,0,75,0,0
187578,-98.499699939988,4,1,0,75,0,0
187751,-98.8417608446916,4,1,0,75,0,0
187866,-99.0704599412499,4,1,0,75,0,0
188039,-99.4165034626179,4,1,0,75,0,0
188212,-99.764972850312,4,1,0,75,0,0
188328,-100,4,1,0,75,0,0
188558,-99.5349464177394,4,1,0,75,0,0
188674,-99.3020347234363,4,1,0,75,0,0
188789,-99.0722043699644,4,1,0,75,0,0
188905,-98.8414507633307,4,1,0,75,0,0
189020,-98.6137450252411,4,1,0,75,0,0
189135,-98.3870860287407,4,1,0,75,0,0
189251,-98.159509202454,4,1,0,75,0,0
189481,-97.7113782676874,4,1,0,75,0,0
189597,-97.4869130684481,4,1,0,75,0,0
189712,-97.2653985984509,4,1,0,75,0,0
189828,-97.0429754238402,4,1,0,75,0,0
189943,-96.823471562039,4,1,0,75,0,0
190058,-96.6049584614378,4,1,0,75,0,0
190174,-96.3855421686747,4,1,0,75,0,0
190231,-96.2780903454616,4,1,0,75,0,0
190289,-96.1689990427382,4,1,0,75,0,0
190520,-95.7369567472254,4,1,0,75,0,0
190578,-95.6290876125105,4,1,0,75,0,0
190635,-95.5233148556607,4,1,0,75,0,0
190866,-95.0970417401831,4,1,0,75,0,0
190924,-94.9906089999228,4,1,0,75,0,0
190981,-94.8862431652735,4,1,0,75,0,0
191097,-94.6745562130178,4,1,0,75,0,0
191212,-94.4656244402937,4,1,0,75,0,0
191328,-94.255808016339,4,1,0,75,0,0
191443,-94.0487183569495,4,1,0,75,0,0
191558,-93.8425366969562,4,1,0,75,0,0
191789,-93.4311002574923,4,1,0,75,0,0
191905,-93.2258492150167,4,1,0,75,0,0
192020,-93.0232558139535,4,1,0,75,0,0
192135,-93.2935765906909,4,1,0,75,0,0
192251,-93.5678442901313,4,1,0,75,0,0
192366,-93.8413440764558,4,1,0,75,0,0
192481,-94.1164474355053,4,1,0,75,0,0
192539,-94.255808016339,4,1,0,75,0,0
192597,-94.3955819185928,4,1,0,75,0,0
192712,-94.6739492781496,4,1,0,75,0,0
192943,-95.2380952380952,4,1,0,75,0,0
193001,-95.3807998346595,4,1,0,75,0,0
193058,-95.5214612817262,4,1,0,75,0,0
193174,-95.8090048008304,4,1,0,75,0,0
193289,-96.0957834461218,4,1,0,75,0,0
193405,-96.3868003341688,4,1,0,75,0,0
193520,-96.6770536018225,4,1,0,75,0,0
193635,-96.96906025109,4,1,0,75,0,0
193866,-97.5609756097561,4,1,0,75,0,0
193924,-97.7107317718671,4,1,0,75,0,0
193981,-97.8583545377439,4,1,0,75,0,0
194097,-98.1601616505371,4,1,0,75,0,0
194212,-98.4612102301518,4,1,0,75,0,0
194328,-98.7667531633718,4,1,0,75,0,0
194443,-99.0715397413192,4,1,0,75,0,0
194558,-99.3782132378671,4,1,0,75,0,0
194789,-100,4,1,0,75,0,0
194847,-100.157343605881,4,1,0,75,0,0
194905,-100.315183132268,4,1,0,75,0,0
195020,-100.62961650631,4,1,0,75,0,0
195135,-100.94602723246,4,1,0,75,0,0
195251,-101.267211585935,4,1,0,75,0,0
195308,-101.425785005906,4,1,0,75,0,0
195366,-101.587650991938,4,1,0,75,0,0
195481,-101.910124765375,4,1,0,75,0,0
195712,-102.564102564103,4,1,0,75,0,0
197558,-105.263157894737,4,1,0,75,0,0
197674,-104.400418279965,4,1,0,75,0,0
197789,-103.558963288992,4,1,0,75,0,0
197905,-102.72382197133,4,1,0,75,0,0
198020,-101.909070845288,4,1,0,75,0,0
198135,-101.107142368381,4,1,0,75,0,0
198251,-100.310925853009,4,1,0,75,0,0
198366,-99.5338560612184,4,1,0,75,0,0
198481,-98.7687330383284,4,1,0,75,0,0
198828,-96.5297376398035,4,1,0,75,0,0
199174,-94.3960340377686,4,1,0,75,0,0
199293,-93.0232558139535,4,1,0,80,0,0
199408,-93.0232558139535,4,1,0,80,0,1
228831,-93.0232558139535,4,1,0,80,0,0
229062,-100,4,1,0,5,0,0
230678,-100,4,1,0,70,0,0
244789,-100.841254233585,4,1,0,70,0,0
244943,-101.696782723667,4,1,0,70,0,0
245097,-102.566951883543,4,1,0,70,0,0
245251,-103.452140775611,4,1,0,70,0,0
245405,-104.352741661956,4,1,0,70,0,0
245558,-105.263157894737,4,1,0,70,0,0

[HitObjects]
256,192,7408,5,2,0:0:0:0:
256,192,7484,1,2,0:0:0:0:
256,192,7561,1,2,0:0:0:0:
256,192,7638,1,0,0:0:0:0:
256,192,7869,1,2,0:0:0:0:
256,192,8100,1,0,0:0:0:0:
256,192,8331,1,2,0:0:0:0:
256,192,8446,1,2,0:0:0:0:
256,192,8561,1,0,0:0:0:0:
256,192,8792,1,2,0:0:0:0:
256,192,9023,1,0,0:0:0:0:
256,192,9254,1,2,0:0:0:0:
256,192,9369,1,2,0:0:0:0:
256,192,9484,1,0,0:0:0:0:
256,192,9715,1,2,0:0:0:0:
256,192,9946,1,0,0:0:0:0:
256,192,10177,1,2,0:0:0:0:
256,192,10292,1,2,0:0:0:0:
256,192,10408,1,0,0:0:0:0:
256,192,10638,1,2,0:0:0:0:
256,192,10754,1,2,0:0:0:0:
256,192,10869,1,0,0:0:0:0:
256,192,10984,1,0,0:0:0:0:
256,192,11100,1,2,0:0:0:0:
256,192,11177,1,2,0:0:0:0:
256,192,11254,1,2,0:0:0:0:
256,192,11331,1,0,0:0:0:0:
256,192,11561,1,2,0:0:0:0:
256,192,11792,1,0,0:0:0:0:
256,192,12023,1,2,0:0:0:0:
256,192,12138,1,2,0:0:0:0:
256,192,12254,1,0,0:0:0:0:
256,192,12484,1,2,0:0:0:0:
256,192,12715,1,0,0:0:0:0:
256,192,12946,1,2,0:0:0:0:
256,192,13061,1,2,0:0:0:0:
256,192,13177,1,0,0:0:0:0:
256,192,13292,1,2,0:0:0:0:
256,192,13350,1,2,0:0:0:0:
256,192,13408,1,0,0:0:0:0:
256,192,13523,1,0,0:0:0:0:
256,192,13638,1,2,0:0:0:0:
256,192,13754,1,0,0:0:0:0:
256,192,13869,1,2,0:0:0:0:
256,192,13984,1,2,0:0:0:0:
256,192,14100,1,0,0:0:0:0:
256,192,14177,1,0,0:0:0:0:
256,192,14254,1,2,0:0:0:0:
256,192,14331,1,2,0:0:0:0:
256,192,14561,1,0,0:0:0:0:
256,192,14792,1,2,0:0:0:0:
256,192,14869,1,2,0:0:0:0:
256,192,14946,1,2,0:0:0:0:
256,192,15023,1,0,0:0:0:0:
256,192,15254,1,2,0:0:0:0:
256,192,15369,1,0,0:0:0:0:
256,192,15484,1,0,0:0:0:0:
256,192,15715,1,2,0:0:0:0:
256,192,15831,1,2,0:0:0:0:
256,192,15946,1,0,0:0:0:0:
256,192,16177,1,2,0:0:0:0:
256,192,16292,1,0,0:0:0:0:
256,192,16408,1,0,0:0:0:0:
256,192,16638,1,2,0:0:0:0:
256,192,16754,1,2,0:0:0:0:
256,192,16869,1,0,0:0:0:0:
256,192,17100,1,0,0:0:0:0:
256,192,17215,1,0,0:0:0:0:
256,192,17331,1,2,0:0:0:0:
256,192,17446,1,2,0:0:0:0:
256,192,17561,1,2,0:0:0:0:
256,192,17677,1,0,0:0:0:0:
256,192,17792,1,2,0:0:0:0:
256,192,18023,1,2,0:0:0:0:
256,192,18138,1,2,0:0:0:0:
256,192,18254,1,0,0:0:0:0:
256,192,18369,1,0,0:0:0:0:
256,192,18484,1,2,0:0:0:0:
256,192,18561,1,2,0:0:0:0:
256,192,18638,1,2,0:0:0:0:
256,192,18715,1,0,0:0:0:0:
256,192,18946,1,2,0:0:0:0:
256,192,19177,1,0,0:0:0:0:
256,192,19408,1,2,0:0:0:0:
256,192,19523,1,2,0:0:0:0:
256,192,19638,1,0,0:0:0:0:
256,192,19869,1,2,0:0:0:0:
256,192,20100,1,0,0:0:0:0:
256,192,20331,1,0,0:0:0:0:
256,192,20446,1,0,0:0:0:0:
256,192,20561,1,6,0:0:0:0:
256,192,20792,1,6,0:0:0:0:
256,192,21023,1,6,0:0:0:0:
256,192,21254,1,2,0:0:0:0:
256,192,21408,1,2,0:0:0:0:
256,192,21561,1,0,0:0:0:0:
256,192,21715,1,2,0:0:0:0:
256,192,21792,1,2,0:0:0:0:
256,192,21869,1,2,0:0:0:0:
256,192,21946,1,0,0:0:0:0:
256,192,22023,1,0,0:0:0:0:
256,192,22100,1,0,0:0:0:0:
256,192,22177,1,2,0:0:0:0:
256,192,22408,1,0,0:0:0:0:
256,192,22523,1,0,0:0:0:0:
256,192,22638,1,2,0:0:0:0:
256,192,22869,1,0,0:0:0:0:
256,192,23100,1,2,0:0:0:0:
256,192,23331,1,0,0:0:0:0:
256,192,23446,1,0,0:0:0:0:
256,192,23561,1,2,0:0:0:0:
256,192,23677,1,0,0:0:0:0:
256,192,23792,1,2,0:0:0:0:
256,192,24023,1,2,0:0:0:0:
256,192,24254,1,0,0:0:0:0:
256,192,24369,1,0,0:0:0:0:
256,192,24484,1,2,0:0:0:0:
256,192,24715,1,0,0:0:0:0:
256,192,24946,1,2,0:0:0:0:
256,192,25177,1,2,0:0:0:0:
256,192,25292,1,0,0:0:0:0:
256,192,25350,1,0,0:0:0:0:
256,192,25408,1,2,0:0:0:0:
256,192,25561,1,2,0:0:0:0:
256,192,25715,1,0,0:0:0:0:
256,192,25869,1,2,0:0:0:0:
256,192,26100,1,0,0:0:0:0:
256,192,26215,1,0,0:0:0:0:
256,192,26331,1,2,0:0:0:0:
256,192,26561,1,0,0:0:0:0:
256,192,26792,1,2,0:0:0:0:
256,192,27023,1,0,0:0:0:0:
256,192,27138,1,0,0:0:0:0:
256,192,27254,1,2,0:0:0:0:
256,192,27484,1,2,0:0:0:0:
256,192,27715,1,2,0:0:0:0:
256,192,27831,1,2,0:0:0:0:
256,192,27946,1,0,0:0:0:0:
256,192,28061,1,2,0:0:0:0:
256,192,28119,1,2,0:0:0:0:
256,192,28177,1,0,0:0:0:0:
256,192,28292,1,0,0:0:0:0:
256,192,28408,1,2,0:0:0:0:
256,192,28523,1,0,0:0:0:0:
256,192,28638,1,2,0:0:0:0:
256,192,28754,1,2,0:0:0:0:
256,192,28869,1,0,0:0:0:0:
256,192,28946,1,0,0:0:0:0:
256,192,29023,1,2,0:0:0:0:
256,192,29100,1,2,0:0:0:0:
256,192,29331,1,0,0:0:0:0:
256,192,29561,1,6,0:0:0:0:
256,192,29792,1,0,0:0:0:0:
256,192,29908,1,0,0:0:0:0:
256,192,30023,1,2,0:0:0:0:
256,192,30254,1,0,0:0:0:0:
256,192,30484,1,2,0:0:0:0:
256,192,30715,1,0,0:0:0:0:
256,192,30831,1,0,0:0:0:0:
256,192,30946,1,2,0:0:0:0:
256,192,31177,1,0,0:0:0:0:
256,192,31408,1,2,0:0:0:0:
256,192,31638,1,0,0:0:0:0:
256,192,31754,1,2,0:0:0:0:
256,192,31869,1,2,0:0:0:0:
256,192,31984,1,0,0:0:0:0:
256,192,32100,1,0,0:0:0:0:
256,192,32215,1,2,0:0:0:0:
256,192,32331,1,2,0:0:0:0:
256,192,32446,1,0,0:0:0:0:
256,192,32561,1,2,0:0:0:0:
256,192,32792,1,2,0:0:0:0:
256,192,33023,1,0,0:0:0:0:
256,192,33254,1,2,0:0:0:0:
256,192,33484,1,0,0:0:0:0:
256,192,33600,1,2,0:0:0:0:
256,192,33715,1,0,0:0:0:0:
256,192,33946,1,2,0:0:0:0:
256,192,34177,1,0,0:0:0:0:
256,192,34408,1,0,0:0:0:0:
256,192,34638,1,2,0:0:0:0:
256,192,34869,1,2,0:0:0:0:
256,192,34984,1,0,0:0:0:0:
256,192,35100,1,2,0:0:0:0:
256,192,35331,1,0,0:0:0:0:
256,192,35561,1,2,0:0:0:0:
256,192,35677,1,0,0:0:0:0:
256,192,35792,1,2,0:0:0:0:
256,192,36023,1,2,0:0:0:0:
256,192,36177,1,2,0:0:0:0:
256,192,36331,1,2,0:0:0:0:
256,192,36484,1,0,0:0:0:0:
256,192,36638,1,2,0:0:0:0:
256,192,36792,1,2,0:0:0:0:
256,192,36946,1,4,0:0:0:0:
256,192,37408,1,0,0:0:0:0:
256,192,37869,1,0,0:0:0:0:
256,192,38331,1,0,0:0:0:0:
256,192,38561,1,2,0:0:0:0:
256,192,38792,1,0,0:0:0:0:
256,192,39254,1,0,0:0:0:0:
256,192,39715,1,0,0:0:0:0:
256,192,39946,1,2,0:0:0:0:
256,192,40177,1,2,0:0:0:0:
256,192,40408,1,2,0:0:0:0:
256,192,40638,1,2,0:0:0:0:
256,192,41100,1,0,0:0:0:0:
256,192,41561,1,0,0:0:0:0:
256,192,42023,1,0,0:0:0:0:
256,192,42254,1,2,0:0:0:0:
256,192,42484,1,0,0:0:0:0:
256,192,42946,1,0,0:0:0:0:
256,192,43408,1,0,0:0:0:0:
256,192,43638,1,2,0:0:0:0:
256,192,43869,1,2,0:0:0:0:
256,192,44100,1,2,0:0:0:0:
256,192,44331,1,6,0:0:0:0:
256,192,44561,1,0,0:0:0:0:
256,192,44677,1,0,0:0:0:0:
256,192,44792,1,2,0:0:0:0:
256,192,45023,1,0,0:0:0:0:
256,192,45254,1,2,0:0:0:0:
256,192,45484,1,2,0:0:0:0:
256,192,45600,1,2,0:0:0:0:
256,192,45715,1,0,0:0:0:0:
256,192,45946,1,2,0:0:0:0:
256,192,46177,1,0,0:0:0:0:
256,192,46254,1,2,0:0:0:0:
256,192,46331,1,0,0:0:0:0:
256,192,46408,1,2,0:0:0:0:
256,192,46638,1,2,0:0:0:0:
256,192,46869,1,0,0:0:0:0:
256,192,47100,1,2,0:0:0:0:
256,192,47158,1,2,0:0:0:0:
256,192,47331,1,0,0:0:0:0:
256,192,47388,1,0,0:0:0:0:
256,192,47561,1,2,0:0:0:0:
256,192,47792,1,0,0:0:0:0:
256,192,48023,1,6,0:0:0:0:
256,192,48254,1,0,0:0:0:0:
256,192,48369,1,0,0:0:0:0:
256,192,48484,1,2,0:0:0:0:
256,192,48715,1,0,0:0:0:0:
256,192,48946,1,2,0:0:0:0:
256,192,49177,1,2,0:0:0:0:
256,192,49292,1,2,0:0:0:0:
256,192,49408,1,0,0:0:0:0:
256,192,49638,1,2,0:0:0:0:
256,192,49869,1,0,0:0:0:0:
256,192,49946,1,2,0:0:0:0:
256,192,50023,1,0,0:0:0:0:
256,192,50100,1,2,0:0:0:0:
256,192,50331,1,2,0:0:0:0:
256,192,50561,1,0,0:0:0:0:
256,192,50792,1,2,0:0:0:0:
256,192,50850,1,0,0:0:0:0:
256,192,51023,1,2,0:0:0:0:
256,192,51081,1,0,0:0:0:0:
256,192,51254,1,2,0:0:0:0:
256,192,51331,1,2,0:0:0:0:
256,192,51408,1,2,0:0:0:0:
256,192,51484,1,0,0:0:0:0:
256,192,51715,1,2,0:0:0:0:
256,192,51792,1,2,0:0:0:0:
256,192,51869,1,2,0:0:0:0:
256,192,51946,1,0,0:0:0:0:
256,192,52061,1,2,0:0:0:0:
256,192,52292,1,2,0:0:0:0:
256,192,52408,1,0,0:0:0:0:
256,192,52523,1,0,0:0:0:0:
256,192,52638,1,2,0:0:0:0:
256,192,52754,1,2,0:0:0:0:
256,192,52984,1,0,0:0:0:0:
256,192,53215,1,0,0:0:0:0:
256,192,53561,1,2,0:0:0:0:
256,192,53638,1,2,0:0:0:0:
256,192,53715,1,2,0:0:0:0:
256,192,53792,1,0,0:0:0:0:
256,192,53908,1,2,0:0:0:0:
256,192,54138,1,2,0:0:0:0:
256,192,54254,1,0,0:0:0:0:
256,192,54369,1,0,0:0:0:0:
256,192,54484,1,2,0:0:0:0:
256,192,54600,1,2,0:0:0:0:
256,192,54715,1,0,0:0:0:0:
256,192,54831,1,0,0:0:0:0:
256,192,54946,1,2,0:0:0:0:
256,192,55061,1,2,0:0:0:0:
256,192,55177,1,2,0:0:0:0:
256,192,55408,1,2,0:0:0:0:
256,192,55484,1,2,0:0:0:0:
256,192,55561,1,2,0:0:0:0:
256,192,55638,1,0,0:0:0:0:
256,192,55754,1,2,0:0:0:0:
256,192,55984,1,2,0:0:0:0:
256,192,56100,1,0,0:0:0:0:
256,192,56215,1,0,0:0:0:0:
256,192,56331,1,2,0:0:0:0:
256,192,56446,1,2,0:0:0:0:
256,192,56677,1,0,0:0:0:0:
256,192,56792,1,2,0:0:0:0:
256,192,56908,1,0,0:0:0:0:
256,192,57254,1,2,0:0:0:0:
256,192,57331,1,2,0:0:0:0:
256,192,57408,1,2,0:0:0:0:
256,192,57484,1,0,0:0:0:0:
256,192,57600,1,2,0:0:0:0:
256,192,57831,1,2,0:0:0:0:
256,192,57946,1,0,0:0:0:0:
256,192,58061,1,0,0:0:0:0:
256,192,58177,1,2,0:0:0:0:
256,192,58292,1,2,0:0:0:0:
256,192,58408,1,0,0:0:0:0:
256,192,58523,1,0,0:0:0:0:
256,192,58638,1,2,0:0:0:0:
256,192,58754,1,2,0:0:0:0:
256,192,58869,1,2,0:0:0:0:
256,192,59100,1,2,0:0:0:0:
256,192,59177,1,2,0:0:0:0:
256,192,59254,1,2,0:0:0:0:
256,192,59331,1,0,0:0:0:0:
256,192,59446,1,0,0:0:0:0:
256,192,59561,1,2,0:0:0:0:
256,192,59677,1,0,0:0:0:0:
256,192,59792,1,2,0:0:0:0:
256,192,60023,1,2,0:0:0:0:
256,192,60100,1,2,0:0:0:0:
256,192,60177,1,2,0:0:0:0:
256,192,60254,1,0,0:0:0:0:
256,192,60369,1,0,0:0:0:0:
256,192,60484,1,2,0:0:0:0:
256,192,60600,1,2,0:0:0:0:
256,192,60715,1,0,0:0:0:0:
256,192,60946,1,2,0:0:0:0:
256,192,61023,1,2,0:0:0:0:
256,192,61100,1,2,0:0:0:0:
256,192,61177,1,0,0:0:0:0:
256,192,61292,1,2,0:0:0:0:
256,192,61408,1,0,0:0:0:0:
256,192,61523,1,0,0:0:0:0:
256,192,61638,1,2,0:0:0:0:
256,192,61869,1,2,0:0:0:0:
256,192,61946,1,2,0:0:0:0:
256,192,62023,1,2,0:0:0:0:
256,192,62100,1,0,0:0:0:0:
256,192,62215,1,2,0:0:0:0:
256,192,62331,1,2,0:0:0:0:
256,192,62446,1,2,0:0:0:0:
256,192,62561,1,0,0:0:0:0:
256,192,62792,1,2,0:0:0:0:
256,192,62869,1,2,0:0:0:0:
256,192,62946,1,2,0:0:0:0:
256,192,63023,1,0,0:0:0:0:
256,192,63138,1,2,0:0:0:0:
256,192,63254,1,0,0:0:0:0:
256,192,63331,1,0,0:0:0:0:
256,192,63408,1,0,0:0:0:0:
256,192,63484,1,2,0:0:0:0:
256,192,63600,1,0,0:0:0:0:
256,192,63715,1,2,0:0:0:0:
256,192,63946,1,0,0:0:0:0:
256,192,64177,1,2,0:0:0:0:
256,192,64408,1,0,0:0:0:0:
256,192,64465,1,0,0:0:0:0:
256,192,64523,1,0,0:0:0:0:
256,192,64638,1,2,0:0:0:0:
256,192,64869,1,0,0:0:0:0:
256,192,64984,1,0,0:0:0:0:
256,192,65100,1,2,0:0:0:0:
256,192,65331,1,0,0:0:0:0:
256,192,65446,1,0,0:0:0:0:
256,192,65561,1,2,0:0:0:0:
256,192,65715,1,2,0:0:0:0:
256,192,65869,1,2,0:0:0:0:
256,192,66023,1,0,0:0:0:0:
256,192,66177,1,0,0:0:0:0:
256,192,66331,1,0,0:0:0:0:
256,192,66484,1,6,0:0:0:0:
256,192,66715,1,0,0:0:0:0:
256,192,66831,1,0,0:0:0:0:
256,192,66946,1,2,0:0:0:0:
256,192,67177,1,0,0:0:0:0:
256,192,67408,1,2,0:0:0:0:
256,192,67523,1,2,0:0:0:0:
256,192,67638,1,0,0:0:0:0:
256,192,67754,1,2,0:0:0:0:
256,192,67869,1,0,0:0:0:0:
256,192,68100,1,0,0:0:0:0:
256,192,68331,1,2,0:0:0:0:
256,192,68561,1,0,0:0:0:0:
256,192,68677,1,0,0:0:0:0:
256,192,68792,1,2,0:0:0:0:
256,192,69023,1,0,0:0:0:0:
256,192,69138,1,0,0:0:0:0:
256,192,69254,1,2,0:0:0:0:
256,192,69369,1,2,0:0:0:0:
256,192,69484,1,0,0:0:0:0:
256,192,69600,1,0,0:0:0:0:
256,192,69658,1,0,0:0:0:0:
256,192,69715,1,2,0:0:0:0:
256,192,69946,1,0,0:0:0:0:
256,192,70177,1,2,0:0:0:0:
256,192,70408,1,0,0:0:0:0:
256,192,70523,1,0,0:0:0:0:
256,192,70638,1,2,0:0:0:0:
256,192,70869,1,0,0:0:0:0:
256,192,71100,1,2,0:0:0:0:
256,192,71215,1,2,0:0:0:0:
256,192,71331,1,0,0:0:0:0:
256,192,71446,1,2,0:0:0:0:
256,192,71561,1,0,0:0:0:0:
256,192,71792,1,2,0:0:0:0:
256,192,72023,1,2,0:0:0:0:
256,192,72254,1,0,0:0:0:0:
256,192,72369,1,2,0:0:0:0:
256,192,72484,1,0,0:0:0:0:
256,192,72715,1,0,0:0:0:0:
256,192,72946,1,2,0:0:0:0:
256,192,73061,1,0,0:0:0:0:
256,192,73177,1,2,0:0:0:0:
256,192,73292,1,2,0:0:0:0:
256,192,73408,1,0,0:0:0:0:
256,192,73523,1,2,0:0:0:0:
256,192,73638,1,0,0:0:0:0:
256,192,73754,1,2,0:0:0:0:
256,192,73869,1,2,0:0:0:0:
256,192,74100,1,0,0:0:0:0:
256,192,74215,1,0,0:0:0:0:
256,192,74331,1,2,0:0:0:0:
256,192,74561,1,0,0:0:0:0:
256,192,74792,1,2,0:0:0:0:
256,192,74908,1,2,0:0:0:0:
256,192,75023,1,2,0:0:0:0:
256,192,75138,1,2,0:0:0:0:
256,192,75254,1,0,0:0:0:0:
256,192,75484,1,0,0:0:0:0:
256,192,75715,1,2,0:0:0:0:
256,192,75831,1,0,0:0:0:0:
256,192,76061,1,0,0:0:0:0:
256,192,76177,1,2,0:0:0:0:
256,192,76292,1,0,0:0:0:0:
256,192,76523,1,0,0:0:0:0:
256,192,76638,1,2,0:0:0:0:
256,192,76869,1,2,0:0:0:0:
256,192,76984,1,2,0:0:0:0:
256,192,77100,1,0,0:0:0:0:
256,192,77331,1,0,0:0:0:0:
256,192,77561,1,2,0:0:0:0:
256,192,77792,1,0,0:0:0:0:
256,192,77908,1,0,0:0:0:0:
256,192,78023,1,2,0:0:0:0:
256,192,78254,1,0,0:0:0:0:
256,192,78484,1,2,0:0:0:0:
256,192,78600,1,2,0:0:0:0:
256,192,78715,1,0,0:0:0:0:
256,192,78831,1,0,0:0:0:0:
256,192,78946,1,2,0:0:0:0:
256,192,79177,1,2,0:0:0:0:
256,192,79292,1,2,0:0:0:0:
256,192,79408,1,2,0:0:0:0:
256,192,79638,1,0,0:0:0:0:
256,192,79754,1,0,0:0:0:0:
256,192,79869,1,2,0:0:0:0:
256,192,80100,1,2,0:0:0:0:
256,192,80215,1,0,0:0:0:0:
256,192,80331,1,2,0:0:0:0:
256,192,80561,1,0,0:0:0:0:
256,192,80677,1,0,0:0:0:0:
256,192,80792,1,2,0:0:0:0:
256,192,81023,1,2,0:0:0:0:
256,192,81138,1,0,0:0:0:0:
256,192,81254,1,6,0:0:0:0:
256,192,81484,1,2,0:0:0:0:
256,192,81600,1,0,0:0:0:0:
256,192,81715,1,2,0:0:0:0:
256,192,81946,1,2,0:0:0:0:
256,192,82177,1,0,0:0:0:0:
256,192,82292,1,0,0:0:0:0:
256,192,82408,1,2,0:0:0:0:
256,192,82523,1,0,0:0:0:0:
256,192,82638,1,2,0:0:0:0:
256,192,82869,1,2,0:0:0:0:
256,192,83100,1,0,0:0:0:0:
256,192,83331,1,2,0:0:0:0:
256,192,83446,1,0,0:0:0:0:
256,192,83561,1,2,0:0:0:0:
256,192,83792,1,2,0:0:0:0:
256,192,83908,1,0,0:0:0:0:
256,192,84023,1,2,0:0:0:0:
256,192,84138,1,0,0:0:0:0:
256,192,84254,1,2,0:0:0:0:
256,192,84369,1,0,0:0:0:0:
256,192,84427,1,0,0:0:0:0:
256,192,84484,1,2,0:0:0:0:
256,192,84715,1,2,0:0:0:0:
256,192,84946,1,0,0:0:0:0:
256,192,85177,1,2,0:0:0:0:
256,192,85292,1,0,0:0:0:0:
256,192,85408,1,2,0:0:0:0:
256,192,85638,1,2,0:0:0:0:
256,192,85869,1,0,0:0:0:0:
256,192,85984,1,0,0:0:0:0:
256,192,86100,1,2,0:0:0:0:
256,192,86215,1,0,0:0:0:0:
256,192,86331,1,2,0:0:0:0:
256,192,86561,1,2,0:0:0:0:
256,192,86792,1,0,0:0:0:0:
256,192,87023,1,2,0:0:0:0:
256,192,87138,1,2,0:0:0:0:
256,192,87254,1,0,0:0:0:0:
256,192,87484,1,2,0:0:0:0:
256,192,87715,1,2,0:0:0:0:
256,192,87831,1,0,0:0:0:0:
256,192,87946,1,2,0:0:0:0:
256,192,88061,1,0,0:0:0:0:
256,192,88177,1,2,0:0:0:0:
256,192,88292,1,0,0:0:0:0:
256,192,88408,1,2,0:0:0:0:
256,192,88523,1,2,0:0:0:0:
256,192,88638,1,0,0:0:0:0:
256,192,88869,1,2,0:0:0:0:
256,192,88984,1,0,0:0:0:0:
256,192,89100,1,2,0:0:0:0:
256,192,89331,1,2,0:0:0:0:
256,192,89561,1,0,0:0:0:0:
256,192,89677,1,0,0:0:0:0:
256,192,89792,1,2,0:0:0:0:
256,192,89908,1,2,0:0:0:0:
256,192,90023,1,0,0:0:0:0:
256,192,90254,1,2,0:0:0:0:
256,192,90484,1,2,0:0:0:0:
256,192,90600,1,0,0:0:0:0:
256,192,90715,1,2,0:0:0:0:
256,192,90831,1,2,0:0:0:0:
256,192,90946,1,0,0:0:0:0:
256,192,91061,1,0,0:0:0:0:
256,192,91177,1,2,0:0:0:0:
256,192,91292,1,0,0:0:0:0:
256,192,91408,1,2,0:0:0:0:
256,192,91638,1,2,0:0:0:0:
256,192,91754,1,2,0:0:0:0:
256,192,91869,1,0,0:0:0:0:
256,192,92100,1,2,0:0:0:0:
256,192,92331,1,2,0:0:0:0:
256,192,92561,1,2,0:0:0:0:
256,192,92677,1,0,0:0:0:0:
256,192,92792,1,2,0:0:0:0:
256,192,93023,1,2,0:0:0:0:
256,192,93254,1,2,0:0:0:0:
256,192,93369,1,0,0:0:0:0:
256,192,93484,1,2,0:0:0:0:
256,192,93600,1,2,0:0:0:0:
256,192,93715,1,0,0:0:0:0:
256,192,93946,1,2,0:0:0:0:
256,192,94177,1,6,0:0:0:0:
256,192,94408,1,0,0:0:0:0:
256,192,94523,1,0,0:0:0:0:
256,192,94638,1,2,0:0:0:0:
256,192,94869,1,2,0:0:0:0:
256,192,94984,1,0,0:0:0:0:
256,192,95100,1,2,0:0:0:0:
256,192,95331,1,0,0:0:0:0:
256,192,95446,1,0,0:0:0:0:
256,192,95561,1,2,0:0:0:0:
256,192,95677,1,0,0:0:0:0:
256,192,95792,1,2,0:0:0:0:
256,192,95908,1,2,0:0:0:0:
256,192,96023,1,4,0:0:0:0:
256,192,96484,1,0,0:0:0:0:
256,192,96946,1,0,0:0:0:0:
256,192,97292,1,2,0:0:0:0:
256,192,97638,1,2,0:0:0:0:
256,192,98100,1,2,0:0:0:0:
256,192,98331,1,0,0:0:0:0:
256,192,98792,1,0,0:0:0:0:
256,192,99138,1,2,0:0:0:0:
256,192,99600,1,2,0:0:0:0:
256,192,99658,1,2,0:0:0:0:
256,192,99715,1,0,0:0:0:0:
256,192,100177,1,0,0:0:0:0:
256,192,100638,1,0,0:0:0:0:
256,192,100984,1,2,0:0:0:0:
256,192,101331,1,2,0:0:0:0:
256,192,101792,1,2,0:0:0:0:
256,192,102023,1,0,0:0:0:0:
256,192,102484,1,0,0:0:0:0:
256,192,102831,1,2,0:0:0:0:
256,192,103177,1,2,0:0:0:0:
256,192,103408,1,0,0:0:0:0:
256,192,103869,1,0,0:0:0:0:
256,192,104331,1,0,0:0:0:0:
256,192,104677,1,2,0:0:0:0:
256,192,105023,1,2,0:0:0:0:
256,192,105484,1,2,0:0:0:0:
256,192,105715,1,0,0:0:0:0:
256,192,106177,1,0,0:0:0:0:
256,192,106523,1,2,0:0:0:0:
256,192,106984,1,2,0:0:0:0:
256,192,107042,1,2,0:0:0:0:
256,192,107100,1,0,0:0:0:0:
256,192,107561,1,0,0:0:0:0:
256,192,108023,1,0,0:0:0:0:
256,192,108369,1,2,0:0:0:0:
256,192,108715,1,2,0:0:0:0:
256,192,109177,1,2,0:0:0:0:
256,192,109408,1,0,0:0:0:0:
256,192,109638,1,0,0:0:0:0:
256,192,109869,1,2,0:0:0:0:
256,192,110100,1,2,0:0:0:0:
256,192,110215,1,0,0:0:0:0:
256,192,110331,1,2,0:0:0:0:
256,192,110446,1,0,0:0:0:0:
256,192,110792,1,2,0:0:0:0:
256,192,110869,1,2,0:0:0:0:
256,192,110946,1,2,0:0:0:0:
256,192,111023,1,0,0:0:0:0:
256,192,111946,1,2,0:0:0:0:
256,192,112023,1,2,0:0:0:0:
256,192,112100,1,0,0:0:0:0:
256,192,112177,1,0,0:0:0:0:
256,192,112638,1,2,0:0:0:0:
256,192,112715,1,2,0:0:0:0:
256,192,112792,1,2,0:0:0:0:
256,192,112869,1,0,0:0:0:0:
256,192,113792,1,2,0:0:0:0:
256,192,113869,1,2,0:0:0:0:
256,192,113946,1,2,0:0:0:0:
256,192,114023,1,2,0:0:0:0:
256,192,114484,1,2,0:0:0:0:
256,192,114561,1,2,0:0:0:0:
256,192,114638,1,2,0:0:0:0:
256,192,114715,1,0,0:0:0:0:
256,192,115638,1,2,0:0:0:0:
256,192,115715,1,2,0:0:0:0:
256,192,115792,1,0,0:0:0:0:
256,192,115869,1,0,0:0:0:0:
256,192,116331,1,2,0:0:0:0:
256,192,116408,1,0,0:0:0:0:
256,192,116484,1,0,0:0:0:0:
256,192,116561,1,0,0:0:0:0:
256,192,117484,1,2,0:0:0:0:
256,192,117561,1,0,0:0:0:0:
256,192,117638,1,0,0:0:0:0:
256,192,117715,1,0,0:0:0:0:
256,192,118177,1,2,0:0:0:0:
256,192,118254,1,2,0:0:0:0:
256,192,118331,1,0,0:0:0:0:
256,192,118408,1,0,0:0:0:0:
256,192,118638,1,2,0:0:0:0:
256,192,118754,1,2,0:0:0:0:
256,192,118869,1,0,0:0:0:0:
256,192,118984,1,0,0:0:0:0:
256,192,119100,1,2,0:0:0:0:
256,192,119331,1,2,0:0:0:0:
256,192,119408,1,2,0:0:0:0:
256,192,119484,1,2,0:0:0:0:
256,192,119561,1,0,0:0:0:0:
256,192,119677,1,0,0:0:0:0:
256,192,119792,1,2,0:0:0:0:
256,192,119908,1,0,0:0:0:0:
256,192,120023,1,2,0:0:0:0:
256,192,120100,1,2,0:0:0:0:
256,192,120177,1,0,0:0:0:0:
256,192,120254,1,0,0:0:0:0:
256,192,120484,1,2,0:0:0:0:
256,192,120600,1,2,0:0:0:0:
256,192,120715,1,0,0:0:0:0:
256,192,120831,1,0,0:0:0:0:
256,192,120946,1,2,0:0:0:0:
256,192,121177,1,2,0:0:0:0:
256,192,121254,1,2,0:0:0:0:
256,192,121331,1,2,0:0:0:0:
256,192,121408,1,0,0:0:0:0:
256,192,121523,1,0,0:0:0:0:
256,192,121638,1,2,0:0:0:0:
256,192,121754,1,0,0:0:0:0:
256,192,121869,1,2,0:0:0:0:
256,192,121946,1,2,0:0:0:0:
256,192,122023,1,0,0:0:0:0:
256,192,122100,1,0,0:0:0:0:
256,192,122331,1,2,0:0:0:0:
256,192,122446,1,2,0:0:0:0:
256,192,122561,1,0,0:0:0:0:
256,192,122677,1,0,0:0:0:0:
256,192,122792,1,2,0:0:0:0:
256,192,122908,1,0,0:0:0:0:
256,192,123023,1,0,0:0:0:0:
256,192,123138,1,2,0:0:0:0:
256,192,123254,1,0,0:0:0:0:
256,192,123369,1,0,0:0:0:0:
256,192,123484,1,2,0:0:0:0:
256,192,123600,1,0,0:0:0:0:
256,192,123715,1,0,0:0:0:0:
256,192,123946,1,0,0:0:0:0:
256,192,124061,1,0,0:0:0:0:
256,192,124177,1,2,0:0:0:0:
256,192,124292,1,0,0:0:0:0:
256,192,124408,1,2,0:0:0:0:
256,192,124523,1,0,0:0:0:0:
256,192,124638,1,0,0:0:0:0:
256,192,124754,1,0,0:0:0:0:
256,192,124869,1,0,0:0:0:0:
256,192,124984,1,0,0:0:0:0:
256,192,125100,1,2,0:0:0:0:
256,192,125215,1,2,0:0:0:0:
256,192,125331,1,2,0:0:0:0:
256,192,125446,1,2,0:0:0:0:
256,192,125561,1,0,0:0:0:0:
256,192,126023,1,0,0:0:0:0:
256,192,126484,1,0,0:0:0:0:
256,192,126946,1,0,0:0:0:0:
256,192,127408,1,0,0:0:0:0:
256,192,127869,1,0,0:0:0:0:
256,192,128331,1,0,0:0:0:0:
256,192,128792,1,0,0:0:0:0:
256,192,129254,1,2,0:0:0:0:
256,192,129715,1,2,0:0:0:0:
256,192,130177,1,2,0:0:0:0:
256,192,130638,1,2,0:0:0:0:
256,192,130869,1,0,0:0:0:0:
256,192,131100,1,2,0:0:0:0:
256,192,131331,1,0,0:0:0:0:
256,192,131561,1,2,0:0:0:0:
256,192,131792,1,0,0:0:0:0:
256,192,132138,1,2,0:0:0:0:
256,192,132369,1,2,0:0:0:0:
256,192,132600,1,0,0:0:0:0:
256,192,132658,1,0,0:0:0:0:
256,192,132715,1,2,0:0:0:0:
256,192,132946,1,0,0:0:0:0:
256,192,133061,1,2,0:0:0:0:
256,192,133177,1,0,0:0:0:0:
256,192,133292,1,0,0:0:0:0:
256,192,133408,1,2,0:0:0:0:
256,192,133523,1,0,0:0:0:0:
256,192,133638,1,2,0:0:0:0:
256,192,133754,1,2,0:0:0:0:
256,192,133869,1,0,0:0:0:0:
256,192,133984,1,0,0:0:0:0:
256,192,134100,1,2,0:0:0:0:
256,192,134331,1,2,0:0:0:0:
256,192,134561,1,0,0:0:0:0:
256,192,134792,1,2,0:0:0:0:
256,192,134908,1,0,0:0:0:0:
256,192,135023,1,0,0:0:0:0:
256,192,135138,1,2,0:0:0:0:
256,192,135254,1,2,0:0:0:0:
256,192,135369,1,0,0:0:0:0:
256,192,135484,1,2,0:0:0:0:
256,192,135600,1,2,0:0:0:0:
256,192,135715,1,0,0:0:0:0:
256,192,135831,1,0,0:0:0:0:
256,192,135946,1,2,0:0:0:0:
256,192,136177,1,0,0:0:0:0:
256,192,136408,1,2,0:0:0:0:
256,192,136638,1,2,0:0:0:0:
256,192,136754,1,2,0:0:0:0:
256,192,136869,1,0,0:0:0:0:
256,192,136984,1,0,0:0:0:0:
256,192,137100,1,2,0:0:0:0:
256,192,137215,1,0,0:0:0:0:
256,192,137331,1,2,0:0:0:0:
256,192,137446,1,0,0:0:0:0:
256,192,137561,1,2,0:0:0:0:
256,192,137677,1,2,0:0:0:0:
256,192,137792,1,0,0:0:0:0:
256,192,137908,1,0,0:0:0:0:
256,192,138023,1,2,0:0:0:0:
256,192,138138,1,0,0:0:0:0:
256,192,138254,1,2,0:0:0:0:
256,192,138369,1,0,0:0:0:0:
256,192,138484,1,2,0:0:0:0:
256,192,138638,1,2,0:0:0:0:
256,192,138792,1,2,0:0:0:0:
256,192,138946,1,2,0:0:0:0:
256,192,139100,1,2,0:0:0:0:
256,192,139254,1,2,0:0:0:0:
256,192,139408,1,2,0:0:0:0:
256,192,139561,1,2,0:0:0:0:
256,192,139715,1,2,0:0:0:0:
256,192,139869,1,0,0:0:0:0:
256,192,140331,1,0,0:0:0:0:
256,192,140408,1,0,0:0:0:0:
256,192,140484,1,0,0:0:0:0:
256,192,140561,1,2,0:0:0:0:
256,192,140677,1,0,0:0:0:0:
256,192,140792,1,0,0:0:0:0:
256,192,140908,1,0,0:0:0:0:
256,192,141023,1,2,0:0:0:0:
256,192,141138,1,0,0:0:0:0:
256,192,141254,1,0,0:0:0:0:
256,192,141369,1,0,0:0:0:0:
256,192,141484,1,2,0:0:0:0:
256,192,141715,1,0,0:0:0:0:
256,192,141946,1,2,0:0:0:0:
256,192,142177,1,2,0:0:0:0:
256,192,142292,1,0,0:0:0:0:
256,192,142408,1,0,0:0:0:0:
256,192,142523,1,2,0:0:0:0:
256,192,142638,1,0,0:0:0:0:
256,192,142754,1,0,0:0:0:0:
256,192,142869,1,2,0:0:0:0:
256,192,142984,1,0,0:0:0:0:
256,192,143100,1,0,0:0:0:0:
256,192,143331,1,2,0:0:0:0:
256,192,143388,1,2,0:0:0:0:
256,192,143561,1,0,0:0:0:0:
256,192,143619,1,0,0:0:0:0:
256,192,143792,1,2,0:0:0:0:
256,192,143869,1,2,0:0:0:0:
256,192,143946,1,2,0:0:0:0:
256,192,144023,1,0,0:0:0:0:
256,192,144138,1,2,0:0:0:0:
256,192,144254,1,0,0:0:0:0:
256,192,144369,1,2,0:0:0:0:
256,192,144484,1,0,0:0:0:0:
256,192,144600,1,2,0:0:0:0:
256,192,144715,1,2,0:0:0:0:
256,192,144831,1,0,0:0:0:0:
256,192,144946,1,0,0:0:0:0:
256,192,145061,1,2,0:0:0:0:
256,192,145177,1,0,0:0:0:0:
256,192,145292,1,0,0:0:0:0:
256,192,145408,1,2,0:0:0:0:
256,192,145638,1,0,0:0:0:0:
256,192,145754,1,0,0:0:0:0:
256,192,145869,1,2,0:0:0:0:
256,192,145984,1,0,0:0:0:0:
256,192,146100,1,0,0:0:0:0:
256,192,146215,1,2,0:0:0:0:
256,192,146331,1,0,0:0:0:0:
256,192,146446,1,2,0:0:0:0:
256,192,146561,1,0,0:0:0:0:
256,192,146677,1,2,0:0:0:0:
256,192,146792,1,0,0:0:0:0:
256,192,146908,1,2,0:0:0:0:
256,192,147023,1,2,0:0:0:0:
256,192,147138,1,0,0:0:0:0:
256,192,147254,1,2,0:0:0:0:
256,192,147369,1,2,0:0:0:0:
256,192,147484,1,2,0:0:0:0:
256,192,147715,1,0,0:0:0:0:
256,192,147792,1,0,0:0:0:0:
256,192,147869,1,0,0:0:0:0:
256,192,147946,1,2,0:0:0:0:
256,192,148061,1,0,0:0:0:0:
256,192,148177,1,2,0:0:0:0:
256,192,148292,1,2,0:0:0:0:
256,192,148408,1,2,0:0:0:0:
256,192,148523,1,0,0:0:0:0:
256,192,148638,1,0,0:0:0:0:
256,192,148754,1,0,0:0:0:0:
256,192,148869,1,2,0:0:0:0:
256,192,149100,1,0,0:0:0:0:
256,192,149331,1,2,0:0:0:0:
256,192,149561,1,2,0:0:0:0:
256,192,149677,1,0,0:0:0:0:
256,192,149792,1,0,0:0:0:0:
256,192,149908,1,2,0:0:0:0:
256,192,150023,1,0,0:0:0:0:
256,192,150138,1,0,0:0:0:0:
256,192,150254,1,2,0:0:0:0:
256,192,150369,1,0,0:0:0:0:
256,192,150484,1,0,0:0:0:0:
256,192,150715,1,2,0:0:0:0:
256,192,150773,1,2,0:0:0:0:
256,192,150946,1,0,0:0:0:0:
256,192,151004,1,0,0:0:0:0:
256,192,151177,1,2,0:0:0:0:
256,192,151254,1,2,0:0:0:0:
256,192,151331,1,2,0:0:0:0:
256,192,151408,1,0,0:0:0:0:
256,192,151523,1,2,0:0:0:0:
256,192,151638,1,0,0:0:0:0:
256,192,151754,1,2,0:0:0:0:
256,192,151869,1,0,0:0:0:0:
256,192,151984,1,2,0:0:0:0:
256,192,152100,1,2,0:0:0:0:
256,192,152215,1,0,0:0:0:0:
256,192,152331,1,0,0:0:0:0:
256,192,152446,1,2,0:0:0:0:
256,192,152561,1,0,0:0:0:0:
256,192,152677,1,0,0:0:0:0:
256,192,152792,1,2,0:0:0:0:
256,192,153023,1,0,0:0:0:0:
256,192,153138,1,0,0:0:0:0:
256,192,153254,1,2,0:0:0:0:
256,192,153369,1,0,0:0:0:0:
256,192,153484,1,2,0:0:0:0:
256,192,153600,1,2,0:0:0:0:
256,192,153715,1,0,0:0:0:0:
256,192,153831,1,2,0:0:0:0:
256,192,153946,1,0,0:0:0:0:
256,192,154061,1,2,0:0:0:0:
256,192,154177,1,0,0:0:0:0:
256,192,154292,1,2,0:0:0:0:
256,192,154408,1,0,0:0:0:0:
256,192,154523,1,2,0:0:0:0:
256,192,154638,1,0,0:0:0:0:
256,192,154715,1,0,0:0:0:0:
256,192,154792,1,0,0:0:0:0:
256,192,154869,1,2,0:0:0:0:
256,192,155100,1,2,0:0:0:0:
256,192,155215,1,0,0:0:0:0:
256,192,155331,1,0,0:0:0:0:
256,192,155446,1,0,0:0:0:0:
256,192,155561,1,2,0:0:0:0:
256,192,155677,1,0,0:0:0:0:
256,192,155792,1,2,0:0:0:0:
256,192,155908,1,2,0:0:0:0:
256,192,156023,1,0,0:0:0:0:
256,192,156138,1,0,0:0:0:0:
256,192,156254,1,2,0:0:0:0:
256,192,156484,1,2,0:0:0:0:
256,192,156715,1,0,0:0:0:0:
256,192,156946,1,2,0:0:0:0:
256,192,157061,1,0,0:0:0:0:
256,192,157177,1,0,0:0:0:0:
256,192,157292,1,0,0:0:0:0:
256,192,157408,1,2,0:0:0:0:
256,192,157523,1,0,0:0:0:0:
256,192,157638,1,2,0:0:0:0:
256,192,157754,1,2,0:0:0:0:
256,192,157869,1,0,0:0:0:0:
256,192,158100,1,2,0:0:0:0:
256,192,158331,1,0,0:0:0:0:
256,192,158792,1,2,0:0:0:0:
256,192,158908,1,0,0:0:0:0:
256,192,159023,1,0,0:0:0:0:
256,192,159138,1,0,0:0:0:0:
256,192,159254,1,2,0:0:0:0:
256,192,159369,1,0,0:0:0:0:
256,192,159484,1,2,0:0:0:0:
256,192,159600,1,2,0:0:0:0:
256,192,159715,1,0,0:0:0:0:
256,192,159946,1,2,0:0:0:0:
256,192,160177,1,2,0:0:0:0:
256,192,160408,1,0,0:0:0:0:
256,192,160638,1,2,0:0:0:0:
256,192,160754,1,0,0:0:0:0:
256,192,160869,1,0,0:0:0:0:
256,192,160984,1,0,0:0:0:0:
256,192,161100,1,2,0:0:0:0:
256,192,161215,1,2,0:0:0:0:
256,192,161331,1,0,0:0:0:0:
256,192,161446,1,0,0:0:0:0:
256,192,161561,1,2,0:0:0:0:
256,192,161677,1,0,0:0:0:0:
256,192,161792,1,2,0:0:0:0:
256,192,161908,1,2,0:0:0:0:
256,192,162023,1,0,0:0:0:0:
256,192,162138,1,0,0:0:0:0:
256,192,162254,1,2,0:0:0:0:
256,192,162484,1,2,0:0:0:0:
256,192,162600,1,0,0:0:0:0:
256,192,162715,1,0,0:0:0:0:
256,192,162831,1,2,0:0:0:0:
256,192,162946,1,2,0:0:0:0:
256,192,163061,1,0,0:0:0:0:
256,192,163177,1,2,0:0:0:0:
256,192,163292,1,2,0:0:0:0:
256,192,163408,1,0,0:0:0:0:
256,192,163523,1,0,0:0:0:0:
256,192,163638,1,2,0:0:0:0:
256,192,163754,1,0,0:0:0:0:
256,192,163869,1,2,0:0:0:0:
256,192,164100,1,2,0:0:0:0:
256,192,164331,1,2,0:0:0:0:
256,192,164446,1,0,0:0:0:0:
256,192,164561,1,2,0:0:0:0:
256,192,164677,1,2,0:0:0:0:
256,192,164792,1,0,0:0:0:0:
256,192,164908,1,2,0:0:0:0:
256,192,165023,1,2,0:0:0:0:
256,192,165138,1,0,0:0:0:0:
256,192,165254,1,2,0:0:0:0:
256,192,165484,1,2,0:0:0:0:
256,192,165542,1,2,0:0:0:0:
256,192,165600,1,2,0:0:0:0:
256,192,165715,1,0,0:0:0:0:
256,192,165946,1,0,0:0:0:0:
256,192,166177,1,2,0:0:0:0:
256,192,166292,1,0,0:0:0:0:
256,192,166408,1,0,0:0:0:0:
256,192,166523,1,2,0:0:0:0:
256,192,166638,1,2,0:0:0:0:
256,192,166754,1,0,0:0:0:0:
256,192,166869,1,2,0:0:0:0:
256,192,166984,1,2,0:0:0:0:
256,192,167100,1,0,0:0:0:0:
256,192,167215,1,0,0:0:0:0:
256,192,167331,1,2,0:0:0:0:
256,192,167561,1,2,0:0:0:0:
256,192,167792,1,2,0:0:0:0:
256,192,168023,1,2,0:0:0:0:
256,192,168138,1,0,0:0:0:0:
256,192,168254,1,2,0:0:0:0:
256,192,168311,1,2,0:0:0:0:
256,192,168369,1,0,0:0:0:0:
256,192,168946,1,0,0:0:0:0:
256,192,169177,1,2,0:0:0:0:
256,192,169292,1,2,0:0:0:0:
256,192,169638,1,0,0:0:0:0:
256,192,169869,1,0,0:0:0:0:
256,192,169984,1,0,0:0:0:0:
256,192,170100,1,2,0:0:0:0:
256,192,170215,1,2,0:0:0:0:
256,192,170331,1,0,0:0:0:0:
256,192,170446,1,0,0:0:0:0:
256,192,170561,1,2,0:0:0:0:
256,192,170677,1,2,0:0:0:0:
256,192,170792,1,0,0:0:0:0:
256,192,170908,1,2,0:0:0:0:
256,192,171023,1,2,0:0:0:0:
256,192,171138,1,2,0:0:0:0:
256,192,171254,1,0,0:0:0:0:
256,192,171369,1,2,0:0:0:0:
256,192,171484,1,2,0:0:0:0:
256,192,171600,1,2,0:0:0:0:
256,192,171715,1,0,0:0:0:0:
256,192,171831,1,0,0:0:0:0:
256,192,171946,1,2,0:0:0:0:
256,192,172061,1,0,0:0:0:0:
256,192,172177,1,0,0:0:0:0:
256,192,172292,1,0,0:0:0:0:
256,192,172408,1,2,0:0:0:0:
256,192,172523,1,2,0:0:0:0:
256,192,172638,1,0,0:0:0:0:
256,192,172754,1,2,0:0:0:0:
256,192,172869,1,0,0:0:0:0:
256,192,172984,1,2,0:0:0:0:
256,192,173100,1,0,0:0:0:0:
256,192,173215,1,2,0:0:0:0:
256,192,173331,1,2,0:0:0:0:
256,192,173446,1,2,0:0:0:0:
256,192,173561,1,0,0:0:0:0:
256,192,173677,1,0,0:0:0:0:
256,192,173792,1,0,0:0:0:0:
256,192,173908,1,2,0:0:0:0:
256,192,174023,1,0,0:0:0:0:
256,192,174138,1,0,0:0:0:0:
256,192,174254,1,0,0:0:0:0:
256,192,174369,1,2,0:0:0:0:
256,192,174484,1,0,0:0:0:0:
256,192,174600,1,0,0:0:0:0:
256,192,174715,1,2,0:0:0:0:
256,192,174831,1,2,0:0:0:0:
256,192,174946,1,0,0:0:0:0:
256,192,175061,1,0,0:0:0:0:
256,192,175177,1,2,0:0:0:0:
256,192,175292,1,2,0:0:0:0:
256,192,175408,1,0,0:0:0:0:
256,192,175523,1,2,0:0:0:0:
256,192,175638,1,0,0:0:0:0:
256,192,175754,1,2,0:0:0:0:
256,192,175869,1,0,0:0:0:0:
256,192,175984,1,0,0:0:0:0:
256,192,176100,1,0,0:0:0:0:
256,192,176215,1,2,0:0:0:0:
256,192,176331,1,0,0:0:0:0:
256,192,176446,1,0,0:0:0:0:
256,192,176561,1,2,0:0:0:0:
256,192,176677,1,2,0:0:0:0:
256,192,176792,1,0,0:0:0:0:
256,192,176908,1,2,0:0:0:0:
256,192,177023,1,0,0:0:0:0:
256,192,177138,1,2,0:0:0:0:
256,192,177254,1,0,0:0:0:0:
256,192,177369,1,0,0:0:0:0:
256,192,177484,1,2,0:0:0:0:
256,192,177600,1,2,0:0:0:0:
256,192,177715,1,0,0:0:0:0:
256,192,177831,1,0,0:0:0:0:
256,192,177946,1,2,0:0:0:0:
256,192,178061,1,2,0:0:0:0:
256,192,178177,1,0,0:0:0:0:
256,192,178292,1,2,0:0:0:0:
256,192,178408,1,2,0:0:0:0:
256,192,178523,1,2,0:0:0:0:
256,192,178638,1,0,0:0:0:0:
256,192,178754,1,2,0:0:0:0:
256,192,178869,1,2,0:0:0:0:
256,192,178984,1,2,0:0:0:0:
256,192,179100,1,0,0:0:0:0:
256,192,179215,1,0,0:0:0:0:
256,192,179331,1,2,0:0:0:0:
256,192,179446,1,2,0:0:0:0:
256,192,179561,1,0,0:0:0:0:
256,192,179677,1,0,0:0:0:0:
256,192,179792,1,2,0:0:0:0:
256,192,179908,1,2,0:0:0:0:
256,192,180023,1,0,0:0:0:0:
256,192,180138,1,2,0:0:0:0:
256,192,180254,1,2,0:0:0:0:
256,192,180369,1,2,0:0:0:0:
256,192,180484,1,0,0:0:0:0:
256,192,180600,1,2,0:0:0:0:
256,192,180715,1,2,0:0:0:0:
256,192,180831,1,2,0:0:0:0:
256,192,180946,1,0,0:0:0:0:
256,192,181061,1,0,0:0:0:0:
256,192,181177,1,0,0:0:0:0:
256,192,181292,1,0,0:0:0:0:
256,192,181408,1,2,0:0:0:0:
256,192,181523,1,0,0:0:0:0:
256,192,181638,1,0,0:0:0:0:
256,192,181754,1,0,0:0:0:0:
256,192,181869,1,2,0:0:0:0:
256,192,181984,1,2,0:0:0:0:
256,192,182100,1,0,0:0:0:0:
256,192,182215,1,0,0:0:0:0:
256,192,182331,1,2,0:0:0:0:
256,192,182446,1,2,0:0:0:0:
256,192,182561,1,2,0:0:0:0:
256,192,182677,1,2,0:0:0:0:
256,192,182792,1,0,0:0:0:0:
256,192,182908,1,0,0:0:0:0:
256,192,183023,1,0,0:0:0:0:
256,192,183138,1,0,0:0:0:0:
256,192,183254,1,2,0:0:0:0:
256,192,183369,1,0,0:0:0:0:
256,192,183484,1,0,0:0:0:0:
256,192,183600,1,0,0:0:0:0:
256,192,183715,1,2,0:0:0:0:
256,192,183831,1,0,0:0:0:0:
256,192,183946,1,2,0:0:0:0:
256,192,184061,1,0,0:0:0:0:
256,192,184177,1,2,0:0:0:0:
256,192,184292,1,2,0:0:0:0:
256,192,184408,1,2,0:0:0:0:
256,192,184523,1,2,0:0:0:0:
256,192,184638,1,0,0:0:0:0:
256,192,184869,1,2,0:0:0:0:
256,192,184984,1,2,0:0:0:0:
256,192,185100,1,2,0:0:0:0:
256,192,185215,1,2,0:0:0:0:
256,192,185331,1,0,0:0:0:0:
256,192,185561,1,2,0:0:0:0:
256,192,185792,1,2,0:0:0:0:
256,192,185908,1,2,0:0:0:0:
256,192,186023,1,2,0:0:0:0:
256,192,186138,1,2,0:0:0:0:
256,192,186254,1,0,0:0:0:0:
256,192,186484,1,2,0:0:0:0:
256,192,186715,1,2,0:0:0:0:
256,192,186831,1,2,0:0:0:0:
256,192,186946,1,2,0:0:0:0:
256,192,187061,1,2,0:0:0:0:
256,192,187177,1,0,0:0:0:0:
256,192,187408,1,2,0:0:0:0:
256,192,187581,1,2,0:0:0:0:
256,192,187754,1,0,0:0:0:0:
256,192,187869,1,2,0:0:0:0:
256,192,188042,1,2,0:0:0:0:
256,192,188215,1,2,0:0:0:0:
256,192,188331,1,0,0:0:0:0:
256,192,188561,1,2,0:0:0:0:
256,192,188677,1,2,0:0:0:0:
256,192,188792,1,0,0:0:0:0:
256,192,188908,1,2,0:0:0:0:
256,192,189023,1,2,0:0:0:0:
256,192,189138,1,2,0:0:0:0:
256,192,189254,1,0,0:0:0:0:
256,192,189484,1,2,0:0:0:0:
256,192,189600,1,2,0:0:0:0:
256,192,189715,1,0,0:0:0:0:
256,192,189831,1,2,0:0:0:0:
256,192,189946,1,2,0:0:0:0:
256,192,190061,1,2,0:0:0:0:
256,192,190177,1,0,0:0:0:0:
256,192,190234,1,0,0:0:0:0:
256,192,190292,1,2,0:0:0:0:
256,192,190523,1,0,0:0:0:0:
256,192,190581,1,0,0:0:0:0:
256,192,190638,1,2,0:0:0:0:
256,192,190869,1,0,0:0:0:0:
256,192,190984,1,0,0:0:0:0:
256,192,191100,1,2,0:0:0:0:
256,192,191215,1,2,0:0:0:0:
256,192,191331,1,0,0:0:0:0:
256,192,191446,1,0,0:0:0:0:
256,192,191561,1,2,0:0:0:0:
256,192,191792,1,2,0:0:0:0:
256,192,191908,1,2,0:0:0:0:
256,192,192023,1,0,0:0:0:0:
256,192,192138,1,0,0:0:0:0:
256,192,192254,1,2,0:0:0:0:
256,192,192369,1,0,0:0:0:0:
256,192,192484,1,2,0:0:0:0:
256,192,192600,1,2,0:0:0:0:
256,192,192715,1,0,0:0:0:0:
256,192,192946,1,2,0:0:0:0:
256,192,193061,1,2,0:0:0:0:
256,192,193177,1,0,0:0:0:0:
256,192,193292,1,0,0:0:0:0:
256,192,193408,1,2,0:0:0:0:
256,192,193523,1,2,0:0:0:0:
256,192,193638,1,0,0:0:0:0:
256,192,193869,1,2,0:0:0:0:
256,192,193984,1,2,0:0:0:0:
256,192,194100,1,0,0:0:0:0:
256,192,194215,1,2,0:0:0:0:
256,192,194331,1,2,0:0:0:0:
256,192,194446,1,2,0:0:0:0:
256,192,194561,1,0,0:0:0:0:
256,192,194792,1,2,0:0:0:0:
256,192,194908,1,2,0:0:0:0:
256,192,195023,1,0,0:0:0:0:
256,192,195138,1,2,0:0:0:0:
256,192,195254,1,0,0:0:0:0:
256,192,195311,1,0,0:0:0:0:
256,192,195369,1,0,0:0:0:0:
256,192,195484,1,2,0:0:0:0:
256,192,195715,1,4,0:0:0:0:
256,192,195946,1,2,0:0:0:0:
256,192,196004,1,2,0:0:0:0:
256,192,196061,1,2,0:0:0:0:
256,192,196177,1,0,0:0:0:0:
256,192,196408,1,2,0:0:0:0:
256,192,196523,1,2,0:0:0:0:
256,192,196638,1,0,0:0:0:0:
256,192,196869,1,0,0:0:0:0:
256,192,196946,1,2,0:0:0:0:
256,192,197023,1,2,0:0:0:0:
256,192,197100,1,0,0:0:0:0:
256,192,197561,1,0,0:0:0:0:
256,192,197677,1,0,0:0:0:0:
256,192,197792,1,0,0:0:0:0:
256,192,197908,1,0,0:0:0:0:
256,192,198023,1,0,0:0:0:0:
256,192,198138,1,0,0:0:0:0:
256,192,198254,1,0,0:0:0:0:
256,192,198369,1,0,0:0:0:0:
256,192,198484,1,2,0:0:0:0:
256,192,198831,1,2,0:0:0:0:
256,192,199177,1,2,0:0:0:0:
256,192,199408,1,4,0:0:0:0:
256,192,199638,1,0,0:0:0:0:
256,192,199754,1,0,0:0:0:0:
256,192,199869,1,2,0:0:0:0:
256,192,200100,1,0,0:0:0:0:
256,192,200331,1,2,0:0:0:0:
256,192,200446,1,2,0:0:0:0:
256,192,200561,1,0,0:0:0:0:
256,192,200677,1,2,0:0:0:0:
256,192,200792,1,0,0:0:0:0:
256,192,201023,1,2,0:0:0:0:
256,192,201254,1,2,0:0:0:0:
256,192,201484,1,0,0:0:0:0:
256,192,201600,1,0,0:0:0:0:
256,192,201715,1,2,0:0:0:0:
256,192,201946,1,0,0:0:0:0:
256,192,202061,1,0,0:0:0:0:
256,192,202177,1,2,0:0:0:0:
256,192,202292,1,2,0:0:0:0:
256,192,202408,1,0,0:0:0:0:
256,192,202523,1,0,0:0:0:0:
256,192,202581,1,0,0:0:0:0:
256,192,202638,1,2,0:0:0:0:
256,192,202869,1,0,0:0:0:0:
256,192,203100,1,2,0:0:0:0:
256,192,203331,1,0,0:0:0:0:
256,192,203446,1,0,0:0:0:0:
256,192,203561,1,2,0:0:0:0:
256,192,203792,1,0,0:0:0:0:
256,192,204023,1,2,0:0:0:0:
256,192,204138,1,2,0:0:0:0:
256,192,204254,1,0,0:0:0:0:
256,192,204369,1,2,0:0:0:0:
256,192,204484,1,0,0:0:0:0:
256,192,204715,1,0,0:0:0:0:
256,192,204946,1,2,0:0:0:0:
256,192,205177,1,0,0:0:0:0:
256,192,205292,1,2,0:0:0:0:
256,192,205408,1,0,0:0:0:0:
256,192,205638,1,0,0:0:0:0:
256,192,205869,1,2,0:0:0:0:
256,192,205984,1,0,0:0:0:0:
256,192,206100,1,2,0:0:0:0:
256,192,206215,1,2,0:0:0:0:
256,192,206331,1,0,0:0:0:0:
256,192,206446,1,2,0:0:0:0:
256,192,206561,1,0,0:0:0:0:
256,192,206677,1,2,0:0:0:0:
256,192,206792,1,2,0:0:0:0:
256,192,207023,1,0,0:0:0:0:
256,192,207138,1,0,0:0:0:0:
256,192,207254,1,2,0:0:0:0:
256,192,207484,1,0,0:0:0:0:
256,192,207715,1,2,0:0:0:0:
256,192,207831,1,2,0:0:0:0:
256,192,207946,1,2,0:0:0:0:
256,192,208061,1,2,0:0:0:0:
256,192,208177,1,0,0:0:0:0:
256,192,208408,1,2,0:0:0:0:
256,192,208638,1,2,0:0:0:0:
256,192,208754,1,0,0:0:0:0:
256,192,208984,1,0,0:0:0:0:
256,192,209100,1,2,0:0:0:0:
256,192,209215,1,0,0:0:0:0:
256,192,209446,1,0,0:0:0:0:
256,192,209561,1,2,0:0:0:0:
256,192,209792,1,2,0:0:0:0:
256,192,209908,1,2,0:0:0:0:
256,192,210023,1,0,0:0:0:0:
256,192,210254,1,0,0:0:0:0:
256,192,210484,1,2,0:0:0:0:
256,192,210715,1,0,0:0:0:0:
256,192,210831,1,0,0:0:0:0:
256,192,210946,1,2,0:0:0:0:
256,192,211177,1,0,0:0:0:0:
256,192,211408,1,2,0:0:0:0:
256,192,211523,1,2,0:0:0:0:
256,192,211638,1,0,0:0:0:0:
256,192,211754,1,0,0:0:0:0:
256,192,211869,1,2,0:0:0:0:
256,192,212100,1,0,0:0:0:0:
256,192,212215,1,2,0:0:0:0:
256,192,212331,1,0,0:0:0:0:
256,192,212561,1,0,0:0:0:0:
256,192,212677,1,0,0:0:0:0:
256,192,212792,1,2,0:0:0:0:
256,192,213023,1,2,0:0:0:0:
256,192,213138,1,0,0:0:0:0:
256,192,213254,1,2,0:0:0:0:
256,192,213484,1,0,0:0:0:0:
256,192,213600,1,0,0:0:0:0:
256,192,213715,1,2,0:0:0:0:
256,192,213946,1,2,0:0:0:0:
256,192,214061,1,2,0:0:0:0:
256,192,214177,1,0,0:0:0:0:
256,192,214292,1,2,0:0:0:0:
256,192,214408,1,0,0:0:0:0:
256,192,214523,1,0,0:0:0:0:
256,192,214638,1,2,0:0:0:0:
256,192,214754,1,0,0:0:0:0:
256,192,214811,1,0,0:0:0:0:
256,192,214869,1,2,0:0:0:0:
256,192,215100,1,2,0:0:0:0:
256,192,215215,1,0,0:0:0:0:
256,192,215273,1,0,0:0:0:0:
256,192,215331,1,2,0:0:0:0:
256,192,215561,1,2,0:0:0:0:
256,192,215792,1,0,0:0:0:0:
256,192,215908,1,2,0:0:0:0:
256,192,216023,1,0,0:0:0:0:
256,192,216138,1,0,0:0:0:0:
256,192,216254,1,2,0:0:0:0:
256,192,216369,1,0,0:0:0:0:
256,192,216484,1,2,0:0:0:0:
256,192,216600,1,0,0:0:0:0:
256,192,216715,1,0,0:0:0:0:
256,192,216831,1,2,0:0:0:0:
256,192,216946,1,2,0:0:0:0:
256,192,217061,1,0,0:0:0:0:
256,192,217177,1,2,0:0:0:0:
256,192,217292,1,0,0:0:0:0:
256,192,217350,1,0,0:0:0:0:
256,192,217408,1,2,0:0:0:0:
256,192,217523,1,0,0:0:0:0:
256,192,217638,1,2,0:0:0:0:
256,192,217754,1,0,0:0:0:0:
256,192,217869,1,0,0:0:0:0:
256,192,218100,1,0,0:0:0:0:
256,192,218215,1,0,0:0:0:0:
256,192,218331,1,2,0:0:0:0:
256,192,218561,1,2,0:0:0:0:
256,192,218677,1,2,0:0:0:0:
256,192,218792,1,0,0:0:0:0:
256,192,218908,1,2,0:0:0:0:
256,192,219023,1,0,0:0:0:0:
256,192,219138,1,0,0:0:0:0:
256,192,219254,1,2,0:0:0:0:
256,192,219484,1,2,0:0:0:0:
256,192,219561,1,2,0:0:0:0:
256,192,219638,1,2,0:0:0:0:
256,192,219715,1,0,0:0:0:0:
256,192,219946,1,2,0:0:0:0:
256,192,220004,1,0,0:0:0:0:
256,192,220177,1,0,0:0:0:0:
256,192,220408,1,2,0:0:0:0:
256,192,220465,1,0,0:0:0:0:
256,192,220638,1,2,0:0:0:0:
256,192,220696,1,2,0:0:0:0:
256,192,220869,1,0,0:0:0:0:
256,192,220984,1,2,0:0:0:0:
256,192,221100,1,0,0:0:0:0:
256,192,221215,1,2,0:0:0:0:
256,192,221331,1,0,0:0:0:0:
256,192,221446,1,2,0:0:0:0:
256,192,221561,1,0,0:0:0:0:
256,192,221792,1,0,0:0:0:0:
256,192,221908,1,0,0:0:0:0:
256,192,222023,1,2,0:0:0:0:
256,192,222254,1,2,0:0:0:0:
256,192,222369,1,2,0:0:0:0:
256,192,222484,1,0,0:0:0:0:
256,192,222715,1,0,0:0:0:0:
256,192,222831,1,0,0:0:0:0:
256,192,222946,1,2,0:0:0:0:
256,192,223177,1,2,0:0:0:0:
256,192,223292,1,0,0:0:0:0:
256,192,223408,1,2,0:0:0:0:
256,192,223638,1,2,0:0:0:0:
256,192,223754,1,0,0:0:0:0:
256,192,223869,1,2,0:0:0:0:
256,192,224100,1,2,0:0:0:0:
256,192,224331,1,0,0:0:0:0:
256,192,224561,1,2,0:0:0:0:
256,192,224677,1,2,0:0:0:0:
256,192,224792,1,0,0:0:0:0:
256,192,225023,1,0,0:0:0:0:
256,192,225254,1,2,0:0:0:0:
256,192,225484,1,0,0:0:0:0:
256,192,225715,1,2,0:0:0:0:
256,192,225946,1,0,0:0:0:0:
256,192,226177,1,2,0:0:0:0:
256,192,226408,1,0,0:0:0:0:
256,192,226523,1,0,0:0:0:0:
256,192,226638,1,2,0:0:0:0:
256,192,226869,1,0,0:0:0:0:
256,192,227100,1,2,0:0:0:0:
256,192,227331,1,0,0:0:0:0:
256,192,227446,1,0,0:0:0:0:
256,192,227561,1,2,0:0:0:0:
256,192,227792,1,0,0:0:0:0:
256,192,227908,1,0,0:0:0:0:
256,192,228023,1,2,0:0:0:0:
256,192,228254,1,0,0:0:0:0:
256,192,228369,1,0,0:0:0:0:
256,192,228484,1,2,0:0:0:0:
256,192,228600,1,0,0:0:0:0:
256,192,228715,1,2,0:0:0:0:
256,192,228831,1,0,0:0:0:0:
256,192,230792,1,2,0:0:0:0:
256,192,230869,1,2,0:0:0:0:
256,192,230946,1,2,0:0:0:0:
256,192,231023,1,0,0:0:0:0:
256,192,231254,1,2,0:0:0:0:
256,192,231484,1,0,0:0:0:0:
256,192,231715,1,2,0:0:0:0:
256,192,231831,1,2,0:0:0:0:
256,192,231946,1,0,0:0:0:0:
256,192,232177,1,2,0:0:0:0:
256,192,232408,1,0,0:0:0:0:
256,192,232638,1,2,0:0:0:0:
256,192,232754,1,2,0:0:0:0:
256,192,232869,1,0,0:0:0:0:
256,192,233100,1,2,0:0:0:0:
256,192,233331,1,0,0:0:0:0:
256,192,233561,1,2,0:0:0:0:
256,192,233677,1,2,0:0:0:0:
256,192,233792,1,0,0:0:0:0:
256,192,234023,1,2,0:0:0:0:
256,192,234138,1,2,0:0:0:0:
256,192,234254,1,0,0:0:0:0:
256,192,234369,1,0,0:0:0:0:
256,192,234484,1,2,0:0:0:0:
256,192,234561,1,2,0:0:0:0:
256,192,234638,1,2,0:0:0:0:
256,192,234715,1,0,0:0:0:0:
256,192,234946,1,2,0:0:0:0:
256,192,235177,1,0,0:0:0:0:
256,192,235408,1,2,0:0:0:0:
256,192,235523,1,2,0:0:0:0:
256,192,235638,1,0,0:0:0:0:
256,192,235869,1,2,0:0:0:0:
256,192,236100,1,0,0:0:0:0:
256,192,236331,1,2,0:0:0:0:
256,192,236446,1,2,0:0:0:0:
256,192,236561,1,0,0:0:0:0:
256,192,236677,1,0,0:0:0:0:
256,192,236734,1,0,0:0:0:0:
256,192,236792,1,2,0:0:0:0:
256,192,236908,1,2,0:0:0:0:
256,192,237023,1,2,0:0:0:0:
256,192,237138,1,0,0:0:0:0:
256,192,237254,1,2,0:0:0:0:
256,192,237369,1,2,0:0:0:0:
256,192,237484,1,0,0:0:0:0:
256,192,237561,1,0,0:0:0:0:
256,192,237638,1,2,0:0:0:0:
256,192,237715,1,2,0:0:0:0:
256,192,237946,1,0,0:0:0:0:
256,192,238177,1,2,0:0:0:0:
256,192,238254,1,2,0:0:0:0:
256,192,238331,1,2,0:0:0:0:
256,192,238408,1,0,0:0:0:0:
256,192,238638,1,2,0:0:0:0:
256,192,238754,1,0,0:0:0:0:
256,192,238869,1,0,0:0:0:0:
256,192,239100,1,2,0:0:0:0:
256,192,239215,1,2,0:0:0:0:
256,192,239331,1,0,0:0:0:0:
256,192,239561,1,2,0:0:0:0:
256,192,239677,1,0,0:0:0:0:
256,192,239792,1,0,0:0:0:0:
256,192,240023,1,2,0:0:0:0:
256,192,240138,1,2,0:0:0:0:
256,192,240254,1,0,0:0:0:0:
256,192,240484,1,0,0:0:0:0:
256,192,240600,1,0,0:0:0:0:
256,192,240715,1,2,0:0:0:0:
256,192,240831,1,2,0:0:0:0:
256,192,240946,1,2,0:0:0:0:
256,192,241061,1,0,0:0:0:0:
256,192,241177,1,2,0:0:0:0:
256,192,241408,1,2,0:0:0:0:
256,192,241523,1,2,0:0:0:0:
256,192,241638,1,0,0:0:0:0:
256,192,241754,1,0,0:0:0:0:
256,192,241869,1,2,0:0:0:0:
256,192,241946,1,2,0:0:0:0:
256,192,242023,1,2,0:0:0:0:
256,192,242100,1,0,0:0:0:0:
256,192,242331,1,2,0:0:0:0:
256,192,242561,1,0,0:0:0:0:
256,192,242792,1,2,0:0:0:0:
256,192,242908,1,2,0:0:0:0:
256,192,243023,1,0,0:0:0:0:
256,192,243254,1,2,0:0:0:0:
256,192,243484,1,0,0:0:0:0:
256,192,243715,1,0,0:0:0:0:
256,192,243831,1,0,0:0:0:0:
256,192,243946,1,6,0:0:0:0:
256,192,244177,1,6,0:0:0:0:
256,192,244408,1,6,0:0:0:0:
256,192,244638,1,2,0:0:0:0:
256,192,244792,1,2,0:0:0:0:
256,192,244946,1,0,0:0:0:0:
256,192,245100,1,2,0:0:0:0:
256,192,245254,1,0,0:0:0:0:
256,192,245408,1,0,0:0:0:0:
256,192,245561,2,0,L|416:192,2,132.999996448517
256,192,258484,12,0,262177,0:0:0:0:
