osu file format v14

[General]
AudioFilename: audio.mp3
AudioLeadIn: 0
PreviewTime: 32030
Countdown: 0
SampleSet: Normal
StackLeniency: 0.7
Mode: 1
LetterboxInBreaks: 0
WidescreenStoryboard: 1

[Editor]
DistanceSpacing: 2
BeatDivisor: 4
GridSize: 32
TimelineZoom: 0.5999999

[Metadata]
Title:Comma, ~ Imi to Kouzou no Bunri
TitleUnicode:Comma, ~ 意味ト構造ノ分離
Artist:Sparxe
ArtistUnicode:Sparxe
Creator:Greenshell
Version:Kantan
Source:
Tags:electronic instrumental sparxenic horiiizon
BeatmapID:3658043
BeatmapSetID:1785711

[Difficulty]
HPDrainRate:8
CircleSize:3
OverallDifficulty:3
ApproachRate:10
SliderMultiplier:1.4
SliderTickRate:1

[Events]
//Background and Video events
0,0,"comma.jpg",0,0
//Break Periods
//Storyboard Layer 0 (Background)
//Storyboard Layer 1 (Fail)
//Storyboard Layer 2 (Pass)
//Storyboard Layer 3 (Foreground)
//Storyboard Layer 4 (Overlay)
//Storyboard Sound Samples

[TimingPoints]
92,400,4,1,0,40,1,0
6392,-100,4,1,0,60,0,0
11392,-100,4,1,0,40,0,0
12792,-100,4,1,0,70,0,0
17592,-100,4,1,0,50,0,0
19192,-100,4,1,0,70,0,0
32092,-100,4,1,0,70,0,1
44892,-100,4,1,0,70,0,0
51292,-100,4,1,0,70,0,1
64092,-100,4,1,0,70,0,0
70458,-100,4,1,0,80,0,0
76858,-100,4,1,0,90,0,0
83258,-100,4,1,0,100,0,0
89692,-100,4,1,0,70,0,1
102492,-100,4,1,0,60,0,0
105592,-100,4,1,0,40,0,0
108825,-100,4,1,0,50,0,0
110425,-100,4,1,0,60,0,0
112025,-100,4,1,0,70,0,0
118492,-100,4,1,0,80,0,1
124858,-100,4,1,0,90,0,1
131258,-100,4,1,0,100,0,1
144058,-100,4,1,0,70,0,1
163258,-100,4,1,0,80,0,1
169692,-100,4,1,0,60,0,0
172792,-100,4,1,0,50,0,0
174442,-100,4,1,0,40,0,0
176042,-100,4,1,0,30,0,0
177642,-100,4,1,0,20,0,0
179242,-100,4,1,0,10,0,0

[HitObjects]
224,160,92,5,0,0:0:0:0:
288,160,892,1,8,0:0:0:0:
224,160,2492,1,0,0:0:0:0:
224,160,3292,1,0,0:0:0:0:
288,160,4092,1,8,0:0:0:0:
224,160,5692,1,0,0:0:0:0:
224,160,6492,1,0,0:0:0:0:
288,160,6892,1,8,0:0:0:0:
224,160,7292,1,0,0:0:0:0:
288,160,8492,1,8,0:0:0:0:
224,160,8892,1,0,0:0:0:0:
224,160,9692,1,0,0:0:0:0:
288,160,10092,1,8,0:0:0:0:
224,160,10492,1,0,0:0:0:0:
224,160,11292,1,0,0:0:0:0:
288,160,12892,1,8,0:0:0:0:
288,160,13692,1,8,0:0:0:0:
224,160,14092,1,0,0:0:0:0:
288,160,14892,1,8,0:0:0:0:
224,160,15292,1,0,0:0:0:0:
288,160,16092,1,8,0:0:0:0:
224,160,16892,1,0,0:0:0:0:
224,160,17292,1,0,0:0:0:0:
224,224,19292,1,4,0:0:0:0:
224,160,20092,1,0,0:0:0:0:
288,160,20492,1,8,0:0:0:0:
224,160,20892,1,0,0:0:0:0:
288,160,22092,1,8,0:0:0:0:
224,160,22492,1,0,0:0:0:0:
288,160,23292,1,8,0:0:0:0:
224,160,23692,1,0,0:0:0:0:
224,160,24092,1,0,0:0:0:0:
288,160,24892,1,8,0:0:0:0:
288,160,25292,1,8,0:0:0:0:
224,160,25692,1,0,0:0:0:0:
224,160,26492,1,0,0:0:0:0:
288,160,26892,1,8,0:0:0:0:
224,160,27292,1,0,0:0:0:0:
288,160,28492,1,8,0:0:0:0:
224,160,28892,1,0,0:0:0:0:
288,160,29692,1,8,0:0:0:0:
224,160,30092,1,0,0:0:0:0:
224,160,30492,1,0,0:0:0:0:
288,160,31292,1,8,0:0:0:0:
288,160,31692,1,8,0:0:0:0:
224,224,32092,1,4,0:0:0:0:
224,160,32892,1,0,0:0:0:0:
288,160,33292,1,8,0:0:0:0:
224,160,33692,1,0,0:0:0:0:
288,160,34892,1,8,0:0:0:0:
224,160,35292,1,0,0:0:0:0:
288,160,36092,1,8,0:0:0:0:
224,160,36492,1,0,0:0:0:0:
224,160,36892,1,0,0:0:0:0:
288,160,37692,1,8,0:0:0:0:
288,160,38092,1,8,0:0:0:0:
224,160,38492,1,0,0:0:0:0:
224,160,39292,1,0,0:0:0:0:
288,160,39692,1,8,0:0:0:0:
224,160,40092,1,0,0:0:0:0:
288,160,41292,1,8,0:0:0:0:
224,160,41692,1,0,0:0:0:0:
288,160,42492,1,8,0:0:0:0:
224,160,42892,1,0,0:0:0:0:
224,160,43292,1,0,0:0:0:0:
288,160,44092,1,8,0:0:0:0:
288,160,44492,1,8,0:0:0:0:
224,224,44892,1,4,0:0:0:0:
224,160,46092,1,0,0:0:0:0:
288,160,46492,1,8,0:0:0:0:
224,160,47692,1,0,0:0:0:0:
288,160,48092,1,8,0:0:0:0:
288,160,48892,1,8,0:0:0:0:
288,224,49692,1,12,0:0:0:0:
224,224,51292,1,4,0:0:0:0:
224,160,52092,1,0,0:0:0:0:
288,160,52492,1,8,0:0:0:0:
224,160,52892,1,0,0:0:0:0:
288,160,54092,1,8,0:0:0:0:
224,160,54492,1,0,0:0:0:0:
288,160,55292,1,8,0:0:0:0:
224,160,55692,1,0,0:0:0:0:
224,160,56092,1,0,0:0:0:0:
288,160,56892,1,8,0:0:0:0:
288,160,57292,1,8,0:0:0:0:
224,160,57692,1,0,0:0:0:0:
224,160,58492,1,0,0:0:0:0:
288,160,58892,1,8,0:0:0:0:
224,160,59292,1,0,0:0:0:0:
288,160,60492,1,8,0:0:0:0:
224,160,60892,1,0,0:0:0:0:
288,160,61692,1,8,0:0:0:0:
224,160,62092,1,0,0:0:0:0:
224,160,62492,1,0,0:0:0:0:
288,160,63292,1,8,0:0:0:0:
288,160,63692,1,8,0:0:0:0:
224,224,64092,1,4,0:0:0:0:
288,160,65692,1,8,0:0:0:0:
288,160,66092,1,8,0:0:0:0:
224,160,66492,1,0,0:0:0:0:
224,160,67292,1,0,0:0:0:0:
224,160,67892,1,0,0:0:0:0:
288,160,68692,1,8,0:0:0:0:
288,160,69692,1,8,0:0:0:0:
224,160,70492,1,0,0:0:0:0:
288,160,71292,1,8,0:0:0:0:
224,160,71692,1,0,0:0:0:0:
288,160,72092,1,8,0:0:0:0:
224,160,72892,1,0,0:0:0:0:
224,160,73692,1,0,0:0:0:0:
288,160,74292,1,8,0:0:0:0:
288,160,74892,1,8,0:0:0:0:
224,160,75292,1,0,0:0:0:0:
288,160,75692,1,8,0:0:0:0:
288,160,76092,1,8,0:0:0:0:
224,224,76892,1,4,0:0:0:0:
288,160,78492,1,8,0:0:0:0:
288,160,78892,1,8,0:0:0:0:
224,160,79292,1,0,0:0:0:0:
224,160,80092,1,0,0:0:0:0:
224,160,80692,1,0,0:0:0:0:
288,160,81492,1,8,0:0:0:0:
288,160,82492,1,8,0:0:0:0:
224,160,83292,1,0,0:0:0:0:
288,160,84092,1,8,0:0:0:0:
224,160,84492,1,0,0:0:0:0:
288,160,84892,1,8,0:0:0:0:
224,160,85692,1,0,0:0:0:0:
224,160,86492,1,0,0:0:0:0:
288,160,87092,1,8,0:0:0:0:
288,160,87692,1,8,0:0:0:0:
224,160,88092,1,0,0:0:0:0:
288,160,88492,1,8,0:0:0:0:
288,160,88892,1,8,0:0:0:0:
224,224,89692,1,4,0:0:0:0:
224,160,90492,1,0,0:0:0:0:
288,160,90892,1,8,0:0:0:0:
224,160,91292,1,0,0:0:0:0:
288,160,92492,1,8,0:0:0:0:
224,160,92892,1,0,0:0:0:0:
288,160,93692,1,8,0:0:0:0:
224,160,94092,1,0,0:0:0:0:
224,160,94492,1,0,0:0:0:0:
288,160,95292,1,8,0:0:0:0:
288,160,95692,1,8,0:0:0:0:
224,160,96092,1,0,0:0:0:0:
224,160,96892,1,0,0:0:0:0:
288,160,97292,1,8,0:0:0:0:
224,160,97692,1,0,0:0:0:0:
288,160,98892,1,8,0:0:0:0:
224,160,99292,1,0,0:0:0:0:
288,160,100092,1,8,0:0:0:0:
224,160,100492,1,0,0:0:0:0:
224,160,100892,1,0,0:0:0:0:
288,160,101692,1,8,0:0:0:0:
288,160,102092,1,8,0:0:0:0:
288,160,102492,1,8,0:0:0:0:
288,160,103292,1,8,0:0:0:0:
224,160,103692,1,0,0:0:0:0:
288,160,104092,1,8,0:0:0:0:
224,160,104892,1,0,0:0:0:0:
224,160,105292,1,0,0:0:0:0:
224,224,105692,1,4,0:0:0:0:
288,160,106492,1,8,0:0:0:0:
224,160,108092,1,0,0:0:0:0:
224,128,108892,1,0,0:0:0:0:
288,128,109692,1,8,0:0:0:0:
224,128,111292,1,0,0:0:0:0:
224,160,112092,1,0,0:0:0:0:
224,160,112892,1,0,0:0:0:0:
288,160,113292,1,8,0:0:0:0:
224,160,113692,1,0,0:0:0:0:
288,160,114892,1,8,0:0:0:0:
224,160,115292,1,0,0:0:0:0:
288,160,116092,1,8,0:0:0:0:
224,160,116492,1,0,0:0:0:0:
224,160,116892,1,0,0:0:0:0:
288,160,117692,1,8,0:0:0:0:
288,160,118092,1,8,0:0:0:0:
224,224,118492,1,4,0:0:0:0:
288,160,120092,1,8,0:0:0:0:
288,160,120492,1,8,0:0:0:0:
224,160,120892,1,0,0:0:0:0:
224,160,121692,1,0,0:0:0:0:
224,160,122292,1,0,0:0:0:0:
224,160,122692,1,0,0:0:0:0:
288,160,123092,1,8,0:0:0:0:
224,160,123692,1,0,0:0:0:0:
288,160,124092,1,8,0:0:0:0:
224,160,124892,1,0,0:0:0:0:
224,160,125692,1,0,0:0:0:0:
288,160,126092,1,8,0:0:0:0:
224,160,126492,1,0,0:0:0:0:
288,160,126892,1,8,0:0:0:0:
224,160,127292,1,0,0:0:0:0:
224,160,128092,1,0,0:0:0:0:
288,160,128892,1,8,0:0:0:0:
224,160,129292,1,0,0:0:0:0:
288,160,129692,1,8,0:0:0:0:
224,160,130092,1,0,0:0:0:0:
288,160,130492,1,8,0:0:0:0:
224,224,131292,1,4,0:0:0:0:
288,160,132892,1,8,0:0:0:0:
288,160,133292,1,8,0:0:0:0:
224,160,133692,1,0,0:0:0:0:
224,160,134492,1,0,0:0:0:0:
224,160,135092,1,0,0:0:0:0:
224,160,135492,1,0,0:0:0:0:
288,160,135892,1,8,0:0:0:0:
224,160,136492,1,0,0:0:0:0:
288,160,136892,1,8,0:0:0:0:
224,160,137692,1,0,0:0:0:0:
224,160,138492,1,0,0:0:0:0:
288,160,138892,1,8,0:0:0:0:
224,160,139292,1,0,0:0:0:0:
288,160,139692,1,8,0:0:0:0:
224,160,140092,1,0,0:0:0:0:
224,160,140892,1,0,0:0:0:0:
288,160,141692,1,8,0:0:0:0:
224,160,142092,1,0,0:0:0:0:
288,160,142492,1,8,0:0:0:0:
224,160,142892,1,0,0:0:0:0:
288,160,143292,1,8,0:0:0:0:
224,224,144092,1,4,0:0:0:0:
224,160,144892,1,0,0:0:0:0:
288,160,145292,1,8,0:0:0:0:
224,160,145692,1,0,0:0:0:0:
288,160,146892,1,8,0:0:0:0:
224,160,147292,1,0,0:0:0:0:
288,160,148092,1,8,0:0:0:0:
224,160,148492,1,0,0:0:0:0:
224,160,148892,1,0,0:0:0:0:
288,160,149692,1,8,0:0:0:0:
288,160,150092,1,8,0:0:0:0:
224,160,150492,1,0,0:0:0:0:
224,160,151292,1,0,0:0:0:0:
288,160,151692,1,8,0:0:0:0:
224,160,152092,1,0,0:0:0:0:
288,160,153292,1,8,0:0:0:0:
224,160,153692,1,0,0:0:0:0:
288,160,154492,1,8,0:0:0:0:
224,160,154892,1,0,0:0:0:0:
224,160,155292,1,0,0:0:0:0:
288,160,156092,1,8,0:0:0:0:
288,160,156492,1,8,0:0:0:0:
224,224,156892,1,4,0:0:0:0:
224,160,157692,1,0,0:0:0:0:
288,160,158092,1,8,0:0:0:0:
224,160,158492,1,0,0:0:0:0:
288,160,159692,1,8,0:0:0:0:
224,160,160092,1,0,0:0:0:0:
288,160,160892,1,8,0:0:0:0:
224,160,161292,1,0,0:0:0:0:
224,160,161692,1,0,0:0:0:0:
288,160,162492,1,8,0:0:0:0:
288,160,162892,1,8,0:0:0:0:
224,160,163292,1,0,0:0:0:0:
224,160,164092,1,0,0:0:0:0:
288,160,164492,1,8,0:0:0:0:
224,160,164892,1,0,0:0:0:0:
288,160,166092,1,8,0:0:0:0:
224,160,166492,1,0,0:0:0:0:
288,160,167292,1,8,0:0:0:0:
224,160,167692,1,0,0:0:0:0:
224,160,168092,1,0,0:0:0:0:
288,160,168892,1,8,0:0:0:0:
288,160,169292,1,8,0:0:0:0:
288,160,169692,1,8,0:0:0:0:
288,160,170492,1,8,0:0:0:0:
224,160,170892,1,0,0:0:0:0:
288,160,171292,1,8,0:0:0:0:
224,160,172092,1,0,0:0:0:0:
224,160,172492,1,0,0:0:0:0:
256,192,172892,12,0,176092,0:0:0:0:
