osu file format v14

[General]
AudioFilename: audio.mp3
AudioLeadIn: 0
PreviewTime: -1
Countdown: 1
SampleSet: Normal
StackLeniency: 0.7
Mode: 0
LetterboxInBreaks: 0
WidescreenStoryboard: 1

[Editor]
DistanceSpacing: 0.6
BeatDivisor: 4
GridSize: 4
TimelineZoom: 1

[Metadata]
Title:Piano Fire
TitleUnicode:Piano Fire
Artist:Sparklehorse
ArtistUnicode:Sparklehorse
Creator:avalanche
Version:Hard
Source:Life Is Strange
Tags:indie rock dontnod max chloe arcadia bay blackwell
BeatmapID:1322422
BeatmapSetID:627221

[Difficulty]
HPDrainRate:4
CircleSize:3.5
OverallDifficulty:8
ApproachRate:8
SliderMultiplier:1.2
SliderTickRate:1

[Events]
//Background and Video events
0,0,"1bde0e6ee6e3047e1f4509032046997a.jpg",0,0
//Break Periods
//Storyboard Layer 0 (Background)
//Storyboard Layer 1 (Fail)
//Storyboard Layer 2 (Pass)
//Storyboard Layer 3 (Foreground)
//Storyboard Sound Samples

[TimingPoints]
246,463.588951129998,4,1,0,100,1,0
7663,-66.6666666666667,4,1,0,100,0,1
9285,-133.333333333333,4,1,0,100,0,1
9517,-66.6666666666667,4,1,0,100,0,1
14385,-76.9230769230769,4,1,0,100,0,1
14617,-100,4,1,0,100,0,1
15080,-125,4,1,0,100,0,0
22498,-111.111111111111,4,1,0,100,0,0
23657,-100,4,1,0,100,0,0
24120,-125,4,1,0,100,0,0
24352,-111.111111111111,4,1,0,100,0,0
31074,-100,4,1,0,100,0,0
31538,-125,4,1,0,100,0,0
31770,-111.111111111111,4,1,0,100,0,0
38492,-100,4,1,0,100,0,0
38955,-125,4,1,0,100,0,0
39187,-111.111111111111,4,1,0,100,0,0
42200,-100,4,1,0,100,0,0
42664,-125,4,1,0,100,0,0
42896,-111.111111111111,4,1,0,100,0,0
44750,-142.857142857143,4,2,0,60,0,0
52167,-100,4,1,0,75,0,1
59585,-125,4,1,0,100,0,0
61439,-100,4,1,0,100,0,0
63294,-125,4,1,0,100,0,0
71870,-83.3333333333333,4,1,0,100,0,0
72334,-125,4,1,0,100,0,0
79056,-83.3333333333333,4,1,0,100,0,0
79983,-125,4,1,0,100,0,0
86705,-83.3333333333333,4,1,0,100,0,0
87400,-125,4,1,0,100,0,0
94122,-83.3333333333333,4,1,0,100,0,0
94586,-125,4,1,0,100,0,0
100381,-142.857142857143,4,2,0,60,0,0
107798,-100,4,1,0,75,0,1
115216,-90.9090909090909,4,1,0,75,0,1
122633,-125,4,1,0,100,0,0

[HitObjects]
80,224,246,6,0,L|68:132,1,90
72,236,709,1,0,0:0:0:0:
136,288,941,2,0,P|140:320|132:352,1,60
200,244,1404,1,0,0:0:0:0:
268,280,1636,2,0,L|344:268,1,60
392,228,2100,6,0,P|432:248|456:296,1,90
384,216,2563,1,0,0:0:0:0:
424,148,2795,2,0,L|428:76,1,60
384,216,3259,1,0,0:0:0:0:
384,216,3491,2,0,L|396:292,1,60
340,144,3954,6,0,P|308:140|268:148,2,60
384,216,4650,2,0,P|440:212|444:144,1,120
446,97,5345,2,0,L|454:169,1,60
324,68,5809,6,0,L|332:4,2,60
240,72,6504,2,0,P|184:92|112:68,1,120
112,64,7083,1,0,0:0:0:0:
104,88,7199,1,0,0:0:0:0:
96,112,7315,1,0,0:0:0:0:
88,136,7431,1,0,0:0:0:0:
80,160,7547,1,0,0:0:0:0:
72,184,7663,6,0,L|80:268,1,45.0000017166138
112,300,7895,2,0,L|104:348,1,45.0000017166138
168,244,8127,2,0,P|196:236|232:244,1,45.0000017166138
264,296,8358,2,0,P|292:300|328:288,1,45.0000017166138
372,248,8590,2,0,L|376:192,1,45.0000017166138
456,216,8822,2,0,L|448:164,1,45.0000017166138
440,296,9054,2,0,L|452:344,1,45.0000017166138
372,248,9285,2,0,L|336:244,1,22.5000008583069
244,192,9517,6,0,L|300:184,1,45.0000017166138
304,100,9749,2,0,L|259:108,1,45.0000017166138
364,160,9981,2,0,P|384:148|400:120,1,45.0000017166138
448,72,10213,2,0,L|436:16,1,45.0000017166138
364,160,10444,2,0,L|380:224,1,45.0000017166138
332,268,10676,2,0,L|320:316,1,45.0000017166138
248,340,10908,2,0,P|220:348|188:344,1,45.0000017166138
160,272,11140,2,0,P|184:264|216:268,1,45.0000017166138
68,336,11372,6,0,L|56:280,1,45.0000017166138
96,216,11603,2,0,L|104:156,1,45.0000017166138
56,104,11835,2,0,L|48:52,1,45.0000017166138
100,168,12067,2,0,P|164:184|236:136,1,135.000005149841
268,88,12531,2,0,L|320:80,1,45.0000017166138
348,172,12762,2,0,L|296:164,1,45.0000017166138
336,260,12994,2,0,L|408:252,1,45.0000017166138
260,232,13226,6,0,P|252:252|252:284,1,45.0000017166138
172,264,13458,2,0,P|172:292|188:320,1,45.0000017166138
192,188,13690,2,0,P|184:164|168:140,1,45.0000017166138
52,155,13921,2,0,P|124:175|188:123,1,135.000005149841
228,76,14385,1,0,0:0:0:0:
232,88,14501,1,0,0:0:0:0:
236,100,14617,2,0,L|292:108,3,30
388,32,15080,6,0,L|300:48,1,72
448,88,15544,2,0,P|464:72|468:36,1,48
372,116,16008,1,0,0:0:0:0:
368,128,16239,2,0,L|380:192,1,48
432,232,16703,1,0,0:0:0:0:
384,296,16935,6,0,P|344:304|304:292,1,72
256,248,17398,1,0,0:0:0:0:
256,248,17630,2,0,P|224:244|196:256,1,48
160,316,18094,1,0,0:0:0:0:
96,260,18325,2,0,L|88:208,1,48
95,140,18789,6,0,L|87:228,1,72
40,80,19253,1,0,0:0:0:0:
40,80,19484,2,0,P|60:64|88:56,1,48
152,20,19948,1,0,0:0:0:0:
212,72,20180,2,0,L|268:76,1,48
324,120,20643,6,0,P|364:112|396:80,1,72
332,36,21107,1,0,0:0:0:0:
312,124,21339,2,0,L|324:192,1,48
376,232,21802,1,0,0:0:0:0:
376,232,22034,2,0,L|368:292,1,48
240,348,22498,6,0,P|208:344|184:324,1,53.9999983520508
212,248,22961,1,0,0:0:0:0:
184,168,23193,1,0,0:0:0:0:
192,152,23425,1,0,0:0:0:0:
128,232,23657,2,0,B|100:248|72:244|72:244|96:216|136:220,1,120
140,240,24236,1,0,0:0:0:0:
64,152,24352,6,0,L|56:92,1,53.9999983520508
112,40,24816,1,0,0:0:0:0:
184,76,25048,1,0,0:0:0:0:
256,112,25279,2,0,L|320:100,1,53.9999983520508
256,28,25743,1,0,0:0:0:0:
184,76,25975,1,0,0:0:0:0:
192,164,26206,6,0,L|208:228,1,53.9999983520508
112,280,26670,2,0,L|120:224,1,53.9999983520508
196,300,27134,1,0,0:0:0:0:
196,300,27365,1,0,0:0:0:0:
119,226,27597,2,0,P|83:222|47:242,1,53.9999983520508
196,300,28061,6,0,P|228:304|260:284,1,53.9999983520508
300,236,28524,1,0,0:0:0:0:
372,280,28756,1,0,0:0:0:0:
424,216,28988,1,0,0:0:0:0:
372,152,29220,1,0,0:0:0:0:
412,80,29452,1,0,0:0:0:0:
360,16,29683,1,0,0:0:0:0:
244,72,29915,6,0,L|304:64,1,53.9999983520508
176,28,30379,2,0,L|120:20,1,53.9999983520508
52,64,30842,1,0,0:0:0:0:
58,181,31074,2,0,B|66:145|66:145|50:53,1,120
68,192,31654,1,0,0:0:0:0:
112,256,31770,6,0,P|140:264|176:256,1,53.9999983520508
168,340,32233,2,0,P|200:336|224:316,1,53.9999983520508
244,252,32697,1,0,0:0:0:0:
204,184,32929,1,0,0:0:0:0:
228,112,33160,2,0,L|292:100,1,53.9999983520508
432,200,33624,6,0,L|364:188,1,53.9999983520508
356,120,34087,1,0,0:0:0:0:
356,120,34319,1,0,0:0:0:0:
432,200,34551,2,0,P|436:236|424:272,1,53.9999983520508
372,304,35015,1,0,0:0:0:0:
304,272,35246,1,0,0:0:0:0:
240,312,35478,6,0,L|212:360,1,53.9999983520508
136,244,35942,2,0,L|168:308,1,53.9999983520508
268,212,36405,2,0,P|236:220|216:236,1,53.9999983520508
352,264,36869,1,0,0:0:0:0:
296,132,37101,1,0,0:0:0:0:
364,44,37333,6,0,L|428:56,1,53.9999983520508
296,132,37796,2,0,L|232:144,1,53.9999983520508
280,52,38260,1,0,0:0:0:0:
380,132,38492,2,0,P|396:184|380:248,1,120
388,120,39071,1,0,0:0:0:0:
312,192,39187,6,0,P|284:200|252:196,1,53.9999983520508
188,228,39651,2,0,P|160:224|136:208,1,53.9999983520508
124,132,40114,1,0,0:0:0:0:
152,56,40346,1,0,0:0:0:0:
140,212,40578,1,0,0:0:0:0:
116,284,40810,1,0,0:0:0:0:
8,232,41041,6,0,L|72:224,1,53.9999983520508
169,287,41505,2,0,L|105:283,1,53.9999983520508
232,232,41969,1,0,0:0:0:0:
300,280,42200,2,0,B|364:288|364:288|436:260,1,120
424,252,42780,1,0,0:0:0:0:
432,236,42896,6,0,L|424:172,1,53.9999983520508
328,92,43359,2,0,L|320:152,1,53.9999983520508
424,108,43823,1,0,0:0:0:0:
424,108,44055,1,0,0:0:0:0:
424,108,44286,1,0,0:0:0:0:
424,108,44518,1,0,0:0:0:0:
344,56,44750,6,0,L|336:8,1,41.9999987182618
280,100,45214,2,0,L|256:48,1,41.9999987182618
232,160,45677,2,0,L|192:120,1,41.9999987182618
220,236,46141,2,0,P|192:244|176:264,1,41.9999987182618
112,312,46604,6,0,P|112:288|100:260,1,41.9999987182618
128,196,47068,2,0,P|116:176|96:164,1,41.9999987182618
48,224,47532,1,0,0:0:0:0:
72,84,47763,1,0,0:0:0:0:
176,108,47995,1,0,0:0:0:0:
240,56,48227,1,0,0:0:0:0:
336,96,48459,6,0,L|396:100,1,41.9999987182618
352,176,48922,2,0,L|404:192,1,41.9999987182618
352,260,49386,2,0,L|388:288,1,41.9999987182618
244,228,49850,2,0,P|268:220|300:224,1,41.9999987182618
228,308,50313,6,0,L|180:304,1,41.9999987182618
24,272,50777,2,0,L|80:260,1,41.9999987182618
112,192,51240,1,0,0:0:0:0:
44,124,51472,1,0,0:0:0:0:
64,264,51704,1,0,0:0:0:0:
186,304,51936,1,0,0:0:0:0:
300,220,52167,6,0,L|304:144,1,60
244,108,52631,1,0,0:0:0:0:
308,240,52863,1,0,0:0:0:0:
424,192,53095,2,0,L|416:128,1,60
412,212,53558,1,0,0:0:0:0:
452,288,53790,1,0,0:0:0:0:
392,352,54022,6,0,L|324:360,1,60
264,304,54485,1,0,0:0:0:0:
184,336,54717,1,0,0:0:0:0:
120,256,54949,1,0,0:0:0:0:
72,340,55181,1,0,0:0:0:0:
84,176,55413,1,0,0:0:0:0:
120,256,55644,1,0,0:0:0:0:
232,176,55876,6,0,P|192:176|164:192,1,60
308,224,56340,2,0,L|316:152,1,60
264,100,56803,1,0,0:0:0:0:
316,40,57035,1,0,0:0:0:0:
392,72,57267,2,0,P|424:80|464:64,1,60
256,40,57731,6,0,L|266:109,1,60
208,152,58194,1,0,0:0:0:0:
132,136,58426,1,0,0:0:0:0:
152,60,58658,1,0,0:0:0:0:
160,216,58890,1,0,0:0:0:0:
76,264,59121,1,0,0:0:0:0:
132,136,59353,1,0,0:0:0:0:
232,264,59585,6,0,L|240:324,1,48
168,344,60048,1,0,0:0:0:0:
168,344,60280,1,0,0:0:0:0:
72,200,60512,2,0,L|64:256,1,48
92,324,60976,1,0,0:0:0:0:
92,324,61207,1,0,0:0:0:0:
122,229,61439,6,0,P|93:206|56:197,1,60
188,304,61903,2,0,P|224:304|252:280,1,60
268,216,62366,1,0,0:0:0:0:
336,176,62598,1,0,0:0:0:0:
408,208,62830,1,0,0:0:0:0:
440,280,63062,1,0,0:0:0:0:
336,176,63294,6,0,L|340:112,1,48
248,56,63757,2,0,L|256:116,1,48
372,36,64221,2,0,P|340:40|312:60,1,48
440,84,64684,1,0,0:0:0:0:
440,84,64916,1,0,0:0:0:0:
328,52,65148,6,0,L|336:116,1,48
392,160,65612,2,0,L|384:212,1,48
328,260,66075,1,0,0:0:0:0:
380,320,66307,2,0,L|408:328,1,24
328,260,66539,2,0,P|296:256|264:268,1,48
220,312,67002,6,0,L|168:308,1,48
184,184,67466,2,0,L|244:192,1,48
116,244,67929,1,0,0:0:0:0:
52,196,68161,1,0,0:0:0:0:
64,120,68393,2,0,L|68:56,1,48
36,276,68857,6,0,L|44:336,1,48
88,208,69320,1,0,0:0:0:0:
88,208,69552,1,0,0:0:0:0:
168,236,69784,1,0,0:0:0:0:
224,176,70016,2,0,L|220:144,1,24
236,188,70247,1,0,0:0:0:0:
224,304,70479,1,0,0:0:0:0:
336,248,70711,6,0,L|280:256,1,48
392,308,71175,2,0,L|448:312,1,48
336,248,71638,1,0,0:0:0:0:
412,224,71870,2,0,B|416:188|416:188|404:156|404:156|412:104,1,107.999996704102
424,236,72334,1,0,0:0:0:0:
408,120,72565,6,0,P|388:104|352:96,1,48
256,148,73029,2,0,P|288:148|320:132,1,48
192,96,73493,1,0,0:0:0:0:
124,132,73724,1,0,0:0:0:0:
56,92,73956,2,0,L|52:40,1,48
124,132,74420,6,0,L|120:196,1,48
76,244,74883,1,0,0:0:0:0:
110,326,75115,2,0,P|105:276|66:238,1,96
192,292,75810,2,0,L|244:296,1,48
312,332,76274,5,0,0:0:0:0:
312,228,76506,2,0,L|308:268,1,24
300,220,76738,2,0,L|292:152,1,48
332,100,77201,1,0,0:0:0:0:
284,36,77433,1,0,0:0:0:0:
236,39,77665,2,0,L|292:35,1,48
176,100,78128,6,0,L|124:92,1,48
32,168,78592,2,0,L|100:152,1,48
48,84,79056,1,0,0:0:0:0:
118,216,79287,2,0,P|154:156|118:84,1,143.999995605469
108,204,79867,1,0,0:0:0:0:
40,248,79983,6,0,L|36:316,1,48
188,212,80446,2,0,L|180:156,1,48
128,284,80910,1,0,0:0:0:0:
204,312,81142,1,0,0:0:0:0:
276,276,81374,1,0,0:0:0:0:
352,296,81605,1,0,0:0:0:0:
420,256,81837,6,0,L|420:200,1,48
352,296,82301,2,0,L|360:356,1,48
284,248,82764,1,0,0:0:0:0:
216,284,82996,1,0,0:0:0:0:
148,320,83228,2,0,P|120:328|84:320,1,48
76,212,83692,6,0,P|100:228|112:256,1,48
36,280,84155,1,0,0:0:0:0:
76,212,84387,1,0,0:0:0:0:
52,140,84619,1,0,0:0:0:0:
96,72,84850,1,0,0:0:0:0:
196,120,85082,1,0,0:0:0:0:
276,56,85314,1,0,0:0:0:0:
187,72,85546,6,0,L|199:136,1,48
176,196,86009,2,0,L|196:248,1,48
120,136,86473,1,0,0:0:0:0:
13,165,86705,2,0,B|53:169|78:192|78:192|86:152|126:132,1,143.999995605469
87,239,87400,6,0,P|79:211|83:179,1,48
156,288,87864,1,0,0:0:0:0:
156,288,88096,1,0,0:0:0:0:
216,232,88327,1,0,0:0:0:0:
284,276,88559,2,0,L|288:312,1,24
264,168,88791,1,0,0:0:0:0:
332,208,89023,1,0,0:0:0:0:
392,156,89255,6,0,P|400:124|396:92,1,48
254,122,89718,2,0,P|254:150|266:170,1,48
324,64,90182,1,0,0:0:0:0:
324,64,90414,1,0,0:0:0:0:
244,40,90645,2,0,L|188:52,1,48
80,88,91109,6,0,L|132:96,1,48
192,156,91573,1,0,0:0:0:0:
192,156,91804,1,0,0:0:0:0:
160,232,92036,1,0,0:0:0:0:
200,304,92268,1,0,0:0:0:0:
280,312,92500,1,0,0:0:0:0:
344,240,92731,1,0,0:0:0:0:
436,288,92963,6,0,L|492:296,1,48
443,144,93427,2,0,L|391:152,1,48
496,208,93890,1,0,0:0:0:0:
443,144,94122,2,0,L|435:296,1,143.999995605469
432,132,94702,1,0,0:0:0:0:
364,80,94818,6,0,P|332:76|304:84,1,48
264,136,95281,1,0,0:0:0:0:
204,88,95513,1,0,0:0:0:0:
144,136,95745,1,0,0:0:0:0:
144,136,95977,1,0,0:0:0:0:
176,212,96208,1,0,0:0:0:0:
128,312,96440,1,0,0:0:0:0:
40,248,96672,6,0,L|48:180,1,48
100,312,97136,2,0,L|108:368,1,48
40,248,97599,1,0,0:0:0:0:
40,248,97831,1,0,0:0:0:0:
108,188,98063,2,0,L|160:184,1,48
200,116,98526,5,0,0:0:0:0:
152,24,98758,2,0,L|156:64,1,24
200,116,98990,1,0,0:0:0:0:
284,128,99222,1,0,0:0:0:0:
352,68,99454,1,0,0:0:0:0:
456,104,99685,1,0,0:0:0:0:
372,188,99917,1,0,0:0:0:0:
432,256,100149,1,0,0:0:0:0:
380,356,100381,6,0,L|372:304,1,41.9999987182618
296,336,100844,2,0,L|300:288,1,41.9999987182618
220,292,101308,2,0,L|236:248,1,41.9999987182618
144,280,101771,2,0,P|120:292|92:288,1,41.9999987182618
164,160,102235,6,0,L|172:212,1,41.9999987182618
96,108,102699,2,0,L|80:160,1,41.9999987182618
156,44,103162,1,0,0:0:0:0:
240,64,103394,1,0,0:0:0:0:
408,52,103626,1,0,0:0:0:0:
328,96,103858,2,0,L|324:120,1,20.9999993591309
412,184,104089,6,0,L|404:140,1,41.9999987182618
324,240,104553,2,0,L|336:184,1,41.9999987182618
408,308,105017,2,0,L|396:260,1,41.9999987182618
300,348,105480,2,0,P|324:356|344:352,1,41.9999987182618
236,288,105944,6,0,L|192:296,1,41.9999987182618
120,280,106407,2,0,L|96:324,1,41.9999987182618
180,216,106871,1,0,0:0:0:0:
72,144,107103,1,0,0:0:0:0:
120,280,107335,1,0,0:0:0:0:
268,232,107566,1,0,0:0:0:0:
232,96,107798,6,0,L|240:164,1,60
72,144,108262,2,0,L|84:80,1,60
156,176,108725,1,0,0:0:0:0:
112,252,108957,1,0,0:0:0:0:
168,320,109189,1,0,0:0:0:0:
252,308,109421,1,0,0:0:0:0:
328,340,109652,6,0,P|360:344|392:336,1,60
316,192,110116,2,0,P|288:212|268:240,1,60
384,252,110580,1,0,0:0:0:0:
476,240,110811,1,0,0:0:0:0:
408,164,111043,1,0,0:0:0:0:
500,152,111275,1,0,0:0:0:0:
408,164,111507,6,0,L|396:96,1,60
480,16,111970,2,0,L|468:80,1,60
396,24,112434,1,0,0:0:0:0:
396,24,112666,1,0,0:0:0:0:
316,56,112898,1,0,0:0:0:0:
316,56,113129,1,0,0:0:0:0:
232,24,113361,5,0,0:0:0:0:
216,104,113593,1,0,0:0:0:0:
144,56,113825,1,0,0:0:0:0:
180,180,114057,1,0,0:0:0:0:
280,156,114288,1,0,0:0:0:0:
216,104,114520,1,0,0:0:0:0:
180,180,114752,1,0,0:0:0:0:
80,200,114984,1,0,0:0:0:0:
12,80,115216,6,0,L|20:152,1,66.0000020141602
80,200,115679,2,0,L|68:280,1,66.0000020141602
100,120,116143,1,0,0:0:0:0:
184,168,116375,1,0,0:0:0:0:
268,128,116606,1,0,0:0:0:0:
344,184,116838,1,0,0:0:0:0:
424,136,117070,6,0,P|428:104|416:68,1,66.0000020141602
344,184,117534,2,0,P|340:224|360:260,1,66.0000020141602
332,96,117997,1,0,0:0:0:0:
252,64,118229,1,0,0:0:0:0:
184,172,118461,1,0,0:0:0:0:
264,148,118692,1,0,0:0:0:0:
120,112,118924,6,0,L|52:120,1,66.0000020141602
132,248,119388,2,0,L|208:256,1,66.0000020141602
64,200,119851,1,0,0:0:0:0:
44,312,120083,1,0,0:0:0:0:
188,172,120315,1,0,0:0:0:0:
197,254,120547,1,0,0:0:0:0:
264,304,120779,6,0,P|300:312|332:304,1,66.0000020141602
388,256,121242,2,0,P|416:240|432:204,1,66.0000020141602
312,228,121706,1,0,0:0:0:0:
240,184,121938,2,0,L|236:144,1,33.0000010070801
284,88,122169,1,0,0:0:0:0:
240,184,122401,1,0,0:0:0:0:
112,180,122633,6,0,L|172:172,1,48
48,128,123097,1,0,0:0:0:0:
48,128,123328,1,0,0:0:0:0:
12,204,123560,2,0,P|8:232|20:260,1,48
80,296,124024,1,0,0:0:0:0:
44,368,124256,1,0,0:0:0:0:
80,296,124487,6,0,L|144:288,1,48
296,336,124951,2,0,L|244:328,1,48
368,268,125415,1,0,0:0:0:0:
400,360,125646,1,0,0:0:0:0:
400,168,125878,1,0,0:0:0:0:
368,268,126110,1,0,0:0:0:0:
272,116,126342,6,0,L|280:184,1,48
332,64,126805,1,0,0:0:0:0:
332,64,127037,1,0,0:0:0:0:
272,116,127269,1,0,0:0:0:0:
180,76,127501,2,0,L|220:72,1,24
172,88,127732,1,0,0:0:0:0:
108,20,127964,1,0,0:0:0:0:
60,108,128196,6,0,L|68:172,1,48
208,216,128660,2,0,L|200:160,1,48
112,232,129123,1,0,0:0:0:0:
76,344,129355,1,0,0:0:0:0:
192,320,129587,1,0,0:0:0:0:
304,356,129819,1,0,0:0:0:0:
416,300,130050,6,0,L|360:308,1,48
484,356,130514,1,0,0:0:0:0:
484,356,130746,1,0,0:0:0:0:
416,300,130978,2,0,P|420:272|444:248,1,48
484,356,131441,1,0,0:0:0:0:
336,248,131673,1,0,0:0:0:0:
216,308,131905,6,0,L|280:300,1,48
152,252,132368,1,0,0:0:0:0:
152,252,132600,1,0,0:0:0:0:
88,312,132832,1,0,0:0:0:0:
4,168,133064,2,0,L|20:280,1,96
12,156,133643,1,0,0:0:0:0:
72,96,133759,5,0,0:0:0:0:
48,16,133991,1,0,0:0:0:0:
168,124,134223,1,0,0:0:0:0:
192,44,134455,1,0,0:0:0:0:
252,192,134686,1,0,0:0:0:0:
312,132,134918,1,0,0:0:0:0:
360,244,135150,1,0,0:0:0:0:
312,132,135382,1,0,0:0:0:0:
252,192,135613,6,0,L|248:256,1,48
366,291,136077,2,0,L|358:231,1,48
248,240,136541,2,0,L|232:300,1,48
376,336,137004,2,0,L|364:284,1,48
188,286,137468,6,0,P|212:290|236:286,1,48
280,224,137931,1,0,0:0:0:0:
280,224,138163,1,0,0:0:0:0:
236,148,138395,1,0,0:0:0:0:
272,80,138627,2,0,L|276:52,1,24
236,148,138859,1,0,0:0:0:0:
152,108,139090,1,0,0:0:0:0:
80,160,139322,6,0,L|28:168,1,48
152,108,139786,1,0,0:0:0:0:
152,108,140018,1,0,0:0:0:0:
164,188,140249,2,0,P|164:220|176:248,1,48
232,292,140713,1,0,0:0:0:0:
312,312,140945,1,0,0:0:0:0:
388,276,141177,6,0,L|444:268,1,48
328,200,141640,1,0,0:0:0:0:
312,312,141872,1,0,0:0:0:0:
388,276,142104,2,0,L|444:268,1,48
328,200,142567,2,0,L|264:196,1,48
220,144,143031,6,0,P|212:116|220:88,1,48
288,68,143494,1,0,0:0:0:0:
288,68,143726,1,0,0:0:0:0:
220,144,143958,2,0,L|160:152,1,48
284,196,144422,2,0,L|328:208,1,24
276,208,144653,1,0,0:0:0:0:
388,280,144885,6,0,L|380:228,1,48
336,344,145349,1,0,0:0:0:0:
336,344,145581,1,0,0:0:0:0:
264,292,145812,1,0,0:0:0:0:
164,336,146044,2,0,L|192:328,1,24
100,280,146276,1,0,0:0:0:0:
84,364,146508,1,0,0:0:0:0:
91,232,146740,6,0,L|103:300,1,48
124,156,147203,2,0,P|96:148|68:156,1,48
176,224,147667,1,0,0:0:0:0:
196,104,147899,1,0,0:0:0:0:
276,264,148130,1,0,0:0:0:0:
252,180,148362,1,0,0:0:0:0:
224,344,148594,6,0,L|284:348,1,48
336,296,149058,1,0,0:0:0:0:
456,320,149289,2,0,P|432:332|404:328,1,48
376,216,149753,1,0,0:0:0:0:
424,144,149985,2,0,L|428:88,1,48
276,52,150448,5,0,0:0:0:0:
276,52,150680,1,0,0:0:0:0:
240,128,150912,2,0,L|252:176,1,48
216,240,151375,2,0,P|196:256|164:260,1,48
108,296,151839,2,0,P|80:288|60:268,1,48
112,212,152303,5,0,0:0:0:0:
256,192,152419,12,0,156011,0:0:0:0:
