osu file format v14

[General]
AudioFilename: audio.mp3
AudioLeadIn: 0
PreviewTime: -1
Countdown: 1
SampleSet: None
StackLeniency: 0.7
Mode: 0
LetterboxInBreaks: 0
WidescreenStoryboard: 0

[Editor]
DistanceSpacing: 0.8
BeatDivisor: 6
GridSize: 32
TimelineZoom: 0.6999999

[Metadata]
Title:The Run
TitleUnicode:The Run
Artist:Spag Heddy
ArtistUnicode:Spag Heddy
Creator:elecboyYT
Version:Hard
Source:
Tags:
BeatmapID:1449946
BeatmapSetID:685192

[Difficulty]
HPDrainRate:10
CircleSize:4
OverallDifficulty:5
ApproachRate:9
SliderMultiplier:1.4
SliderTickRate:2

[Events]
//Background and Video events
0,0,"maxresdefault.jpg",0,0
//Break Periods
2,37533,45816
//Storyboard Layer 0 (Background)
//Storyboard Layer 1 (Fail)
//Storyboard Layer 2 (Pass)
//Storyboard Layer 3 (Foreground)
//Storyboard Sound Samples

[TimingPoints]
0,500,4,1,0,100,1,0

[HitObjects]
256,192,6916,12,0,12583,0:0:0:0:
160,256,13333,5,0,0:0:0:0:
160,224,13750,2,0,L|256:288,1,116.666666666667,2|0,0:0|0:0,0:0:0:0:
288,256,14416,1,0,0:0:0:0:
246,216,14500,1,0,0:0:0:0:
205,181,14583,1,2,0:0:0:0:
256,128,15000,6,0,L|368:179,1,116.666666666667,0|2,0:0|0:0,0:0:0:0:
172,263,15833,1,0,0:0:0:0:
279,333,16083,1,0,0:0:0:0:
288,333,16166,1,0,0:0:0:0:
298,334,16249,1,2,0:0:0:0:
129,105,16666,6,0,L|141:233,1,116.666666666667,0|2,0:0|0:0,0:0:0:0:
267,213,17500,1,0,0:0:0:0:
373,211,17750,2,0,L|400:243,2,23.3333333333333,0|0|2,0:0|0:0|0:0,0:0:0:0:
94,112,18333,6,0,L|205:177,2,116.666666666667,0|2|0,0:0|0:0|0:0,0:0:0:0:
81,217,19333,1,0,0:0:0:0:
109,235,19416,1,0,0:0:0:0:
140,257,19500,1,2,0:0:0:0:
230,94,20000,6,0,L|331:185,1,116.666666666667,0|2,0:0|0:0,0:0:0:0:
329,183,20500,2,0,L|237:231,1,93.3333333333333
152,114,21666,6,0,L|93:225,1,116.666666666667,0|2,0:0|0:0,0:0:0:0:
102,232,22166,2,0,L|186:287,1,93.3333333333333
189,300,23250,2,0,L|313:308,1,116.666666666667,0|2,0:0|0:0,0:0:0:0:
297,275,23750,2,0,L|190:271,1,93.3333333333333
128,256,24916,5,0,0:0:0:0:
384,96,25416,1,2,0:0:0:0:
352,320,25833,1,0,0:0:0:0:
160,64,26250,1,2,0:0:0:0:
69,167,26562,5,0,0:0:0:0:
153,80,26812,1,0,0:0:0:0:
130,283,27000,1,2,0:0:0:0:
209,173,27249,1,0,0:0:0:0:
122,284,27416,1,2,0:0:0:0:
320,256,27582,5,0,0:0:0:0:
320,256,27666,1,0,0:0:0:0:
320,256,27750,1,0,0:0:0:0:
128,192,28000,5,0,0:0:0:0:
384,160,28250,1,0,0:0:0:0:
224,288,28500,1,0,0:0:0:0:
416,224,28750,1,0,0:0:0:0:
128,320,28916,1,0,0:0:0:0:
160,128,29166,1,0,0:0:0:0:
320,256,29333,5,0,0:0:0:0:
320,256,29417,1,0,0:0:0:0:
320,256,29501,1,0,0:0:0:0:
172,240,29747,5,0,0:0:0:0:
153,185,29916,1,0,0:0:0:0:
208,114,30166,1,0,0:0:0:0:
300,108,30333,1,0,0:0:0:0:
330,192,30583,1,0,0:0:0:0:
260,253,30750,1,0,0:0:0:0:
250,183,31000,5,0,0:0:0:0:
265,187,31083,1,0,0:0:0:0:
282,191,31166,1,0,0:0:0:0:
180,151,31583,2,0,L|307:159,1,116.666666666667
164,229,32083,2,0,L|259:235,1,93.3333333333333
308,240,32749,1,0,0:0:0:0:
111,183,33250,6,0,P|203:255|269:210,1,210
213,189,34916,2,0,P|319:134|320:158,1,233.333333333333
246,207,36583,2,0,P|247:159|284:224,1,210
290,179,46416,5,0,0:0:0:0:
