osu file format v14

[General]
AudioFilename: audio.mp3
AudioLeadIn: 0
PreviewTime: 620
Countdown: 0
SampleSet: Normal
StackLeniency: 0.7
Mode: 0
LetterboxInBreaks: 0
WidescreenStoryboard: 1

[Editor]
DistanceSpacing: 0.1
BeatDivisor: 4
GridSize: 32
TimelineZoom: 2.100006

[Metadata]
Title:The Run
TitleUnicode:The Run
Artist:Spag Heddy
ArtistUnicode:Spag Heddy
Creator:ChickenBeer
Version:still testing sliders, cant get it right helpeth me
Source:
Tags:spag heddy dubstep
BeatmapID:1413714
BeatmapSetID:655375

[Difficulty]
HPDrainRate:5
CircleSize:4
OverallDifficulty:7
ApproachRate:9
SliderMultiplier:1.99999990463257
SliderTickRate:1

[Events]
//Background and Video events
0,0,"black18.jpg",0,0
//Break Periods
2,10276,12683
//Storyboard Layer 0 (Background)
//Storyboard Layer 1 (Fail)
//Storyboard Layer 2 (Pass)
//Storyboard Layer 3 (Foreground)
//Storyboard Sound Samples

[TimingPoints]
42,413.793103448276,4,1,0,97,1,0
42,-76.9230769230769,4,1,0,22,0,0
13283,-76.9230769230769,4,1,0,60,0,0
19076,-133.333333333333,4,1,0,60,0,0
19904,-76.9230769230769,4,1,0,60,0,0
25697,-133.333333333333,4,1,0,60,0,0
26524,-133.333333333333,4,1,0,60,0,0
32317,-133.333333333333,4,1,0,60,0,0
33145,-133.333333333333,4,1,0,60,0,0
37490,-62.5,4,1,0,60,0,0
39766,-54.054054054054,4,1,0,60,0,0
43076,-50,4,1,0,60,0,0

[HitObjects]
95,192,42,6,0,L|191:95,1,129.99998785019
193,289,455,2,0,L|288:384,1,129.99998785019
305,246,869,2,0,L|288:96,1,129.99998785019
187,132,1283,2,0,L|309:71,1,129.99998785019
416,128,1697,2,0,L|320:224,1,129.99998785019
165,224,2110,2,0,L|96:96,1,129.99998785019
254,187,2524,2,0,L|377:234,1,129.99998785019
416,160,2938,2,0,L|307:56,1,129.99998785019
115,117,6662,2,0,L|141:57,1,64.9999939250949
160,224,6869,2,0,L|224:256,1,64.9999939250949
342,321,7076,2,0,L|263:318,1,64.9999939250949
320,96,7283,2,0,L|384:32,1,64.9999939250949
84,264,7490,2,0,L|125:323,1,64.9999939250949
128,128,7697,2,0,L|96:64,1,64.9999939250949
162,103,7904,2,0,L|96:96,1,64.9999939250949
256,96,8110,2,0,L|256:32,1,64.9999939250949
352,224,8317,2,0,L|416:320,1,64.9999939250949
205,204,8524,2,0,L|167:257,1,64.9999939250949
105,114,8731,2,0,L|75:48,1,64.9999939250949
415,167,8938,2,0,L|471:207,1,64.9999939250949
272,286,9145,2,0,L|338:323,1,64.9999939250949
141,203,9352,2,0,L|213:175,1,64.9999939250949
384,96,9559,2,0,L|448:128,1,64.9999939250949
384,320,9766,2,0,L|320:320,1,64.9999939250949
128,192,9973,2,0,L|160:128,1,64.9999939250949
64,128,13283,6,0,L|115:236,1,64.9999939250949
201,124,13490,2,0,L|241:209,1,64.9999939250949
475,143,13697,2,0,L|423:226,1,64.9999939250949
329,126,13904,2,0,L|277:209,1,64.9999939250949
80,210,14110,2,0,L|179:281,1,64.9999939250949
229,293,14317,5,0,0:0:0:0:
295,329,14421,1,0,0:0:0:0:
366,362,14524,2,0,L|441:271,1,64.9999939250949
372,196,14731,2,0,L|445:105,1,64.9999939250949
360,71,14938,2,0,L|426:-8,1,64.9999939250949
205,258,15145,2,0,L|155:160,1,64.9999939250949
92,244,15352,6,0,L|45:144,1,64.9999939250949
88,6,15559,2,0,L|207:39,1,64.9999939250949
327,83,15766,2,0,L|397:187,1,64.9999939250949
408,201,15973,1,0,0:0:0:0:
453,262,16076,1,0,0:0:0:0:
486,326,16179,2,0,P|463:359|421:320,1,64.9999939250949
322,317,16386,2,0,P|248:317|231:267,1,71.4999936275486
131,299,16593,2,0,P|106:240|138:229,1,64.9999939250949
34,145,16800,6,0,P|24:117|75:86,1,64.9999939250949
181,4,17007,2,0,P|214:-9|252:12,1,64.9999939250949
75,143,17214,2,0,L|185:166,1,64.9999939250949
133,275,17421,2,0,L|259:299,1,64.9999939250949
291,304,17628,1,0,0:0:0:0:
387,297,17731,1,0,0:0:0:0:
480,263,17835,2,0,L|417:160,1,64.9999939250949
491,130,18042,6,0,P|461:83|441:87,1,64.9999939250949
411,15,18248,2,0,P|347:40|355:74,1,64.9999939250949
308,133,18455,2,0,P|242:137|225:119,1,64.9999939250949
213,28,18662,2,0,P|165:6|120:33,1,64.9999939250949
75,143,18869,2,0,P|49:192|73:226,1,64.9999939250949
195,336,19076,2,0,L|296:335,1,74.9999992847443
433,70,19490,2,0,L|326:69,1,74.9999992847443
222,38,19904,6,0,P|130:59|104:71,1,64.9999939250949
32,189,20110,2,0,P|121:191|150:197,1,64.9999939250949
331,277,20317,2,0,P|257:276|217:279,1,64.9999939250949
63,376,20524,2,0,P|171:378|190:383,1,64.9999939250949
346,342,20731,2,0,L|415:244,1,64.9999939250949
406,199,20938,1,0,0:0:0:0:
399,106,21042,1,0,0:0:0:0:
333,47,21145,2,0,L|239:-9,1,64.9999939250949
204,95,21352,6,0,L|95:153,1,64.9999939250949
122,260,21559,2,0,L|246:279,1,64.9999939250949
230,157,21766,2,0,L|350:130,1,64.9999939250949
280,350,21973,2,0,L|397:366,1,64.9999939250949
496,292,22179,2,0,L|413:213,1,64.9999939250949
447,119,22386,2,0,L|368:53,1,64.9999939250949
291,50,22593,5,0,0:0:0:0:
210,46,22697,1,0,0:0:0:0:
121,46,22800,2,0,P|79:42|65:66,1,64.9999939250949
80,173,23007,2,0,L|106:291,1,64.9999939250949
242,344,23214,2,0,L|296:280,1,64.9999939250949
456,249,23421,2,0,L|480:130,1,64.9999939250949
356,51,23628,6,0,L|266:20,1,64.9999939250949
258,204,23835,2,0,L|137:235,1,64.9999939250949
54,143,24042,2,0,L|168:96,1,64.9999939250949
197,85,24248,1,0,0:0:0:0:
281,75,24352,1,0,0:0:0:0:
360,78,24455,2,0,P|414:80|432:22,1,64.9999939250949
401,207,24662,2,0,L|486:273,1,64.9999939250949
386,315,24869,2,0,L|323:400,1,64.9999939250949
461,191,25076,2,0,L|386:279,1,64.9999939250949
267,38,25283,2,0,L|346:120,1,64.9999939250949
69,22,25490,6,0,L|148:101,1,64.9999939250949
142,272,25697,2,0,L|90:210,1,74.9999992847443
329,78,26110,2,0,L|423:31,1,74.9999992847443
111,86,26524,2,0,L|148:42,1,37.4999996423721
402,152,26731,2,0,L|423:205,1,37.4999996423721
148,265,26938,2,0,L|88:257,1,37.4999996423721
354,84,27145,2,0,L|400:71,1,37.4999996423721
320,301,27352,6,0,L|255:304,1,37.4999996423721
209,308,27559,1,0,0:0:0:0:
124,290,27662,1,0,0:0:0:0:
56,242,27766,2,0,L|61:187,1,37.4999996423721
138,42,27973,2,0,L|83:84,1,37.4999996423721
246,157,28179,6,0,L|294:117,1,37.4999996423721
396,35,28386,2,0,L|322:50,1,41.2499997854233
465,185,28593,6,0,L|450:246,1,37.4999996423721
317,330,28800,2,0,L|309:269,1,37.4999996423721
159,298,29007,2,0,L|107:286,1,37.4999996423721
70,190,29214,1,0,0:0:0:0:
104,125,29317,1,0,0:0:0:0:
160,73,29421,2,0,L|224:79,1,37.4999996423721
283,188,29628,6,0,L|346:188,1,37.4999996423721
500,82,29835,2,0,L|474:146,1,37.4999996423721
267,338,30042,2,0,L|216:293,1,37.4999996423721
328,148,30248,2,0,L|384:148,1,41.2499997854233
142,97,30455,2,0,L|96:128,1,37.4999996423721
366,258,30662,6,0,L|379:195,1,37.4999996423721
370,144,30869,1,0,0:0:0:0:
323,76,30973,1,0,0:0:0:0:
248,46,31076,2,0,L|190:70,1,37.4999996423721
96,160,31283,2,0,L|32:128,1,37.4999996423721
236,321,31490,2,0,L|280:293,1,37.4999996423721
470,217,31697,6,0,L|492:175,1,37.4999996423721
289,70,31904,2,0,L|332:40,1,37.4999996423721
157,307,32110,2,0,L|123:273,1,37.4999996423721
32,50,32317,6,0,L|108:104,1,74.9999992847443
419,331,32731,2,0,L|326:289,1,74.9999992847443
119,260,33145,2,0,L|130:252,2,9.37499991059304
256,38,33352,2,0,L|268:30,2,9.37499991059304
355,262,33559,6,0,L|367:251,2,9.37499991059304
199,137,33766,2,0,L|209:129,2,9.37499991059304
396,150,33973,2,0,L|408:143,2,9.37499991059304
174,254,34179,1,0,0:0:0:0:
90,229,34283,1,0,0:0:0:0:
62,148,34386,2,0,L|70:141,2,9.37499991059304
172,39,34593,2,0,L|163:36,2,9.37499991059304
407,178,34800,2,0,L|415:173,2,9.37499991059304
294,39,35007,6,0,L|307:31,2,9.37499991059304
193,183,35214,2,0,L|204:170,2,9.37499991059304
338,109,35421,2,0,L|350:96,2,9.37499991059304
169,300,35628,2,0,L|179:294,2,9.37499991059304
308,308,35835,1,0,0:0:0:0:
375,253,35938,1,0,0:0:0:0:
439,200,36042,2,0,L|448:195,2,9.37499991059304
301,85,36248,2,0,L|310:82,2,9.37499991059304
134,175,36455,6,0,L|147:174,2,9.37499991059304
356,153,36662,2,0,L|366:149,2,10.3124999463558
230,170,36869,2,0,L|237:165,2,9.37499991059304
288,58,37076,2,0,L|295:53,2,9.37499991059304
77,55,37283,2,0,L|85:49,2,10.3124999463558
154,170,37490,2,0,L|93:246,2,87.9999961853028
256,192,38110,8,2,39559,0:0:0:0:
