osu file format v14

[General]
AudioFilename: audio.mp3
AudioLeadIn: 0
PreviewTime: 53606
Countdown: 1
SampleSet: Normal
StackLeniency: 0.7
Mode: 0
LetterboxInBreaks: 0
WidescreenStoryboard: 1

[Editor]
DistanceSpacing: 1.1
BeatDivisor: 8
GridSize: 4
TimelineZoom: 2.2

[Metadata]
Title:Spag Heddy - The Master VIP Dubstep
TitleUnicode:Spag Heddy - The Master VIP Dubstep
Artist:Spag Heddy
ArtistUnicode:Spag Heddy
Creator:christcrossair
Version:434vx
Source:
Tags:
BeatmapID:1399434
BeatmapSetID:660971

[Difficulty]
HPDrainRate:7
CircleSize:4.2
OverallDifficulty:7
ApproachRate:9.7
SliderMultiplier:1.4
SliderTickRate:1

[Events]
//Background and Video events
0,0,"maxresdefault.jpg",0,0
//Break Periods
//Storyboard Layer 0 (Background)
//Storyboard Layer 1 (Fail)
//Storyboard Layer 2 (Pass)
//Storyboard Layer 3 (Foreground)
//Storyboard Sound Samples

[TimingPoints]
158,344.827586206897,4,1,0,100,1,0
158,-200,4,1,0,100,0,0
847,-133.333333333333,4,1,0,100,0,0
22226,-100,4,1,0,100,0,0
54037,-66.6666666666667,4,1,0,100,0,0
58433,-66.6666666666667,4,1,0,100,0,0
78433,-100,4,1,0,100,0,0
79813,-66.6666666666667,4,1,0,100,0,0
100158,-100,4,1,0,100,0,0
107744,-133.333333333333,4,1,0,100,0,0
108089,-200,4,1,0,100,0,0
110502,-100,4,1,0,100,0,0
116364,-76.9230769230769,4,1,0,100,0,0
116709,-200,4,1,0,100,0,0
118002,-133.333333333333,4,1,0,100,0,0
118433,-100,4,1,0,100,0,0
120158,-200,4,1,0,100,0,0
121537,-100,4,1,0,100,0,0
133261,-66.6666666666667,4,1,0,100,0,0
141192,-100,4,1,0,100,0,0
144295,-66.6666666666667,4,1,0,100,0,0

[HitObjects]
40,224,158,6,8,P|100:252|116:252,1,70
272,324,847,2,8,P|260:252|228:220,1,105.000004005432
160,336,1364,1,0,0:0:0:0:
304,200,1537,2,8,P|280:164|212:144,1,105.000004005432
92,200,2226,1,8,0:0:0:0:
96,196,2916,6,8,P|148:204|216:192,1,105.000004005432
308,260,3606,2,8,P|360:256|400:216,1,105.000004005432
396,88,4123,1,0,0:0:0:0:
160,152,4295,2,8,P|96:120|84:80,1,105.000004005432
124,48,4985,1,8,0:0:0:0:
140,88,5675,6,8,P|136:152|128:208,1,105.000004005432
104,316,6364,2,8,P|152:292|220:296,1,105.000004005432
320,320,6882,1,0,0:0:0:0:
224,184,7054,2,8,P|160:208|108:224,1,105.000004005432
48,320,7744,1,8,0:0:0:0:
108,336,8433,6,8,P|192:332|224:340,1,105.000004005432
368,288,9123,2,8,P|328:256|308:192,1,105.000004005432
384,80,9640,1,0,0:0:0:0:
348,280,9813,1,8,0:0:0:0:
76,312,11192,5,0,0:0:0:0:
84,324,11882,1,0,0:0:0:0:
308,276,12571,1,0,0:0:0:0:
76,192,13261,1,0,0:0:0:0:
404,64,13951,5,0,0:0:0:0:
400,52,14640,1,0,0:0:0:0:
256,216,15330,1,0,0:0:0:0:
436,352,16020,1,0,0:0:0:0:
68,112,16709,5,0,0:0:0:0:
68,128,17399,1,0,0:0:0:0:
192,320,18089,1,0,0:0:0:0:
176,84,18778,1,0,0:0:0:0:
460,216,19468,1,0,0:0:0:0:
460,216,20158,1,0,0:0:0:0:
256,192,20847,12,0,22226,0:0:0:0:
156,304,22571,6,0,P|128:240|72:196,1,140
268,292,23089,1,0,0:0:0:0:
48,248,23261,1,0,0:0:0:0:
200,368,23433,1,0,0:0:0:0:
148,224,23606,2,0,P|212:224|288:180,1,140
332,80,24123,1,0,0:0:0:0:
332,80,24295,1,0,0:0:0:0:
372,304,24640,1,0,0:0:0:0:
344,320,24985,6,0,P|288:268|204:244,1,140
88,276,25675,2,0,P|152:252|208:184,1,140
264,60,26192,1,0,0:0:0:0:
216,288,26364,1,0,0:0:0:0:
216,300,26709,1,0,0:0:0:0:
216,300,26882,1,0,0:0:0:0:
372,216,27054,1,0,0:0:0:0:
152,124,27399,1,0,0:0:0:0:
120,136,27744,6,0,P|228:132|268:104,1,140
408,264,28433,2,0,P|344:220|288:252,1,140
384,332,28951,1,0,0:0:0:0:
232,136,29123,1,0,0:0:0:0:
120,260,29468,1,0,0:0:0:0:
120,260,29640,1,0,0:0:0:0:
120,260,29813,1,0,0:0:0:0:
288,320,30158,1,0,0:0:0:0:
416,124,30502,6,0,B|420:212|420:212|372:184,1,140
208,116,31192,2,0,P|188:200|140:248,1,140
352,240,31709,1,0,0:0:0:0:
108,192,31882,1,0,0:0:0:0:
104,188,32226,1,0,0:0:0:0:
320,108,32399,1,0,0:0:0:0:
320,108,32571,1,0,0:0:0:0:
248,288,32916,1,0,0:0:0:0:
248,288,33089,6,0,P|236:236|200:216,1,70
44,160,33606,1,0,0:0:0:0:
112,284,33951,2,0,P|184:272|256:292,1,140
64,348,34468,1,0,0:0:0:0:
256,328,34640,2,0,P|240:284|164:224,1,140
208,348,35158,1,0,0:0:0:0:
284,168,35330,1,0,0:0:0:0:
92,312,35675,1,0,0:0:0:0:
160,136,36020,6,0,P|192:176|288:188,1,140
384,348,36709,2,0,P|400:292|384:208,1,140
232,104,37226,1,0,0:0:0:0:
252,292,37399,2,0,P|248:220|188:168,1,140
160,328,37916,1,0,0:0:0:0:
320,132,38089,1,0,0:0:0:0:
168,312,38433,1,0,0:0:0:0:
392,320,38778,6,0,P|372:244|316:188,1,140
144,76,39468,2,0,P|152:156|200:228,1,140
340,268,39985,1,0,0:0:0:0:
76,200,40158,1,0,0:0:0:0:
112,312,40502,2,0,P|192:312|260:356,1,140
404,260,41192,1,0,0:0:0:0:
436,232,41537,2,0,P|360:176|360:120,1,140
240,48,42226,2,0,P|268:84|280:136,1,70
236,244,42571,2,0,P|224:192|236:160,1,70
296,136,42916,2,0,P|340:132|420:184,1,140
308,272,43433,2,0,P|312:220|288:188,1,70
180,124,43778,5,0,0:0:0:0:
288,308,43951,1,0,0:0:0:0:
96,144,44123,5,0,0:0:0:0:
356,104,44295,1,0,0:0:0:0:
48,320,44985,5,0,0:0:0:0:
460,320,45675,1,0,0:0:0:0:
48,96,46364,1,0,0:0:0:0:
256,192,47054,12,0,49813,0:0:0:0:
116,256,50158,6,0,L|172:200,1,70
188,248,50502,2,0,L|216:176,1,70
260,208,50847,2,0,L|248:108,1,70
400,64,51192,6,0,L|416:144,1,70
316,272,51537,2,0,L|320:180,1,70
128,128,51882,6,0,L|215:133,1,70
160,292,52226,2,0,L|76:292,1,70
128,156,52571,5,0,0:0:0:0:
152,131,52657,1,0,0:0:0:0:
185,120,52743,1,0,0:0:0:0:
219,124,52829,1,0,0:0:0:0:
248,143,52915,1,0,0:0:0:0:
260,160,53002,2,0,P|264:192|260:220,3,35
184,244,53347,2,0,P|180:276|192:304,3,35
388,156,53692,2,0,P|384:196|376:208,3,35
304,300,54037,2,0,P|292:236|212:188,1,157.500006008148
88,264,54985,6,0,L|206:269,1,105.000004005432
392,232,55330,2,0,P|288:216|220:136,1,210.000008010865
64,216,56020,2,0,P|132:268|164:276,1,105.000004005432
308,260,56364,1,0,0:0:0:0:
136,184,56537,1,0,0:0:0:0:
308,296,56709,2,0,P|392:268|412:228,1,105.000004005432
192,288,57054,1,0,0:0:0:0:
324,132,57226,1,0,0:0:0:0:
428,304,57399,2,0,B|428:208|448:172|448:172|476:248,1,210.000008010865
200,304,58089,1,0,0:0:0:0:
64,168,58778,6,0,P|136:176|200:152,1,105.000004005432
60,76,59123,1,0,0:0:0:0:
208,296,59295,1,0,0:0:0:0:
296,120,59468,2,0,P|224:160|156:172,1,105.000004005432
176,320,59813,1,0,0:0:0:0:
188,88,59985,1,0,0:0:0:0:
364,148,60158,2,0,B|360:220|320:276|320:276|304:196,1,210.000008010865
472,336,60847,1,0,0:0:0:0:
88,128,61537,5,0,0:0:0:0:
128,272,61709,1,0,0:0:0:0:
192,100,61882,1,0,0:0:0:0:
416,172,62054,1,0,0:0:0:0:
272,296,62226,2,0,P|248:232|196:172,1,105.000004005432
364,96,62571,1,0,0:0:0:0:
108,100,62744,1,0,0:0:0:0:
156,288,62916,2,0,B|252:256|292:224|292:224|216:224,1,210.000008010865
440,80,63606,5,0,0:0:0:0:
440,80,64295,5,0,0:0:0:0:
456,108,64468,1,0,0:0:0:0:
444,144,64640,1,0,0:0:0:0:
460,176,64813,1,0,0:0:0:0:
340,344,64985,1,0,0:0:0:0:
32,160,65330,1,0,0:0:0:0:
204,236,65675,1,0,0:0:0:0:
204,236,65761,1,0,0:0:0:0:
204,236,65847,1,0,0:0:0:0:
204,236,65933,2,0,P|236:216|252:200,1,52.5000020027161
156,132,66192,2,0,P|84:176|56:208,1,105.000004005432
236,324,67054,6,0,P|336:324|380:308,1,105.000004005432
108,280,67399,1,0,0:0:0:0:
184,120,67571,1,0,0:0:0:0:
268,300,67744,2,0,P|212:256|132:244,1,105.000004005432
216,368,68089,1,0,0:0:0:0:
440,276,68261,1,0,0:0:0:0:
320,208,68433,2,0,P|232:184|208:144,1,105.000004005432
80,88,68778,2,0,P|112:144|76:184,1,105.000004005432
372,312,69123,1,0,0:0:0:0:
104,56,69813,6,0,P|188:80|228:112,1,105.000004005432
184,308,70158,2,0,P|164:248|176:192,1,105.000004005432
376,252,70502,1,0,0:0:0:0:
172,104,70675,1,0,0:0:0:0:
204,312,70847,5,0,0:0:0:0:
320,80,71020,1,0,0:0:0:0:
356,304,71192,2,0,P|312:228|256:200,1,105.000004005432
120,36,71537,2,0,P|160:104|208:116,1,105.000004005432
76,352,71882,1,0,0:0:0:0:
368,256,72571,6,0,P|376:200|424:152,1,105.000004005432
156,316,72916,1,0,0:0:0:0:
244,200,73089,2,0,P|192:168|120:160,1,105.000004005432
16,288,73433,1,0,0:0:0:0:
180,184,73606,2,0,P|252:200|288:240,1,105.000004005432
304,52,73951,1,0,0:0:0:0:
240,324,74295,1,0,0:0:0:0:
248,348,74640,5,0,0:0:0:0:
464,144,75330,1,0,0:0:0:0:
444,180,75502,1,0,0:0:0:0:
464,204,75675,1,0,0:0:0:0:
436,236,75847,1,0,0:0:0:0:
228,76,76020,1,0,0:0:0:0:
184,264,76192,1,0,0:0:0:0:
64,148,76364,1,0,0:0:0:0:
256,144,76537,1,0,0:0:0:0:
76,308,76709,1,0,0:0:0:0:
436,320,77399,6,0,P|340:248|376:192,1,210.000008010865
276,48,78089,2,0,P|340:120|336:152,1,105.000004005432
288,324,78433,2,0,P|272:264|300:192,1,140
448,160,79123,1,0,0:0:0:0:
156,304,79468,1,0,0:0:0:0:
160,292,79813,6,0,B|176:236|152:124|152:124|224:112,1,210.000008010865
304,228,80330,1,0,0:0:0:0:
232,336,80502,1,0,0:0:0:0:
388,368,80675,1,0,0:0:0:0:
160,336,80847,6,0,B|112:312|112:312|152:156,1,210.000008010865
412,120,81537,6,0,B|268:120|268:120|276:168,1,183.750007009506
288,192,81882,6,0,B|204:116|204:116|176:216,1,210.000008010865
196,320,82313,1,0,0:0:0:0:
196,320,82399,2,0,L|216:268,1,52.5000020027161
312,216,82571,2,0,L|296:284,1,52.5000020027161
420,184,82744,2,0,L|388:124,1,52.5000020027161
284,88,82916,2,0,P|304:188|384:264,1,210.000008010865
188,264,83606,6,0,L|149:202,1,52.5000020027161
76,248,83778,2,0,L|120:312,1,52.5000020027161
192,272,83951,2,0,B|136:172|136:172|120:276,1,210.000008010865
288,332,84640,1,0,0:0:0:0:
408,232,84985,1,0,0:0:0:0:
408,232,85071,1,0,0:0:0:0:
408,232,85158,1,0,0:0:0:0:
408,232,85244,1,0,0:0:0:0:
408,232,85330,2,0,P|352:176|308:160,1,105.000004005432
136,176,85675,2,0,P|156:248|272:320,1,210.000008010865
384,268,86364,2,0,L|328:220,1,52.5000020027161
256,180,86537,2,0,L|264:216,1,26.2500010013581
288,224,86623,2,0,L|284:188,1,26.2500010013581
332,176,86709,2,0,P|420:216|424:324,1,210.000008010865
156,264,87399,1,0,0:0:0:0:
424,144,87744,1,0,0:0:0:0:
52,72,88089,1,0,0:0:0:0:
256,340,88433,1,0,0:0:0:0:
256,128,89123,6,0,L|308:160,1,52.5000020027161
208,272,89295,2,0,L|188:212,1,52.5000020027161
268,112,89468,1,0,0:0:0:0:
128,276,89813,6,0,L|176:312,1,52.5000020027161
292,268,89985,2,0,L|236:272,1,52.5000020027161
72,336,90158,1,0,0:0:0:0:
380,236,90502,1,0,0:0:0:0:
108,224,90847,6,0,P|152:208|224:280,1,157.500006008148
336,260,91192,2,0,P|272:264|236:241,1,105.000004005432
100,80,91537,2,0,P|148:128|144:180,1,105.000004005432
272,344,91882,2,0,B|224:248|144:288|144:288|168:352,1,210.000008010865
396,128,92571,6,0,P|396:216|348:300,1,183.750007009506
172,252,92916,6,0,P|256:248|336:304,1,183.750007009506
180,320,93261,6,0,P|240:236|352:216,1,210.000008010865
32,304,93951,1,0,0:0:0:0:
100,140,94640,6,0,L|160:144,1,52.5000020027161
256,228,94813,2,0,L|200:228,1,52.5000020027161
272,316,94985,1,0,0:0:0:0:
304,336,95330,1,0,0:0:0:0:
140,344,95675,1,0,0:0:0:0:
44,168,95847,1,0,0:0:0:0:
176,136,96020,2,0,P|124:88|72:68,1,105.000004005432
120,256,96364,2,0,P|200:256|224:276,1,105.000004005432
416,320,96709,1,0,0:0:0:0:
416,328,97054,1,0,0:0:0:0:
416,332,97399,5,0,0:0:0:0:
264,200,97744,5,0,0:0:0:0:
196,336,97916,1,0,0:0:0:0:
276,172,98089,5,0,0:0:0:0:
392,240,98261,1,0,0:0:0:0:
172,308,98433,5,0,0:0:0:0:
137,269,98519,1,0,0:0:0:0:
134,218,98605,1,0,0:0:0:0:
165,176,98691,1,0,0:0:0:0:
214,163,98777,1,0,0:0:0:0:
240,176,98864,2,0,P|264:204|268:220,2,52.5000020027161
192,264,99123,2,0,P|296:260|352:172,1,210.000008010865
52,192,99813,5,0,0:0:0:0:
120,316,100158,1,0,0:0:0:0:
144,328,100502,2,0,P|192:316|220:332,1,70
8,348,100847,1,0,0:0:0:0:
204,240,101192,1,0,0:0:0:0:
224,208,101537,2,0,P|256:228|360:216,1,140
360,328,102226,6,0,P|308:312|224:336,1,140
112,320,102916,1,0,0:0:0:0:
148,232,103261,2,0,P|160:176|148:140,1,87.5
68,196,103606,2,0,P|144:196|204:152,1,140
108,312,104985,5,0,0:0:0:0:
88,208,105330,1,0,0:0:0:0:
136,116,105675,2,0,P|164:204|192:224,1,122.5
224,312,106020,2,0,P|224:256|192:192,1,122.5
156,264,106364,2,0,P|224:228|296:248,1,140
428,328,107054,1,0,0:0:0:0:
200,272,107744,2,0,L|244:188,1,91.8750035047532
216,108,108089,2,0,L|236:168,1,61.25
236,276,108433,2,0,P|272:272|304:280,2,70
56,332,109813,1,0,0:0:0:0:
264,156,110502,5,0,0:0:0:0:
436,240,110847,1,0,0:0:0:0:
136,316,111364,5,0,0:0:0:0:
164,152,111537,1,0,0:0:0:0:
272,312,111882,1,0,0:0:0:0:
480,224,112226,5,0,0:0:0:0:
172,120,112744,5,0,0:0:0:0:
376,56,112916,1,0,0:0:0:0:
252,272,113261,5,0,0:0:0:0:
336,60,113606,1,0,0:0:0:0:
128,328,114123,5,0,0:0:0:0:
56,168,114295,1,0,0:0:0:0:
256,192,114640,12,0,115933,0:0:0:0:
224,208,116020,6,0,L|280:200,1,52.5
272,276,116192,2,0,L|208:272,1,52.5
120,176,116364,2,0,L|192:160,1,68.2499968757631
348,224,116537,2,0,L|272:220,1,68.2499968757631
128,212,116709,2,0,P|120:264|112:284,1,70
80,320,117140,2,0,P|116:320|134:328,1,52.5
248,104,117571,6,0,L|252:128,1,17.5
324,172,117744,2,0,L|324:152,1,17.5
432,264,117916,1,0,0:0:0:0:
332,328,118002,2,0,L|300:312,1,26.2500010013581
188,272,118175,2,0,L|188:236,1,26.2500010013581
272,328,118347,1,0,0:0:0:0:
292,200,118433,2,0,L|296:248,1,35
372,124,118606,2,0,L|380:164,1,35
440,276,118778,2,0,P|440:248|432:232,2,35
260,252,119037,2,0,P|256:228|260:212,5,35
124,112,119511,2,0,L|128:136,14,17.5
88,132,120158,2,0,P|140:148|160:228,1,140
48,324,121537,1,0,0:0:0:0:
108,236,122226,6,0,L|152:232,1,35
136,180,122399,2,0,L|176:180,1,35
264,176,122571,2,0,P|228:164|184:168,1,70
316,268,122916,1,0,0:0:0:0:
120,208,123089,1,0,0:0:0:0:
264,104,123261,2,0,P|260:144|248:172,1,70
136,280,123606,1,0,0:0:0:0:
288,136,123778,1,0,0:0:0:0:
328,340,123951,1,0,0:0:0:0:
88,204,124123,1,0,0:0:0:0:
344,68,124295,1,0,0:0:0:0:
256,312,124985,6,0,P|272:284|272:232,1,70
72,96,125330,1,0,0:0:0:0:
104,192,125502,1,0,0:0:0:0:
200,172,125675,1,0,0:0:0:0:
168,284,125847,1,0,0:0:0:0:
332,300,126020,1,0,0:0:0:0:
176,296,126192,1,0,0:0:0:0:
184,144,126364,1,0,0:0:0:0:
192,144,126537,2,0,P|120:160|120:280,1,210
76,92,127399,1,0,0:0:0:0:
100,112,127744,6,0,P|112:164|104:192,1,70
192,336,128089,2,0,P|208:296|236:276,1,70
304,64,128433,2,0,P|348:64|384:56,1,70
232,320,128778,2,0,P|220:264|204:248,1,70
64,132,129123,2,0,P|128:128|168:64,1,140
92,260,129813,1,0,0:0:0:0:
320,348,130502,5,0,0:0:0:0:
320,352,130675,1,0,0:0:0:0:
320,352,130847,1,0,0:0:0:0:
136,272,131020,1,0,0:0:0:0:
268,152,131192,2,0,P|316:184|324:192,1,70
120,240,131537,2,0,L|104:204,1,35
132,128,131709,2,0,L|144:164,1,35
292,192,131882,1,0,0:0:0:0:
168,316,132054,1,0,0:0:0:0:
159,77,132226,1,0,0:0:0:0:
276,248,132571,5,0,0:0:0:0:
364,96,133261,2,0,L|384:176,1,78.7500030040742
360,184,133433,2,0,L|344:92,1,78.7500030040742
296,88,133606,2,0,P|332:160|328:200,1,105.000004005432
256,296,133951,2,0,P|248:240|248:176,1,105.000004005432
464,112,134295,2,0,P|408:84|404:48,1,105.000004005432
312,304,134640,2,0,P|308:240|296:192,1,105.000004005432
64,124,134985,2,0,P|124:92|144:40,1,105.000004005432
200,320,135330,1,0,0:0:0:0:
368,172,136020,6,0,P|300:172|252:196,1,105.000004005432
412,304,136364,1,0,0:0:0:0:
200,88,136537,1,0,0:0:0:0:
60,236,136709,2,0,P|112:260|143:309,1,105.000004005432
4,320,137054,1,0,0:0:0:0:
196,232,137226,1,0,0:0:0:0:
196,232,137313,1,0,0:0:0:0:
196,232,137399,2,0,P|272:212|340:256,1,157.500006008148
112,332,137744,2,0,P|80:276|144:184,1,183.750007009506
52,192,138089,2,0,P|168:208|256:160,1,210.000008010865
344,80,138778,6,0,P|376:124|388:192,1,105.000004005432
136,228,139123,1,0,0:0:0:0:
324,312,139295,1,0,0:0:0:0:
248,136,139468,6,0,P|192:168|172:212,1,105.000004005432
416,156,139813,1,0,0:0:0:0:
340,328,139985,1,0,0:0:0:0:
60,244,140158,2,0,P|116:224|132:96,1,183.750007009506
80,120,140502,6,0,P|148:168|244:84,1,210.000008010865
384,220,141192,2,0,L|388:264,1,35
288,312,141364,2,0,L|280:268,1,35
172,204,141536,2,0,L|168:244,1,35
40,184,141709,2,0,L|48:136,1,35
172,120,141882,2,0,P|244:172|284:172,1,122.5
288,312,142226,6,0,P|280:272|248:260,1,70
128,180,142571,2,0,P|156:168|168:140,1,52.5
164,136,142744,2,0,L|116:120,1,35
192,88,142916,2,0,P|176:124|140:144,1,70
144,296,143261,2,0,P|232:284|280:308,1,140
420,88,144295,6,0,L|420:152,1,52.5000020027161
380,104,144468,2,0,L|392:160,1,52.5000020027161
384,192,144640,2,0,P|328:172|292:184,1,78.7500030040742
212,212,144813,2,0,P|268:232|304:224,1,78.7500030040742
152,140,144985,6,0,P|104:132|64:148,1,78.7500030040742
104,208,145158,2,0,P|120:248|156:264,1,78.7500030040742
176,100,145330,2,0,P|196:144|196:176,1,78.7500030040742
152,316,145502,2,0,P|136:264|148:240,1,78.7500030040742
232,260,145675,6,0,P|264:268|320:248,1,78.7500030040742
264,164,145847,2,0,P|272:120|224:72,1,105.000004005432
88,308,146364,6,0,B|216:304|204:304,1,105.000004005432
404,220,146709,2,0,L|296:212,1,105.000004005432
60,144,147054,1,0,0:0:0:0:
224,316,147744,6,0,P|232:236|144:196,1,183.750007009506
168,308,148089,2,0,P|256:280|228:204,1,183.750007009506
152,88,148433,2,0,L|152:148,1,52.5000020027161
288,200,148606,2,0,L|280:140,1,52.5000020027161
392,60,148778,2,0,L|392:124,1,52.5000020027161
500,192,148951,2,0,L|488:136,1,52.5000020027161
472,316,149123,1,0,0:0:0:0:
104,284,149813,6,0,P|176:296|232:296,1,105.000004005432
364,256,150158,1,0,0:0:0:0:
60,208,150502,1,0,0:0:0:0:
140,40,150847,1,0,0:0:0:0:
72,232,151192,2,0,L|96:292,1,52.5000020027161
232,328,151364,2,0,L|196:280,1,52.5000020027161
280,192,151537,2,0,L|304:256,1,52.5000020027161
400,68,151709,2,0,L|408:124,1,52.5000020027161
468,252,151882,1,0,0:0:0:0:
128,284,152571,6,0,P|112:240|128:180,1,105.000004005432
232,52,152916,2,0,P|232:116|204:164,1,105.000004005432
160,296,153261,2,0,P|288:288|332:316,1,183.750007009506
368,216,153606,6,0,P|336:144|376:48,1,183.750007009506
224,120,153951,6,0,P|212:188|136:276,1,183.750007009506
320,304,154295,2,0,P|236:284|116:320,1,210.000008010865
356,136,155330,6,0,L|368:200,1,52.5000020027161
441,196,155502,2,0,L|421:140,1,52.5000020027161
212,84,155675,1,0,0:0:0:0:
168,284,156020,6,0,L|232:304,1,52.5000020027161
344,236,156192,2,0,L|288:224,1,52.5000020027161
112,152,156364,1,0,0:0:0:0:
128,144,156709,1,0,0:0:0:0:
140,104,157054,6,0,P|224:136|348:120,1,210.000008010865
300,264,157485,2,0,P|320:200|356:184,1,105.000004005432
440,264,157744,2,0,P|420:320|372:336,1,105.000004005432
356,244,158089,1,0,0:0:0:0:
88,332,158778,1,0,0:0:0:0:
104,344,159123,1,0,0:0:0:0:
368,304,159468,1,0,0:0:0:0:
72,100,159813,1,0,0:0:0:0:
64,344,160158,1,0,0:0:0:0:
236,112,160847,6,0,L|256:168,1,52.5000020027161
388,176,161020,2,0,L|364:128,1,52.5000020027161
176,248,161192,1,0,0:0:0:0:
192,272,161537,1,0,0:0:0:0:
208,288,161882,1,0,0:0:0:0:
280,296,162226,2,0,P|272:228|160:144,1,210.000008010865
144,300,162916,2,0,P|256:216|264:136,1,210.000008010865
168,84,163433,5,0,0:0:0:0:
48,88,163606,1,0,0:0:0:0:
128,192,163778,5,0,0:0:0:0:
252,160,163951,1,0,0:0:0:0:
92,92,164123,5,0,0:0:0:0:
120,224,164295,6,0,L|188:232,1,52.5000020027161
296,200,164468,2,0,L|232:184,1,52.5000020027161
280,308,164640,6,0,L|348:316,1,52.5000020027161
456,284,164813,2,0,L|392:268,1,52.5000020027161
236,240,164985,2,0,P|312:184|261:86,1,210.000008010865
88,288,165675,1,0,0:0:0:0:
