osu file format v14

[General]
AudioFilename: audio.mp3
AudioLeadIn: 1500
PreviewTime: 44218
Countdown: 0
SampleSet: None
StackLeniency: 0.7
Mode: 0
LetterboxInBreaks: 0
WidescreenStoryboard: 0

[Editor]
DistanceSpacing: 1.2
BeatDivisor: 4
GridSize: 4
TimelineZoom: 2.2

[Metadata]
Title:Ai Carambass
TitleUnicode:Ai Carambass
Artist:Spag Heddy
ArtistUnicode:Spag Heddy
Creator:Poggo
Version:Super BASS
Source:
Tags:dub step
BeatmapID:1274971
BeatmapSetID:603692

[Difficulty]
HPDrainRate:8
CircleSize:4.5
OverallDifficulty:8
ApproachRate:9.5
SliderMultiplier:1.8
SliderTickRate:1

[Events]
//Background and Video events
0,0,"gggg.jpg",0,0
//Break Periods
//Storyboard Layer 0 (Background)
//Storyboard Layer 1 (Fail)
//Storyboard Layer 2 (Pass)
//Storyboard Layer 3 (Foreground)
//Storyboard Sound Samples

[TimingPoints]
81,344.827586206897,4,1,1,50,1,0
5425,-100,4,2,1,10,0,0
5598,-133.333333333333,4,1,1,40,0,0
16632,-100,4,1,1,40,0,0
26977,-100,4,1,1,20,0,0
27149,-100,4,1,1,25,0,0
27322,-100,4,1,1,30,0,0
27494,-100,4,1,1,35,0,0
27667,-100,4,1,1,60,0,0
37322,-83.3333333333333,4,1,1,50,0,0
42839,-133.333333333333,4,1,1,50,0,0
43443,-133.333333333333,4,1,1,30,0,0
43615,-133.333333333333,4,1,1,35,0,0
43787,-133.333333333333,4,1,1,40,0,0
43960,-133.333333333333,4,1,1,45,0,0
44218,-133.333333333333,4,1,1,50,0,1
44908,-76.9230769230769,4,1,1,50,0,0
46287,-66.6666666666667,4,1,1,50,0,0
46977,-133.333333333333,4,1,1,50,0,0
47667,-76.9230769230769,4,1,1,50,0,0
49046,-66.6666666666667,4,1,1,50,0,0
49736,-133.333333333333,4,1,1,50,0,0
50425,-76.9230769230769,4,1,1,50,0,0
52494,-133.333333333333,4,1,1,50,0,0
52839,-76.9230769230769,4,3,1,50,0,0
54477,-76.9230769230769,4,3,1,30,0,0
54649,-76.9230769230769,4,3,1,35,0,0
54822,-76.9230769230769,4,3,1,40,0,0
54994,-76.9230769230769,4,3,1,45,0,0
55253,-133.333333333333,4,1,1,50,0,1
55943,-76.9230769230769,4,1,1,50,0,0
58012,-133.333333333333,4,1,1,50,0,0
58529,-76.9230769230769,4,1,1,50,0,0
60081,-66.6666666666667,4,1,1,50,0,0
60770,-133.333333333333,4,1,1,50,0,0
61287,-76.9230769230769,4,1,1,50,0,0
62839,-133.333333333333,4,1,1,50,0,0
66287,-133.333333333333,4,1,1,50,0,1
66977,-76.9230769230769,4,1,1,50,0,0
68356,-133.333333333333,4,1,1,50,0,0
69046,-133.333333333333,4,1,1,50,0,0
69563,-76.9230769230769,4,1,1,50,0,0
71115,-66.6666666666667,4,1,1,50,0,0
71805,-133.333333333333,4,1,1,50,0,0
72494,-76.9230769230769,4,1,1,50,0,0
74908,-76.9230769230769,4,3,1,50,0,0
77322,-133.333333333333,4,1,1,50,0,1
78012,-76.9230769230769,4,1,1,50,0,0
79391,-133.333333333333,4,1,1,50,0,0
80770,-76.9230769230769,4,1,1,50,0,0
82149,-66.6666666666667,4,1,1,50,0,0
82839,-133.333333333333,4,1,1,50,0,0
83529,-76.9230769230769,4,1,1,50,0,0
84218,-133.333333333333,4,1,1,50,0,0
84908,-76.9230769230769,4,1,1,50,0,0
85943,-76.9230769230769,4,3,1,50,0,0

[Colours]
Combo1 : 255,192,0
Combo2 : 166,11,84
Combo3 : 36,135,255
Combo4 : 255,17,17

[HitObjects]
256,192,81,12,0,5425,0:0:0:0:
440,56,5598,6,0,P|472:112|320:216,1,270.000010299683,0|8,0:0|0:0,0:0:0:0:
256,96,6632,1,0,0:0:0:0:
165,227,6977,2,0,P|50:179|72:56,1,270.000010299683,0|8,0:0|0:0,0:0:0:0:
256,216,8011,1,0,0:0:0:0:
300,284,8184,1,0,0:2:0:0:
253,352,8356,6,0,B|192:360|168:292|168:292|96:328|56:268|72:224,1,270.000010299683,0|8,0:0|0:0,0:0:0:0:
40,68,9391,1,0,0:0:0:0:
200,44,9735,2,0,B|284:36|284:36|368:76|368:76|472:52,1,270.000010299683,0|8,0:0|0:0,0:0:0:0:
456,216,10770,1,0,0:0:0:0:
432,292,10942,1,0,0:2:0:0:
360,328,11115,6,0,P|328:280|144:312,1,270.000010299683,0|8,0:0|0:0,0:0:0:0:
36,192,12149,1,0,0:0:0:0:
145,74,12494,2,0,P|258:134|360:56,1,270.000010299683,0|8,0:0|0:0,0:0:0:0:
248,36,13529,1,0,0:0:0:0:
272,112,13701,1,0,0:2:0:0:
297,196,13873,6,0,B|316:264|316:264|352:240|400:232|468:268|464:338,1,270.000010299683,0|8,0:0|0:0,0:0:0:0:
464,333,14908,1,0,0:0:0:0:
464,333,15253,2,0,P|484:296|456:192,1,135.000005149842
400,60,15770,1,8,3:0:0:0:
400,60,15856,1,0,0:0:0:0:
400,60,15942,1,8,3:0:0:0:
348,168,16115,1,8,3:0:0:0:
252,240,16287,1,8,3:0:0:0:
132,256,16460,1,8,3:0:0:0:
12,248,16632,6,0,P|36:208|4:76,1,180,4|0,0:0|0:0,0:0:0:0:
160,16,17149,1,0,0:0:0:0:
320,40,17322,2,0,L|296:132,1,90,8|0,0:0|0:0,0:0:0:0:
364,276,17667,2,0,L|388:184,1,90
320,40,18011,6,0,P|252:36|152:124,1,180
76,232,18529,1,0,0:0:0:0:
192,344,18701,2,0,P|260:348|360:260,1,180,8|0,0:0|0:0,0:0:0:0:
436,152,19218,1,0,0:0:0:0:
320,40,19391,6,0,B|252:76|252:76|184:48|124:40,1,180
84,187,19908,1,0,0:0:0:0:
204,352,20080,1,8,0:0:0:0:
204,148,20253,1,0,0:0:0:0:
84,313,20425,1,0,0:0:0:0:
278,250,20598,1,0,0:0:0:0:
84,187,20770,6,0,P|76:136|160:44,1,180
256,172,21287,1,0,0:0:0:0:
357,45,21460,2,0,P|425:99|428:187,1,180,8|0,0:0|0:0,0:0:0:0:
336,320,21977,1,0,0:0:0:0:
180,280,22149,6,0,B|120:256|120:256|104:188|44:156,1,180
104,64,22667,1,0,0:0:0:0:
168,152,22839,1,8,0:0:0:0:
408,64,23011,1,0,0:0:0:0:
344,152,23184,1,0,0:0:0:0:
256,16,23356,1,0,0:0:0:0:
256,124,23529,6,0,L|256:320,1,180
96,280,24046,1,0,0:0:0:0:
188,152,24218,2,0,P|256:200|325:151,1,180,8|0,0:0|0:0,0:0:0:0:
256,64,24735,1,0,0:0:0:0:
148,80,24908,6,0,P|108:136|152:228,1,180
292,308,25425,2,0,P|348:292|388:308,1,90,0|8,0:0|0:0,0:0:0:0:
376,83,25770,2,0,P|333:92|292:76,1,90
308,192,26115,1,0,0:0:0:0:
488,192,26287,6,0,L|284:192,1,180
208,64,26804,1,0,0:0:0:0:
176,224,26977,1,2,0:3:0:0:
144,232,27063,1,0,0:0:0:0:
113,229,27149,1,2,0:3:0:0:
84,217,27235,1,0,0:0:0:0:
60,197,27322,1,2,0:3:0:0:
45,170,27408,1,0,0:0:0:0:
38,139,27494,1,2,0:3:0:0:
42,108,27580,1,0,0:0:0:0:
56,84,27667,6,0,P|100:40|168:52,1,135,4|0,2:0|0:0,0:0:0:0:
212,80,28011,1,2,2:0:0:0:
236,184,28184,1,0,0:0:0:0:
340,60,28356,1,10,2:0:0:0:
316,200,28529,1,0,0:0:0:0:
456,116,28701,1,2,2:0:0:0:
456,136,29046,5,2,2:0:0:0:
456,160,29391,2,0,L|436:260,1,90,2|0,2:0|0:0,0:0:0:0:
256,356,29735,2,0,L|256:248,1,90,8|0,2:0|0:0,0:0:0:0:
56,160,30081,2,0,L|88:292,1,135,2|0,2:0|0:0,0:0:0:0:
104,344,30425,6,0,P|148:300|240:316,1,135
272,300,30770,1,2,2:0:0:0:
272,133,30942,1,0,0:0:0:0:
416,216,31115,1,10,2:0:0:0:
200,212,31287,1,0,0:0:0:0:
388,312,31460,1,2,2:0:0:0:
416,312,31804,5,2,2:0:0:0:
448,312,32149,2,0,P|444:264|472:224,1,90,2|0,2:0|0:0,0:0:0:0:
276,216,32494,2,0,P|307:179|355:170,1,90,10|0,2:0|0:0,0:0:0:0:
264,24,32839,2,0,P|312:20|352:48,1,90,2|0,2:0|0:0,0:0:0:0:
412,128,33184,6,0,B|416:168|416:168|404:212|404:212|408:288,1,135
408,316,33529,1,2,2:0:0:0:
256,260,33701,1,0,0:0:0:0:
104,316,33873,1,10,2:0:0:0:
256,350,34046,2,0,L|256:254,1,90,0|2,0:0|2:0,0:0:0:0:
256,236,34563,5,2,2:0:0:0:
256,212,34908,1,2,2:0:0:0:
195,25,35080,1,0,0:0:0:0:
354,140,35253,1,10,2:0:0:0:
157,140,35425,1,0,0:0:0:0:
316,25,35598,2,0,P|360:16|456:76,1,135,2|0,2:0|0:0,0:0:0:0:
456,104,35942,6,0,P|436:184|464:240,1,135
460,284,36287,2,0,L|384:348,1,90,2|0,2:0|0:0,0:0:0:0:
332,252,36632,1,10,2:0:0:0:
52,284,36804,2,0,L|128:348,1,90,0|2,0:0|2:0,0:0:0:0:
180,252,37149,1,0,0:0:0:0:
256,356,37322,6,0,B|264:308|264:308|248:256|248:256|260:176,1,161.999995056153,8|0,0:0|0:0,0:0:0:0:
84,168,37667,2,0,B|132:176|132:176|184:160|184:160|264:172,1,161.999995056153
280,12,38011,2,0,B|272:60|272:60|288:112|288:112|276:192,1,161.999995056153
451,199,38356,2,0,B|403:191|403:191|351:207|351:207|271:195,1,161.999995056153
236,232,38701,5,8,0:0:0:0:
228,244,38787,1,0,0:0:0:0:
219,255,38873,1,8,0:0:0:0:
92,280,39046,2,0,B|64:224|64:224|84:180|52:100,1,161.999995056153,8|0,0:0|0:0,0:0:0:0:
189,102,39391,2,0,B|217:158|217:158|197:202|229:282,1,161.999995056153,8|0,0:0|0:0,0:0:0:0:
364,216,39735,2,0,B|336:160|336:160|356:116|324:36,1,161.999995056153,8|0,0:0|0:0,0:0:0:0:
176,28,40080,6,0,P|124:60|152:168,1,161.999995056153,8|0,0:0|0:0,0:0:0:0:
381,151,40425,2,0,P|396:76|336:28,1,161.999995056153,8|0,0:0|0:0,0:0:0:0:
202,196,40770,2,0,B|184:268|184:268|132:292|96:252,1,161.999995056153,8|0,0:0|0:0,0:0:0:0:
309,196,41115,2,0,B|328:268|328:268|380:292|416:252,1,161.999995056153,8|0,0:0|0:0,0:0:0:0:
460,216,41460,5,8,0:0:0:0:
400,100,41632,1,0,0:0:0:0:
309,196,41804,1,8,0:0:0:0:
52,216,41977,1,0,0:0:0:0:
112,100,42149,1,8,0:0:0:0:
203,196,42322,1,0,0:0:0:0:
256,344,42494,2,0,L|256:220,1,107.999996704102,8|0,0:0|0:0,0:0:0:0:
264,40,42839,6,0,P|206:133|102:97,1,236.250009012223,12|0,0:0|0:0,0:0:0:0:
99,129,43529,1,8,0:3:0:0:
97,164,43615,1,0,0:0:0:0:
102,200,43701,1,8,0:3:0:0:
115,233,43787,1,0,0:0:0:0:
135,263,43873,1,8,0:3:0:0:
162,287,43960,1,0,0:0:0:0:
193,305,44046,1,8,0:3:0:0:
228,316,44132,1,0,0:0:0:0:
264,316,44218,6,0,B|328:264|328:264|456:264,1,202.500007724762,4|0,2:0|0:0,0:0:0:0:
208,256,44908,2,0,L|268:212,1,58.4999973220826,10|0,0:0|0:0,0:0:0:0:
432,184,45080,2,0,L|352:184,1,58.4999973220826,2|0,0:0|0:0,0:0:0:0:
207,148,45253,2,0,P|278:98|364:104,1,175.499991966248,2|0,0:0|0:0,0:0:0:0:
436,96,45598,5,2,0:0:0:0:
240,24,45770,1,0,0:0:0:0:
172,224,45942,1,2,0:0:0:0:
372,288,46115,1,0,0:0:0:0:
312,160,46287,6,0,P|272:92|152:72,1,202.500007724762,8|0,0:0|0:0,0:0:0:0:
125,26,46632,2,0,L|171:223,1,202.500007724762
136,264,46977,6,0,P|156:340|264:336,1,202.500007724762,4|0,0:0|0:0,0:0:0:0:
380,252,47667,2,0,L|456:208,1,58.4999973220826,10|0,0:0|0:0,0:0:0:0:
356,144,47839,2,0,L|378:59,1,58.4999973220826,2|0,0:0|0:0,0:0:0:0:
256,72,48011,2,0,L|212:-4,1,58.4999973220826,2|0,0:0|0:0,0:0:0:0:
148,96,48184,2,0,L|63:73,1,58.4999973220826,2|0,0:0|0:0,0:0:0:0:
112,192,48356,6,0,P|64:232|80:328,1,116.999994644165,2|0,0:0|0:0,0:0:0:0:
260,336,48701,1,2,0:0:0:0:
424,204,48873,1,0,0:0:0:0:
264,64,49046,6,0,P|216:36|260:100,1,202.500007724762,8|0,0:0|0:0,0:0:0:0:
224,76,49391,2,0,P|296:128|232:256,1,202.500007724762
260,272,49736,6,0,L|480:260,1,202.500007724762,4|0,2:0|0:0,0:0:0:0:
456,120,50425,2,0,P|452:92|424:64,1,58.4999973220826,10|0,0:0|0:0,0:0:0:0:
292,40,50598,2,0,P|296:68|324:96,1,58.4999973220826,2|0,0:0|0:0,0:0:0:0:
228,216,50770,2,0,P|224:188|72:160,1,175.499991966248,2|0,0:0|0:0,0:0:0:0:
64,192,51115,6,0,P|68:220|220:248,1,175.499991966248,2|0,0:0|0:0,0:0:0:0:
256,284,51460,1,0,0:0:0:0:
444,192,51632,1,0,0:0:0:0:
284,52,51804,2,0,L|228:16,1,58.4999973220826,10|0,0:0|0:0,0:0:0:0:
56,56,51977,2,0,L|112:20,1,58.4999973220826,2|0,0:0|0:0,0:0:0:0:
288,100,52149,2,0,L|232:64,1,58.4999973220826,2|0,0:0|0:0,0:0:0:0:
60,104,52322,2,0,L|116:68,1,58.4999973220826,2|0,0:0|0:0,0:0:0:0:
176,124,52494,6,0,L|176:256,1,101.250003862381,4|0,0:0|0:0,0:0:0:0:
224,280,52839,2,0,P|232:308|280:332,1,58.4999973220826,8|0,0:0|0:0,0:0:0:0:
332,256,53011,2,0,P|357:270|408:253,1,58.4999973220826,8|0,0:0|0:0,0:0:0:0:
384,164,53184,2,0,P|412:156|436:108,1,58.4999973220826,8|0,0:0|0:0,0:0:0:0:
352,64,53356,2,0,P|366:38|349:-12,1,58.4999973220826,8|0,0:0|0:0,0:0:0:0:
244,40,53529,2,0,P|172:40|220:88,1,175.499991966248,8|0,0:0|0:0,0:0:0:0:
268,140,53873,5,8,0:0:0:0:
260,280,54046,1,0,0:0:0:0:
396,256,54218,2,0,P|384:196|456:112,1,175.499991966248,8|0,0:0|0:0,0:0:0:0:
432,84,54563,1,10,0:0:0:0:
400,68,54649,1,0,0:0:0:0:
364,68,54735,1,2,0:0:0:0:
332,84,54822,1,0,0:0:0:0:
292,160,54908,1,2,0:0:0:0:
260,176,54994,1,0,0:0:0:0:
224,176,55080,1,2,0:0:0:0:
192,160,55167,1,0,0:0:0:0:
140,92,55253,6,0,B|108:148|108:148|116:192|116:192|84:216|76:280,1,202.500007724762,4|0,2:0|0:0,0:0:0:0:
208,328,55943,2,0,P|268:288|328:288,1,116.999994644165,10|0,0:0|0:0,0:0:0:0:
311,99,56287,2,0,P|253:91|208:56,1,116.999994644165,2|0,0:0|0:0,0:0:0:0:
68,80,56632,5,2,0:0:0:0:
32,216,56804,1,0,0:0:0:0:
168,256,56977,1,2,0:0:0:0:
208,120,57149,1,0,0:0:0:0:
248,256,57322,2,0,L|328:248,1,58.4999973220826,10|0,0:0|0:0,0:0:0:0:
488,132,57494,2,0,L|408:140,1,58.4999973220826,2|0,0:0|0:0,0:0:0:0:
244,232,57667,2,0,L|324:224,1,58.4999973220826,2|0,0:0|0:0,0:0:0:0:
484,108,57839,2,0,L|404:116,1,58.4999973220826,2|0,0:0|0:0,0:0:0:0:
240,208,58012,6,0,L|444:176,1,202.500007724762,4|0,0:0|0:0,0:0:0:0:
356,64,58701,2,0,L|320:12,1,58.4999973220826,10|0,0:0|0:0,0:0:0:0:
304,64,58873,2,0,L|268:12,1,58.4999973220826,2|0,0:0|0:0,0:0:0:0:
252,64,59046,2,0,L|216:12,1,58.4999973220826,2|0,0:0|0:0,0:0:0:0:
200,64,59218,2,0,L|164:12,1,58.4999973220826,2|0,0:0|0:0,0:0:0:0:
96,20,59391,6,0,P|60:84|76:128,1,116.999994644165,2|0,0:0|0:0,0:0:0:0:
116,344,59735,2,0,P|152:280|136:236,1,116.999994644165,2|0,0:0|0:0,0:0:0:0:
324,112,60081,6,0,P|228:90|151:151,1,202.500007724762,8|0,0:0|0:0,0:0:0:0:
256,208,60425,2,0,P|351:229|428:168,1,202.500007724762
491,69,60770,6,0,P|396:46|324:112,1,202.500007724762,4|0,2:0|0:0,0:0:0:0:
256,312,61460,1,2,0:0:0:0:
192,112,61632,1,0,0:0:0:0:
388,236,61804,1,10,0:0:0:0:
124,236,61977,1,0,0:0:0:0:
256,64,62149,6,0,B|340:40|340:40|464:56,1,175.499991966248,2|0,0:0|0:0,0:0:0:0:
456,56,62494,2,0,P|424:104|420:172,1,116.999994644165,2|0,0:0|0:0,0:0:0:0:
352,280,62839,6,0,B|288:248|256:280|224:312|158:269,1,202.500007724762,10|0,0:0|0:0,0:0:0:0:
256,192,63529,12,2,64908,3:0:0:0:
212,76,65167,6,0,B|256:60|300:76,1,90.0000034332277,2|0,3:0|0:0,0:0:0:0:
176,244,65598,2,0,L|208:208,1,45.0000017166138,2|0,3:0|0:0,0:0:0:0:
336,140,65856,2,0,L|304:176,1,45.0000017166138,2|0,3:0|0:0,0:0:0:0:
136,248,66115,2,0,L|168:212,1,45.0000017166138,2|0,3:0|0:0,0:0:0:0:
376,136,66287,6,0,B|336:188|336:188|328:248|328:248|272:320,1,202.500007724762,4|0,2:0|0:0,0:0:0:0:
76,352,66977,2,0,P|116:336|148:340,1,58.4999973220826,10|0,0:0|0:0,0:0:0:0:
15,177,67149,2,0,P|55:194|74:220,1,58.4999973220826,2|0,0:0|0:0,0:0:0:0:
96,12,67322,2,0,P|144:48|132:136,1,116.999994644165,2|0,0:0|0:0,0:0:0:0:
256,196,67667,6,0,P|304:276|416:216,1,233.999989288331,2|0,0:0|0:0,0:0:0:0:
356,100,68184,1,0,0:0:0:0:
256,196,68356,2,0,P|208:116|108:136,1,202.500007724762,10|0,0:0|0:0,0:0:0:0:
154,229,69046,6,0,B|96:276|96:276|168:292|184:357,1,202.500007724762,4|0,0:0|0:0,0:0:0:0:
324,340,69735,2,0,L|384:308,1,58.4999973220826,10|0,0:0|0:0,0:0:0:0:
407,200,69908,2,0,L|347:232,1,58.4999973220826,2|0,0:0|0:0,0:0:0:0:
232,188,70080,2,0,L|292:156,1,58.4999973220826,2|0,0:0|0:0,0:0:0:0:
315,48,70253,2,0,L|255:80,1,58.4999973220826,2|0,0:0|0:0,0:0:0:0:
192,112,70425,5,2,0:0:0:0:
164,320,70598,1,0,0:0:0:0:
268,136,70770,1,2,0:0:0:0:
244,344,70942,1,0,0:0:0:0:
192,112,71115,6,0,P|144:84|188:148,1,202.500007724762,8|0,0:0|0:0,0:0:0:0:
152,124,71460,2,0,P|224:176|160:304,1,202.500007724762
188,320,71805,6,0,L|408:308,1,202.500007724762,4|0,2:0|0:0,0:0:0:0:
228,196,72494,2,0,L|302:191,1,58.4999973220826,10|0,0:0|0:0,0:0:0:0:
455,257,72667,2,0,L|387:213,1,58.4999973220826,2|0,0:0|0:0,0:0:0:0:
285,104,72839,2,2,P|371:100|440:152,1,175.499991966248,2|2,0:0|0:0,0:0:0:0:
506,185,73184,5,2,0:0:0:0:
364,28,73356,1,0,0:0:0:0:
256,208,73529,1,2,0:0:0:0:
114,51,73701,1,0,0:0:0:0:
16,236,73873,2,0,P|44:276|48:316,1,58.4999973220826,10|0,0:0|0:0,0:0:0:0:
172,312,74046,2,0,P|144:272|140:232,1,58.4999973220826,2|0,0:0|0:0,0:0:0:0:
212,176,74218,2,0,P|240:216|244:256,1,58.4999973220826,2|0,0:0|0:0,0:0:0:0:
368,252,74391,2,0,P|340:212|336:172,1,58.4999973220826,2|0,0:0|0:0,0:0:0:0:
364,96,74563,6,0,P|424:128|360:252,1,233.999989288331,0|8,0:0|0:0,0:0:0:0:
348,88,75080,1,0,0:0:0:0:
304,316,75253,1,8,0:0:0:0:
332,80,75425,1,0,0:0:0:0:
216,308,75598,1,8,0:0:0:0:
320,72,75770,1,0,0:0:0:0:
140,256,75942,6,0,B|104:220|104:220|36:212,1,116.999994644165,8|0,0:0|0:0,0:0:0:0:
160,40,76287,2,0,L|204:148,1,116.999994644165,8|0,0:0|0:0,0:0:0:0:
372,256,76632,2,0,B|408:220|408:220|473:212,1,116.999994644165,8|8,0:0|0:0,0:0:0:0:
352,40,76977,2,0,L|308:148,1,116.999994644165,8|8,0:0|0:0,0:0:0:0:
252,296,77322,6,0,B|188:264|156:296|124:328|58:285,1,202.500007724762,4|0,2:0|0:0,0:0:0:0:
64,144,78012,2,0,L|28:96,1,58.4999973220826,10|0,0:0|0:0,0:0:0:0:
176,116,78184,2,0,L|184:56,1,58.4999973220826,2|0,0:0|0:0,0:0:0:0:
260,176,78356,2,0,L|346:98,1,116.999994644165,2|0,0:0|0:0,0:0:0:0:
396,229,78701,5,2,0:0:0:0:
206,105,78874,1,0,0:0:0:0:
288,318,79046,1,2,0:0:0:0:
347,97,79218,1,0,0:0:0:0:
169,240,79391,2,0,P|100:244|36:124,1,202.500007724762,10|0,0:0|0:0,0:0:0:0:
128,152,80081,6,0,L|24:332,1,202.500007724762,4|0,0:0|0:0,0:0:0:0:
164,352,80770,2,0,L|200:296,1,58.4999973220826,10|0,0:0|0:0,0:0:0:0:
320,352,80943,2,0,L|305:286,1,58.4999973220826,2|0,0:0|0:0,0:0:0:0:
428,244,81115,2,0,L|372:208,1,58.4999973220826,2|0,0:0|0:0,0:0:0:0:
428,88,81288,2,0,L|362:102,1,58.4999973220826,2|0,0:0|0:0,0:0:0:0:
284,8,81460,6,0,P|256:76|112:60,1,233.999989288331,2|2,0:0|0:0,0:0:0:0:
36,180,81977,1,0,0:0:0:0:
124,288,82149,6,0,P|208:252|292:356,1,202.500007724762,8|0,0:0|0:0,0:0:0:0:
200,340,82494,2,0,L|248:128,1,202.500007724762
168,104,82839,6,0,P|220:60|332:136,1,202.500007724762,4|0,0:0|0:0,0:0:0:0:
328,256,83529,2,0,P|320:288|296:316,1,58.4999973220826,10|0,0:0|0:0,0:0:0:0:
184,256,83701,2,0,P|192:288|216:316,1,58.4999973220826,2|0,0:0|0:0,0:0:0:0:
256,184,83874,2,0,L|256:0,1,175.499991966248,2|0,0:0|0:0,0:0:0:0:
176,16,84218,6,0,P|200:64|336:32,1,202.500007724762,4|0,0:0|0:0,0:0:0:0:
392,104,84908,2,0,L|312:160,1,58.4999973220826,10|0,0:0|0:0,0:0:0:0:
108,68,85081,2,0,L|148:124,1,58.4999973220826,2|0,0:0|0:0,0:0:0:0:
412,152,85253,2,0,L|344:152,1,67.5000025749208,2|0,0:0|0:0,0:0:0:0:
80,112,85425,2,0,L|136:128,1,58.4999973220826,2|0,0:0|0:0,0:0:0:0:
240,200,85598,6,0,P|236:284|368:304,1,233.999989288331,4|8,0:0|0:0,0:0:0:0:
440,192,86115,1,0,0:0:0:0:
352,40,86287,1,8,0:0:0:0:
72,192,86460,1,0,0:0:0:0:
160,40,86632,1,8,0:0:0:0:
256,232,86805,1,0,0:0:0:0:
256,56,86977,5,8,0:0:0:0:
256,192,87063,12,4,88356,2:0:0:0:
