osu file format v14

[General]
AudioFilename: audio.mp3
AudioLeadIn: 0
PreviewTime: -1
Countdown: 1
SampleSet: Normal
StackLeniency: 0.7
Mode: 0
LetterboxInBreaks: 0
WidescreenStoryboard: 0

[Editor]
DistanceSpacing: 1
BeatDivisor: 4
GridSize: 16
TimelineZoom: 3.299999

[Metadata]
Title:Fortnite
TitleUnicode:Fortnite
Artist:Spaceman
ArtistUnicode:Spaceman
Creator:spookem
Version:hit that chug jug hit that chug jug hit it!
Source:Fortnite
Tags:fortnite chug jug parody hip hop rap game dt
BeatmapID:1754206
BeatmapSetID:837843

[Difficulty]
HPDrainRate:5.4
CircleSize:4
OverallDifficulty:8
ApproachRate:9.3
SliderMultiplier:2.8
SliderTickRate:1

[Events]
//Background and Video events
0,0,"chug.jpg",0,0
//Break Periods
//Storyboard Layer 0 (Background)
//Storyboard Layer 1 (Fail)
//Storyboard Layer 2 (Pass)
//Storyboard Layer 3 (Foreground)
//Storyboard Sound Samples

[TimingPoints]
403,375,4,1,0,44,1,0
14653,-100,4,1,0,44,0,1
20653,-100,4,1,0,44,0,0
26653,-100,4,1,0,44,0,1
27028,-100,4,1,0,44,0,0
35653,-100,4,1,0,44,0,1
36215,-100,4,1,0,44,0,0
38653,-100,4,1,0,44,0,1
51028,-100,4,1,0,44,0,0

[HitObjects]
256,192,403,12,0,2278,0:0:0:0:
459,354,2653,6,0,L|289:344,1,140,8|0,0:0|0:0,0:0:0:0:
425,148,3028,1,0,0:0:0:0:
251,232,3215,1,0,0:0:0:0:
161,80,3403,2,0,P|236:48|318:77,1,140,2|0,0:0|0:0,0:0:0:0:
246,310,3778,2,0,B|162:346|109:252|18:301,1,210,8|0,0:0|0:0,0:0:0:0:
6,310,4153,6,0,P|24:221|7:142,1,140,8|0,0:0|0:0,0:0:0:0:
73,384,4528,1,0,0:0:0:0:
336,352,4715,1,0,0:0:0:0:
217,190,4903,5,2,0:0:0:0:
464,245,5090,1,0,0:0:0:0:
365,23,5278,2,0,B|313:-2|228:12|199:65|199:65|205:120,1,210,8|0,0:0|0:0,0:0:0:0:
206,123,5653,6,0,P|128:107|38:140,1,140,8|0,0:0|0:0,0:0:0:0:
125,317,6028,1,0,0:0:0:0:
256,208,6215,1,0,0:0:0:0:
427,299,6403,1,2,0:0:0:0:
512,115,6590,1,0,0:0:0:0:
191,283,6778,6,0,B|143:238|152:154|196:126|196:126|275:118,1,210,8|0,0:0|0:0,0:0:0:0:
260,122,7153,1,8,0:0:0:0:
0,258,7340,1,0,0:0:0:0:
325,290,7528,1,0,0:0:0:0:
89,43,7715,1,0,0:0:0:0:
138,374,7903,1,2,0:0:0:0:
298,85,8090,1,0,0:0:0:0:
371,332,8278,2,0,B|418:381|418:381|445:355|445:355|477:374|477:374|510:304,1,210,8|0,0:0|0:0,0:0:0:0:
425,231,8653,6,0,B|392:239|354:218|354:218|312:215|279:244,1,140,8|0,0:0|0:0,0:0:0:0:
187,374,9028,1,0,0:0:0:0:
29,192,9215,2,0,P|84:155|184:175,1,140,8|2,0:0|0:0,0:0:0:0:
211,272,9590,5,0,0:0:0:0:
305,17,9778,1,8,0:0:0:0:
418,128,9965,1,0,0:0:0:0:
181,29,10153,2,0,P|146:96|164:176,1,140,8|0,0:0|0:0,0:0:0:0:
296,265,10528,1,0,0:0:0:0:
154,157,10715,6,0,P|85:153|3:240,1,140,8|2,0:0|0:0,0:0:0:0:
139,383,11090,1,0,0:0:0:0:
389,212,11278,2,0,B|433:217|433:217|469:263|447:351|387:367,1,210,8|0,0:0|0:0,0:0:0:0:
369,358,11653,2,0,P|299:327|205:346,1,140,8|0,0:0|0:0,0:0:0:0:
71,262,12028,1,0,0:0:0:0:
168,374,12215,1,8,0:0:0:0:
238,199,12403,1,2,0:0:0:0:
32,354,12590,1,0,0:0:0:0:
311,335,12778,1,0,0:0:0:0:
77,138,12965,1,0,0:0:0:0:
367,238,13153,6,0,P|391:202|375:92,1,140,8|0,0:0|0:0,0:0:0:0:
228,131,13528,1,0,0:0:0:0:
93,288,13715,2,0,B|49:247|59:199|59:199|85:177|93:153,1,140,8|2,0:0|0:0,0:0:0:0:
226,41,14090,1,0,0:0:0:0:
452,283,14278,2,0,B|459:213|459:213|426:150|426:150|431:72,1,210,8|0,0:0|0:0,0:0:0:0:
432,50,14653,5,12,0:0:0:0:
356,262,14840,1,0,0:0:0:0:
148,101,15028,2,0,B|193:97|193:97|193:89|193:89|194:97|194:97|286:89,1,140,12|0,0:0|0:0,0:0:0:0:
412,361,15403,2,0,P|340:381|219:290,1,210,10|0,0:0|0:0,0:0:0:0:
339,251,15778,5,12,0:0:0:0:
97,290,15965,1,0,0:0:0:0:
305,112,16153,2,0,B|349:97|349:97|445:113,1,140,12|0,0:0|0:0,0:0:0:0:
230,315,16528,2,0,P|158:335|37:244,1,210,12|0,0:0|0:0,0:0:0:0:
159,206,16903,5,10,0:0:0:0:
4,384,17090,1,0,0:0:0:0:
249,108,17278,5,0,0:0:0:0:
298,314,17465,1,0,0:0:0:0:
479,71,17653,5,12,0:0:0:0:
430,277,17840,1,0,0:0:0:0:
286,54,18028,2,0,B|245:52|245:52|245:44|245:44|245:52|245:52|176:50|176:50|123:69,1,140,12|0,0:0|0:0,0:0:0:0:
10,203,18403,2,0,B|96:259|114:152|230:228,1,210,10|0,0:0|0:0,0:0:0:0:
152,317,18778,5,12,0:0:0:0:
366,191,18965,1,0,0:0:0:0:
478,313,19153,2,0,B|492:209|492:209|483:133,1,140,12|0,0:0|0:0,0:0:0:0:
255,138,19528,2,0,P|199:145|99:70,1,140,12|0,0:0|0:0,0:0:0:0:
213,24,19903,5,10,0:0:0:0:
328,272,20090,1,0,0:0:0:0:
411,160,20278,1,0,0:0:0:0:
180,241,20465,1,0,0:0:0:0:
373,65,20653,6,0,B|419:61|419:61|464:68|498:99|508:166,1,140,8|0,0:0|0:0,0:0:0:0:
382,306,21028,1,0,0:0:0:0:
260,135,21215,1,0,0:0:0:0:
65,339,21403,2,0,P|23:271|67:124,1,210,2|0,0:0|0:0,0:0:0:0:
74,135,21778,6,0,L|219:143,1,140,8|0,0:0|0:0,0:0:0:0:
353,42,22153,5,8,0:0:0:0:
139,64,22340,1,0,0:0:0:0:
408,262,22528,5,0,0:0:0:0:
208,215,22715,1,0,0:0:0:0:
479,153,22903,2,0,B|513:197|513:197|504:304,1,140,2|0,0:0|0:0,0:0:0:0:
214,338,23278,1,0,0:0:0:0:
416,380,23465,1,0,0:0:0:0:
277,249,23653,6,0,P|195:234|118:283,1,140,8|0,0:0|0:0,0:0:0:0:
363,337,24028,2,0,P|394:268|366:161,1,140
193,101,24403,2,0,B|225:111|225:111|237:99|237:99|295:95|295:95|297:104|297:104|295:95|295:95|415:88,1,210,2|0,0:0|0:0,0:0:0:0:
477,138,24778,1,0,0:0:0:0:
295,0,24965,1,0,0:0:0:0:
93,245,25153,6,0,P|89:173|110:98,1,140,8|0,0:0|0:0,0:0:0:0:
339,331,25528,2,0,P|343:259|322:184,1,140,8|0,0:0|0:0,0:0:0:0:
154,335,25903,1,12,0:0:0:0:
222,110,26090,1,0,0:0:0:0:
12,251,26278,1,12,0:0:0:0:
305,352,26465,1,0,0:0:0:0:
338,77,26653,6,0,P|230:16|83:96,1,280,12|0,0:0|0:0,0:0:0:0:
139,310,27215,1,0,0:0:0:0:
353,181,27403,2,0,B|244:168|244:168|183:187,1,140,10|0,0:0|0:0,0:0:0:0:
354,291,27778,1,8,0:0:0:0:
430,97,27965,1,0,0:0:0:0:
427,358,28153,6,0,P|340:388|270:347,1,140
60,314,28528,2,0,P|147:344|217:303,1,140,8|0,0:0|0:0,0:0:0:0:
311,37,28903,2,0,B|249:-6|133:22|108:93|108:93|132:182,1,280,10|0,0:0|0:0,0:0:0:0:
302,284,29465,1,0,0:0:0:0:
507,165,29653,6,0,P|442:123|353:150,1,140,8|0,0:0|0:0,0:0:0:0:
266,314,30028,1,0,0:0:0:0:
75,173,30215,1,0,0:0:0:0:
0,353,30403,2,0,P|102:358|175:264,1,210,10|0,0:0|0:0,0:0:0:0:
168,252,30778,6,0,B|180:213|180:213|173:105,1,140,8|0,0:0|0:0,0:0:0:0:
307,34,31153,5,0,0:0:0:0:
71,124,31340,1,8,0:0:0:0:
363,237,31528,5,8,0:0:0:0:
163,212,31715,1,0,0:0:0:0:
473,153,31903,2,0,B|508:188|518:268|481:316|481:316|428:318,1,210,10|0,0:0|0:0,0:0:0:0:
321,263,32278,1,0,0:0:0:0:
402,58,32465,1,0,0:0:0:0:
209,338,32653,6,0,P|171:236|299:101,1,280,8|0,0:0|0:0,0:0:0:0:
94,67,33215,1,0,0:0:0:0:
328,45,33403,2,0,B|381:51|381:51|415:33|415:33|476:38,1,140,10|0,0:0|0:0,0:0:0:0:
266,210,33778,5,8,0:0:0:0:
512,150,33965,1,0,0:0:0:0:
459,344,34153,2,0,P|375:309|292:349,1,140,0|8,0:0|0:0,0:0:0:0:
174,384,34528,2,0,P|122:308|-9:304,1,210
0,310,34903,6,0,P|86:282|121:194,1,140,10|0,0:0|0:0,0:0:0:0:
66,72,35278,1,8,0:0:0:0:
236,293,35465,1,0,0:0:0:0:
480,175,35653,6,0,P|419:60|152:85,1,420,14|0,0:0|0:0,0:0:0:0:
367,260,36403,2,0,P|375:182|332:123,1,140,2|0,0:0|0:0,0:0:0:0:
185,282,36778,5,8,0:0:0:0:
458,333,36965,1,0,0:0:0:0:
242,183,37153,5,8,0:0:0:0:
194,367,37340,1,0,0:0:0:0:
30,91,37528,5,8,0:0:0:0:
73,317,37715,1,0,0:0:0:0:
386,80,37903,2,0,B|401:220|282:183|290:340,1,280,10|0,0:0|0:0,0:0:0:0:
464,283,38465,1,0,0:0:0:0:
228,85,38653,6,0,P|143:88|69:152,1,140,12|0,0:0|0:0,0:0:0:0:
146,352,39028,5,0,0:0:0:0:
184,181,39215,1,0,0:0:0:0:
329,276,39403,2,0,B|355:219|355:219|341:56,1,210,10|0,0:0|0:0,0:0:0:0:
224,91,39778,5,12,0:0:0:0:
467,118,39965,1,0,0:0:0:0:
155,0,40153,2,0,P|120:64|133:162,1,140,12|0,0:0|0:0,0:0:0:0:
342,72,40528,5,12,0:0:0:0:
305,313,40715,1,0,0:0:0:0:
61,234,40903,2,0,B|106:237|106:237|139:221|139:221|196:226,1,140,10|0,0:0|0:0,0:0:0:0:
485,117,41278,2,0,P|427:91|302:170,1,210,12|0,0:0|0:0,0:0:0:0:
393,252,41653,5,12,0:0:0:0:
107,118,41840,1,0,0:0:0:0:
151,255,42028,2,0,B|191:279|191:279|341:273,1,140,12|0,0:0|0:0,0:0:0:0:
272,5,42403,2,0,P|164:12|117:62,1,140,10|0,0:0|0:0,0:0:0:0:
309,153,42778,5,12,0:0:0:0:
66,206,42965,1,0,0:0:0:0:
223,335,43153,2,0,L|369:342,1,140,12|0,0:0|0:0,0:0:0:0:
171,146,43528,2,0,B|132:187|123:257|158:311|158:311|251:326,1,210,12|0,0:0|0:0,0:0:0:0:
260,232,43903,5,10,0:0:0:0:
37,289,44090,1,0,0:0:0:0:
318,128,44278,5,10,0:0:0:0:
115,63,44465,1,0,0:0:0:0:
454,108,44653,1,14,0:0:0:0:
256,192,44746,12,14,51028,0:0:0:0:
