osu file format v14

[General]
AudioFilename: audio.mp3
AudioLeadIn: 0
PreviewTime: 262971
Countdown: 0
SampleSet: Soft
StackLeniency: 0.7
Mode: 0
LetterboxInBreaks: 0
WidescreenStoryboard: 0

[Editor]
Bookmarks: 3638,3860,17860,32082,39194,53416,67638,74749,81860,96082,110305,124527,129860,142305,149416,156971,163638,170749,177860,184971,192082,199194,206305,220527,227638,234749,241860,248971,256082,263194,270305,277416,284527,289860,292082,298749,305860,312971,320082
DistanceSpacing: 0.5
BeatDivisor: 8
GridSize: 4
TimelineZoom: 2.999999

[Metadata]
Title:Little Little wish
TitleUnicode:Little Little wish
Artist:Spacelectro feat.Setsunan
ArtistUnicode:Spacelectro feat.薛南
Creator:Starfy
Version:Desire
Source:東方Project
Tags:starforyou c87 complextro electro あおまふ aomafu 東方ボーカルEDM2 vocal 東方プロジェクト touhou 東方輝針城 〜 Double Dealing Character. 少名針妙丸 Sukuna Shinmyoumaru 輝く針の小人族 ~ Little Princess Kobito of the Shining Needle 東方地霊殿 〜 Subterranean Animism. 古明地 こいし Koishi Komeiji ハルトマンの妖怪少女 Hartmann's Youkai Girl
BeatmapID:1121510
BeatmapSetID:528824

[Difficulty]
HPDrainRate:6.5
CircleSize:4.6
OverallDifficulty:8
ApproachRate:9.6
SliderMultiplier:2.4
SliderTickRate:2

[Events]
//Background and Video events
0,0,"bg.jpg",0,0
//Break Periods
2,39394,51638
2,210060,219638
//Storyboard Layer 0 (Background)
//Storyboard Layer 1 (Fail)
//Storyboard Layer 2 (Pass)
//Storyboard Layer 3 (Foreground)
//Storyboard Sound Samples

[TimingPoints]
83,444.444444444444,4,2,1,10,1,0
83,-400,4,2,1,10,0,0
527,-400,4,2,1,15,0,0
971,-400,4,2,1,20,0,0
1416,-400,4,2,1,25,0,0
1860,-400,4,2,1,30,0,0
2305,-400,4,2,1,35,0,0
2749,-400,4,2,1,40,0,0
3194,-400,4,2,1,45,0,0
3527,-400,4,2,1,5,0,0
3638,-400,4,2,1,60,0,0
3860,-400,4,2,1,40,0,0
52971,-133.333333333333,4,2,1,60,0,0
53138,-133.333333333333,4,2,1,20,0,0
53194,-133.333333333333,4,2,1,60,0,0
53360,-133.333333333333,4,2,1,20,0,0
53416,-133.333333333333,4,2,1,60,0,0
54305,-100,4,2,1,60,0,0
55638,-133.333333333333,4,2,1,60,0,0
56082,-100,4,2,1,60,0,0
56971,-133.333333333333,4,2,1,60,0,0
57860,-100,4,2,1,60,0,0
59194,-133.333333333333,4,2,1,60,0,0
59638,-100,4,2,1,60,0,0
60194,-200,4,2,1,60,0,0
60527,-133.333333333333,4,2,1,60,0,0
61416,-100,4,2,1,60,0,0
62749,-133.333333333333,4,2,1,60,0,0
63194,-100,4,2,1,60,0,0
64082,-133.333333333333,4,2,1,60,0,0
67638,-80,4,2,1,80,0,1
67805,-80,4,2,1,20,0,1
67860,-80,4,2,1,80,0,1
68027,-80,4,2,1,20,0,1
68082,-80,4,2,1,80,0,1
68360,-80,4,2,1,20,0,1
68416,-80,4,2,1,80,0,1
68471,-80,4,2,1,20,0,1
68527,-80,4,2,1,80,0,1
69805,-80,4,2,1,20,0,1
69860,-80,4,2,1,80,0,1
70027,-80,4,2,1,20,0,1
70082,-80,4,2,1,80,0,1
70471,-80,4,2,1,20,0,1
70527,-80,4,2,1,80,0,1
70694,-80,4,2,1,20,0,1
70749,-80,4,2,1,80,0,1
71027,-80,4,2,1,20,0,1
71082,-80,4,2,1,80,0,1
71138,-80,4,2,1,20,0,1
71194,-80,4,2,1,80,0,1
71694,-80,4,2,1,20,0,1
71749,-80,4,2,1,80,0,1
71805,-80,4,2,1,20,0,1
71860,-80,4,2,1,80,0,1
71916,-80,4,2,1,20,0,1
71971,-80,4,2,1,80,0,1
72027,-80,4,2,1,20,0,1
72082,-80,4,2,1,80,0,1
73138,-80,4,2,1,20,0,1
73194,-80,4,2,1,80,0,1
73694,-80,4,2,1,20,0,1
73749,-80,4,2,1,80,0,1
73805,-80,4,2,1,20,0,1
73860,-80,4,2,1,80,0,1
74027,-80,4,2,1,20,0,1
74082,-80,4,2,1,80,0,1
74138,-80,4,2,1,20,0,1
74194,-80,4,2,1,80,0,1
74249,-80,4,2,1,20,0,1
74305,-80,4,2,1,80,0,1
74916,-80,4,2,1,20,0,1
74971,-80,4,2,1,80,0,1
75138,-80,4,2,1,20,0,1
75194,-80,4,2,1,80,0,1
75471,-80,4,2,1,20,0,1
75527,-80,4,2,1,80,0,1
75582,-80,4,2,1,20,0,1
75638,-80,4,2,1,80,0,1
76916,-80,4,2,1,20,0,1
76971,-80,4,2,1,80,0,1
77138,-80,4,2,1,20,0,1
77194,-80,4,2,1,80,0,1
77582,-80,4,2,1,20,0,1
77638,-80,4,2,1,80,0,1
77805,-80,4,2,1,20,0,1
77860,-80,4,2,1,80,0,1
80082,-133.333333333333,4,2,1,80,0,0
81416,-66.6666666666667,4,2,1,80,0,0
81860,-133.333333333333,4,2,1,60,0,0
95194,-200,4,2,1,60,0,0
95416,-200,4,2,0,60,0,0
96082,-133.333333333333,4,2,1,70,0,0
109860,-100,4,2,1,70,0,0
110305,-100,4,2,1,70,0,0
126194,-100,4,2,1,5,0,0
126305,-100,4,2,1,70,0,0
126360,-100,4,2,1,20,0,0
126527,-100,4,2,1,70,0,0
126582,-100,4,2,1,20,0,0
126749,-100,4,2,1,70,0,0
126805,-100,4,2,1,20,0,0
126971,-100,4,2,1,70,0,0
127027,-100,4,2,1,20,0,0
127194,-100,4,2,1,70,0,0
127249,-100,4,2,1,20,0,0
127416,-100,4,2,1,70,0,0
127471,-100,4,2,1,20,0,0
127638,-66.6666666666667,4,2,1,70,0,0
128082,-133.333333333333,4,2,1,70,0,0
128971,-100,4,2,1,70,0,0
129860,-100,4,2,1,80,0,1
131360,-100,4,2,1,20,0,1
131416,-100,4,2,1,80,0,1
136694,-100,4,2,1,20,0,1
136749,-100,4,2,1,80,0,1
140527,-133.333333333333,4,2,1,80,0,0
142305,-80,4,2,1,80,0,1
142471,-80,4,2,1,20,0,1
142527,-80,4,2,1,80,0,1
142694,-80,4,2,1,20,0,1
142749,-80,4,2,1,80,0,1
143027,-80,4,2,1,20,0,1
143082,-80,4,2,1,80,0,1
143138,-80,4,2,1,20,0,1
143194,-80,4,2,1,80,0,1
144471,-80,4,2,1,20,0,1
144527,-80,4,2,1,80,0,1
144694,-80,4,2,1,20,0,1
144749,-80,4,2,1,80,0,1
145138,-80,4,2,1,20,0,1
145194,-80,4,2,1,80,0,1
145360,-80,4,2,1,20,0,1
145416,-80,4,2,1,80,0,1
145694,-80,4,2,1,20,0,1
145749,-80,4,2,1,80,0,1
145805,-80,4,2,1,20,0,1
145860,-80,4,2,1,80,0,1
146360,-80,4,2,1,20,0,1
146416,-80,4,2,1,80,0,1
146471,-80,4,2,1,20,0,1
146527,-80,4,2,1,80,0,1
146582,-80,4,2,1,20,0,1
146638,-80,4,2,1,80,0,1
146694,-80,4,2,1,20,0,1
146749,-80,4,2,1,80,0,1
147805,-80,4,2,1,20,0,1
147860,-80,4,2,1,80,0,1
148360,-80,4,2,1,20,0,1
148416,-80,4,2,1,80,0,1
148471,-80,4,2,1,20,0,1
148527,-80,4,2,1,80,0,1
148694,-80,4,2,1,20,0,1
148749,-80,4,2,1,80,0,1
148805,-80,4,2,1,20,0,1
148860,-80,4,2,1,80,0,1
148916,-80,4,2,1,20,0,1
148971,-80,4,2,1,80,0,1
149582,-80,4,2,1,20,0,1
149638,-80,4,2,1,80,0,1
149805,-80,4,2,1,20,0,1
149860,-80,4,2,1,80,0,1
150138,-80,4,2,1,20,0,1
150194,-80,4,2,1,80,0,1
150249,-80,4,2,1,20,0,1
150305,-80,4,2,1,80,0,1
151582,-80,4,2,1,20,0,1
151638,-80,4,2,1,80,0,1
151805,-80,4,2,1,20,0,1
151860,-80,4,2,1,80,0,1
152249,-80,4,2,1,20,0,1
152305,-80,4,2,1,80,0,1
152471,-80,4,2,1,20,0,1
152527,-80,4,2,1,80,0,1
153471,-80,4,2,1,20,0,1
153527,-80,4,2,1,80,0,1
153582,-80,4,2,1,20,0,1
153638,-80,4,2,1,80,0,1
153694,-80,4,2,1,20,0,1
153749,-80,4,2,1,80,0,1
153805,-80,4,2,1,20,0,1
153860,-80,4,2,1,80,0,1
154749,-133.333333333333,4,2,1,70,0,0
156082,-66.6666666666667,4,2,1,80,0,0
156471,-66.6666666666667,4,2,1,20,0,0
156527,-200,4,2,0,80,0,0
156971,-80,4,2,1,80,0,1
158694,-80,4,2,1,20,0,1
158749,-80,4,2,1,80,0,1
158916,-80,4,2,1,20,0,1
158971,-80,4,2,1,80,0,1
159360,-80,4,2,1,20,0,1
159416,-80,4,2,1,80,0,1
159582,-80,4,2,1,20,0,1
159638,-80,4,2,1,80,0,1
159916,-80,4,2,1,20,0,1
159971,-80,4,2,1,80,0,1
160027,-80,4,2,1,20,0,1
160082,-80,4,2,1,80,0,1
160582,-80,4,2,1,20,0,1
160638,-80,4,2,1,80,0,1
160694,-80,4,2,1,20,0,1
160749,-80,4,2,1,80,0,1
160805,-80,4,2,1,20,0,1
160860,-80,4,2,1,80,0,1
160916,-80,4,2,1,20,0,1
160971,-80,4,2,1,80,0,1
162027,-80,4,2,1,20,0,1
162082,-80,4,2,1,80,0,1
162582,-80,4,2,1,20,0,1
162638,-80,4,2,1,80,0,1
162694,-80,4,2,1,20,0,1
162749,-80,4,2,1,80,0,1
162916,-80,4,2,1,20,0,1
162971,-80,4,2,1,80,0,1
163027,-80,4,2,1,20,0,1
163082,-80,4,2,1,80,0,1
163138,-80,4,2,1,20,0,1
163194,-80,4,2,1,80,0,1
163805,-80,4,2,1,20,0,1
163860,-80,4,2,1,80,0,1
164027,-80,4,2,1,20,0,1
164082,-80,4,2,1,80,0,1
164360,-80,4,2,1,20,0,1
164416,-80,4,2,1,80,0,1
164471,-80,4,2,1,20,0,1
164527,-80,4,2,1,80,0,1
165805,-80,4,2,1,20,0,1
165860,-80,4,2,1,80,0,1
166027,-80,4,2,1,20,0,1
166082,-80,4,2,1,80,0,1
166471,-80,4,2,1,20,0,1
166527,-80,4,2,1,80,0,1
166694,-80,4,2,1,20,0,1
166749,-80,4,2,1,80,0,1
168971,-133.333333333333,4,2,1,80,0,0
170305,-66.6666666666667,4,2,1,80,0,0
170749,-100,4,2,1,70,0,0
176249,-100,4,2,1,20,0,0
176305,-100,4,2,1,70,0,0
184249,-100,4,2,1,20,0,0
184305,-100,4,2,1,70,0,0
184471,-100,4,2,1,20,0,0
184527,-100,4,2,1,70,0,0
184971,-86.9565217391304,4,2,1,70,0,0
185138,-86.9565217391304,4,2,1,20,0,0
185194,-86.9565217391304,4,2,1,70,0,0
185360,-86.9565217391304,4,2,1,20,0,0
185416,-86.9565217391304,4,2,1,70,0,0
188694,-86.9565217391304,4,2,1,20,0,0
188749,-86.9565217391304,4,2,1,70,0,0
188916,-86.9565217391304,4,2,1,20,0,0
188971,-86.9565217391304,4,2,1,70,0,0
189416,-133.333333333333,4,2,1,70,0,0
190082,-86.9565217391304,4,2,1,70,0,0
190471,-86.9565217391304,4,2,1,20,0,0
190527,-86.9565217391304,4,2,1,70,0,0
197416,-86.9565217391304,4,2,1,60,0,0
199194,-100,4,2,1,55,0,0
202749,-100,4,2,1,50,0,0
203194,-100,4,2,1,45,0,0
203638,-100,4,2,1,40,0,0
204082,-100,4,2,1,35,0,0
204527,-100,4,2,1,30,0,0
205527,-100,4,2,1,35,0,0
205638,-100,4,2,1,40,0,0
205749,-100,4,2,1,45,0,0
205860,-100,4,2,1,50,0,0
206305,-100,4,2,1,55,0,0
209860,-100,4,2,1,5,0,0
220527,-200,4,2,1,55,0,0
234082,-133.333333333333,4,2,1,55,0,0
234749,-133.333333333333,4,2,1,70,0,0
235582,-133.333333333333,4,2,1,20,0,0
235638,-133.333333333333,4,2,1,70,0,0
237360,-133.333333333333,4,2,1,20,0,0
237416,-133.333333333333,4,2,1,70,0,0
237805,-133.333333333333,4,2,1,20,0,0
237860,-133.333333333333,4,2,1,70,0,0
239138,-133.333333333333,4,2,1,20,0,0
239194,-133.333333333333,4,2,1,70,0,0
240916,-133.333333333333,4,2,1,20,0,0
240971,-133.333333333333,4,2,1,70,0,0
241360,-133.333333333333,4,2,1,20,0,0
241416,-133.333333333333,4,2,1,70,0,0
241860,-100,4,2,1,70,0,0
242027,-100,4,2,1,20,0,0
242082,-100,4,2,1,70,0,0
242249,-100,4,2,1,20,0,0
242305,-100,4,2,1,70,0,0
244027,-100,4,2,1,20,0,0
244082,-100,4,2,1,70,0,0
244249,-100,4,2,1,20,0,0
244305,-100,4,2,1,70,0,0
244694,-100,4,2,1,20,0,0
244749,-100,4,2,1,70,0,0
244916,-100,4,2,1,20,0,0
244971,-100,4,2,1,70,0,0
247194,-200,4,2,1,70,0,0
248527,-80,4,2,1,70,0,0
248916,-80,4,2,1,20,0,0
248971,-80,4,2,1,70,0,0
259805,-80,4,2,1,20,0,0
259860,-80,4,2,1,70,0,0
260027,-80,4,2,1,20,0,0
260082,-80,4,2,1,70,0,0
260249,-80,4,2,1,20,0,0
260305,-80,4,2,1,70,0,0
260471,-80,4,2,1,20,0,0
260527,-80,4,2,1,70,0,0
260694,-80,4,2,1,20,0,0
260749,-80,4,2,1,70,0,0
260916,-80,4,2,1,20,0,0
260971,-80,4,2,1,70,0,0
261138,-80,4,2,1,20,0,0
261194,-80,4,2,1,70,0,0
261360,-80,4,2,1,20,0,0
261416,-133.333333333333,4,2,1,70,0,0
263194,-80,4,2,1,70,0,0
263360,-80,4,2,1,20,0,0
263416,-80,4,2,1,70,0,0
263582,-80,4,2,1,20,0,0
263638,-80,4,2,1,80,0,1
263916,-80,4,2,1,20,0,1
263971,-80,4,2,1,80,0,1
264027,-80,4,2,1,20,0,1
264082,-80,4,2,1,80,0,1
265360,-80,4,2,1,20,0,1
265416,-80,4,2,1,80,0,1
265582,-80,4,2,1,20,0,1
265638,-80,4,2,1,80,0,1
266027,-80,4,2,1,20,0,1
266082,-80,4,2,1,80,0,1
266249,-80,4,2,1,20,0,1
266305,-80,4,2,1,80,0,1
266582,-80,4,2,1,20,0,1
266638,-80,4,2,1,80,0,1
266694,-80,4,2,1,20,0,1
266749,-80,4,2,1,80,0,1
267249,-80,4,2,1,20,0,1
267305,-80,4,2,1,80,0,1
267360,-80,4,2,1,20,0,1
267416,-80,4,2,1,80,0,1
267471,-80,4,2,1,20,0,1
267527,-80,4,2,1,80,0,1
267582,-80,4,2,1,20,0,1
267638,-80,4,2,1,80,0,1
268694,-80,4,2,1,20,0,1
268749,-80,4,2,1,80,0,1
269249,-80,4,2,1,20,0,1
269305,-80,4,2,1,80,0,1
269360,-80,4,2,1,20,0,1
269416,-80,4,2,1,80,0,1
269582,-80,4,2,1,20,0,1
269638,-80,4,2,1,80,0,1
269694,-80,4,2,1,20,0,1
269749,-80,4,2,1,80,0,1
269805,-80,4,2,1,20,0,1
269860,-80,4,2,1,80,0,1
270471,-80,4,2,1,20,0,1
270527,-80,4,2,1,80,0,1
270694,-80,4,2,1,20,0,1
270749,-80,4,2,1,80,0,1
271027,-80,4,2,1,20,0,1
271082,-80,4,2,1,80,0,1
271138,-80,4,2,1,20,0,1
271194,-80,4,2,1,80,0,1
272471,-80,4,2,1,20,0,1
272527,-80,4,2,1,80,0,1
272694,-80,4,2,1,20,0,1
272749,-80,4,2,1,80,0,1
273138,-80,4,2,1,20,0,1
273194,-80,4,2,1,80,0,1
273360,-80,4,2,1,20,0,1
273416,-80,4,2,1,80,0,1
276360,-80,4,2,1,20,0,1
276416,-80,4,2,1,80,0,1
276471,-80,4,2,1,20,0,1
276527,-80,4,2,1,80,0,1
276694,-80,4,2,1,20,0,1
276749,-80,4,2,1,80,0,1
276805,-80,4,2,1,20,0,1
276860,-80,4,2,1,80,0,1
276916,-80,4,2,1,20,0,1
276971,-80,4,2,1,80,0,1
277582,-80,4,2,1,20,0,1
277638,-80,4,2,1,80,0,1
277805,-80,4,2,1,20,0,1
277860,-80,4,2,1,80,0,1
278138,-80,4,2,1,20,0,1
278194,-80,4,2,1,80,0,1
278249,-80,4,2,1,20,0,1
278305,-80,4,2,1,80,0,1
279582,-80,4,2,1,20,0,1
279638,-80,4,2,1,80,0,1
279805,-80,4,2,1,20,0,1
279860,-80,4,2,1,80,0,1
280249,-80,4,2,1,20,0,1
280305,-80,4,2,1,80,0,1
280471,-80,4,2,1,20,0,1
280527,-80,4,2,1,80,0,1
280805,-80,4,2,1,20,0,1
280860,-80,4,2,1,80,0,1
280916,-80,4,2,1,20,0,1
280971,-80,4,2,1,80,0,1
281471,-80,4,2,1,20,0,1
281527,-80,4,2,1,80,0,1
281582,-80,4,2,1,20,0,1
281638,-80,4,2,1,80,0,1
281694,-80,4,2,1,20,0,1
281749,-80,4,2,1,80,0,1
281805,-80,4,2,1,20,0,1
281860,-80,4,2,1,80,0,1
282916,-80,4,2,1,20,0,1
282971,-80,4,2,1,80,0,1
283471,-80,4,2,1,20,0,1
283527,-80,4,2,1,80,0,1
283582,-80,4,2,1,20,0,1
283638,-80,4,2,1,80,0,1
283805,-80,4,2,1,20,0,1
283860,-80,4,2,1,80,0,1
283916,-80,4,2,1,20,0,1
283971,-80,4,2,1,80,0,1
284027,-80,4,2,1,20,0,1
284082,-80,4,2,1,80,0,1
284694,-80,4,2,1,20,0,1
284749,-80,4,2,1,80,0,1
284916,-80,4,2,1,20,0,1
284971,-80,4,2,1,80,0,1
285249,-80,4,2,1,20,0,1
285305,-80,4,2,1,80,0,1
285360,-80,4,2,1,20,0,1
285416,-80,4,2,1,80,0,1
286694,-80,4,2,1,20,0,1
286749,-80,4,2,1,80,0,1
286916,-80,4,2,1,20,0,1
286971,-80,4,2,1,80,0,1
287360,-80,4,2,1,20,0,1
287416,-80,4,2,1,80,0,1
287582,-80,4,2,1,20,0,1
287638,-80,4,2,1,80,0,1
289860,-133.333333333333,4,2,1,70,0,0
291194,-66.6666666666667,4,2,1,80,0,0
291582,-66.6666666666667,4,2,1,20,0,0
291638,-100,4,2,1,80,0,0
292082,-80,4,2,1,70,0,0
292360,-80,4,2,1,20,0,0
292416,-80,4,2,1,70,0,0
292471,-80,4,2,1,20,0,0
292527,-80,4,2,1,70,0,0
292694,-80,4,2,1,20,0,0
292749,-80,4,2,1,70,0,0
292805,-80,4,2,1,20,0,0
292860,-80,4,2,1,70,0,0
292916,-80,4,2,1,20,0,0
292971,-80,4,2,1,70,0,0
293582,-80,4,2,1,20,0,0
293638,-80,4,2,1,70,0,0
294138,-80,4,2,1,20,0,0
294194,-80,4,2,1,70,0,0
294249,-80,4,2,1,20,0,0
294305,-80,4,2,1,70,0,0
294471,-80,4,2,1,20,0,0
294527,-80,4,2,1,70,0,0
294582,-80,4,2,1,20,0,0
294638,-80,4,2,1,70,0,0
294694,-80,4,2,1,20,0,0
294749,-80,4,2,1,70,0,0
295027,-80,4,2,1,20,0,0
295082,-80,4,2,1,70,0,0
295138,-80,4,2,1,20,0,0
295194,-80,4,2,1,70,0,0
295360,-80,4,2,1,20,0,0
295416,-80,4,2,1,70,0,0
295582,-80,4,2,1,20,0,0
295638,-80,4,2,1,70,0,0
295916,-80,4,2,1,20,0,0
295971,-80,4,2,1,70,0,0
296027,-80,4,2,1,20,0,0
296082,-80,4,2,1,70,0,0
296249,-80,4,2,1,20,0,0
296305,-80,4,2,1,70,0,0
296360,-80,4,2,1,20,0,0
296416,-80,4,2,1,70,0,0
296471,-80,4,2,1,20,0,0
296527,-80,4,2,1,70,0,0
297138,-80,4,2,1,20,0,0
297194,-80,4,2,1,70,0,0
297360,-80,4,2,1,20,0,0
297416,-80,4,2,1,70,0,0
297694,-80,4,2,1,20,0,0
297749,-80,4,2,1,70,0,0
297805,-80,4,2,1,20,0,0
297860,-80,4,2,1,70,0,0
298027,-80,4,2,1,20,0,0
298082,-80,4,2,1,70,0,0
298138,-80,4,2,1,20,0,0
298194,-80,4,2,1,70,0,0
298249,-80,4,2,1,20,0,0
298305,-80,4,2,1,70,0,0
298582,-80,4,2,1,20,0,0
298638,-80,4,2,1,70,0,0
298694,-80,4,2,1,20,0,0
298749,-80,4,2,1,70,0,0
298916,-80,4,2,1,20,0,0
298971,-80,4,2,1,70,0,0
299138,-80,4,2,1,20,0,0
299194,-80,4,2,1,70,0,0
299471,-80,4,2,1,20,0,0
299527,-80,4,2,1,70,0,0
299582,-80,4,2,1,20,0,0
299638,-80,4,2,1,70,0,0
299805,-80,4,2,1,20,0,0
299860,-80,4,2,1,70,0,0
299916,-80,4,2,1,20,0,0
299971,-80,4,2,1,70,0,0
300027,-80,4,2,1,20,0,0
300082,-80,4,2,1,70,0,0
300694,-80,4,2,1,20,0,0
300749,-80,4,2,1,70,0,0
301249,-80,4,2,1,20,0,0
301305,-80,4,2,1,70,0,0
301360,-80,4,2,1,20,0,0
301416,-80,4,2,1,70,0,0
301582,-80,4,2,1,20,0,0
301638,-80,4,2,1,70,0,0
301694,-80,4,2,1,20,0,0
301749,-80,4,2,1,70,0,0
301805,-80,4,2,1,20,0,0
301860,-80,4,2,1,70,0,0
302138,-80,4,2,1,20,0,0
302194,-80,4,2,1,70,0,0
302249,-80,4,2,1,20,0,0
302305,-80,4,2,1,70,0,0
302471,-80,4,2,1,20,0,0
302527,-80,4,2,1,70,0,0
302694,-80,4,2,1,20,0,0
302749,-80,4,2,1,70,0,0
303027,-80,4,2,1,20,0,0
303082,-80,4,2,1,70,0,0
303138,-80,4,2,1,20,0,0
303194,-80,4,2,1,70,0,0
303360,-80,4,2,1,20,0,0
303416,-80,4,2,1,70,0,0
303471,-80,4,2,1,20,0,0
303527,-80,4,2,1,70,0,0
303582,-80,4,2,1,20,0,0
303638,-80,4,2,1,70,0,0
304082,-133.333333333333,4,2,1,70,0,0
305416,-66.6666666666667,4,2,1,70,0,0
305805,-66.6666666666667,4,2,1,20,0,0
305860,-100,4,2,1,70,0,0
306305,-80,4,2,1,70,0,0
306582,-80,4,2,1,20,0,0
306638,-80,4,2,1,70,0,0
306694,-80,4,2,1,20,0,0
306749,-80,4,2,1,70,0,0
306916,-80,4,2,1,20,0,0
306971,-80,4,2,1,70,0,0
307027,-80,4,2,1,20,0,0
307082,-80,4,2,1,70,0,0
307138,-80,4,2,1,20,0,0
307194,-80,4,2,1,70,0,0
307805,-80,4,2,1,20,0,0
307860,-80,4,2,1,70,0,0
308360,-80,4,2,1,20,0,0
308416,-80,4,2,1,70,0,0
308471,-80,4,2,1,20,0,0
308527,-80,4,2,1,70,0,0
308694,-80,4,2,1,20,0,0
308749,-80,4,2,1,70,0,0
308805,-80,4,2,1,20,0,0
308860,-80,4,2,1,70,0,0
308916,-80,4,2,1,20,0,0
308971,-80,4,2,1,70,0,0
309249,-80,4,2,1,20,0,0
309305,-80,4,2,1,70,0,0
309360,-80,4,2,1,20,0,0
309416,-80,4,2,1,70,0,0
309582,-80,4,2,1,20,0,0
309638,-80,4,2,1,70,0,0
309805,-80,4,2,1,20,0,0
309860,-80,4,2,1,70,0,0
310138,-80,4,2,1,20,0,0
310194,-80,4,2,1,70,0,0
310249,-80,4,2,1,20,0,0
310305,-80,4,2,1,70,0,0
310471,-80,4,2,1,20,0,0
310527,-80,4,2,1,70,0,0
310582,-80,4,2,1,20,0,0
310638,-80,4,2,1,70,0,0
310694,-80,4,2,1,20,0,0
310749,-80,4,2,1,70,0,0
311360,-80,4,2,1,20,0,0
311416,-80,4,2,1,70,0,0
311916,-80,4,2,1,20,0,0
311971,-80,4,2,1,70,0,0
312027,-80,4,2,1,20,0,0
312082,-80,4,2,1,70,0,0
312249,-80,4,2,1,20,0,0
312305,-80,4,2,1,70,0,0
312360,-80,4,2,1,20,0,0
312416,-80,4,2,1,70,0,0
312471,-80,4,2,1,20,0,0
312527,-80,4,2,1,70,0,0
312805,-80,4,2,1,20,0,0
312860,-80,4,2,1,70,0,0
312916,-80,4,2,1,20,0,0
312971,-80,4,2,1,70,0,0
313138,-80,4,2,1,20,0,0
313194,-80,4,2,1,70,0,0
313360,-80,4,2,1,20,0,0
313416,-80,4,2,1,70,0,0
313694,-80,4,2,1,20,0,0
313749,-80,4,2,1,70,0,0
313805,-80,4,2,1,20,0,0
313860,-80,4,2,1,70,0,0
314027,-80,4,2,1,20,0,0
314082,-80,4,2,1,70,0,0
314138,-80,4,2,1,20,0,0
314194,-80,4,2,1,70,0,0
314249,-80,4,2,1,20,0,0
314305,-80,4,2,1,70,0,0
314916,-80,4,2,1,20,0,0
314971,-80,4,2,1,70,0,0
315471,-80,4,2,1,20,0,0
315527,-80,4,2,1,70,0,0
315582,-80,4,2,1,20,0,0
315638,-80,4,2,1,70,0,0
315805,-80,4,2,1,20,0,0
315860,-80,4,2,1,70,0,0
315916,-80,4,2,1,20,0,0
315971,-80,4,2,1,70,0,0
316027,-80,4,2,1,20,0,0
316082,-80,4,2,1,70,0,0
316360,-80,4,2,1,20,0,0
316416,-80,4,2,1,70,0,0
316471,-80,4,2,1,20,0,0
316527,-80,4,2,1,70,0,0
319360,-80,4,2,1,20,0,0
319416,-80,4,2,1,70,0,0
319582,-80,4,2,1,20,0,0
319638,-80,4,2,1,70,0,0
320082,-200,4,2,1,50,0,0
320527,-200,4,2,1,25,0,0
323638,-200,4,2,1,5,0,0

[Colours]
Combo1 : 128,0,255
Combo2 : 255,0,128
Combo3 : 128,0,64
Combo4 : 242,24,57

[HitObjects]
256,192,83,12,0,3527,0:0:0:0:
76,67,3638,6,0,B|129:24|196:55|196:55|228:95|228:95|300:63|320:111|416:87,1,360,2|0,0:0|0:0,0:0:0:0:
496,344,7194,6,0,B|426:311|370:339|370:339|306:371|254:331|254:331|306:347|358:323,1,360
148,152,10749,6,0,B|132:96|69:100|69:100|28:144|64:208|64:208|100:272|56:348,1,360
332,320,14305,6,0,B|312:344|324:372|352:372|360:344|340:320|340:320|300:248|356:176,1,240
348,187,17194,6,0,P|368:183|388:183,1,30
444,192,17638,1,0,0:0:0:0:
256,117,17860,6,0,B|228:137|196:121|196:121|268:77|288:149|368:105,1,240,2|2,0:0|0:0,0:0:0:0:
366,106,20527,1,8,0:0:0:0:
504,220,21416,6,0,B|444:208|424:252|424:252|392:240|392:240|344:268|276:236,1,240,2|2,0:0|0:0,0:0:0:0:
285,240,24082,1,8,0:0:0:0:
108,276,24971,6,0,B|161:254|180:307|180:307|104:375|50:313,1,240,2|2,0:0|0:0,0:0:0:0:
50,313,27638,1,8,0:0:0:0:
184,192,28527,6,0,B|224:128|184:44|184:44|240:72|236:120,1,240,2|2,0:0|0:0,0:0:0:0:
236,107,31194,1,8,0:0:0:0:
256,288,32082,5,4,0:0:0:0:
256,192,32305,12,0,39194,0:0:0:0:
32,352,52971,6,0,L|112:348,1,67.5000025749207,2|0,0:0|0:0,0:0:0:0:
107,340,53194,2,0,L|39:343,1,67.5000025749207
24,360,53416,6,0,B|72:336|120:360|120:360|148:336|148:336|224:308|280:352,1,270.000010299683,6|0,0:0|0:0,0:0:0:0:
362,308,54305,6,0,L|358:376,1,60
288,236,54527,2,0,L|282:146,1,90,2|0,0:0|0:0,0:0:0:0:
288,124,54749,1,0,0:0:0:0:
488,304,54971,6,0,B|436:332|436:332|404:268|308:268|288:336,1,240,8|0,0:0|0:0,0:0:0:0:
452,244,55638,6,0,P|468:204|456:152,1,90.0000034332277
376,0,56082,6,0,B|328:40|376:108|376:108|448:84|436:19,1,240,8|0,0:0|0:0,0:0:0:0:
437,20,56971,6,0,B|252:24|252:24|335:57,1,270.000010299683,6|0,0:0|0:0,0:0:0:0:
316,172,57860,6,0,P|323:200|320:230,1,60
183,291,58082,2,0,L|291:287,1,90,2|0,0:0|0:0,0:0:0:0:
295,295,58305,1,0,0:0:0:0:
476,352,58527,6,0,B|440:308|364:304|364:304|342:369|272:362,1,240,8|0,0:0|0:0,0:0:0:0:
331,190,59194,6,0,P|372:176|391:136,1,90.0000034332277
288,284,59638,6,0,B|236:256|172:284|172:284|116:308|52:280,1,240,8|0,0:0|0:0,0:0:0:0:
96,336,60194,6,0,P|88:360|88:384,2,30
84,219,60527,6,0,B|163:184|139:64|139:64|152:132|88:177,1,270.000010299683,6|0,0:0|0:0,0:0:0:0:
244,132,61416,6,0,L|303:133,1,60
184,44,61638,2,0,L|83:47,1,90,2|0,0:0|0:0,0:0:0:0:
82,61,61860,1,0,0:0:0:0:
328,204,62082,6,0,B|312:240|324:268|324:268|304:240|324:192|324:192|336:148|304:96,1,240,8|0,0:0|0:0,0:0:0:0:
148,188,62749,6,0,P|191:194|226:167,1,90.0000034332277
24,303,63194,6,0,B|63:258|164:259|164:259|95:256|84:208,1,240,8|0,0:0|0:0,0:0:0:0:
89,222,64082,5,2,0:0:0:0:
226,168,64305,1,0,0:0:0:0:
76,196,64527,5,8,0:0:0:0:
216,236,64749,1,0,0:0:0:0:
63,170,64971,5,2,0:0:0:0:
206,304,65194,1,0,0:0:0:0:
50,144,65416,5,8,0:0:0:0:
196,372,65638,1,0,0:0:0:0:
457,303,65860,6,0,B|400:268|340:296|328:344|328:344|264:300|264:228|332:168,1,360.000013732911,4|0,0:0|0:0,0:0:0:0:
458,227,66971,2,0,P|486:239|506:255,1,45.0000017166138,8|0,0:0|0:0,0:0:0:0:
377,217,67194,2,0,P|327:173|325:108,1,135.000005149841,12|0,0:0|0:0,0:0:0:0:
344,76,67638,6,0,B|292:88|292:88|234:76,1,112.5,6|0,0:0|0:0,0:0:0:0:
148,116,67860,2,0,B|184:100|184:100|280:120,1,112.5,2|0,0:1|0:0,0:0:0:0:
249,209,68082,2,0,L|245:285,1,75,8|0,0:0|0:0,0:0:0:0:
116,192,68305,6,0,L|82:174,1,37.5
92,252,68416,2,0,L|123:231,1,37.5
52,201,68527,6,0,L|55:275,1,75,2|0,0:0|0:0,0:0:0:0:
192,247,68749,2,0,P|200:210|190:174,1,75
83,372,68971,2,0,B|108:343|133:340|133:340|171:371|231:353,1,150,8|0,0:0|0:0,0:0:0:0:
295,345,69305,1,0,0:0:0:0:
395,277,69416,6,0,B|431:273|439:309|423:337|387:329|367:305|367:305|335:257|273:256|245:283,1,262.5,6|0,0:0|0:0,0:0:0:0:
368,216,69860,2,0,P|414:188|419:134,1,112.5,8|0,0:0|0:0,0:0:0:0:
328,36,70082,2,0,L|332:74,3,37.5
400,116,70305,6,0,L|287:125,1,112.5,2|0,0:0|0:0,0:0:0:0:
208,176,70527,2,0,P|196:104|216:64,1,112.5,2|0,0:1|0:0,0:0:0:0:
288,125,70749,2,0,P|296:153|280:213,1,75,8|0,0:0|0:0,0:0:0:0:
295,345,70971,6,0,L|239:341,1,37.5,2|0,0:1|0:0,0:0:0:0:
195,378,71082,2,0,L|226:331,1,37.5,2|0,0:1|0:0,0:0:0:0:
216,276,71194,6,0,L|248:376,1,75,6|0,0:0|0:0,0:0:0:0:
366,218,71416,2,0,L|388:146,1,75,2|0,0:1|0:0,0:0:0:0:
491,318,71638,6,0,L|507:367,1,37.5,8|0,0:0|0:0,0:0:0:0:
428,340,71749,2,0,L|385:308,1,37.5
466,285,71860,2,0,L|518:285,1,37.5
467,351,71971,2,0,L|424:381,1,37.5
426,298,72082,6,0,L|436:196,1,75,2|0,0:0|0:0,0:0:0:0:
381,75,72305,1,0,0:0:0:0:
388,146,72416,1,0,0:0:0:0:
446,105,72527,2,0,L|453:30,1,75,8|0,0:0|0:0,0:0:0:0:
336,7,72749,2,0,L|374:4,3,37.5
300,79,72971,6,0,P|258:88|185:42,1,112.5,6|0,0:0|0:0,0:0:0:0:
112,104,73194,2,0,L|196:100,1,75,2|0,0:1|0:0,0:0:0:0:
352,192,73416,2,0,L|268:196,1,75,8|0,0:0|0:0,0:0:0:0:
152,280,73638,6,0,L|156:332,1,37.5,2|0,0:1|0:0,0:0:0:0:
196,380,73749,2,0,L|200:328,1,37.5,2|0,0:1|0:0,0:0:0:0:
261,292,73860,1,2,0:0:0:0:
261,292,73971,6,0,L|313:296,1,37.5,2|0,0:1|0:0,0:0:0:0:
369,337,74082,2,0,L|331:334,1,37.5,2|0,0:1|0:0,0:0:0:0:
337,260,74194,2,0,L|334:297,1,37.5,2|0,0:1|0:0,0:0:0:0:
292,369,74305,6,0,L|298:295,1,75,8|0,0:0|0:0,0:0:0:0:
352,192,74527,2,0,L|346:266,1,75
282,376,74749,6,0,L|290:263,1,112.5,6|0,0:0|0:0,0:0:0:0:
276,171,74971,2,0,B|231:138|231:138|228:199,1,112.5,2|0,0:1|0:0,0:0:0:0:
164,264,75194,2,0,L|169:338,1,75,8|0,0:0|0:0,0:0:0:0:
84,212,75416,6,0,P|88:192|88:168,1,37.5
36,120,75527,2,0,P|51:133|72:145,1,37.5
139,124,75638,6,0,P|132:164|140:200,1,75,2|0,0:0|0:0,0:0:0:0:
232,96,75860,2,0,P|239:59|232:22,1,75
164,264,76082,6,0,B|200:248|200:248|316:268,1,150,8|0,0:0|0:0,0:0:0:0:
384,284,76416,1,0,0:0:0:0:
480,208,76527,6,0,B|492:176|492:176|456:144|456:144|440:212|440:212|492:260|460:332,1,262.5,6|0,0:0|0:0,0:0:0:0:
340,368,76971,2,0,B|320:360|320:360|420:352,1,112.5,8|0,0:0|0:0,0:0:0:0:
376,220,77194,2,0,L|383:281,3,37.5
298,294,77416,6,0,L|185:287,1,112.5,2|0,0:0|0:0,0:0:0:0:
100,328,77638,2,0,P|153:312|206:328,1,112.5,2|0,0:1|0:0,0:0:0:0:
248,244,77860,2,0,P|236:216|240:164,1,75,8|0,0:0|0:0,0:0:0:0:
318,0,78082,2,0,P|330:28|326:80,1,75,2|0,0:1|0:0,0:0:0:0:
180,98,78305,6,0,L|254:95,1,75,6|0,0:0|0:0,0:0:0:0:
404,80,78527,1,0,0:0:0:0:
400,100,78638,1,0,0:0:0:0:
384,180,78749,6,0,L|309:177,1,75,8|0,0:0|0:0,0:0:0:0:
160,162,78971,1,0,0:0:0:0:
164,182,79082,1,0,0:0:0:0:
180,262,79194,6,0,L|254:259,1,75,2|0,0:0|0:0,0:0:0:0:
404,244,79416,1,0,0:0:0:0:
400,264,79527,1,0,0:0:0:0:
384,344,79638,6,0,L|309:341,1,75,8|0,0:0|0:0,0:0:0:0:
160,326,79860,1,0,0:0:0:0:
164,346,79971,1,0,0:0:0:0:
256,372,80082,6,0,B|284:328|352:312|384:344|384:344|421:320|433:245|395:207|395:207|412:236|398:269,1,360.000013732911,4|0,0:0|0:0,0:0:0:0:
400,263,81194,2,0,P|377:265|355:260,1,45.0000017166138,8|0,0:0|0:0,0:0:0:0:
316,192,81416,6,0,P|300:80|400:124,1,270.000010299683,12|0,0:0|0:0,0:0:0:0:
337,132,81860,5,2,0:0:0:0:
248,144,82082,1,0,0:0:0:0:
96,44,82305,1,8,0:0:0:0:
228,72,82527,1,0,0:0:0:0:
124,220,82749,2,0,L|32:216,1,90.0000034332277,2|0,0:0|0:0,0:0:0:0:
200,288,83194,2,0,L|289:284,1,90.0000034332277,8|0,0:0|0:0,0:0:0:0:
112,312,83638,5,2,0:0:0:0:
124,220,83860,1,0,0:0:0:0:
36,64,84082,1,8,0:0:0:0:
56,200,84305,1,0,0:0:0:0:
200,92,84527,2,0,L|207:2,1,90.0000034332277,2|0,0:0|0:0,0:0:0:0:
337,132,84971,2,0,L|344:221,1,90.0000034332277,8|0,0:0|0:0,0:0:0:0:
456,80,85416,5,2,0:0:0:0:
368,60,85638,1,0,0:0:0:0:
219,160,85860,1,8,0:0:0:0:
280,40,86082,1,0,0:0:0:0:
404,176,86305,2,0,P|416:232|396:272,1,90.0000034332277,2|0,0:0|0:0,0:0:0:0:
281,125,86749,2,0,P|269:69|289:29,1,90.0000034332277,8|0,0:0|0:0,0:0:0:0:
313,218,87194,5,2,0:0:0:0:
228,248,87416,1,0,0:0:0:0:
64,176,87638,1,8,0:0:0:0:
196,208,87860,1,0,0:0:0:0:
104,364,88082,2,0,B|96:320|96:320|112:264,1,90.0000034332277,2|0,0:0|0:0,0:0:0:0:
200,120,88527,2,0,B|208:164|208:164|196:208,1,90.0000034332277,8|0,0:0|0:0,0:0:0:0:
104,51,88971,5,2,0:0:0:0:
192,32,89194,1,0,0:0:0:0:
360,96,89416,1,8,0:0:0:0:
343,230,89638,1,0,0:0:0:0:
202,118,89860,2,0,P|187:76|191:32,1,90.0000034332277,2|0,0:0|0:0,0:0:0:0:
360,96,90305,2,0,P|364:140|349:182,1,90.0000034332277,8|0,0:0|0:0,0:0:0:0:
176,232,90749,5,2,0:0:0:0:
88,212,90971,1,0,0:0:0:0:
216,340,91194,1,8,0:0:0:0:
348,310,91416,1,0,0:0:0:0:
176,364,91638,2,0,L|60:356,1,90.0000034332277,2|0,0:0|0:0,0:0:0:0:
240,264,92082,2,0,L|304:167,1,90.0000034332277,8|0,0:0|0:0,0:0:0:0:
295,370,92527,5,2,0:0:0:0:
384,360,92749,1,0,0:0:0:0:
468,200,92971,1,8,0:0:0:0:
483,333,93194,1,0,0:0:0:0:
372,192,93416,2,0,B|356:168|356:168|344:136|372:92,1,90.0000034332277,2|0,0:0|0:0,0:0:0:0:
474,250,93860,2,0,B|490:274|490:274|502:306|474:350,1,90.0000034332277,8|0,0:0|0:0,0:0:0:0:
304,304,94305,5,2,0:0:0:0:
256,380,94527,1,0,0:0:0:0:
256,200,94749,1,8,0:0:0:0:
391,206,94971,1,0,0:0:0:0:
224,276,95194,6,0,L|160:272,3,60,2|2|2|2,0:0|0:0|0:0|0:0,0:0:0:0:
105,311,96082,6,0,P|95:268|112:228,1,90.0000034332277,6|0,0:0|0:0,0:0:0:0:
56,104,96527,2,0,P|66:146|49:187,1,90.0000034332277,8|0,0:0|0:0,0:0:0:0:
184,192,96971,2,8,B|266:164|274:220|360:192,1,180.000006866455,2|8,0:0|0:0,0:0:0:0:
452,92,97638,1,0,0:0:0:0:
494,221,97860,6,0,P|505:264|494:307,1,90.0000034332277,2|0,0:0|0:0,0:0:0:0:
360,278,98305,2,0,P|349:234|360:191,1,90.0000034332277,8|0,0:0|0:0,0:0:0:0:
426,310,98749,2,0,B|354:290|354:290|306:318|252:302,1,180.000006866455,2|8,0:0|0:0,0:0:0:0:
176,192,99416,1,0,0:0:0:0:
80,288,99638,6,0,L|192:284,1,90.0000034332277,6|0,0:0|0:0,0:0:0:0:
265,188,100082,2,0,L|176:192,1,90.0000034332277,8|0,0:0|0:0,0:0:0:0:
292,120,100527,2,0,P|348:144|400:44,1,180.000006866455,2|8,0:0|0:0,0:0:0:0:
272,40,101194,1,0,0:0:0:0:
168,124,101416,6,0,P|120:132|68:116,1,90.0000034332277,2|0,0:0|0:0,0:0:0:0:
184,38,101860,2,0,P|228:30|272:40,1,90.0000034332277,8|0,0:0|0:0,0:0:0:0:
408,61,102305,2,0,B|380:117|400:189|400:189|372:128,1,180.000006866455,2|8,0:0|0:0,0:0:0:0:
316,264,102971,1,0,0:0:0:0:
312,128,103194,6,0,B|268:120|268:120|212:128,1,90.0000034332277,6|0,0:0|0:0,0:0:0:0:
103,190,103638,2,0,B|147:198|147:198|192:192,1,90.0000034332277,8|0,0:0|0:0,0:0:0:0:
76,124,104082,2,0,B|88:192|88:192|76:232|76:232|94:329,1,180.000006866455,2|8,0:0|0:0,0:0:0:0:
196,384,104749,1,0,0:0:0:0:
148,256,104971,6,0,P|200:268|252:244,1,90.0000034332277,2|0,0:0|0:0,0:0:0:0:
344,336,105416,2,0,L|254:332,1,90.0000034332277,8|0,0:0|0:0,0:0:0:0:
324,216,105860,2,8,P|409:191|496:220,1,180.000006866455,2|8,0:0|0:0,0:0:0:0:
408,324,106527,1,0,0:0:0:0:
304,236,106749,6,0,P|295:191|304:147,1,90.0000034332277,6|0,0:0|0:0,0:0:0:0:
372,32,107194,2,0,P|380:76|371:120,1,90.0000034332277,8|0,0:0|0:0,0:0:0:0:
236,128,107638,2,0,L|52:120,1,180.000006866455,2|8,0:0|0:0,0:0:0:0:
176,56,108305,1,0,0:0:0:0:
188,192,108527,6,0,B|200:220|200:220|184:248|187:277,1,90.0000034332277,2|0,0:0|0:0,0:0:0:0:
300,350,108971,2,0,B|288:322|288:322|304:294|300:264,1,90.0000034332277,8|0,0:0|0:0,0:0:0:0:
488,200,109416,1,2,0:0:0:0:
488,200,109860,6,0,B|464:320|464:320|440:256,1,180,4|0,0:0|0:0,0:0:0:0:
464,320,110305,6,0,B|420:304|376:320|376:320|404:341,1,120,2|0,0:0|0:0,0:0:0:0:
408,350,110638,2,0,P|340:334|288:358,1,120
283,360,110971,2,0,P|253:364|223:359,1,60
164,292,111194,6,0,L|167:262,11,30,8|0|0|0|0|0|0|0|0|0|0|0,0:0|0:0|0:0|0:0|0:0|0:0|0:0|0:0|0:0|0:0|0:0|0:0,0:0:0:0:
240,224,111860,6,0,L|279:228,2,40,2|2|2,0:0|0:0|0:0,0:0:0:0:
97,217,112082,6,0,B|8:220|8:220|30:240,1,120,2|0,0:0|0:0,0:0:0:0:
40,252,112416,2,0,L|36:128,1,120,2|0,0:0|0:0,0:0:0:0:
108,56,112749,1,2,0:0:0:0:
107,83,112860,1,2,0:0:0:0:
106,110,112971,6,0,B|134:102|134:102|162:110|162:110|186:98|238:106,1,120,8|0,0:0|0:0,0:0:0:0:
255,72,113305,2,0,B|223:104|223:104|252:136|242:201,1,120,8|0,0:0|0:0,0:0:0:0:
244,173,113638,1,0,0:0:0:0:
344,240,113860,6,0,B|332:288|332:288|348:328|348:328|360:296,1,120,2|0,0:0|0:0,0:0:0:0:
373,301,114194,2,0,L|233:305,1,120
176,232,114527,1,2,0:0:0:0:
203,232,114638,1,2,0:0:0:0:
230,233,114749,6,0,P|253:297|230:354,1,120,8|0,0:0|0:0,0:0:0:0:
248,356,115082,2,0,L|108:352,1,120
56,276,115416,2,0,L|57:236,2,40,2|2|2,0:0|0:0|0:0,0:0:0:0:
92,348,115638,6,0,L|88:228,1,120,2|8,0:0|0:0,0:0:0:0:
156,162,115916,2,0,L|156:192,2,30
90,126,116082,6,0,L|89:96,3,30
157,60,116305,1,2,0:0:0:0:
157,33,116416,1,2,0:0:0:0:
158,6,116527,6,0,P|214:22|271:6,1,120,8|0,0:0|0:0,0:0:0:0:
360,64,116860,2,0,L|300:67,1,60,8|0,0:0|0:0,0:0:0:0:
256,164,117082,1,8,0:0:0:0:
257,190,117194,1,8,0:0:0:0:
259,217,117305,1,8,0:0:0:0:
261,244,117416,6,0,B|267:301|267:301|260:364,1,120,2|0,0:0|0:0,0:0:0:0:
246,368,117749,2,0,L|106:364,1,120
112,372,118082,2,0,P|104:336|112:304,1,60
40,298,118305,6,0,B|88:242|96:162|96:162|88:242|148:270,1,240,8|0,0:0|0:0,0:0:0:0:
200,184,118860,1,8,0:0:0:0:
227,183,118971,2,0,L|284:188,2,40,8|8|8,0:0|0:0|0:0,0:0:0:0:
195,264,119194,6,0,P|168:324|200:380,1,120,2|0,0:0|0:0,0:0:0:0:
180,384,119527,2,0,P|244:372|324:380,1,120,2|0,0:0|0:0,0:0:0:0:
312,368,119860,2,0,P|320:328|312:300,1,60,2|2,0:0|0:0,0:0:0:0:
388,256,120082,6,0,B|392:196|392:196|440:232,1,120,8|0,0:0|0:0,0:0:0:0:
452,240,120416,2,0,L|332:232,1,120,8|0,0:0|0:0,0:0:0:0:
320,224,120749,2,0,P|296:232|256:228,1,60,8|0,0:0|0:0,0:0:0:0:
200,188,120971,5,2,0:0:0:0:
336,124,121194,2,0,L|400:120,2,60
188,95,121638,1,2,0:0:0:0:
188,95,121749,1,2,0:0:0:0:
188,95,121860,6,0,P|112:88|88:24,1,120,8|0,0:0|0:0,0:0:0:0:
94,11,122194,2,0,L|83:132,1,120,8|0,0:0|0:0,0:0:0:0:
52,192,122527,2,0,L|57:251,2,40,2|2|2,0:0|0:0|0:0,0:0:0:0:
120,187,122749,6,0,L|239:197,1,120,2|8,0:0|0:0,0:0:0:0:
392,384,123194,2,0,P|440:340|424:276,1,120,0|2,0:0|0:0,0:0:0:0:
392,276,123527,1,2,0:0:0:0:
392,276,123638,1,8,0:0:0:0:
244,300,123860,1,2,0:0:0:0:
349,193,124082,2,0,L|476:196,1,120,8|2,0:0|0:0,0:0:0:0:
469,196,124416,1,2,0:0:0:0:
469,196,124527,5,2,0:0:0:0:
256,192,124638,12,0,126194,0:0:0:0:
220,120,126305,6,0,L|216:84,1,30,2|0,0:1|0:0,0:0:0:0:
296,164,126527,6,0,L|299:134,1,30,2|0,0:1|0:0,0:0:0:0:
186,208,126749,6,0,L|182:172,1,30,2|0,0:1|0:0,0:0:0:0:
330,252,126971,6,0,L|334:216,1,30,2|0,0:1|0:0,0:0:0:0:
152,296,127194,6,0,L|148:260,1,30,2|0,0:1|0:0,0:0:0:0:
364,340,127416,6,0,L|368:304,1,30,2|0,0:1|0:0,0:0:0:0:
120,384,127638,6,0,B|56:324|0:348|0:348|56:376|120:308,1,270.000010299683,6|0,0:0|0:0,0:0:0:0:
56,272,128082,6,0,B|107:299|149:266|149:266|208:288|208:288|248:248|322:270,1,270.000010299683,6|0,0:0|0:0,0:0:0:0:
440,280,128971,6,0,L|436:348,1,60
472,193,129194,2,0,L|465:83,1,90
464,81,129416,6,0,P|428:93|392:89,1,60,2|0,0:0|0:0,0:0:0:0:
340,0,129638,2,0,P|369:0|397:11,1,60,2|0,0:0|0:0,0:0:0:0:
328,144,129860,6,0,L|208:140,1,120,6|0,0:0|0:0,0:0:0:0:
148,94,130194,1,0,0:0:0:0:
96,148,130305,2,0,P|88:184|104:220,1,60,8|0,0:0|0:0,0:0:0:0:
246,298,130527,2,0,P|255:269|248:240,1,60
84,272,130749,6,0,B|132:276|156:236|156:236|212:220|264:248,1,180,2|0,0:0|0:0,0:0:0:0:
408,188,131194,2,0,P|364:196|320:184,1,90,8|0,0:0|0:0,0:0:0:0:
284,128,131416,2,0,L|286:95,3,30
352,44,131638,6,0,P|370:85|362:134,1,60,6|0,0:0|0:0,0:0:0:0:
220,151,131860,2,0,P|205:124|201:95,1,60
321,185,132082,2,0,L|313:309,1,120,8|0,0:0|0:0,0:0:0:0:
464,376,132416,1,0,0:0:0:0:
464,376,132527,6,0,P|401:357|345:363,1,120,2|0,0:0|0:0,0:0:0:0:
280,364,132860,1,0,0:0:0:0:
313,305,132971,2,0,P|321:265|313:233,1,60,8|0,0:0|0:0,0:0:0:0:
167,171,133194,2,0,P|164:200|172:229,1,60
300,224,133416,6,0,B|172:229|172:229|224:260,1,180,6|0,0:0|0:0,0:0:0:0:
328,136,133860,2,0,P|385:152|442:136,1,120,8|0,0:0|0:0,0:0:0:0:
508,0,134194,1,0,0:0:0:0:
508,0,134305,2,0,L|512:60,1,60,2|0,0:0|0:0,0:0:0:0:
384,77,134527,2,0,L|387:17,1,60
468,144,134749,2,0,L|471:203,1,60,8|0,0:0|0:0,0:0:0:0:
343,220,134971,2,0,L|344:190,3,30
412,244,135194,6,0,P|432:299|413:354,1,120,6|0,0:0|0:0,0:0:0:0:
352,324,135527,1,0,0:0:0:0:
292,356,135638,2,0,P|260:360|216:348,1,60,8|0,0:0|0:0,0:0:0:0:
124,232,135860,2,0,P|153:227|183:231,1,60
119,384,136082,6,0,B|81:341|81:341|77:269|125:231,1,180,2|0,0:0|0:0,0:0:0:0:
72,72,136527,2,0,L|75:161,1,90,8|0,0:0|0:0,0:0:0:0:
40,220,136749,2,0,L|-8:224,3,30
77,283,136971,6,0,P|85:312|81:342,1,60,6|0,0:0|0:0,0:0:0:0:
128,187,137194,2,0,P|99:180|75:161,1,60
182,279,137416,2,0,L|320:272,1,120,8|0,0:0|0:0,0:0:0:0:
468,339,137749,1,0,0:0:0:0:
468,339,137860,6,0,L|348:332,1,120,2|0,0:0|0:0,0:0:0:0:
302,273,138194,1,0,0:0:0:0:
331,204,138305,2,0,L|414:208,1,60,8|0,0:0|0:0,0:0:0:0:
500,332,138527,2,0,L|416:327,1,60
363,197,138749,6,0,B|488:204|488:204|444:168,1,180,6|0,0:0|0:0,0:0:0:0:
302,273,139194,2,0,L|182:280,1,120,8|0,0:0|0:0,0:0:0:0:
64,376,139527,1,0,0:0:0:0:
64,376,139638,6,0,L|58:296,1,60,2|0,0:0|0:0,0:0:0:0:
160,232,139860,2,0,L|156:291,1,60
32,208,140082,2,0,L|26:128,1,60,8|0,0:0|0:0,0:0:0:0:
132,72,140305,2,0,L|129:106,3,30
181,149,140527,6,0,B|201:101|265:93|265:93|317:141|383:128|383:128|317:141|277:200,1,360.000013732911,6|0,0:0|0:0,0:0:0:0:
316,44,141638,2,0,P|333:58|355:63,1,45.0000017166138,8|0,0:0|0:0,0:0:0:0:
462,132,141860,2,0,B|475:100|475:100|412:92|383:128,1,135.000005149841,12|0,0:0|0:0,0:0:0:0:
365,141,142305,6,0,B|352:200|352:200|367:249,1,112.5,6|0,0:0|0:0,0:0:0:0:
328,336,142527,2,0,B|341:277|341:277|325:227,1,112.5,2|0,0:1|0:0,0:0:0:0:
256,164,142749,2,0,L|156:168,1,75,8|0,0:0|0:0,0:0:0:0:
44,244,142971,6,0,L|96:240,1,37.5
156,256,143082,2,0,L|118:258,1,37.5
89,346,143194,6,0,L|83:271,1,75,2|0,0:0|0:0,0:0:0:0:
181,167,143416,2,0,L|176:241,1,75
56,52,143638,2,0,B|128:68|128:68|208:56,1,150,8|0,0:0|0:0,0:0:0:0:
280,40,143971,1,0,0:0:0:0:
440,120,144082,6,0,B|406:107|372:115|372:115|319:131|247:108|247:108|306:127|336:92,1,262.5,6|0,0:0|0:0,0:0:0:0:
396,184,144527,2,0,B|424:240|380:240|416:320,1,112.5,8|0,0:0|0:0,0:0:0:0:
276,320,144749,2,0,L|274:357,3,37.5
388,325,144971,6,0,L|275:320,1,112.5,2|0,0:0|0:0,0:0:0:0:
184,348,145194,2,0,B|136:316|136:316|183:289,1,112.5,2|0,0:1|0:0,0:0:0:0:
281,245,145416,2,0,L|276:319,1,75,8|0,0:0|0:0,0:0:0:0:
188,184,145638,6,0,L|185:146,1,37.5,2|0,0:1|0:0,0:0:0:0:
256,180,145749,2,0,L|224:200,1,37.5,2|0,0:1|0:0,0:0:0:0:
219,124,145860,6,0,L|312:128,1,75,6|0,0:0|0:0,0:0:0:0:
128,40,146082,2,0,L|35:44,1,75,2|0,0:1|0:0,0:0:0:0:
44,232,146305,6,0,L|48:272,1,37.5,8|0,0:0|0:0,0:0:0:0:
64,344,146416,2,0,L|84:309,1,37.5
113,241,146527,2,0,L|76:257,1,37.5
12,293,146638,2,0,L|51:301,1,37.5
125,308,146749,6,0,L|120:216,1,75,2|0,0:0|0:0,0:0:0:0:
219,124,146971,1,0,0:0:0:0:
224,199,147082,1,0,0:0:0:0:
156,165,147194,2,0,L|151:73,1,75,8|0,0:0|0:0,0:0:0:0:
256,40,147416,2,0,L|258:2,3,37.5
288,104,147638,6,0,B|328:88|328:88|424:92,1,112.5,6|0,0:0|0:0,0:0:0:0:
456,168,147860,2,0,L|381:165,1,75,2|0,0:1|0:0,0:0:0:0:
224,268,148082,2,0,L|298:265,1,75,8|0,0:0|0:0,0:0:0:0:
437,329,148305,6,0,L|471:313,1,37.5,2|0,0:1|0:0,0:0:0:0:
512,250,148416,2,0,L|481:227,1,37.5,2|0,0:1|0:0,0:0:0:0:
406,224,148527,1,2,0:0:0:0:
406,224,148638,6,0,L|402:262,1,37.5,2|0,0:1|0:0,0:0:0:0:
340,304,148749,2,0,L|336:266,1,37.5,2|0,0:1|0:0,0:0:0:0:
273,226,148860,2,0,L|269:264,1,37.5,2|0,0:1|0:0,0:0:0:0:
207,306,148971,6,0,L|197:220,1,75,8|0,0:0|0:0,0:0:0:0:
330,307,149194,2,0,L|322:381,1,75
189,234,149416,6,0,L|201:116,1,112.5,6|0,0:0|0:0,0:0:0:0:
138,51,149638,2,0,P|90:70|107:120,1,112.5,2|0,0:1|0:0,0:0:0:0:
201,122,149860,2,0,P|236:128|276:120,1,75,8|0,0:0|0:0,0:0:0:0:
392,24,150082,6,0,L|348:20,1,37.5
396,88,150194,2,0,L|421:51,1,37.5
338,59,150305,6,0,L|344:148,1,75,2|0,0:0|0:0,0:0:0:0:
445,266,150527,2,0,L|450:191,1,75
256,340,150749,2,0,L|405:329,1,150,8|0,0:0|0:0,0:0:0:0:
480,328,151082,1,0,0:0:0:0:
450,191,151194,6,0,B|376:192|364:264|364:264|348:356|272:360,1,262.5,6|0,0:0|0:0,0:0:0:0:
184,284,151638,2,0,B|172:267|172:267|220:244|261:266,1,112.5,8|0,0:0|0:0,0:0:0:0:
369,341,151860,2,0,L|366:378,3,37.5
453,265,152082,6,0,B|450:191|450:191|432:232,1,112.5,2|0,0:0|0:0,0:0:0:0:
338,195,152305,2,0,L|450:191,1,112.5,2|0,0:1|0:0,0:0:0:0:
480,96,152527,2,0,P|487:59|477:24,1,75,8|0,0:0|0:0,0:0:0:0:
338,195,152749,2,0,P|330:231|340:266,1,75,2|0,0:1|0:0,0:0:0:0:
408,64,152971,6,0,L|312:60,1,75,6|0,0:0|0:0,0:0:0:0:
216,156,153194,2,0,L|290:152,1,75
122,113,153416,6,0,L|109:77,1,37.5,8|0,0:0|0:0,0:0:0:0:
72,11,153527,2,0,L|103:32,1,37.5
172,64,153638,2,0,L|133:65,1,37.5
59,80,153749,2,0,L|89:56,1,37.5
140,1,153860,6,0,L|132:96,1,75,2|0,0:0|0:0,0:0:0:0:
194,196,154082,1,0,0:0:0:0:
201,122,154194,1,0,0:0:0:0:
134,153,154305,2,0,L|126:248,1,75,8|0,0:0|0:0,0:0:0:0:
184,328,154527,2,0,L|188:376,3,37.5
240,272,154749,6,0,B|280:228|340:240|340:240|392:304|340:384|340:384|268:356|304:300,1,360.000013732911,6|0,0:0|0:0,0:0:0:0:
296,314,155860,2,0,L|343:315,1,45.0000017166138,8|0,0:0|0:0,0:0:0:0:
404,264,156082,6,0,P|502:189|380:174,1,315.000012016297,12|0,0:0|0:0,0:0:0:0:
438,207,156527,6,0,L|441:277,1,60,2|2,0:0|0:0,0:0:0:0:
441,267,156971,5,8,0:0:0:0:
476,204,157082,2,0,L|472:166,5,37.5
400,144,157416,2,0,P|368:152|328:144,1,75,2|0,0:0|0:0,0:0:0:0:
372,0,157638,2,0,P|394:23|408:62,1,75
300,220,157860,2,0,L|144:212,1,150,8|0,0:0|0:0,0:0:0:0:
76,204,158194,1,0,0:0:0:0:
44,340,158305,6,0,B|16:296|48:264|48:264|105:289|175:231|125:153,1,262.5,6|0,0:0|0:0,0:0:0:0:
228,88,158749,2,0,P|211:141|226:194,1,112.5,8|0,0:0|0:0,0:0:0:0:
304,308,158971,2,0,L|307:270,3,37.5
256,216,159194,6,0,L|384:227,1,112.5,2|0,0:0|0:0,0:0:0:0:
448,276,159416,2,0,P|464:329|449:382,1,112.5,2|0,0:1|0:0,0:0:0:0:
371,330,159638,2,0,L|460:324,1,75,8|0,0:0|0:0,0:0:0:0:
365,188,159860,6,0,L|368:226,1,37.5,2|0,0:1|0:0,0:0:0:0:
436,192,159971,2,0,L|433:154,1,37.5,2|0,0:1|0:0,0:0:0:0:
366,121,160082,6,0,L|260:124,1,75,6|0,0:0|0:0,0:0:0:0:
164,42,160305,2,0,L|238:44,1,75
220,192,160527,6,0,L|183:208,1,37.5,8|0,0:0|0:0,0:0:0:0:
117,241,160638,2,0,L|156:249,1,37.5
230,260,160749,2,0,L|203:229,1,37.5
152,179,160860,2,0,L|156:219,1,37.5
168,292,160971,6,0,L|175:217,1,75,2|0,0:0|0:0,0:0:0:0:
291,123,161194,1,0,0:0:0:0:
284,198,161305,1,0,0:0:0:0:
222,154,161416,2,0,L|229:79,1,75,8|0,0:0|0:0,0:0:0:0:
144,4,161638,2,0,L|193:8,3,37.5
120,92,161860,6,0,P|67:109|16:92,1,112.5,6|0,0:0|0:0,0:0:0:0:
84,156,162082,2,0,P|96:192|88:248,1,75,2|0,0:1|0:0,0:0:0:0:
158,365,162305,2,0,P|156:327|168:292,1,75,8|0,0:0|0:0,0:0:0:0:
284,198,162527,6,0,L|324:202,1,37.5,2|0,0:1|0:0,0:0:0:0:
360,268,162638,2,0,L|322:271,1,37.5,2|0,0:1|0:0,0:0:0:0:
284,338,162749,1,2,0:0:0:0:
284,338,162860,6,0,L|280:300,1,37.5,2|0,0:1|0:0,0:0:0:0:
348,336,162971,2,0,L|344:298,1,37.5,2|0,0:1|0:0,0:0:0:0:
412,334,163082,2,0,L|408:296,1,37.5,2|0,0:1|0:0,0:0:0:0:
476,332,163194,6,0,L|465:229,1,75,8|0,0:0|0:0,0:0:0:0:
323,272,163416,2,0,L|333:374,1,75
501,268,163638,6,0,B|512:216|512:216|500:157,1,112.5,6|0,0:0|0:0,0:0:0:0:
414,120,163860,2,0,B|370:156|370:156|413:191,1,112.5,2|0,0:1|0:0,0:0:0:0:
492,140,164082,2,0,L|488:64,1,75,8|0,0:0|0:0,0:0:0:0:
340,24,164305,6,0,L|377:22,1,37.5
270,54,164416,2,0,L|308:56,1,37.5
200,23,164527,6,0,L|294:18,1,75,2|0,0:0|0:0,0:0:0:0:
136,112,164749,2,0,P|98:112|64:98,1,75
180,248,164971,6,0,L|329:240,1,150,8|0,0:0|0:0,0:0:0:0:
404,256,165305,1,0,0:0:0:0:
431,384,165416,6,0,B|420:355|438:328|438:328|387:344|351:313|351:313|299:282|263:354|312:353,1,262.5,6|0,0:0|0:0,0:0:0:0:
406,312,165860,2,0,L|402:200,1,112.5,8|0,0:0|0:0,0:0:0:0:
448,76,166082,2,0,P|451:93|446:120,3,37.5
383,172,166305,6,0,P|347:179|312:120,1,112.5,2|0,0:0|0:0,0:0:0:0:
253,48,166527,2,0,L|365:43,1,112.5,2|0,0:1|0:0,0:0:0:0:
312,122,166749,2,0,L|237:119,1,75,8|0,0:0|0:0,0:0:0:0:
188,211,166971,2,0,L|263:208,1,75,2|0,0:1|0:0,0:0:0:0:
379,305,167194,6,0,L|376:230,1,75,6|0,0:0|0:0,0:0:0:0:
291,353,167416,1,0,0:0:0:0:
292,330,167527,1,0,0:0:0:0:
299,249,167638,6,0,L|302:174,1,75,8|0,0:0|0:0,0:0:0:0:
211,297,167860,1,0,0:0:0:0:
210,274,167971,1,0,0:0:0:0:
219,193,168082,6,0,L|216:118,1,75,2|0,0:0|0:0,0:0:0:0:
131,241,168305,1,0,0:0:0:0:
132,218,168416,1,0,0:0:0:0:
139,137,168527,6,0,L|142:62,1,75,8|0,0:0|0:0,0:0:0:0:
51,185,168749,1,0,0:0:0:0:
50,162,168860,1,0,0:0:0:0:
18,74,168971,6,0,B|77:31|143:62|143:62|209:101|278:56|278:56|238:82|236:141,1,360.000013732911,6|0,0:0|0:0,0:0:0:0:
237,126,170082,2,0,L|240:180,1,45.0000017166138,8|0,0:0|0:0,0:0:0:0:
420,268,170305,6,0,P|451:237|454:193,1,90.0000034332277,6|2,0:0|0:0,0:0:0:0:
364,124,170527,2,0,L|319:127,3,45.0000017166138,2|2|2|2,0:0|0:0|0:0|0:0,0:0:0:0:
239,171,170749,6,0,L|246:291,1,120,6|0,0:0|0:0,0:0:0:0:
243,351,171082,2,0,L|246:291,1,60
239,171,171305,2,0,L|237:141,5,30
350,98,171638,6,0,L|348:127,7,30,8|0|0|0|0|0|0|0,0:0|0:0|0:0|0:0|0:0|0:0|0:0|0:0,0:0:0:0:
336,224,172082,2,0,P|304:228|264:220,1,60
212,74,172305,2,0,L|209:28,2,40,2|2|2,0:0|0:0|0:0,0:0:0:0:
180,192,172527,6,0,P|122:207|66:189,1,120,6|0,0:0|0:0,0:0:0:0:
24,148,172860,2,0,P|66:189|78:247,1,120,2|0,0:0|0:0,0:0:0:0:
56,320,173194,1,2,0:0:0:0:
56,320,173305,1,2,0:0:0:0:
56,320,173416,6,0,B|24:316|24:316|128:308,1,120,8|0,0:0|0:0,0:0:0:0:
256,352,173749,2,0,B|294:371|294:371|158:363,1,180,8|0,0:0|0:0,0:0:0:0:
157,363,174305,6,0,L|164:243,1,120,6|0,0:0|0:0,0:0:0:0:
161,184,174638,2,0,L|164:243,1,60
157,363,174860,2,0,L|186:361,5,30,0|0|2|0|2|0,0:0|0:0|0:0|0:0|0:0|0:0,0:0:0:0:
286,288,175194,6,0,L|256:286,7,30,8|0|0|0|0|0|0|0,0:0|0:0|0:0|0:0|0:0|0:0|0:0|0:0,0:0:0:0:
231,210,175638,2,0,P|223:174|227:146,1,60
328,288,175860,2,0,L|324:336,2,40,2|2|2,0:0|0:0|0:0,0:0:0:0:
304,128,176082,6,0,L|416:132,1,90,2|0,0:0|0:0,0:0:0:0:
480,220,176305,2,0,L|509:217,3,30,8|0|0|0,0:0|0:0|0:0|0:0,0:0:0:0:
424,304,176527,2,0,L|394:301,3,30
484,384,176749,2,0,L|486:308,1,60,2|2,0:0|0:0,0:0:0:0:
394,131,176971,6,0,L|399:257,1,120,8|0,0:0|0:0,0:0:0:0:
351,76,177305,2,0,L|353:147,1,60,8|0,0:0|0:0,0:0:0:0:
308,21,177527,1,8,0:0:0:0:
308,21,177638,2,0,L|310:80,1,60,8|8,0:0|0:0,0:0:0:0:
356,196,177860,6,0,P|300:180|224:208,1,120,6|0,0:0|0:0,0:0:0:0:
183,195,178194,2,0,P|212:202|241:195,1,60
314,110,178416,2,0,L|311:81,5,30
356,196,178749,6,0,L|352:225,9,30,8|0|0|0|0|0|0|0|0|0,0:0|0:0|0:0|0:0|0:0|0:0|0:0|0:0|0:0|0:0,0:0:0:0:
352,225,179305,1,8,0:0:0:0:
449,113,179416,2,0,L|443:64,2,40,2|2|2,0:0|0:0|0:0,0:0:0:0:
512,288,179638,6,0,P|456:272|384:280,1,120,6|0,0:0|0:0,0:0:0:0:
353,319,179971,2,0,P|394:278|423:212,1,120,2|0,0:0|0:0,0:0:0:0:
428,148,180305,1,2,0:0:0:0:
428,148,180416,1,2,0:0:0:0:
428,148,180527,6,0,B|419:77|419:77|401:127,1,120,8|0,0:0|0:0,0:0:0:0:
476,256,180860,2,0,B|492:301|492:301|508:168,1,180,8|8,0:0|0:0,0:0:0:0:
508,170,181305,1,8,0:0:0:0:
507,170,181416,5,2,0:0:0:0:
364,184,181638,1,0,0:0:0:0:
473,88,181860,1,0,0:0:0:0:
440,229,182082,1,2,0:0:0:0:
440,229,182194,1,2,0:0:0:0:
440,229,182305,6,0,P|384:224|312:228,1,120,8|0,0:0|0:0,0:0:0:0:
240,264,182638,1,8,0:0:0:0:
240,264,182749,2,0,L|244:356,1,60
353,319,182971,2,0,L|351:358,2,40,2|2|2,0:0|0:0|0:0,0:0:0:0:
321,227,183194,6,0,L|218:222,1,90,6|0,0:0|0:0,0:0:0:0:
152,148,183416,2,0,L|150:108,3,30,8|0|0|0,0:0|0:0|0:0|0:0,0:0:0:0:
88,207,183638,2,0,L|86:246,3,30
72,128,183860,2,0,P|42:123|12:128,1,60,2|2,0:0|0:0,0:0:0:0:
151,118,184082,6,0,P|200:120|252:96,1,90,8|0,0:0|0:0,0:0:0:0:
303,151,184305,2,0,L|213:147,1,90,2|0,0:0|0:0,0:0:0:0:
231,223,184527,2,0,L|229:270,7,30,8|0|0|0|0|0|0|0,0:0|0:0|0:0|0:0|0:0|0:0|0:0|0:0,0:0:0:0:
204,340,184971,6,6,B|192:340|188:324|188:324|232:344|268:324,1,103.500001974106,6|0,0:0|0:0,0:0:0:0:
344,288,185194,2,0,B|368:271|368:271|336:251|288:267,1,103.500001974106
333,371,185416,2,0,L|381:367,7,34.5000006580353,8|0|0|0|0|0|0|0,0:0|0:1|0:1|0:1|0:1|0:1|0:1|0:1,0:0:0:0:
424,302,185860,6,0,L|389:299,3,34.5000006580353,2|0|0|0,0:0|0:1|0:1|0:1,0:0:0:0:
297,265,186082,2,0,L|301:217,3,34.5000006580353,0|0|0|0,0:0|0:1|0:1|0:0,0:0:0:0:
394,200,186305,2,0,L|390:145,3,34.5000006580353,8|0|0|0,0:0|0:1|0:0|0:0,0:0:0:0:
324,96,186527,2,0,L|328:46,2,46.0000008773804,2|2|2,0:0|0:0|0:0,0:0:0:0:
232,192,186749,6,0,P|200:184|156:184,1,69.0000013160706,2|0,0:0|0:0,0:0:0:0:
88,292,186971,2,0,L|90:329,1,34.5000006580353
124,384,187082,2,0,L|125:349,1,34.5000006580353,2|0,0:0|0:0,0:0:0:0:
172,300,187194,2,0,P|236:280|316:312,1,138.000002632141,8|2,0:0|0:0,0:0:0:0:
361,329,187527,1,2,0:0:0:0:
399,384,187638,6,0,L|404:292,1,69.0000013160706,8|0,0:0|0:0,0:0:0:0:
334,242,187860,1,0,0:0:0:0:
334,242,187971,2,0,P|382:242|386:158,1,138.000002632141,8|0,0:0|0:0,0:0:0:0:
487,48,188305,2,0,P|476:80|476:114,1,69.0000013160706,8|0,0:0|0:0,0:0:0:0:
312,168,188527,6,0,L|200:172,1,103.500001974106,6|0,0:0|0:0,0:0:0:0:
128,140,188749,2,0,L|231:143,1,103.500001974106
272,220,188971,2,0,L|268:304,1,69.0000013160706,8|0,0:0|0:0,0:0:0:0:
289,99,189194,1,2,0:0:0:0:
289,99,189305,1,2,0:0:0:0:
289,99,189416,6,0,B|265:63|293:27|313:23|313:23|328:85|388:109|436:77,1,240.000009155274,12|0,0:0|0:0,0:0:0:0:
480,8,190082,6,0,B|456:4|456:4|424:8,2,46.0000008773804,2|2|2,0:0|0:0|0:0,0:0:0:0:
504,124,190305,6,0,L|500:236,1,103.500001974106,6|0,0:0|0:0,0:0:0:0:
440,312,190527,2,0,P|437:328|441:345,3,34.5000006580353,8|0|0|0,0:0|0:0|0:0|0:0,0:0:0:0:
480,240,190749,2,0,P|482:223|478:206,3,34.5000006580353
357,314,190971,2,0,P|324:321|291:311,1,69.0000013160706,2|2,0:0|0:0,0:0:0:0:
160,356,191194,6,0,B|144:372|124:356|124:356|176:332|220:360,1,138.000002632141,8|0,0:0|0:0,0:0:0:0:
352,328,191527,2,0,P|318:335|285:325,1,69.0000013160706,8|0,0:0|0:0,0:0:0:0:
232,284,191749,1,8,0:0:0:0:
236,217,191860,1,8,0:0:0:0:
240,150,191971,1,8,0:0:0:0:
243,83,192082,6,0,P|310:67|377:82,1,138.000002632141,6|0,0:0|0:0,0:0:0:0:
352,256,192416,2,0,P|336:216|336:176,1,69.0000013160706,8|0,0:0|0:0,0:0:0:0:
460,72,192638,2,0,P|456:106|442:137,1,69.0000013160706,2|0,0:0|0:0,0:0:0:0:
304,208,192860,1,0,0:0:0:0:
304,208,192971,6,0,L|152:200,1,138.000002632141,8|0,0:0|0:0,0:0:0:0:
52,308,193305,1,0,0:0:0:0:
52,308,193416,2,0,L|120:304,1,69.0000013160706,2|8,0:0|0:0,0:0:0:0:
232,172,193638,2,0,L|228:103,2,46.0000008773804,2|2|2,0:0|0:0|0:0,0:0:0:0:
268,280,193860,6,0,P|336:284|384:232,1,138.000002632141,6|0,0:0|0:0,0:0:0:0:
260,300,194194,2,0,L|116:304,1,138.000002632141,8|2,0:0|0:0,0:0:0:0:
304,208,194527,1,0,0:0:0:0:
304,208,194638,2,0,L|300:139,1,69.0000013160706,2|8,0:0|0:0,0:0:0:0:
304,356,194860,6,0,L|441:359,1,138.000002632141,2|8,0:0|0:0,0:0:0:0:
492,268,195194,1,2,0:0:0:0:
428,292,195305,1,8,0:0:0:0:
362,273,195416,1,8,0:0:0:0:
319,219,195527,1,8,0:0:0:0:
317,150,195638,6,0,L|324:8,1,138.000002632141,6|0,0:0|0:0,0:0:0:0:
412,224,196082,1,2,0:0:0:0:
185,195,196305,1,8,0:0:0:0:
185,195,196416,1,2,0:0:0:0:
185,195,196527,6,0,P|160:180|116:176,1,69.0000013160706,8|2,0:0|0:0,0:0:0:0:
175,299,196749,1,0,0:0:0:0:
175,299,196860,2,0,P|200:284|225:248,1,69.0000013160706,8|0,0:0|0:0,0:0:0:0:
89,238,197082,1,2,0:0:0:0:
89,237,197194,2,0,P|87:260|92:283,2,46.0000008773804,10|2|2,0:0|0:0|0:0,0:0:0:0:
0,344,197416,6,0,P|65:316|140:324,1,138.000002632141,8|8,0:0|0:0,0:0:0:0:
196,336,197749,1,8,0:0:0:0:
245,382,197860,1,2,0:0:0:0:
440,240,198082,2,0,L|500:236,2,46.0000008773804,8|8|8,0:0|0:0|0:0,0:0:0:0:
308,192,198305,2,0,L|312:123,1,69.0000013160706,8|2,0:0|0:0,0:0:0:0:
424,255,198527,6,0,L|484:251,2,46.0000008773804,8|8|8,0:0|0:0|0:0,0:0:0:0:
292,207,198749,2,0,L|296:138,1,69.0000013160706,8|8,0:0|0:0,0:0:0:0:
408,270,198971,2,0,L|403:338,1,69.0000013160706,8|8,0:0|0:0,0:0:0:0:
306,350,199194,5,2,0:0:0:0:
309,333,199305,1,0,0:0:0:0:
312,316,199416,2,0,L|222:319,1,90
160,352,199638,6,0,L|157:381,2,30,2|0|0,0:0|0:0|0:0,0:0:0:0:
60,256,199860,2,0,L|164:260,1,90
192,204,200082,6,0,L|189:174,2,30,2|0|0,0:0|0:0|0:0,0:0:0:0:
288,304,200305,2,0,L|392:300,1,90
440,332,200527,6,0,P|444:352|440:372,2,30,2|0|0,0:0|0:0|0:0,0:0:0:0:
344,232,200749,2,0,P|336:188|352:144,1,90
388,88,200971,6,0,P|412:85|436:88,2,30,2|0|0,0:0|0:0|0:0,0:0:0:0:
256,132,201194,2,0,L|148:128,1,90
104,96,201416,6,0,L|50:98,2,30,2|0|0,0:0|0:0|0:0,0:0:0:0:
184,208,201638,2,0,L|180:297,1,90
243,330,201860,6,0,L|297:328,2,30,2|0|0,0:0|0:0|0:0,0:0:0:0:
163,218,202082,2,0,L|166:128,1,90
196,64,202305,6,0,L|194:34,2,30,2|0|0,0:0|0:0|0:0,0:0:0:0:
292,164,202527,2,0,P|344:176|379:163,1,90
420,112,202749,6,0,L|416:40,1,60,2|0,0:3|0:0,0:0:0:0:
372,240,202971,2,0,L|375:299,1,60
432,120,203194,6,0,L|428:48,1,60,2|0,0:3|0:0,0:0:0:0:
360,232,203416,2,0,L|363:291,1,60
444,128,203638,6,0,L|440:56,1,60,2|0,0:3|0:0,0:0:0:0:
348,224,203860,2,0,L|351:283,1,60
456,136,204082,6,0,L|452:64,1,60,2|0,0:3|0:0,0:0:0:0:
336,216,204305,2,0,L|339:275,1,60
468,144,204527,5,2,0:3:0:0:
444,128,204638,1,0,0:0:0:0:
420,112,204749,1,0,0:0:0:0:
396,96,204860,1,0,0:0:0:0:
324,48,204971,5,2,0:3:0:0:
322,76,205082,1,0,0:0:0:0:
320,105,205194,1,0,0:0:0:0:
318,134,205305,1,0,0:0:0:0:
312,220,205416,5,2,0:3:0:0:
338,208,205527,1,0,0:0:0:0:
364,195,205638,1,0,0:0:0:0:
442,157,205749,6,0,P|452:192|440:232,1,60,4|0,0:0|0:0,0:0:0:0:
381,278,205971,2,0,L|393:336,2,60,2|2|2,0:0|0:0|0:0,0:0:0:0:
364,195,206305,5,4,0:0:0:0:
256,192,206416,12,0,209860,0:0:0:0:
208,352,220527,5,2,0:0:0:0:
344,288,220971,1,0,0:0:0:0:
196,259,221416,1,8,0:0:0:0:
298,369,221860,2,0,P|328:364|364:364,1,60
340,228,222305,6,0,L|344:288,1,60,2|0,0:0|0:0,0:0:0:0:
428,352,222749,2,0,L|431:292,1,60
436,216,223194,1,8,0:0:0:0:
432,196,223638,1,0,0:0:0:0:
428,176,224082,5,2,0:0:0:0:
284,212,224527,1,0,0:0:0:0:
421,267,224971,1,8,0:0:0:0:
342,141,225416,2,0,P|312:136|276:136,1,60,0|2,0:0|0:0,0:0:0:0:
168,76,225860,6,0,L|232:72,1,60,2|0,0:0|0:0,0:0:0:0:
184,168,226305,2,0,L|120:164,1,60
48,160,226749,1,8,0:0:0:0:
52,184,227194,1,0,0:0:0:0:
56,208,227638,5,2,0:0:0:0:
156,320,228082,1,0,0:0:0:0:
140,170,228527,1,8,0:0:0:0:
64,300,228971,2,0,L|128:296,1,60
212,196,229416,6,0,P|203:224|209:253,1,60,2|0,0:0|0:0,0:0:0:0:
276,336,229860,2,0,P|280:304|273:278,1,60
325,235,230305,1,8,0:0:0:0:
328,212,230749,1,0,0:0:0:0:
331,189,231194,5,2,0:0:0:0:
256,192,231305,12,4,232971,0:0:0:0:
331,189,234082,6,0,L|327:241,1,45.0000017166138,8|0,0:0|0:0,0:0:0:0:
243,310,234305,2,0,B|227:234|227:234|242:155,1,157.500006008148,12|0,0:0|0:0,0:0:0:0:
240,84,234749,6,0,B|200:64|129:74|129:74|192:44|224:44|224:44|276:86|352:76,1,337.500012874604,6|0,0:0|0:0,0:0:0:0:
360,72,235638,2,0,L|356:12,1,45.0000017166138
440,103,235860,2,0,B|432:79|448:63|448:63|472:107|448:159,1,135.000005149841,2|0,0:0|0:0,0:0:0:0:
468,232,236305,6,0,B|476:204|512:192|512:192|392:204|392:204|364:192|364:192|304:216|244:176|244:96|312:64,1,427.500016307831,6|0,0:0|0:0,0:0:0:0:
320,76,237416,2,0,L|312:240,1,157.500006008148,2|0,0:0|0:0,0:0:0:0:
272,288,237860,2,0,L|274:323,7,22.5000008583069
204,280,238305,6,0,B|168:260|168:260|116:284|64:260|64:260|76:296|116:284|116:284|156:332|124:380|84:364|96:336,1,337.500012874604,6|0,0:0|0:0,0:0:0:0:
76,332,239194,2,0,L|80:288,1,45.0000017166138
116,180,239416,2,0,B|156:160|156:160|248:164,1,135.000005149841,2|0,0:0|0:0,0:0:0:0:
288,226,239860,6,0,B|314:260|286:308|286:308|226:292|186:220|246:164|246:164|316:136|360:180|360:232,1,427.500016307831,6|0,0:0|0:0,0:0:0:0:
368,240,240971,2,0,P|344:165|365:91,1,157.500006008148,2|0,0:0|0:0,0:0:0:0:
416,40,241416,2,0,L|456:44,7,22.5000008583069
347,25,241860,6,0,B|308:36|308:36|236:32,1,90,6|0,0:0|0:0,0:0:0:0:
188,60,242082,2,0,L|277:53,1,90
316,120,242305,2,0,P|324:148|316:192,1,60,8|0,0:0|0:0,0:0:0:0:
268,296,242527,2,0,P|259:267|262:237,1,60
388,208,242749,6,0,L|448:212,1,60,2|0,0:0|0:0,0:0:0:0:
396,312,242971,2,0,L|336:316,1,60
475,224,243194,2,0,B|452:266|452:266|476:308|456:348,1,120,8|0,0:0|0:0,0:0:0:0:
408,379,243527,1,0,0:0:0:0:
305,376,243638,6,0,B|268:355|270:308|270:308|319:313|343:281|396:312,1,210,6|0,0:0|0:0,0:0:0:0:
324,256,244082,2,0,P|280:254|256:218,1,90,8|0,0:0|0:0,0:0:0:0:
211,110,244305,2,0,L|209:139,3,30
256,188,244527,6,0,L|368:192,1,90,2|0,0:0|0:0,0:0:0:0:
404,140,244749,2,0,P|361:146|303:131,1,90
276,72,244971,2,0,P|272:32|280:8,1,60,8|0,0:0|0:0,0:0:0:0:
368,16,245194,2,0,P|374:45|369:74,1,60
256,188,245416,5,2,0:0:0:0:
236,157,245527,1,0,0:0:0:0:
203,139,245638,1,0,0:0:0:0:
165,137,245749,1,0,0:0:0:0:
111,253,245860,5,8,0:0:0:0:
129,224,245971,1,0,0:0:0:0:
157,206,246082,1,0,0:0:0:0:
190,204,246194,1,0,0:0:0:0:
253,310,246305,5,2,0:0:0:0:
236,284,246416,1,0,0:0:0:0:
210,270,246527,1,0,0:0:0:0:
179,269,246638,1,0,0:0:0:0:
128,375,246749,5,8,0:0:0:0:
143,351,246860,1,0,0:0:0:0:
165,337,246971,1,0,0:0:0:0:
192,335,247082,1,0,0:0:0:0:
265,271,247194,6,0,B|312:256|328:212|328:212|344:252|328:288|328:288|316:324|332:368,1,240,6|0,0:0|0:0,0:0:0:0:
329,359,248305,2,0,L|372:356,1,30,8|0,0:0|0:0,0:0:0:0:
414,303,248527,6,0,P|438:194|328:212,1,262.5,12|0,0:0|0:0,0:0:0:0:
390,240,248971,6,0,P|393:186|356:148,1,75,6|0,0:0|0:0,0:0:0:0:
266,184,249194,2,0,P|264:240|300:276,1,75,2|0,0:1|0:0,0:0:0:0:
420,150,249416,6,0,P|384:123|340:123,1,75,8|0,0:0|0:0,0:0:0:0:
236,274,249638,2,0,P|271:300|315:300,1,75,2|0,0:1|0:0,0:0:0:0:
357,79,249860,6,0,P|316:95|294:134,1,75,2|0,0:0|0:0,0:0:0:0:
299,345,250082,2,0,P|339:328|361:289,1,75,2|0,0:1|0:0,0:0:0:0:
264,98,250305,6,0,P|258:141|280:179,1,75,8|0,0:0|0:0,0:0:0:0:
391,325,250527,2,0,P|396:281|374:243,1,75,2|0,0:1|0:0,0:0:0:0:
234,188,250749,6,0,B|348:176|348:176|388:220|452:204,1,225,6|0,0:0|0:0,0:0:0:0:
326,242,251194,6,0,B|212:229|212:229|172:273|108:257,1,225,6|0,0:0|0:0,0:0:0:0:
234,297,251638,6,0,B|347:284|347:284|387:328|451:312,1,225,6|0,0:0|0:0,0:0:0:0:
325,350,252082,6,0,B|211:337|211:337|171:381|110:366,1,225,6|0,0:0|0:0,0:0:0:0:
110,183,252527,6,0,L|111:276,1,75,6|0,0:0|0:0,0:0:0:0:
232,196,252749,2,0,L|230:102,1,75,2|0,0:1|0:0,0:0:0:0:
89,227,252971,6,0,L|145:302,1,75,8|0,0:0|0:0,0:0:0:0:
253,152,253194,2,0,L|196:76,1,75,2|0,0:1|0:0,0:0:0:0:
97,274,253416,6,0,L|186:301,1,75,2|0,0:0|0:0,0:0:0:0:
244,104,253638,2,0,L|154:76,1,75,2|0,0:1|0:0,0:0:0:0:
131,307,253860,6,0,L|219:276,1,75,8|0,0:0|0:0,0:0:0:0:
208,70,254082,2,0,L|119:100,1,75,2|0,0:1|0:0,0:0:0:0:
177,313,254305,6,0,B|224:264|272:272|272:272|304:332|392:312,1,225,6|0,0:0|0:0,0:0:0:0:
242,341,254749,6,0,B|197:389|149:381|149:381|117:321|48:337,1,225,6|0,0:0|0:0,0:0:0:0:
177,313,255194,6,0,B|337:305|337:305|269:273,1,225,6|0,0:0|0:0,0:0:0:0:
160,228,255638,6,0,B|0:220|0:220|68:188,1,225,6|0,0:0|0:0,0:0:0:0:
192,64,256082,6,0,L|196:148,1,75,6|0,0:0|0:0,0:0:0:0:
320,64,256305,2,0,L|316:148,1,75,2|0,0:1|0:0,0:0:0:0:
152,104,256527,6,0,L|184:181,1,75,8|0,0:0|0:0,0:0:0:0:
360,104,256749,2,0,L|327:181,1,75,2|0,0:1|0:0,0:0:0:0:
128,155,256971,6,0,L|185:216,1,75,2|0,0:0|0:0,0:0:0:0:
384,155,257194,2,0,L|326:216,1,75,2|0,0:1|0:0,0:0:0:0:
122,211,257416,6,0,L|196:249,1,75,8|0,0:0|0:0,0:0:0:0:
390,211,257638,2,0,L|315:249,1,75,2|0,0:1|0:0,0:0:0:0:
144,262,257860,6,0,B|104:272|104:272|80:238|80:238|245:250,1,225,6|0,0:0|0:0,0:0:0:0:
351,201,258305,6,0,B|391:211|391:211|415:177|415:177|250:189,1,225,6|0,0:0|0:0,0:0:0:0:
144,138,258749,6,0,B|104:148|104:148|80:114|80:114|222:125,1,225,6|0,0:0|0:0,0:0:0:0:
350,77,259194,6,0,B|390:87|390:87|414:53|414:53|273:64,1,225,6|0,0:0|0:0,0:0:0:0:
220,192,259638,6,0,L|224:312,1,112.5,2|0,0:0|0:0,0:0:0:0:
256,324,259860,2,0,L|252:204,1,112.5
178,224,260082,6,0,L|266:306,1,112.5,8|0,0:0|0:0,0:0:0:0:
297,291,260305,2,0,L|209:209,1,112.5
172,276,260527,6,0,L|291:272,1,112.5,2|0,0:0|0:0,0:0:0:0:
304,240,260749,2,0,L|184:244,1,112.5
204,317,260971,6,0,L|286:229,1,112.5,8|0,0:0|0:0,0:0:0:0:
271,198,261194,2,0,L|189:286,1,112.5
330,368,261416,6,0,B|458:348|458:348|422:383,2,180.000006866455,6|0|0,0:0|0:0|0:0,0:0:0:0:
340,188,262527,1,8,0:0:0:0:
458,348,262749,1,12,0:0:0:0:
256,248,262971,1,0,0:0:0:0:
256,248,263082,1,0,0:0:0:0:
256,248,263194,6,0,B|216:228|176:248|176:248|196:280,1,112.5
256,342,263416,2,0,P|200:338|146:353,1,112.5,2|0,0:1|0:0,0:0:0:0:
64,308,263638,6,0,P|104:304|104:248,1,75,8|0,0:0|0:0,0:0:0:0:
32,152,263860,6,0,L|35:189,1,37.5
100,136,263971,2,0,L|66:120,1,37.5
79,202,264082,6,0,L|168:196,1,75,2|0,0:0|0:0,0:0:0:0:
256,88,264305,2,0,L|167:82,1,75
256,248,264527,2,0,P|312:238|353:323,1,150,8|0,0:0|0:0,0:0:0:0:
312,368,264860,1,0,0:0:0:0:
435,356,264971,6,0,B|460:305|434:262|434:262|460:228|460:228|426:175|469:108,1,262.5,6|0,0:0|0:0,0:0:0:0:
368,192,265416,2,0,P|376:112|400:72,1,112.5,8|0,0:0|0:0,0:0:0:0:
492,38,265638,2,0,L|455:35,3,37.5
391,85,265860,6,0,P|339:95|277:62,1,112.5,2|0,0:0|0:0,0:0:0:0:
202,114,266082,2,0,L|314:112,1,112.5,2|0,0:1|0:0,0:0:0:0:
368,192,266305,2,0,P|376:228|372:268,1,75,8|0,0:0|0:0,0:0:0:0:
256,360,266527,6,0,L|218:353,1,37.5,2|0,0:1|0:0,0:0:0:0:
226,276,266638,2,0,L|263:276,1,37.5,2|0,0:1|0:0,0:0:0:0:
322,325,266749,6,0,L|247:318,1,75,6|0,0:0|0:0,0:0:0:0:
144,208,266971,2,0,L|218:201,1,75
122,331,267194,6,0,P|104:338|86:340,1,37.5,8|0,0:0|0:0,0:0:0:0:
114,267,267305,2,0,P|124:252|139:240,1,37.5
158,315,267416,2,0,P|159:333|155:352,1,37.5
94,301,267527,2,0,P|82:287|75:270,1,37.5
152,275,267638,6,0,P|189:268|226:276,1,75,2|0,0:0|0:0,0:0:0:0:
320,168,267860,1,0,0:0:0:0:
393,167,267971,1,0,0:0:0:0:
357,230,268082,2,0,P|320:237|283:229,1,75,8|0,0:0|0:0,0:0:0:0:
208,144,268305,2,0,L|210:104,3,37.5
287,112,268527,6,0,L|281:0,1,112.5,6|0,0:0|0:0,0:0:0:0:
332,56,268749,2,0,P|372:64|417:52,1,75,2|0,0:1|0:0,0:0:0:0:
512,212,268971,2,0,P|472:204|427:216,1,75,8|0,0:0|0:0,0:0:0:0:
322,325,269194,6,0,L|326:377,1,37.5,2|0,0:1|0:0,0:0:0:0:
360,264,269305,2,0,L|357:301,1,37.5,2|0,0:1|0:0,0:0:0:0:
322,203,269416,1,2,0:0:0:0:
322,203,269527,6,0,L|326:255,1,37.5,2|0,0:1|0:0,0:0:0:0:
362,137,269638,2,0,L|359:174,1,37.5,2|0,0:1|0:0,0:0:0:0:
324,76,269749,2,0,L|328:128,1,37.5,2|0,0:1|0:0,0:0:0:0:
364,10,269860,6,0,L|356:104,1,75,8|0,0:0|0:0,0:0:0:0:
325,240,270082,2,0,L|317:145,1,75,2|0,0:1|0:0,0:0:0:0:
200,56,270305,6,0,P|145:43|91:56,1,112.5,6|0,0:0|0:0,0:0:0:0:
73,150,270527,2,0,P|93:182|129:134,1,112.5,2|0,0:1|0:0,0:0:0:0:
91,56,270749,2,0,L|102:144,1,75,8|0,0:0|0:0,0:0:0:0:
172,264,270971,6,0,L|176:224,1,37.5
211,160,271082,2,0,L|214:197,1,37.5
246,267,271194,6,0,L|172:264,1,75,2|0,0:0|0:0,0:0:0:0:
343,309,271416,2,0,P|383:301|427:309,1,75
227,375,271638,2,0,P|167:334|94:343,1,150,8|0,0:0|0:0,0:0:0:0:
32,384,271971,1,0,0:0:0:0:
40,260,272082,6,0,B|63:237|39:197|39:197|15:237|39:297|39:297|55:337|32:384,1,262.5,6|0,0:0|0:0,0:0:0:0:
155,378,272527,2,0,L|269:375,1,112.5,8|0,0:0|0:0,0:0:0:0:
376,344,272749,2,0,L|324:340,3,37.5
276,304,272971,6,0,B|256:260|276:224|276:224|300:197,1,112.5,2|0,0:0|0:0,0:0:0:0:
388,227,273194,2,0,L|276:224,1,112.5,2|0,0:1|0:0,0:0:0:0:
220,148,273416,2,0,P|211:111|219:75,1,75,8|0,0:0|0:0,0:0:0:0:
376,80,273638,2,0,P|384:116|376:152,1,75,2|0,0:1|0:0,0:0:0:0:
350,307,273860,6,0,L|276:304,1,75,6|0,0:0|0:0,0:0:0:0:
136,358,274082,1,0,0:0:0:0:
136,344,274194,1,0,0:0:0:0:
139,270,274305,6,0,L|213:266,1,75,8|0,0:0|0:0,0:0:0:0:
350,321,274527,1,0,0:0:0:0:
350,307,274638,1,0,0:0:0:0:
348,234,274749,6,0,L|273:230,1,75,2|0,0:0|0:0,0:0:0:0:
139,284,274971,1,0,0:0:0:0:
139,270,275082,1,0,0:0:0:0:
142,196,275194,6,0,L|216:192,1,75,8|0,0:0|0:0,0:0:0:0:
348,248,275416,1,0,0:0:0:0:
348,234,275527,1,0,0:0:0:0:
344,159,275638,6,0,P|296:133|240:130,1,112.5,6|0,0:0|0:0,0:0:0:0:
328,96,275860,2,0,L|412:92,1,75,2|0,0:1|0:0,0:0:0:0:
512,244,276082,2,0,L|437:240,1,75,8|0,0:0|0:0,0:0:0:0:
256,296,276305,6,0,P|248:320|252:348,1,37.5,2|0,0:1|0:0,0:0:0:0:
324,332,276416,2,0,P|348:326|371:309,1,37.5,2|0,0:1|0:0,0:0:0:0:
322,256,276527,1,2,0:0:0:0:
322,256,276638,6,0,L|272:260,1,37.5,2|0,0:1|0:0,0:0:0:0:
304,184,276749,2,0,L|254:188,1,37.5,2|0,0:1|0:0,0:0:0:0:
286,112,276860,2,0,L|336:116,1,37.5,2|0,0:1|0:0,0:0:0:0:
304,40,276971,6,0,L|392:48,1,75,8|2,0:0|0:0,0:0:0:0:
267,187,277194,2,0,L|179:195,1,75,2|2,0:0|0:0,0:0:0:0:
396,116,277416,6,0,P|420:168|400:244,1,112.5,6|0,0:0|0:0,0:0:0:0:
384,312,277638,2,0,L|376:199,1,112.5,2|0,0:1|0:0,0:0:0:0:
454,249,277860,2,0,L|380:255,1,75,8|0,0:0|0:0,0:0:0:0:
256,340,278082,6,0,L|300:344,1,37.5
276,268,278194,2,0,L|257:227,1,37.5
204,287,278305,6,0,P|156:282|128:290,1,75,2|0,0:0|0:0,0:0:0:0:
0,216,278527,2,0,P|48:221|76:213,1,75
144,0,278749,2,0,L|152:152,1,150,8|0,0:0|0:0,0:0:0:0:
188,216,279082,1,0,0:0:0:0:
271,304,279194,6,0,B|255:340|255:340|235:292|235:292|186:318|130:289|130:289|115:323|137:351,1,262.5,6|0,0:0|0:0,0:0:0:0:
255,340,279638,2,0,P|296:328|384:340,1,112.5,8|0,0:0|0:0,0:0:0:0:
480,276,279860,2,0,P|461:279|442:279,3,37.5
383,227,280082,6,0,P|368:174|385:122,1,112.5,2|0,0:0|0:0,0:0:0:0:
344,36,280305,2,0,L|348:152,1,112.5,2|0,0:1|0:0,0:0:0:0:
442,158,280527,2,0,P|453:119|431:72,1,75,8|0,0:0|0:0,0:0:0:0:
308,24,280749,6,0,P|289:25|271:30,1,37.5,2|0,0:1|0:0,0:0:0:0:
208,84,280860,2,0,P|226:85|244:90,1,37.5,2|0,0:1|0:0,0:0:0:0:
260,172,280971,6,0,L|256:264,1,75,6|0,0:0|0:0,0:0:0:0:
116,304,281194,2,0,P|156:296|196:296,1,75
338,270,281416,6,0,L|359:308,1,37.5,8|0,0:0|0:0,0:0:0:0:
384,367,281527,2,0,L|343:348,1,37.5
289,315,281638,2,0,L|333:306,1,37.5
395,301,281749,2,0,L|364:334,1,37.5
318,382,281860,6,0,L|326:307,1,75,2|0,0:0|0:0,0:0:0:0:
251,180,282082,1,0,0:0:0:0:
243,254,282194,1,0,0:0:0:0:
312,224,282305,2,0,L|320:149,1,75,8|0,0:0|0:0,0:0:0:0:
260,52,282527,2,0,L|255:14,3,37.5
224,116,282749,6,0,B|188:124|188:124|92:120,1,112.5,6|0,0:0|0:0,0:0:0:0:
52,48,282971,2,0,L|126:50,1,75,2|0,0:1|0:0,0:0:0:0:
252,192,283194,2,0,L|177:189,1,75,8|0,0:0|0:0,0:0:0:0:
68,296,283416,6,0,L|64:340,1,37.5,2|0,0:1|0:0,0:0:0:0:
140,328,283527,2,0,L|136:372,1,37.5,2|0,0:1|0:0,0:0:0:0:
212,360,283638,1,2,0:0:0:0:
212,360,283749,6,0,L|256:356,1,37.5,2|0,0:1|0:0,0:0:0:0:
248,280,283860,2,0,L|273:316,1,37.5,2|0,0:1|0:0,0:0:0:0:
335,271,283971,2,0,L|316:310,1,37.5,2|0,0:1|0:0,0:0:0:0:
386,341,284082,6,0,L|302:347,1,75,6|0,0:0|0:0,0:0:0:0:
400,224,284305,2,0,L|474:229,1,75,2|0,0:1|0:0,0:0:0:0:
252,192,284527,6,0,L|260:77,1,112.5,6|0,0:0|0:0,0:0:0:0:
348,45,284749,2,0,B|388:85|388:85|340:125,1,112.5,2|0,0:1|0:0,0:0:0:0:
252,104,284971,2,0,P|215:99|178:99,1,75,8|0,0:0|0:0,0:0:0:0:
56,200,285194,6,0,L|60:248,1,37.5
12,296,285305,2,0,L|51:268,1,37.5
118,287,285416,6,0,L|113:361,1,75,2|0,0:0|0:0,0:0:0:0:
264,248,285638,2,0,P|268:210|261:174,1,75
185,384,285860,2,0,P|255:360|330:365,1,150,8|0,0:0|0:0,0:0:0:0:
404,384,286194,1,0,0:0:0:0:
502,330,286305,6,0,B|512:297|476:273|476:273|440:317|440:317|386:293|339:325|330:367,1,262.5,6|0,0:0|0:0,0:0:0:0:
416,244,286749,6,0,P|424:192|392:120,1,112.5,8|0,0:0|0:0,0:0:0:0:
356,4,286971,2,0,L|352:52,3,37.5
379,123,287194,6,0,L|254:112,1,112.5,2|0,0:0|0:0,0:0:0:0:
196,50,287416,2,0,P|249:63|267:114,1,112.5,2|0,0:1|0:0,0:0:0:0:
280,208,287638,2,0,L|276:304,1,75,8|0,0:0|0:0,0:0:0:0:
119,384,287860,2,0,L|115:288,1,75,2|0,0:1|0:0,0:0:0:0:
126,88,288082,6,0,L|202:92,1,75,6|0,0:0|0:0,0:0:0:0:
334,164,288305,1,0,0:0:0:0:
319,163,288416,1,0,0:0:0:0:
244,159,288527,6,0,L|169:162,1,75,8|0,0:0|0:0,0:0:0:0:
36,235,288749,1,0,0:0:0:0:
51,234,288860,1,0,0:0:0:0:
126,230,288971,6,0,L|200:233,1,75,2|0,0:0|0:0,0:0:0:0:
334,306,289194,1,0,0:0:0:0:
319,305,289305,1,0,0:0:0:0:
244,301,289416,6,0,L|169:304,1,75,8|0,0:0|0:0,0:0:0:0:
36,377,289638,1,0,0:0:0:0:
51,376,289749,1,0,0:0:0:0:
126,372,289860,6,0,B|192:328|256:368|256:368|316:328|316:328|384:372|460:328,1,360.000013732911,6|0,0:0|0:0,0:0:0:0:
457,329,290971,2,0,P|464:300|460:276,1,45.0000017166138,8|0,0:0|0:0,0:0:0:0:
424,216,291194,6,0,P|363:241|420:129,1,315.000012016297,12|0,0:0|0:0,0:0:0:0:
372,175,291638,6,0,L|288:172,1,60
256,84,291860,2,0,L|315:81,1,60,2|0,0:0|0:0,0:0:0:0:
256,240,292082,6,0,L|172:237,1,75,8|0,0:0|0:0,0:0:0:0:
32,336,292305,6,0,L|93:333,1,37.5,2|0,0:1|0:0,0:0:0:0:
112,272,292416,2,0,L|50:269,1,37.5,2|0,0:1|0:0,0:0:0:0:
32,208,292527,1,2,0:0:0:0:
32,208,292638,6,0,P|32:188|36:168,1,37.5,2|0,0:1|0:0,0:0:0:0:
111,169,292749,2,0,P|114:187|114:206,1,37.5,2|0,0:1|0:0,0:0:0:0:
190,204,292860,2,0,P|189:185|193:166,1,37.5,2|0,0:1|0:0,0:0:0:0:
268,163,292971,6,0,P|272:208|266:250,1,75,8|0,0:0|0:0,0:0:0:0:
111,169,293194,2,0,P|107:131|111:94,1,75
288,32,293416,6,0,L|412:36,1,112.5,6|0,0:0|0:0,0:0:0:0:
461,108,293638,2,0,P|423:102|387:108,1,75,2|0,0:1|0:0,0:0:0:0:
256,240,293860,2,0,P|293:245|329:239,1,75,8|0,0:0|0:0,0:0:0:0:
190,130,294082,6,0,L|192:167,1,37.5,2|0,0:1|0:0,0:0:0:0:
144,228,294194,2,0,L|146:190,1,37.5,2|0,0:1|0:0,0:0:0:0:
82,138,294305,1,2,0:0:0:0:
82,138,294416,6,0,L|32:140,1,37.5,2|0,0:1|0:0,0:0:0:0:
0,204,294527,2,0,L|37:205,1,37.5
82,270,294638,2,0,L|32:272,1,37.5,2|0,0:1|0:0,0:0:0:0:
0,336,294749,6,0,L|84:340,1,75,8|0,0:0|0:0,0:0:0:0:
220,380,294971,6,0,L|222:334,1,37.5,2|0,0:1|0:0,0:0:0:0:
284,296,295082,2,0,L|286:341,1,37.5,2|0,0:1|0:0,0:0:0:0:
352,376,295194,6,0,B|472:372,1,112.5,6|0,0:0|0:0,0:0:0:0:
480,279,295416,2,0,B|444:239|444:239|417:291,1,112.5,2|0,0:1|0:0,0:0:0:0:
465,372,295638,2,0,L|446:270,1,75,8|0,0:0|0:0,0:0:0:0:
416,152,295860,6,0,L|365:155,1,37.5,2|0,0:1|0:0,0:0:0:0:
320,108,295971,2,0,L|269:105,1,37.5,2|0,0:1|0:0,0:0:0:0:
224,152,296082,1,2,0:0:0:0:
224,152,296194,6,0,L|181:180,1,37.5,2|0,0:1|0:0,0:0:0:0:
213,245,296305,2,0,L|173:213,1,37.5,2|0,0:1|0:0,0:0:0:0:
119,263,296416,2,0,L|137:215,1,37.5,2|0,0:1|0:0,0:0:0:0:
71,181,296527,6,0,L|145:183,1,75,8|0,0:0|0:0,0:0:0:0:
296,116,296749,2,0,L|221:113,1,75,2|0,0:1|0:0,0:0:0:0:
280,268,296971,6,0,P|332:280|400:260,1,112.5,6|0,0:0|0:0,0:0:0:0:
460,332,297194,2,0,P|432:300|356:312,1,112.5,2|0,0:1|0:0,0:0:0:0:
325,363,297416,2,0,P|360:376|397:369,1,75,8|0,0:0|0:0,0:0:0:0:
488,248,297638,6,0,L|484:208,1,37.5,2|0,0:1|0:0,0:0:0:0:
423,163,297749,2,0,L|419:200,1,37.5,2|0,0:1|0:0,0:0:0:0:
350,247,297860,1,2,0:0:0:0:
350,247,297971,6,0,L|354:210,1,37.5,2|0,0:1|0:0,0:0:0:0:
276,224,298082,2,0,L|279:186,1,37.5
201,247,298194,2,0,L|197:209,1,37.5,2|0,0:1|0:0,0:0:0:0:
127,271,298305,6,0,L|120:184,1,75,8|0,0:0|0:0,0:0:0:0:
94,190,298471,1,0,0:0:0:0:
94,190,298527,2,0,L|56:193,1,37.5,2|0,0:1|0:0,0:0:0:0:
94,122,298638,2,0,L|56:125,1,37.5,2|0,0:1|0:0,0:0:0:0:
94,54,298749,6,0,P|140:66|210:18,1,112.5,6|0,0:0|0:0,0:0:0:0:
272,96,298971,2,0,L|404:104,1,112.5,2|0,0:1|0:0,0:0:0:0:
448,32,299194,2,0,L|367:36,1,75,10|0,0:0|0:0,0:0:0:0:
316,176,299416,6,0,L|320:228,1,37.5,2|0,0:1|0:0,0:0:0:0:
260,264,299527,2,0,L|212:241,1,37.5,2|0,0:1|0:0,0:0:0:0:
211,171,299638,1,2,0:0:0:0:
211,171,299749,6,0,L|216:128,1,37.5,2|0,0:1|0:0,0:0:0:0:
224,56,299860,2,0,L|245:93,1,37.5,2|0,0:1|0:0,0:0:0:0:
281,157,299971,2,0,L|241:138,1,37.5,2|0,0:1|0:0,0:0:0:0:
182,111,300082,6,0,L|260:96,1,75,8|0,0:0|0:0,0:0:0:0:
352,240,300305,2,0,L|274:225,1,75,2|0,0:1|0:0,0:0:0:0:
444,140,300527,6,0,P|463:191|452:246,1,112.5,6|0,0:0|0:0,0:0:0:0:
381,183,300749,2,0,P|368:149|372:112,1,75,2|0,0:1|0:0,0:0:0:0:
336,0,300971,2,0,L|261:3,1,75,8|0,0:0|0:0,0:0:0:0:
152,108,301194,6,0,L|156:160,1,37.5,2|0,0:1|0:0,0:0:0:0:
204,64,301305,2,0,L|201:101,1,37.5,2|0,0:1|0:0,0:0:0:0:
140,41,301416,1,2,0:0:0:0:
140,41,301527,6,0,P|120:48|96:48,1,37.5,2|0,0:1|0:0,0:0:0:0:
136,120,301638,2,0,P|119:133|97:141,1,37.5,2|0,0:1|0:0,0:0:0:0:
159,195,301749,2,0,P|148:213|129:228,1,37.5,2|0,0:1|0:0,0:0:0:0:
206,257,301860,6,0,P|196:292|212:344,1,75,8|0,0:0|0:0,0:0:0:0:
312,212,302082,6,0,L|274:214,1,37.5,2|0,0:1|0:0,0:0:0:0:
275,296,302194,2,0,L|312:298,1,37.5,2|0,0:1|0:0,0:0:0:0:
384,252,302305,6,0,P|395:201|353:139,1,112.5,6|0,0:0|0:0,0:0:0:0:
456,112,302527,2,0,L|459:0,1,112.5,2|0,0:1|0:0,0:0:0:0:
368,20,302749,2,0,L|371:94,1,75,8|0,0:0|0:0,0:0:0:0:
256,192,302971,6,0,P|236:196|208:188,1,37.5,2|0,0:1|0:0,0:0:0:0:
156,152,303082,2,0,P|139:140|124:115,1,37.5,2|0,0:1|0:0,0:0:0:0:
113,53,303194,1,2,0:0:0:0:
113,53,303305,6,0,L|108:120,1,37.5,2|0,0:1|0:0,0:0:0:0:
51,146,303416,2,0,L|48:108,1,37.5,2|0,0:1|0:0,0:0:0:0:
115,154,303527,2,0,L|110:221,1,37.5,2|0,0:1|0:0,0:0:0:0:
48,246,303638,6,0,L|42:171,1,75,8|0,0:0|0:0,0:0:0:0:
168,310,303860,2,0,L|162:384,1,75
280,192,304082,6,0,B|324:172|324:172|372:172|400:212|400:212|492:112|396:8,1,360.000013732911,6|0,0:0|0:0,0:0:0:0:
401,13,305194,2,0,L|344:16,1,45.0000017166138,8|0,0:0|0:0,0:0:0:0:
280,20,305416,6,0,P|163:64|274:121,1,315.000012016297,12|0,0:0|0:0,0:0:0:0:
231,69,305860,6,0,L|186:71,2,40,2|0|0,0:0|0:0|0:0,0:0:0:0:
354,123,306082,2,0,P|314:117|274:121,1,80,2|0,0:1|0:1,0:0:0:0:
170,192,306305,6,0,L|174:272,1,75,8|0,0:0|0:0,0:0:0:0:
288,364,306527,6,0,L|327:366,1,37.5,2|0,0:1|0:0,0:0:0:0:
388,320,306638,2,0,L|350:321,1,37.5,2|0,0:1|0:0,0:0:0:0:
412,366,306749,1,2,0:0:0:0:
412,366,306860,6,0,L|411:328,1,37.5,2|0,0:1|0:0,0:0:0:0:
468,276,306971,2,0,L|469:238,1,37.5,2|0,0:1|0:0,0:0:0:0:
392,232,307082,2,0,L|391:194,1,37.5,2|0,0:1|0:0,0:0:0:0:
448,142,307194,6,0,B|464:100|440:40,1,75,8|0,0:0|0:0,0:0:0:0:
320,0,307416,2,0,B|304:42|328:102,1,75,2|0,0:1|0:0,0:0:0:0:
272,192,307638,6,0,P|217:184|166:208,1,112.5,6|0,0:0|0:0,0:0:0:0:
78,177,307860,2,0,P|70:213|82:249,1,75,2|0,0:1|0:0,0:0:0:0:
196,100,308082,2,0,P|207:64|199:28,1,75,8|0,0:0|0:0,0:0:0:0:
48,0,308305,6,0,L|52:56,1,37.5,2|0,0:1|0:0,0:0:0:0:
84,108,308416,2,0,L|88:52,1,37.5,2|0,0:1|0:0,0:0:0:0:
137,14,308527,1,2,0:0:0:0:
137,14,308638,6,0,L|174:16,1,37.5,2|0,0:1|0:0,0:0:0:0:
240,72,308749,2,0,L|202:74,1,37.5
142,136,308860,2,0,L|179:138,1,37.5,2|0,0:1|0:0,0:0:0:0:
245,194,308971,6,0,L|240:272,1,75,8|0,0:0|0:0,0:0:0:0:
128,372,309194,6,0,P|144:356|144:332,1,37.5,2|0,0:1|0:0,0:0:0:0:
67,294,309305,2,0,P|72:315|93:327,1,37.5,2|0,0:1|0:0,0:0:0:0:
172,280,309416,6,0,B|152:228|152:228|121:252|132:282,1,112.5,6|0,0:0|0:0,0:0:0:0:
211,332,309638,2,0,P|271:316|339:332,1,112.5,2|0,0:1|0:0,0:0:0:0:
396,380,309860,2,0,P|384:336|392:292,1,75,8|0,0:0|0:0,0:0:0:0:
480,192,310082,6,0,P|464:204|440:208,1,37.5,2|0,0:1|0:0,0:0:0:0:
368,224,310194,2,0,P|349:216|334:197,1,37.5,2|0,0:1|0:0,0:0:0:0:
284,143,310305,1,2,0:0:0:0:
284,143,310416,6,0,P|281:123|288:96,1,37.5,2|0,0:1|0:0,0:0:0:0:
268,32,310527,2,0,P|287:29|315:36,1,37.5,2|0,0:1|0:0,0:0:0:0:
379,16,310638,2,0,P|381:35|375:63,1,37.5,2|0,0:1|0:0,0:0:0:0:
395,127,310749,6,0,L|311:124,1,75,8|0,0:0|0:0,0:0:0:0:
220,236,310971,2,0,L|294:233,1,75
432,364,311194,6,0,P|393:330|302:331,1,112.5,6|0,0:0|0:0,0:0:0:0:
240,312,311416,2,0,L|148:316,1,75,2|0,0:1|0:0,0:0:0:0:
28,188,311638,2,0,L|102:191,1,75,8|0,0:0|0:0,0:0:0:0:
84,340,311860,6,0,L|88:288,1,37.5,2|0,0:1|0:0,0:0:0:0:
158,277,311971,2,0,L|162:225,1,37.5,2|0,0:1|0:0,0:0:0:0:
102,191,312082,1,2,0:0:0:0:
103,191,312194,6,0,L|107:139,1,37.5,2|0,0:1|0:0,0:0:0:0:
56,100,312305,2,0,L|103:77,1,37.5
111,13,312416,2,0,L|154:42,1,37.5,2|0,0:1|0:0,0:0:0:0:
213,17,312527,6,0,L|208:104,1,75,8|0,0:0|0:0,0:0:0:0:
232,108,312694,1,0,0:0:0:0:
232,108,312749,2,0,L|269:106,1,37.5,2|0,0:1|0:0,0:0:0:0:
300,32,312860,2,0,L|263:30,1,37.5,2|0,0:1|0:0,0:0:0:0:
188,0,312971,6,0,L|180:138,1,112.5,6|0,0:0|0:0,0:0:0:0:
215,204,313194,2,0,L|208:91,1,112.5,2|0,0:1|0:0,0:0:0:0:
116,112,313416,2,0,L|109:215,1,75,8|0,0:0|0:0,0:0:0:0:
192,312,313638,6,0,P|212:316|236:312,1,37.5,2|0,0:1|0:0,0:0:0:0:
292,257,313749,2,0,P|273:253|255:254,1,37.5,2|0,0:1|0:0,0:0:0:0:
300,328,313860,1,2,0:0:0:0:
300,328,313971,6,0,L|304:372,1,37.5,2|0,0:1|0:0,0:0:0:0:
364,304,314082,2,0,L|368:260,1,37.5,2|0,0:1|0:0,0:0:0:0:
428,330,314194,2,0,L|432:374,1,37.5,2|0,0:1|0:0,0:0:0:0:
492,306,314305,6,0,L|496:224,1,75,8|0,0:0|0:0,0:0:0:0:
400,92,314527,2,0,P|396:140|400:192,1,75,2|0,0:1|0:0,0:0:0:0:
480,19,314749,6,0,P|405:24|336:20,1,112.5,6|0,0:0|0:0,0:0:0:0:
276,48,314971,2,0,P|312:44|356:44,1,75,2|0,0:1|0:0,0:0:0:0:
256,164,315194,2,0,P|218:163|181:159,1,75,8|0,0:0|0:0,0:0:0:0:
56,76,315416,6,0,L|60:120,1,37.5,2|0,0:1|0:0,0:0:0:0:
116,172,315527,2,0,L|119:134,1,37.5,2|0,0:1|0:0,0:0:0:0:
168,93,315638,1,2,0:0:0:0:
168,93,315749,6,0,P|192:88|216:88,1,37.5,2|0,0:1|0:0,0:0:0:0:
279,146,315860,2,0,P|260:141|242:140,1,37.5
178,210,315971,2,0,P|202:205|226:205,1,37.5,2|0,0:1|0:0,0:0:0:0:
289,263,316082,6,0,P|256:260|208:280,1,75,8|0,0:0|0:0,0:0:0:0:
76,340,316305,6,0,L|80:388,1,37.5,2|0,0:1|0:0,0:0:0:0:
140,328,316416,2,0,L|143:290,1,37.5,2|0,0:1|0:0,0:0:0:0:
208,336,316527,6,0,L|288:340,1,75,6|0,0:0|0:0,0:0:0:0:
452,254,316749,1,0,0:0:0:0:
437,255,316860,1,0,0:0:0:0:
363,259,316971,6,0,L|289:263,1,75,8|0,0:0|0:0,0:0:0:0:
120,177,317194,1,0,0:0:0:0:
135,178,317305,1,0,0:0:0:0:
208,182,317416,6,0,L|300:178,1,75,2|0,0:0|0:0,0:0:0:0:
452,91,317638,1,0,0:0:0:0:
437,92,317749,1,0,0:0:0:0:
364,97,317860,6,0,L|289:93,1,75,8|0,0:0|0:0,0:0:0:0:
120,7,318082,1,0,0:0:0:0:
135,8,318194,1,0,0:0:0:0:
208,12,318305,6,0,P|224:107|304:48,1,225,6|0,0:0|0:0,0:0:0:0:
211,28,318749,1,8,0:0:0:0:
214,44,319194,6,0,L|348:48,1,112.5,6|0,0:0|0:0,0:0:0:0:
364,72,319416,2,0,L|228:76,1,112.5,6|0,0:0|0:0,0:0:0:0:
187,136,319638,2,0,P|255:227|325:137,1,262.5,12|0,0:0|0:0,0:0:0:0:
256,154,320082,6,2,B|260:200|260:200|256:228|256:228|259:273,1,120,2|2,0:1|0:1,0:1:0:0:
256,192,320638,12,0,323638,0:0:0:0:
