osu file format v14

[General]
AudioFilename: audio.mp3
AudioLeadIn: 0
PreviewTime: 63203
Countdown: 0
SampleSet: Soft
StackLeniency: 0.6
Mode: 0
LetterboxInBreaks: 0
WidescreenStoryboard: 1

[Editor]
Bookmarks: 27686,51134,98030,111824
DistanceSpacing: 1.5
BeatDivisor: 8
GridSize: 32
TimelineZoom: 2.6

[Metadata]
Title:Kimi to Watashi no Sentence
TitleUnicode:君と私のセンテンス
Artist:Soyokaze Mirai
ArtistUnicode:そよかぜみらい
Creator:kwk
Version:Mordred's Hard
Source:となりに彼女のいる幸せ ~Two Farce~
Tags:Lafayla Dakinibrave Log Off Now Mordred tonari ni kanojo no iru shiawase tonakai prekano entergram eroge visual novel opening Japanese video game
BeatmapID:1678801
BeatmapSetID:772053

[Difficulty]
HPDrainRate:5
CircleSize:4
OverallDifficulty:6
ApproachRate:8
SliderMultiplier:1.4
SliderTickRate:1

[Events]
//Background and Video events
0,0,"63092091_p0.jpg",0,0
//Break Periods
//Storyboard Layer 0 (Background)
//Storyboard Layer 1 (Fail)
//Storyboard Layer 2 (Pass)
//Storyboard Layer 3 (Foreground)
//Storyboard Layer 4 (Overlay)
//Storyboard Sound Samples

[TimingPoints]
4237,344.827586206897,4,2,0,38,1,0
4237,-100,4,2,0,38,0,0
11133,365.853658536585,4,2,0,38,1,0
12426,344.827586206897,4,2,0,38,1,0
12512,344.827586206897,4,2,0,38,1,0
14925,-100,4,2,0,42,0,0
15270,-100,4,2,0,52,0,0
26649,-166.666666666667,4,2,0,20,0,0
26994,-166.666666666667,4,2,0,30,0,0
27339,-166.666666666667,4,2,0,40,0,0
27598,-117.647058823529,4,2,0,40,0,0
38718,-100,4,2,0,48,0,0
51132,-111.111111111111,4,2,0,48,0,0
56649,-100,4,2,0,50,0,0
60787,-125,4,2,0,50,0,0
63546,-83.3333333333333,4,2,0,60,0,1
84236,-71.4285714285714,4,2,0,60,0,0
84753,-71.4285714285714,4,2,0,45,0,0
85443,-200,4,2,0,20,0,0
85529,-200,4,2,0,5,0,0
86994,-100,4,2,0,52,0,0
95270,-83.3333333333333,4,2,0,52,0,0
96649,-133.333333333333,4,2,0,46,0,0
100615,-71.4285714285714,4,2,0,38,0,0
100787,-100,4,2,0,38,0,0
104925,365.853658536585,4,2,0,38,1,0
106219,344.827586206897,4,2,0,38,1,0
106306,402.684563758389,4,2,0,38,1,0
106306,-100,4,2,0,38,0,0
106707,344.827586206897,4,2,0,38,1,0
106707,-100,4,2,0,38,0,0
107224,405.405405405405,4,2,0,38,1,0
107224,-100,4,2,0,38,0,0
107426,344.827586206897,4,2,0,38,1,0
107426,-100,4,2,0,38,0,0
107943,-100,4,2,0,32,0,0
108805,-100,4,2,0,26,0,0
110184,-100,4,2,0,18,0,0
110874,-100,4,2,0,12,0,0
111822,-100,4,2,0,5,0,0

[Colours]
Combo1 : 128,128,255
Combo2 : 128,128,192

[HitObjects]
96,160,13891,5,0,0:0:0:0:
256,192,13977,12,0,14925,0:0:0:0:
4,154,15270,6,0,P|47:153|153:164,1,140,4|8,1:2|0:2,0:0:0:0:
186,246,15787,1,2,0:2:0:0:
186,246,15960,2,0,L|266:250,1,70,0|0,1:2|0:0,0:0:0:0:
321,183,16305,2,0,L|401:179,1,70,8|0,0:2|0:0,0:0:0:0:
503,132,16649,6,0,P|509:191|512:287,1,140,2|8,1:2|0:2,0:0:0:0:
465,352,17167,2,0,P|413:350|377:351,1,70,2|0,0:2|1:2,0:0:0:0:
300,373,17512,1,0,0:0:0:0:
300,373,17684,1,8,0:2:0:0:
204,352,17856,1,8,0:0:0:0:
86,380,18029,6,0,P|76:338|76:208,1,140,4|8,1:2|0:2,0:0:0:0:
140,176,18546,2,0,P|140:128|134:86,1,70,2|0,0:2|1:2,0:0:0:0:
92,23,18891,1,0,0:0:0:0:
92,23,19063,2,0,P|134:16|179:19,1,70,8|0,0:2|0:0,0:0:0:0:
272,68,19408,5,0,1:2:0:0:
361,28,19580,1,2,0:2:0:0:
427,101,19753,1,8,0:2:0:0:
377,186,19925,2,0,P|374:227|370:277,1,70,2|0,0:2|1:2,0:0:0:0:
407,352,20270,1,2,0:0:0:0:
407,352,20443,2,0,L|488:358,1,70,8|0,0:0|0:0,0:0:0:0:
512,244,20787,6,0,P|513:195|503:99,1,140,4|8,1:2|0:2,0:0:0:0:
446,32,21305,1,2,0:2:0:0:
446,32,21477,2,0,P|406:28|369:26,1,70,0|0,1:2|0:0,0:0:0:0:
302,85,21822,2,0,P|262:89|225:91,1,70,8|0,0:2|0:0,0:0:0:0:
141,12,22167,6,0,P|86:9|9:68,1,140,2|8,1:2|0:2,0:0:0:0:
3,156,22684,2,0,P|0:196|0:312,1,140,2|0,0:2|0:0,0:0:0:0:
74,378,23201,1,8,0:0:0:0:
74,378,23287,1,0,0:0:0:0:
74,378,23374,1,0,0:0:0:0:
204,351,23546,6,0,B|206:305|191:192,1,140,6|8,1:2|0:2,0:0:0:0:
148,128,24063,1,0,0:0:0:0:
148,128,24236,2,0,P|144:82|148:45,1,70,0|2,1:2|0:0,0:0:0:0:
235,14,24580,1,0,0:0:0:0:
235,14,24753,1,0,1:0:0:0:
314,101,24925,6,0,P|358:97|464:105,1,140,2|8,1:2|0:2,0:0:0:0:
507,178,25443,2,0,P|512:224|515:274,1,70,2|0,0:0|1:2,0:0:0:0:
447,322,25787,1,2,0:0:0:0:
354,276,25960,1,10,0:2:0:0:
275,342,26132,1,2,0:0:0:0:
32,160,27512,1,0,0:0:0:0:
32,160,27684,6,0,P|93:162|170:167,1,119,2|0,1:2|0:2,0:0:0:0:
210,223,28201,1,0,0:2:0:0:
210,223,28374,2,0,P|271:220|348:215,1,119,0|0,0:2|0:2,0:0:0:0:
404,181,28891,1,0,0:0:0:0:
494,190,29063,5,2,1:2:0:0:
494,190,29236,2,0,P|490:130|481:71,1,119,0|0,0:0|0:2,0:0:0:0:
411,25,29753,2,0,P|371:27|268:24,1,119,0|0,0:2|0:0,0:0:0:0:
212,1,30270,1,0,0:2:0:0:
212,1,30443,6,0,P|153:-3|94:6,1,119,2|0,1:2|0:2,0:0:0:0:
25,54,30960,1,0,0:2:0:0:
26,141,31132,1,0,0:2:0:0:
26,141,31305,2,0,P|37:199|62:258,1,119,0|0,0:0|0:2,0:0:0:0:
147,229,31822,5,2,1:2:0:0:
147,229,31994,2,0,P|199:228|267:234,1,119,0|0,0:0|0:2,0:0:0:0:
325,318,32512,2,0,P|273:317|205:323,1,119,0|0,0:2|0:0,0:0:0:0:
117,367,33029,1,0,0:2:0:0:
29,330,33201,6,0,P|24:293|18:203,1,119,2|0,1:2|0:2,0:0:0:0:
32,124,33718,1,0,0:2:0:0:
105,70,33891,2,0,P|142:65|232:59,1,119,0|0,0:2|0:2,0:0:0:0:
293,114,34408,1,0,0:2:0:0:
238,197,34580,5,0,1:2:0:0:
238,197,34753,2,0,P|233:247|233:327,1,119,0|0,0:0|0:2,0:0:0:0:
303,375,35270,2,0,L|374:380,2,59.5000000000002,0|0|0,0:2|0:0|0:0,0:0:0:0:
429,322,35787,1,0,0:2:0:0:
429,322,35960,6,0,P|434:282|427:175,2,119,2|0|0,1:2|0:2|0:0,0:0:0:0:
362,379,36822,1,0,1:2:0:0:
294,336,36994,1,0,0:2:0:0:
218,359,37167,1,0,0:2:0:0:
131,320,37339,5,4,0:2:0:0:
0,261,38029,1,0,0:2:0:0:
0,261,38201,2,0,L|60:259,1,59.5000000000002,4|0,3:0|3:2,0:0:0:0:
131,320,38546,1,0,3:2:0:0:
213,267,38718,6,0,P|211:198|213:116,1,140,4|8,0:2|1:2,0:0:0:0:
282,57,39236,1,2,0:0:0:0:
372,95,39408,2,0,P|404:84|440:75,2,70,0|0|8,0:2|1:2|0:0,0:0:0:0:
398,189,39925,1,2,0:0:0:0:
441,276,40098,6,0,P|445:320|443:374,1,70,2|0,1:2|1:0,0:0:0:0:
353,382,40443,1,8,0:0:0:0:
353,382,40615,1,2,0:0:0:0:
258,353,40787,2,0,P|212:351|168:355,2,70,0|0|8,0:2|1:2|0:2,0:0:0:0:
327,283,41305,1,2,0:0:0:0:
296,190,41477,6,0,P|301:150|316:97,2,70,2|0|8,1:2|1:0|0:0,0:0:0:0:
199,210,41994,1,2,0:0:0:0:
124,145,42167,2,0,P|81:137|28:131,2,70,0|0|8,0:2|1:2|0:2,0:0:0:0:
110,242,42684,1,2,0:0:0:0:
181,309,42856,6,0,P|185:365|181:401,2,70,2|0|8,1:2|1:0|0:2,0:0:0:0:
277,292,43374,1,2,0:0:0:0:
370,319,43546,1,2,0:2:0:0:
425,239,43718,1,2,1:2:0:0:
366,162,43891,2,0,P|362:119|363:86,1,70,8|2,0:0|0:0,0:0:0:0:
423,15,44236,6,0,P|371:-4|285:32,1,140,4|8,1:2|0:0,0:0:0:0:
235,101,44753,1,2,0:0:0:0:
266,194,44925,2,0,L|273:263,2,70,0|0|8,0:2|1:0|0:0,0:0:0:0:
169,173,45443,1,2,0:0:0:0:
136,265,45615,6,0,L|140:335,1,70,2|0,1:2|1:0,0:0:0:0:
32,316,45960,2,0,L|28:246,1,70,8|2,0:0|0:0,0:0:0:0:
88,168,46305,1,2,0:2:0:0:
88,168,46477,1,0,1:2:0:0:
28,89,46649,1,8,0:2:0:0:
28,89,46822,1,2,0:0:0:0:
101,24,46994,6,0,P|150:18|198:23,2,70,2|0|8,1:2|1:0|0:2,0:0:0:0:
134,122,47512,1,2,0:0:0:0:
225,157,47684,2,0,P|230:191|232:226,2,70,2|0|8,0:2|1:0|0:0,0:0:0:0:
287,80,48201,1,2,0:0:0:0:
385,65,48374,6,0,P|393:23|387:-28,2,70,2|0|8,1:2|1:0|0:2,0:0:0:0:
429,152,48891,1,2,0:0:0:0:
490,227,49063,1,2,0:2:0:0:
456,318,49236,1,2,3:2:0:0:
395,243,49408,1,2,3:2:0:0:
429,152,49580,2,0,P|432:118|432:54,1,70,2|0,3:2|1:0,0:0:0:0:
356,19,49925,5,2,3:0:0:0:
356,19,50098,2,0,L|277:15,1,70,2|0,3:0|1:0,0:0:0:0:
207,75,50443,1,2,3:0:0:0:
207,75,50615,2,0,L|128:79,1,70,2|2,3:0|1:2,0:0:0:0:
19,209,51132,6,0,P|17:252|16:341,1,126,6|0,1:2|0:0,0:0:0:0:
92,379,51649,1,8,0:2:0:0:
92,379,51822,2,0,P|171:368|246:369,1,126,8|0,0:2|1:2,0:0:0:0:
284,309,52339,6,0,P|291:251|257:172,1,126
191,145,52856,2,0,P|181:97|179:74,1,63.0000000000001,8|0,0:2|0:0,0:0:0:0:
233,13,53201,1,8,0:2:0:0:
409,6,53546,2,0,P|442:6|473:11,1,63.0000000000001,2|2,0:0|0:0,0:0:0:0:
504,92,53891,6,0,P|508:158|510:244,1,126,4|2,1:2|0:0,0:0:0:0:
480,301,54408,1,8,0:2:0:0:
480,301,54580,2,0,P|421:301|345:304,1,126,8|2,0:2|0:0,0:0:0:0:
284,357,55098,1,0,0:0:0:0:
284,357,55270,2,0,P|225:357|149:354,1,126,0|0,1:0|1:0,0:0:0:0:
19,245,55960,1,10,0:2:0:0:
19,245,56132,1,2,1:2:0:0:
11,156,56305,1,10,0:2:0:0:
11,156,56477,1,2,0:2:0:0:
62,72,56649,6,0,P|95:49|198:63,1,140,0|2,1:2|0:0,0:0:0:0:
207,154,57167,1,0,0:2:0:0:
207,154,57339,2,0,L|202:237,1,70,8|0,0:2|0:0,0:0:0:0:
232,317,57684,2,0,P|272:320|332:320,1,70,2|0,0:0|0:0,0:0:0:0:
385,373,58029,5,8,0:2:0:0:
459,192,58374,1,0,1:2:0:0:
385,11,58718,1,10,0:2:0:0:
385,11,58891,1,2,1:2:0:0:
293,46,59063,1,10,0:2:0:0:
293,46,59236,1,2,1:2:0:0:
200,13,59408,6,0,P|142:7|58:67,1,140,6|10,1:2|1:2,0:0:0:0:
97,140,59925,1,2,0:2:0:0:
61,231,60098,2,0,L|58:274,3,35,10|0|2|0,1:2|0:0|0:2|0:0,0:0:0:0:
94,299,60443,2,0,L|97:342,3,35,10|0|2|0,0:2|0:0|0:2|0:0,0:0:0:0:
126,359,60787,1,4,0:2:0:0:
256,192,60874,12,2,62167,0:2:0:0:
54,52,63374,5,0,0:0:0:0:
54,52,63546,6,0,L|49:149,1,84,6|0,1:2|1:0,0:0:0:0:
140,199,63891,2,0,L|145:295,1,84,8|2,0:2|0:0,0:0:0:0:
245,324,64236,1,0,1:2:0:0:
285,222,64408,1,0,1:0:0:0:
351,311,64580,2,0,L|449:302,1,84,8|2,0:2|0:0,0:0:0:0:
480,204,64925,5,2,1:2:0:0:
480,204,65098,1,0,1:0:0:0:
447,100,65270,1,8,0:2:0:0:
498,3,65443,2,0,P|451:0|309:18,1,168,2|0,0:0|1:0,0:0:0:0:
242,76,65960,2,0,L|246:159,1,84,8|0,0:2|0:0,0:0:0:0:
323,237,66305,5,2,1:2:0:0:
309,345,66477,1,0,1:0:0:0:
200,361,66649,2,0,L|108:351,1,84,8|2,0:2|0:0,0:0:0:0:
29,286,66994,1,0,1:2:0:0:
81,189,67167,1,0,1:0:0:0:
33,90,67339,2,0,L|41:-15,1,84,8|2,0:2|0:0,0:0:0:0:
148,2,67684,5,0,1:2:0:0:
235,67,67856,1,0,1:0:0:0:
335,26,68029,2,0,P|384:24|434:30,2,84,10|2|0,0:2|0:0|0:0,0:0:0:0:
328,135,68546,1,0,1:0:0:0:
420,193,68718,2,0,L|462:188,2,42,8|0|2,0:2|0:0|0:0,0:0:0:0:
322,242,69063,6,0,B|280:246|280:246|208:235,1,84,4|0,1:2|1:0,0:0:0:0:
196,138,69408,1,8,0:2:0:0:
89,113,69580,2,0,P|30:133|13:241,1,168,2|0,0:0|1:0,0:0:0:0:
56,325,70098,2,0,L|139:326,1,84,8|2,0:2|0:0,0:0:0:0:
217,249,70443,5,2,1:2:0:0:
292,327,70615,1,0,0:0:0:0:
323,221,70787,2,0,L|328:128,1,84,8|0,0:2|0:0,0:0:0:0:
384,44,71132,1,2,1:2:0:0:
384,44,71305,1,2,1:2:0:0:
485,82,71477,1,10,0:2:0:0:
485,82,71649,1,2,0:0:0:0:
460,188,71822,6,0,P|455:241|453:296,1,84,6|0,1:2|0:0,0:0:0:0:
493,373,72167,1,8,0:2:0:0:
385,352,72339,2,0,P|333:349|214:352,1,168,2|0,0:0|1:0,0:0:0:0:
109,376,72856,2,0,P|52:380|19:379,1,84,8|2,0:2|0:0,0:0:0:0:
2,272,73201,5,0,1:2:0:0:
42,170,73374,1,8,0:0:0:0:
111,260,73546,1,8,0:2:0:0:
111,260,73718,1,0,1:0:0:0:
159,152,73891,2,0,L|263:159,1,84,8|2,0:2|1:2,0:0:0:0:
277,53,74236,2,0,L|360:47,1,84,8|2,1:2|1:2,0:0:0:0:
490,48,74580,6,0,L|495:145,1,84,6|0,1:2|1:0,0:0:0:0:
512,240,74925,2,0,L|507:336,1,84,8|2,0:2|0:0,0:0:0:0:
406,369,75270,1,0,1:2:0:0:
366,267,75443,1,0,1:0:0:0:
295,350,75615,2,0,L|197:341,1,84,8|0,0:2|0:0,0:0:0:0:
118,284,75960,5,2,1:2:0:0:
118,284,76132,1,0,1:0:0:0:
19,332,76305,1,8,0:2:0:0:
6,223,76477,2,0,P|2:175|21:33,1,168,2|0,0:0|1:0,0:0:0:0:
120,23,76994,2,0,L|207:25,1,84,8|2,0:2|0:0,0:0:0:0:
282,101,77339,5,2,1:2:0:0:
296,209,77512,1,0,1:0:0:0:
405,225,77684,2,0,L|497:215,1,84,8|2,0:2|0:0,0:0:0:0:
507,108,78029,1,0,1:2:0:0:
409,57,78201,1,0,1:0:0:0:
311,107,78374,2,0,L|205:100,1,84,8|2,0:2|0:0,0:0:0:0:
141,33,78718,5,2,1:2:0:0:
76,120,78891,1,0,1:0:0:0:
129,214,79063,1,10,0:2:0:0:
50,290,79236,2,0,P|45:342|50:377,1,84,2|0,0:0|1:2,0:0:0:0:
158,384,79580,1,0,1:0:0:0:
242,315,79753,1,8,0:2:0:0:
242,315,79839,1,0,0:0:0:0:
242,315,79925,1,0,0:0:0:0:
335,371,80098,5,4,1:2:0:0:
473,230,80443,2,0,P|481:172|476:124,1,84,8|2,0:2|0:0,0:0:0:0:
326,124,80787,2,0,P|372:159|416:179,1,84,8|0,1:2|1:0,0:0:0:0:
491,49,81132,2,0,P|436:71|397:99,1,84,10|0,1:2|1:0,0:0:0:0:
473,230,81477,5,6,1:2:0:0:
297,360,81822,2,0,P|242:337|203:309,1,84,8|0,0:2|0:0,0:0:0:0:
280,178,82167,2,0,P|288:236|283:284,1,84,10|2,1:2|1:2,0:0:0:0:
130,283,82512,2,0,P|176:247|220:227,1,84,10|0,0:2|1:0,0:0:0:0:
297,360,82856,5,6,1:2:0:0:
79,365,83201,1,8,1:2:0:0:
16,274,83374,1,2,1:2:0:0:
16,165,83546,2,0,L|22:123,3,42,8|0|0|0,1:2|0:0|1:2|0:0,0:0:0:0:
56,80,83891,2,0,L|50:38,3,42,8|0|2|0,1:2|0:0|1:2|0:0,0:0:0:0:
6,5,84236,5,4,1:2:0:0:
256,192,84322,12,0,85443,0:0:0:0:
508,230,86994,6,0,P|465:231|359:220,1,140,4|8,1:2|0:2,0:0:0:0:
326,138,87512,1,2,0:2:0:0:
326,138,87684,2,0,L|246:134,1,70,0|0,1:2|1:0,0:0:0:0:
191,201,88029,2,0,L|111:205,1,70,8|0,0:2|0:0,0:0:0:0:
9,252,88374,6,0,P|3:193|0:97,1,140,2|8,1:2|0:2,0:0:0:0:
47,32,88891,2,0,P|99:34|135:33,1,70,2|0,0:2|1:2,0:0:0:0:
212,11,89236,1,0,1:0:0:0:
212,11,89408,1,8,0:2:0:0:
308,32,89580,1,0,0:0:0:0:
426,4,89753,6,0,P|436:46|436:176,1,140,2|8,1:2|0:2,0:0:0:0:
372,208,90270,2,0,P|372:256|378:298,1,70,2|0,0:2|1:2,0:0:0:0:
420,361,90615,1,0,1:0:0:0:
420,361,90787,2,0,P|378:368|333:365,1,70,8|0,0:2|0:0,0:0:0:0:
240,316,91132,5,2,1:2:0:0:
151,356,91305,1,2,0:2:0:0:
85,283,91477,1,8,0:2:0:0:
135,198,91649,2,0,P|138:157|142:107,1,70,2|0,0:2|1:2,0:0:0:0:
105,32,91994,1,0,1:0:0:0:
105,32,92167,2,0,L|24:26,1,70,8|0,0:0|0:0,0:0:0:0:
0,140,92512,6,0,P|-1:189|9:285,1,140,4|8,1:2|0:2,0:0:0:0:
66,352,93029,1,2,0:2:0:0:
66,352,93201,2,0,P|106:356|143:358,1,70,0|0,1:2|1:0,0:0:0:0:
210,299,93546,2,0,P|250:295|287:293,1,70,8|0,0:2|0:0,0:0:0:0:
371,372,93891,6,0,P|426:375|503:316,1,140,2|8,1:2|0:2,0:0:0:0:
509,228,94408,2,0,P|510:204|510:134,1,70,2|0,0:2|1:2,0:0:0:0:
470,68,94753,1,2,1:2:0:0:
382,110,94925,2,0,L|293:114,1,70,10|0,0:0|0:0,0:0:0:0:
216,43,95270,6,0,P|161:41|107:58,1,84,6|0,1:2|0:0,0:0:0:0:
138,199,95615,2,0,P|167:152|179:97,1,84,8|0,0:2|0:0,0:0:0:0:
41,53,95960,2,0,P|66:101|108:139,1,84,8|0,1:2|1:0,0:0:0:0:
216,43,96305,2,0,P|271:41|325:58,1,84,8|0,0:2|1:0,0:0:0:0:
400,143,96649,5,6,0:2:0:0:
256,192,96736,12,2,98029,0:0:0:0:
256,192,98115,12,2,100787,0:2:0:0:
