osu file format v14

[General]
AudioFilename: audio.mp3
AudioLeadIn: 0
PreviewTime: 63203
Countdown: 0
SampleSet: Soft
StackLeniency: 0.4
Mode: 0
LetterboxInBreaks: 0
WidescreenStoryboard: 1

[Editor]
Bookmarks: 27686,51134,98030,111824
DistanceSpacing: 1.5
BeatDivisor: 2
GridSize: 4
TimelineZoom: 1.900001

[Metadata]
Title:Kimi to Watashi no Sentence
TitleUnicode:君と私のセンテンス
Artist:Soyokaze Mirai
ArtistUnicode:そよかぜみらい
Creator:kwk
Version:Log Off Now's Seventh Heaven
Source:となりに彼女のいる幸せ ~Two Farce~
Tags:Lafayla Dakinibrave Log Off Now Mordred tonari ni kanojo no iru shiawase tonakai prekano entergram eroge visual novel opening Japanese video game
BeatmapID:1667897
BeatmapSetID:772053

[Difficulty]
HPDrainRate:6
CircleSize:4
OverallDifficulty:8.5
ApproachRate:9
SliderMultiplier:1.7
SliderTickRate:1

[Events]
//Background and Video events
0,0,"63092091_p0.jpg",0,0
//Break Periods
//Storyboard Layer 0 (Background)
//Storyboard Layer 1 (Fail)
//Storyboard Layer 2 (Pass)
//Storyboard Layer 3 (Foreground)
//Storyboard Layer 4 (Overlay)
//Storyboard Sound Samples

[TimingPoints]
4237,344.827586206897,4,2,0,38,1,0
4237,-100,4,2,0,38,0,0
11133,365.853658536585,4,2,0,38,1,0
12426,344.827586206897,4,2,0,38,1,0
12512,344.827586206897,4,2,0,38,1,0
14925,-100,4,2,0,42,0,0
15270,-100,4,2,0,52,0,0
26649,-166.666666666667,4,2,0,20,0,0
26994,-166.666666666667,4,2,0,30,0,0
27339,-166.666666666667,4,2,0,40,0,0
27684,-117.647058823529,4,2,0,40,0,0
38718,-100,4,2,0,48,0,0
51132,-111.111111111111,4,2,0,48,0,0
56649,-100,4,2,0,50,0,0
60787,-125,4,2,0,50,0,0
63546,-83.3333333333333,4,2,0,60,0,1
84236,-71.4285714285714,4,2,0,60,0,0
84753,-71.4285714285714,4,2,0,45,0,0
85443,-200,4,2,0,20,0,0
85529,-200,4,2,0,5,0,0
86994,-100,4,2,0,52,0,0
96649,-133.333333333333,4,2,0,46,0,0
100615,-71.4285714285714,4,2,0,38,0,0
100787,-100,4,2,0,38,0,0
104925,365.853658536585,4,2,0,38,1,0
106219,344.827586206897,4,2,0,38,1,0
106306,402.684563758389,4,2,0,38,1,0
106306,-100,4,2,0,38,0,0
106707,344.827586206897,4,2,0,38,1,0
106707,-100,4,2,0,38,0,0
107224,405.405405405405,4,2,0,38,1,0
107224,-100,4,2,0,38,0,0
107426,344.827586206897,4,2,0,38,1,0
107426,-100,4,2,0,38,0,0
107943,-100,4,2,0,32,0,0
108805,-100,4,2,0,26,0,0
110184,-100,4,2,0,18,0,0
110874,-100,4,2,0,12,0,0
111822,-100,4,2,0,5,0,0

[Colours]
Combo1 : 255,255,166
Combo2 : 255,128,128
Combo3 : 0,255,255
Combo4 : 0,255,128

[HitObjects]
101,225,4107,6,0,L|106:245,3,21.25,0|0|0|2,0:0|0:0|0:0|0:0,0:0:0:0:
89,149,4409,1,0,0:2:0:0:
141,89,4581,1,0,0:2:0:0:
217,105,4754,1,2,0:2:0:0:
217,105,5099,5,0,0:2:0:0:
141,89,5271,1,2,0:2:0:0:
89,149,5443,1,0,0:2:0:0:
101,225,5616,1,0,0:2:0:0:
89,149,5961,5,0,0:2:0:0:
101,225,6305,1,0,0:2:0:0:
101,225,6995,5,2,0:2:0:0:
89,149,7168,1,0,0:0:0:0:
141,89,7340,1,0,0:2:0:0:
217,105,7512,1,2,0:0:0:0:
217,105,7857,5,0,0:0:0:0:
141,89,8030,1,2,0:0:0:0:
89,149,8202,1,0,0:2:0:0:
101,225,8374,1,0,0:0:0:0:
89,149,8719,5,0,0:0:0:0:
141,89,8892,1,2,0:2:0:0:
141,89,8978,1,0,0:0:0:0:
141,89,9064,1,0,0:0:0:0:
217,105,9237,1,2,0:2:0:0:
257,170,9409,1,0,0:2:0:0:
332,182,9581,1,0,0:2:0:0:
393,135,9754,5,2,0:2:0:0:
332,182,9926,1,0,0:2:0:0:
257,170,10099,1,0,0:0:0:0:
217,105,10271,1,2,0:0:0:0:
217,105,10616,5,0,0:2:0:0:
257,170,10788,1,2,0:2:0:0:
332,182,10961,1,0,0:0:0:0:
393,135,11133,1,0,0:0:0:0:
332,182,11498,5,0,0:2:0:0:
393,135,11864,1,0,0:2:0:0:
393,135,12426,6,0,L|394:103,2,21.25,0|0|2,0:0|0:0|0:2,0:0:0:0:
362,252,12856,5,0,0:2:0:0:
333,181,13029,1,0,0:2:0:0:
151,300,13374,5,2,0:2:0:0:
280,241,13546,1,2,0:2:0:0:
50,190,13805,6,0,L|21:183,2,21.25
190,212,14925,5,0,0:0:0:0:
191,228,15012,1,0,0:0:0:0:
192,244,15098,1,0,0:2:0:0:
194,261,15184,1,0,0:0:0:0:
195,277,15270,6,0,B|275:239|275:323|383:259,1,170,4|8,1:2|0:2,0:0:0:0:
319,119,15787,2,0,P|303:175|319:215,1,85,2|0,0:2|1:2,0:0:0:0:
387,167,16132,1,0,0:0:0:0:
223,39,16305,2,0,P|239:95|223:135,1,85,8|0,0:2|0:0,0:0:0:0:
79,343,16649,6,0,B|51:275|51:275|63:175,1,170,2|8,1:2|0:2,0:0:0:0:
207,195,17167,2,0,P|163:233|119:235,1,85,2|0,0:2|1:2,0:0:0:0:
79,103,17512,2,0,P|126:136|139:177,1,85,0|8,0:0|0:2,0:0:0:0:
79,343,17856,1,8,0:0:0:0:
207,195,18029,6,0,P|263:151|363:183,1,170,4|8,1:2|0:2,0:0:0:0:
292,327,18546,2,0,L|289:243,1,85,2|0,0:2|1:2,0:0:0:0:
283,54,18891,1,0,0:0:0:0:
353,172,19063,2,0,P|396:210|440:212,1,85,8|0,0:2|0:0,0:0:0:0:
512,159,19408,5,0,1:2:0:0:
417,300,19580,1,2,0:2:0:0:
431,134,19753,1,8,0:2:0:0:
490,256,19925,2,0,P|447:218|403:216,1,85,2|0,0:2|1:2,0:0:0:0:
252,305,20270,1,2,0:0:0:0:
283,152,20443,2,0,L|290:97,1,42.5,8|0,0:0|0:0,0:0:0:0:
201,51,20615,2,0,L|208:106,1,42.5
205,189,20787,6,0,B|125:151|125:235|17:171,1,170,4|8,1:2|0:2,0:0:0:0:
83,35,21305,2,0,P|99:91|83:131,1,85,2|0,0:2|1:2,0:0:0:0:
19,83,21649,1,0,0:0:0:0:
178,79,21822,2,0,P|211:54|228:15,1,85,8|0,0:2|0:0,0:0:0:0:
346,168,22167,6,0,L|331:341,1,170,2|8,1:2|0:2,0:0:0:0:
262,198,22684,2,0,L|254:111,1,85,2|0,0:2|1:2,0:0:0:0:
419,226,23029,1,0,0:0:0:0:
361,80,23201,1,8,0:0:0:0:
361,80,23287,1,0,0:0:0:0:
361,80,23374,1,0,0:0:0:0:
207,269,23546,6,0,P|145:304|55:263,2,170,6|8|0,1:2|0:2|1:2,0:0:0:0:
146,61,24408,2,0,B|114:105|114:105|129:219,1,170,2|0,0:0|1:0,0:0:0:0:
129,219,24839,1,0,0:0:0:0:
129,219,24925,5,2,1:2:0:0:
195,132,25098,1,0,0:0:0:0:
40,177,25270,1,8,0:2:0:0:
243,222,25443,2,0,L|339:211,1,85,2|0,0:0|1:2,0:0:0:0:
504,195,25787,5,2,0:0:0:0:
403,63,25960,1,10,0:2:0:0:
353,345,26132,1,2,0:0:0:0:
353,345,26649,2,0,B|391:296|342:236|342:236|274:300|209:278,1,254.999999999999
315,123,27684,6,0,P|277:192|208:206,1,144.500000000001,2|0,1:2|0:2,0:0:0:0:
126,123,28201,1,0,0:2:0:0:
126,123,28374,2,0,B|87:165|87:165|97:277,1,144.500000000001,0|0,0:2|0:2,0:0:0:0:
228,196,28891,1,0,0:0:0:0:
228,196,29063,2,0,B|267:238|267:238|257:350,1,144.500000000001,2|0,1:2|0:2,0:0:0:0:
392,228,29580,1,0,0:2:0:0:
376,360,29753,1,0,0:2:0:0:
376,360,30270,1,0,0:2:0:0:
392,228,30443,6,0,P|368:184|272:192,1,144.500000000001,2|0,1:2|0:2,0:0:0:0:
168,268,30960,1,0,0:2:0:0:
168,268,31132,2,0,B|129:226|129:226|139:114,1,144.500000000001,0|0,0:2|0:2,0:0:0:0:
281,182,31649,1,0,0:2:0:0:
281,182,31822,2,0,B|320:140|320:140|310:28,1,144.500000000001,2|0,1:2|0:0,0:0:0:0:
403,160,32339,1,0,0:2:0:0:
228,105,32512,1,0,0:2:0:0:
228,105,33029,1,0,0:2:0:0:
403,160,33201,6,0,P|450:158|476:61,1,144.500000000001,2|0,1:2|0:2,0:0:0:0:
347,5,33718,1,0,0:2:0:0:
347,5,33891,2,0,B|308:47|308:47|318:159,1,144.500000000001,0|0,0:2|0:2,0:0:0:0:
236,287,34408,1,0,0:2:0:0:
236,287,34580,2,0,B|197:245|197:245|207:133,1,144.500000000001,0|0,1:2|0:2,0:0:0:0:
100,246,35098,1,0,0:2:0:0:
84,114,35270,1,0,0:2:0:0:
84,114,35787,1,0,0:2:0:0:
204,158,35960,6,0,B|276:188|271:125|368:169,2,144.500000000001,2|0|0,1:2|0:2|0:0,0:0:0:0:
154,94,36822,1,0,1:2:0:0:
143,236,36994,1,0,0:2:0:0:
63,139,37167,1,0,0:2:0:0:
109,312,37339,2,0,P|177:312|225:238,1,144.500000000001,4|0,0:2|0:2,0:0:0:0:
222,256,38029,5,0,0:2:0:0:
337,324,38201,1,4,3:0:0:0:
246,374,38374,1,0,3:2:0:0:
334,230,38546,1,0,3:2:0:0:
249,173,38718,6,0,B|227:115|227:115|246:-6,1,170,4|8,0:2|1:2,0:0:0:0:
313,102,39236,1,2,0:0:0:0:
164,176,39408,2,0,P|104:186|65:166,2,85,0|0|8,0:2|1:2|0:0,0:0:0:0:
123,104,39925,1,2,0:0:0:0:
87,314,40098,6,0,P|154:265|235:279,1,170,2|8,1:2|0:0,0:0:0:0:
174,352,40615,1,2,0:0:0:0:
261,191,40787,2,0,P|272:140|263:94,1,85,0|0,0:2|1:2,0:0:0:0:
182,146,41132,1,8,0:2:0:0:
355,111,41305,1,2,0:0:0:0:
324,244,41477,6,0,P|318:297|402:376,1,170,2|8,1:2|0:0,0:0:0:0:
413,280,41994,1,2,0:0:0:0:
238,212,42167,2,0,P|163:199|135:211,2,85,0|0|8,0:2|1:2|0:2,0:0:0:0:
184,291,42684,1,2,0:0:0:0:
212,116,42856,6,0,P|192:71|68:59,1,170,2|8,1:2|0:2,0:0:0:0:
120,136,43374,1,2,0:0:0:0:
286,32,43546,1,2,0:2:0:0:
252,192,43718,1,2,1:2:0:0:
97,129,43891,1,8,0:0:0:0:
120,274,44063,1,2,0:0:0:0:
271,179,44236,6,0,B|358:143|358:219|460:172,1,170,4|8,1:2|0:0,0:0:0:0:
397,96,44753,1,2,0:0:0:0:
313,257,44925,2,0,P|317:296|327:340,1,85,0|0,0:2|1:0,0:0:0:0:
224,248,45270,1,8,0:0:0:0:
408,304,45443,1,2,0:0:0:0:
343,160,45615,6,0,P|339:103|431:41,1,170,2|8,1:2|0:0,0:0:0:0:
424,128,46132,1,2,0:0:0:0:
265,58,46305,2,0,P|213:49|167:63,1,85,2|0,0:2|1:2,0:0:0:0:
81,168,46649,1,8,0:2:0:0:
95,74,46822,1,2,0:0:0:0:
183,222,46994,6,0,B|216:283|216:283|191:406,1,170,2|8,1:2|0:2,0:0:0:0:
107,293,47512,1,2,0:0:0:0:
293,222,47684,2,0,B|373:191|377:263|478:210,1,170,2|8,0:2|0:0,0:0:0:0:
406,144,48201,1,2,0:0:0:0:
406,144,48287,1,0,0:0:0:0:
406,144,48374,6,0,B|373:205|373:205|398:328,1,170,2|8,1:2|0:2,0:0:0:0:
473,239,48891,1,2,0:0:0:0:
492,338,49063,1,2,0:2:0:0:
402,384,49236,1,2,3:2:0:0:
307,346,49408,1,2,3:2:0:0:
211,380,49580,1,2,3:2:0:0:
370,267,49753,5,0,1:0:0:0:
191,359,49925,1,2,3:0:0:0:
402,384,50098,1,2,3:0:0:0:
271,243,50270,5,0,1:0:0:0:
428,380,50443,1,2,3:0:0:0:
175,342,50615,1,2,3:0:0:0:
370,267,50787,2,0,P|378:211|361:174,1,85,2|0,1:2|0:0,0:0:0:0:
164,159,51132,6,0,B|188:210|188:210|294:231,1,153,6|0,1:2|0:0,0:0:0:0:
257,136,51649,1,8,0:2:0:0:
202,310,51822,1,8,0:2:0:0:
202,310,52167,2,0,L|194:222,1,76.5000000000001,0|0,1:2|0:0,0:0:0:0:
297,310,52512,6,0,B|371:340|363:273|474:327,2,153,2|8|8,0:0|0:2|0:2,0:0:0:0:
342,152,53546,2,0,L|334:240,1,76.5000000000001,2|2,0:0|0:0,0:0:0:0:
375,78,53891,6,0,B|301:48|309:115|198:61,1,153,4|2,1:2|0:0,0:0:0:0:
145,35,54408,1,8,0:2:0:0:
176,224,54580,1,8,0:2:0:0:
176,224,54925,2,0,L|185:131,1,76.5000000000001,2|0,0:0|0:0,0:0:0:0:
300,228,55270,6,0,L|318:414,1,153,0|0,1:0|1:0,0:0:0:0:
314,380,55960,1,10,0:2:0:0:
394,251,56132,1,2,1:2:0:0:
210,320,56305,1,10,0:2:0:0:
408,355,56477,1,2,0:2:0:0:
317,205,56649,6,0,P|303:263|322:304,1,85,0|0,1:2|0:0,0:0:0:0:
308,128,56994,2,0,P|254:154|235:195,1,85,2|0,0:0|0:2,0:0:0:0:
361,71,57339,2,0,P|306:47|262:58,1,85,8|0,0:2|0:0,0:0:0:0:
438,74,57684,2,0,P|421:16|384:-9,1,85,2|0,0:0|0:0,0:0:0:0:
387,146,58029,6,0,P|403:203|440:229,1,85,8|0,0:2|0:0,0:0:0:0:
363,280,58374,2,0,P|417:303|461:292,1,85,0|0,1:2|0:0,0:0:0:0:
481,147,58718,5,10,0:2:0:0:
299,210,58891,1,2,1:2:0:0:
512,252,59063,1,10,0:2:0:0:
372,99,59236,1,2,1:2:0:0:
349,368,59408,1,6,1:2:0:0:
349,368,59753,5,10,1:2:0:0:
362,186,59925,1,2,0:2:0:0:
132,353,60098,5,10,1:2:0:0:
409,275,60270,1,2,0:2:0:0:
168,89,60443,5,10,0:2:0:0:
170,103,60529,1,0,0:0:0:0:
171,117,60615,1,2,0:2:0:0:
172,131,60701,1,0,0:0:0:0:
174,145,60787,1,4,0:2:0:0:
256,192,60874,12,2,62167,0:2:0:0:
332,140,63201,6,0,L|328:106,1,34,0|0,0:2|0:0,0:0:0:0:
248,200,63374,2,0,L|251:166,1,34,0|0,0:0|0:2,0:0:0:0:
332,248,63546,5,6,1:2:0:0:
121,156,63718,1,0,1:0:0:0:
356,104,63891,1,8,0:2:0:0:
237,297,64063,1,2,0:0:0:0:
264,66,64236,5,0,1:2:0:0:
232,319,64408,1,0,1:0:0:0:
268,41,64580,1,8,0:2:0:0:
104,172,64753,1,2,0:0:0:0:
264,232,64925,6,0,P|325:219|372:216,1,102,2|0,1:2|1:0,0:0:0:0:
492,268,65270,1,8,0:2:0:0:
421,98,65443,2,0,B|322:51|322:154|190:75,1,204,2|0,0:0|1:0,0:0:0:0:
78,30,65960,2,0,L|88:180,1,102,8|0,0:2|0:0,0:0:0:0:
105,321,66305,5,2,1:2:0:0:
223,92,66477,1,0,1:0:0:0:
251,340,66649,1,8,0:2:0:0:
57,121,66822,1,2,0:0:0:0:
89,351,66994,5,0,1:2:0:0:
228,123,67167,1,0,1:0:0:0:
257,376,67339,1,8,0:2:0:0:
150,241,67512,1,2,0:0:0:0:
333,308,67684,6,0,P|395:320|446:319,1,102,0|0,1:2|1:0,0:0:0:0:
482,211,68029,1,10,0:2:0:0:
306,71,68201,2,0,L|314:188,1,102,2|0,0:0|0:0,0:0:0:0:
335,339,68546,1,0,1:0:0:0:
139,267,68718,1,8,0:2:0:0:
139,267,68805,1,2,0:0:0:0:
139,267,68891,1,2,0:0:0:0:
338,151,69063,6,0,P|389:130|441:133,1,102,4|0,1:2|1:0,0:0:0:0:
505,220,69408,1,8,0:2:0:0:
397,335,69580,2,0,B|298:382|298:279|166:358,1,204,2|0,0:0|1:0,0:0:0:0:
83,370,70098,2,0,L|93:250,1,102,8|2,0:2|0:0,0:0:0:0:
104,96,70443,6,0,P|134:151|280:136,1,204,2|8,1:2|0:2,0:0:0:0:
332,64,70960,1,0,0:0:0:0:
296,261,71132,1,2,1:2:0:0:
199,81,71305,1,2,1:2:0:0:
156,255,71477,1,10,0:2:0:0:
395,172,71649,1,2,0:0:0:0:
123,155,71822,6,0,L|3:166,1,102,6|0,1:2|0:0,0:0:0:0:
180,65,72167,1,8,0:2:0:0:
156,255,72339,2,0,P|148:321|168:391,1,102,2|0,0:0|0:0,0:0:0:0:
52,257,72684,1,0,1:0:0:0:
245,307,72856,2,0,L|346:297,1,102,8|2,0:2|0:0,0:0:0:0:
498,290,73201,5,0,1:2:0:0:
358,118,73374,1,8,0:0:0:0:
408,383,73546,1,8,0:2:0:0:
429,206,73718,1,0,1:0:0:0:
245,359,73891,5,8,0:2:0:0:
269,146,74063,1,2,1:2:0:0:
334,269,74236,1,8,1:2:0:0:
177,239,74408,1,2,1:2:0:0:
374,53,74580,5,6,1:2:0:0:
334,269,74753,1,0,1:0:0:0:
156,136,74925,1,8,0:2:0:0:
196,352,75098,1,2,0:0:0:0:
303,196,75270,6,0,P|354:192|396:219,1,102,0|0,1:2|1:0,0:0:0:0:
459,349,75615,1,8,0:2:0:0:
504,223,75787,1,0,0:0:0:0:
321,311,75960,5,2,1:2:0:0:
459,349,76132,1,0,1:0:0:0:
416,143,76305,1,8,0:2:0:0:
296,335,76477,2,0,B|197:382|197:279|65:358,1,204,2|0,0:0|1:0,0:0:0:0:
240,167,76994,2,0,P|255:220|246:276,1,102,8|2,0:2|0:0,0:0:0:0:
146,134,77339,5,2,1:2:0:0:
353,198,77512,1,0,1:0:0:0:
110,224,77684,1,8,0:2:0:0:
393,114,77856,1,2,0:0:0:0:
358,293,78029,5,0,1:2:0:0:
314,78,78201,1,0,1:0:0:0:
464,171,78374,1,8,0:2:0:0:
275,240,78546,1,2,0:0:0:0:
398,362,78718,5,2,1:2:0:0:
451,208,78891,1,0,1:0:0:0:
211,312,79063,1,10,0:2:0:0:
222,107,79236,2,0,L|230:-13,1,102,2|0,0:0|1:2,0:0:0:0:
319,147,79580,1,0,1:0:0:0:
117,95,79753,1,8,0:2:0:0:
117,95,79839,1,0,0:0:0:0:
117,95,79925,1,0,0:0:0:0:
270,290,80098,6,0,P|212:256|160:265,1,102,4|2,1:2|0:0,0:0:0:0:
335,128,80443,2,0,P|393:94|445:103,1,102,8|2,0:2|0:0,0:0:0:0:
215,29,80787,5,8,1:2:0:0:
265,258,80960,1,0,1:0:0:0:
454,91,81132,5,10,1:2:0:0:
409,332,81305,1,0,1:0:0:0:
88,225,81477,6,0,P|138:227|178:257,1,102,6|0,1:2|0:0,0:0:0:0:
333,132,81822,2,0,P|282:134|242:164,1,102,8|0,0:2|0:0,0:0:0:0:
322,280,82167,5,10,1:2:0:0:
294,47,82339,1,2,1:2:0:0:
57,301,82512,5,10,0:2:0:0:
116,25,82684,1,0,1:0:0:0:
164,352,82856,1,6,1:2:0:0:
168,382,83201,5,8,1:2:0:0:
183,202,83374,1,2,1:2:0:0:
373,358,83546,5,8,1:2:0:0:
104,252,83718,1,0,1:2:0:0:
379,70,83891,5,8,1:2:0:0:
375,93,83977,1,0,0:0:0:0:
374,116,84063,1,2,1:2:0:0:
372,139,84149,1,0,0:0:0:0:
369,162,84236,1,4,1:2:0:0:
158,129,84753,5,0,0:0:0:0:
156,116,84839,1,0,0:0:0:0:
155,103,84925,1,2,0:0:0:0:
53,283,85443,6,0,B|106:257|184:296|184:296|171:217|171:217|253:267|315:219,1,361.25
328,202,86994,5,4,1:2:0:0:
302,384,87167,1,0,1:0:0:0:
487,286,87339,1,8,0:2:0:0:
304,192,87512,2,0,P|260:152|252:120,1,85,2|0,0:2|1:2,0:0:0:0:
280,8,87856,1,0,1:0:0:0:
156,92,88029,2,0,P|158:132|156:192,1,85,8|0,0:2|0:0,0:0:0:0:
136,360,88374,5,2,1:2:0:0:
244,216,88546,1,0,1:0:0:0:
56,268,88718,1,8,0:2:0:0:
240,328,88891,2,0,L|336:324,1,85,2|0,0:2|1:2,0:0:0:0:
508,316,89236,1,0,1:0:0:0:
268,216,89408,1,8,0:2:0:0:
332,352,89580,1,0,0:0:0:0:
352,128,89753,6,0,P|354:88|363:30,2,85,2|0|8,1:2|0:0|0:2,0:0:0:0:
336,324,90270,2,0,P|288:300|240:308,1,85,2|0,0:2|1:2,0:0:0:0:
116,368,90615,1,0,1:0:0:0:
132,176,90787,2,0,P|136:131|140:80,1,85,8|0,0:2|0:0,0:0:0:0:
28,228,91132,5,2,1:2:0:0:
248,160,91305,1,2,0:2:0:0:
124,64,91477,1,8,0:2:0:0:
136,212,91649,2,0,P|139:252|143:296,1,85,2|0,0:2|1:2,0:0:0:0:
4,216,91994,1,0,1:0:0:0:
244,265,92167,2,0,L|288:274,1,42.5,8|0,0:0|0:0,0:0:0:0:
336,206,92339,2,0,L|380:197,1,42.5
451,246,92512,6,0,P|457:288|448:331,2,85,4|0|8,1:2|1:0|0:2,0:0:0:0:
354,117,93029,2,0,P|311:118|269:125,1,85,2|0,0:2|1:2,0:0:0:0:
103,161,93374,1,0,1:0:0:0:
209,301,93546,2,0,P|208:258|201:216,1,85,8|0,0:2|0:0,0:0:0:0:
141,48,93891,5,2,1:2:0:0:
27,194,94063,1,0,0:0:0:0:
1,34,94236,1,8,0:2:0:0:
171,120,94408,2,0,P|212:115|258:96,1,85,2|0,0:2|1:2,0:0:0:0:
377,20,94753,1,2,1:2:0:0:
346,275,94925,1,10,0:0:0:0:
346,275,95270,6,0,L|339:184,1,85,6|0,1:2|0:0,0:0:0:0:
159,353,95615,2,0,L|166:262,1,85,8|0,0:2|0:0,0:0:0:0:
179,44,95960,1,8,1:2:0:0:
362,219,96132,1,0,1:0:0:0:
113,178,96305,1,8,0:2:0:0:
410,125,96477,1,0,1:0:0:0:
69,100,96649,6,0,L|1:110,2,63.7500000000002,6|0|8,0:2|0:0|0:2,0:0:0:0:
202,191,97167,2,0,L|139:181,1,63.7500000000002,2|0,0:0|0:2,0:0:0:0:
317,148,97512,1,8,0:0:0:0:
259,284,97684,1,8,0:2:0:0:
233,96,97856,1,8,0:0:0:0:
341,164,98029,5,2,0:0:0:0:
256,192,98115,12,0,100615,0:0:0:0:
411,159,100787,5,2,0:2:0:0:
423,235,100960,1,0,0:2:0:0:
371,295,101132,1,0,0:2:0:0:
295,279,101305,1,2,0:2:0:0:
295,279,101649,5,0,0:2:0:0:
371,295,101822,1,2,0:2:0:0:
423,235,101994,1,0,0:2:0:0:
411,159,102167,1,0,0:2:0:0:
423,235,102512,5,0,0:2:0:0:
377,301,102684,1,2,0:2:0:0:
377,301,102770,1,0,0:0:0:0:
377,301,102856,1,0,0:2:0:0:
295,279,103029,1,2,0:2:0:0:
255,214,103201,1,0,0:2:0:0:
180,202,103374,1,0,0:2:0:0:
119,249,103546,5,2,0:2:0:0:
180,202,103718,1,0,0:2:0:0:
255,214,103891,1,0,0:2:0:0:
295,279,104063,1,2,0:2:0:0:
295,279,104408,5,0,0:2:0:0:
255,214,104580,1,2,0:2:0:0:
179,203,104753,1,0,0:0:0:0:
119,249,104925,1,0,0:0:0:0:
179,203,105290,5,0,0:2:0:0:
119,249,105656,1,0,0:2:0:0:
119,249,106219,6,0,L|122:288,2,21.4965,0|0|2,0:0|0:0|0:2,0:0:0:0:
247,79,106707,5,0,0:2:0:0:
226,240,106879,1,0,0:2:0:0:
331,165,107224,5,2,0:2:0:0:
356,359,107426,1,2,0:0:0:0:
442,54,107770,6,0,L|450:20,2,21.25,0|2|0,0:2|0:0|0:0,0:0:0:0:
256,192,107943,12,0,111822,0:2:0:0:
