osu file format v14

[General]
AudioFilename: audio.mp3
AudioLeadIn: 0
PreviewTime: 63203
Countdown: 0
SampleSet: Soft
StackLeniency: 0.6
Mode: 0
LetterboxInBreaks: 0
WidescreenStoryboard: 0

[Editor]
Bookmarks: 15272,27686,51134
DistanceSpacing: 1.5
BeatDivisor: 4
GridSize: 16
TimelineZoom: 4.399998

[Metadata]
Title:Kimi to Watashi no Sentence
TitleUnicode:君と私のセンテンス
Artist:Soyokaze Mirai
ArtistUnicode:そよかぜみらい
Creator:kwk
Version:Lafa's Normal
Source:となりに彼女のいる幸せ ~Two Farce~
Tags:Lafayla Dakinibrave Log Off Now Mordred tonari ni kanojo no iru shiawase tonakai prekano entergram eroge visual novel opening Japanese video game
BeatmapID:1682098
BeatmapSetID:772053

[Difficulty]
HPDrainRate:4
CircleSize:3
OverallDifficulty:4
ApproachRate:6
SliderMultiplier:0.95
SliderTickRate:1

[Events]
//Background and Video events
0,0,"63092091_p0.jpg",0,0
//Break Periods
//Storyboard Layer 0 (Background)
//Storyboard Layer 1 (Fail)
//Storyboard Layer 2 (Pass)
//Storyboard Layer 3 (Foreground)
//Storyboard Layer 4 (Overlay)
//Storyboard Sound Samples

[TimingPoints]
4237,344.827586206897,4,2,0,38,1,0
4237,-100,4,2,0,38,0,0
11133,365.853658536585,4,2,0,38,1,0
11133,-100,4,2,0,38,0,0
12426,344.827586206897,4,2,0,38,1,0
12426,-100,4,2,0,38,0,0
12512,344.827586206897,4,2,0,38,1,0
12512,-100,4,2,0,38,0,0
14925,-100,4,2,0,42,0,0
15270,-100,4,2,0,52,0,0
26649,-100,4,2,0,20,0,0
26994,-100,4,2,0,30,0,0
27339,-100,4,2,0,40,0,0
27684,-100,4,2,0,40,0,0
38718,-100,4,2,0,48,0,0
56649,-100,4,2,0,50,0,0
63546,-100,4,2,0,60,0,1
74408,-100,4,2,0,60,0,0
74580,-100,4,2,0,60,0,1
84236,-100,4,2,0,60,0,0
84753,-100,4,2,0,45,0,0
85443,-100,4,2,0,20,0,0
85529,-100,4,2,0,5,0,0
86994,-100,4,2,0,52,0,0
96649,-100,4,2,0,46,0,0
100615,-100,4,2,0,38,0,0
104925,365.853658536585,4,2,0,38,1,0
104925,-100,4,2,0,38,0,0
106219,344.827586206897,4,2,0,38,1,0
106306,402.684563758389,4,2,0,38,1,0
106306,-100,4,2,0,38,0,0
106707,344.827586206897,4,2,0,38,1,0
106707,-100,4,2,0,38,0,0
107224,405.405405405405,4,2,0,38,1,0
107224,-100,4,2,0,38,0,0
107426,344.827586206897,4,2,0,38,1,0
107426,-100,4,2,0,38,0,0
107943,-100,4,2,0,32,0,0
108805,-100,4,2,0,26,0,0
110184,-100,4,2,0,18,0,0
110874,-100,4,2,0,12,0,0
111219,-100,4,2,0,12,0,0
111822,-100,4,2,0,5,0,0

[Colours]
Combo1 : 36,120,204
Combo2 : 192,243,254
Combo3 : 226,215,247

[HitObjects]
134,148,4237,6,0,B|184:127|184:127|280:134,1,142.5,2|2,0:0|0:2,0:0:0:0:
413,149,5271,1,2,0:2:0:0:
502,180,5616,2,0,P|520:227|508:272,1,95,0|0,0:2|0:2,0:0:0:0:
470,354,6305,1,0,0:2:0:0:
282,324,6995,6,0,B|196:301|227:368|127:347,1,142.5,2|2,0:2|0:0,0:0:0:0:
29,271,8030,1,2,0:0:0:0:
1,180,8374,2,0,P|-6:133|11:90,1,95
51,63,8892,1,2,0:2:0:0:
142,89,9237,2,0,L|137:151,2,47.5,2|0|0,0:2|0:2|0:2,0:0:0:0:
183,65,9754,6,0,B|239:63|239:63|262:77|262:77|340:74,1,142.5,2|2,0:2|0:0,0:0:0:0:
463,70,10788,1,2,0:2:0:0:
511,151,11133,2,0,P|518:197|500:240,1,95,0|0,0:0|0:2,0:0:0:0:
429,303,11864,1,0,0:2:0:0:
243,345,12512,6,0,P|196:352|153:334,1,95,2|0,0:2|0:2,0:0:0:0:
114,305,13029,1,0,0:2:0:0:
61,226,13374,2,0,L|56:173,1,47.5,2|2,0:2|0:2,0:0:0:0:
71,84,13891,2,0,P|198:31|291:124,1,285
341,204,15270,6,0,P|384:221|430:214,1,95,4|8,1:2|0:2,0:0:0:0:
473,193,15787,2,0,P|490:149|483:103,1,95,2|0,0:2|0:0,0:0:0:0:
461,61,16305,1,8,0:2:0:0:
383,5,16649,2,0,L|319:9,1,47.5,2|0,1:2|0:0,0:0:0:0:
297,37,16994,1,8,0:2:0:0:
254,58,17167,2,0,P|207:65|164:47,1,95,2|0,0:2|0:0,0:0:0:0:
124,21,17684,1,8,0:2:0:0:
37,61,18029,6,0,P|29:107|47:150,1,95,4|8,1:2|0:2,0:0:0:0:
80,185,18546,2,0,P|97:228|90:274,1,95,2|0,0:2|0:0,0:0:0:0:
74,319,19063,1,8,0:2:0:0:
167,337,19408,2,0,L|162:399,2,47.5,0|2|8,1:2|0:2|0:2,0:0:0:0:
209,316,19925,1,2,0:2:0:0:
287,262,20270,2,0,L|282:199,2,47.5,2|8|0,0:0|0:0|0:0,0:0:0:0:
322,293,20787,6,0,P|365:310|411:303,1,95,4|8,1:2|0:2,0:0:0:0:
454,282,21305,2,0,P|471:238|464:192,1,95,2|0,0:2|0:0,0:0:0:0:
447,147,21822,1,8,0:2:0:0:
390,70,22167,2,0,L|337:65,1,47.5,2|0,1:2|0:0,0:0:0:0:
311,30,22512,1,8,0:2:0:0:
266,13,22684,2,0,P|219:5|176:23,1,95,2|0,0:2|0:0,0:0:0:0:
136,50,23201,1,8,0:0:0:0:
63,111,23546,5,6,1:2:0:0:
37,202,23891,1,8,0:2:0:0:
37,202,24063,2,0,P|29:248|47:291,1,95,0|2,0:0|0:0,0:0:0:0:
79,327,24580,1,0,0:0:0:0:
169,356,24925,2,0,P|215:364|258:346,1,95,2|8,1:2|0:2,0:0:0:0:
294,314,25443,1,2,0:0:0:0:
322,223,25787,2,0,L|318:159,1,47.5,2|10,0:0|0:2,0:0:0:0:
316,127,26132,1,2,0:0:0:0:
316,127,27684,6,0,B|372:128|372:128|393:144|393:144|471:146,1,142.5,2|0,1:2|0:2,0:0:0:0:
497,163,28374,2,0,P|505:209|487:252,1,95,0|0,0:2|0:2,0:0:0:0:
403,298,29063,2,0,B|317:275|348:342|248:321,1,142.5,2|0,1:2|0:2,0:0:0:0:
221,318,29753,1,0,0:2:0:0:
102,238,30270,5,0,0:2:0:0:
102,238,30443,2,0,B|77:189|77:189|77:92,1,142.5,2|0,1:2|0:2,0:0:0:0:
92,56,31132,2,0,P|133:35|180:39,1,95,0|0,0:2|0:2,0:0:0:0:
270,69,31822,2,0,B|321:86|321:86|416:72,1,142.5,2|0,1:2|0:2,0:0:0:0:
454,63,32512,1,0,0:2:0:0:
507,195,33029,5,0,0:2:0:0:
507,195,33201,2,0,B|503:250|503:250|516:273|516:273|510:351,1,142.5,2|0,1:2|0:2,0:0:0:0:
504,380,33891,1,0,0:2:0:0:
369,333,34408,1,0,0:2:0:0:
369,333,34580,2,0,B|303:310|303:310|222:334,1,142.5,0|0,1:2|0:2,0:0:0:0:
188,346,35270,1,0,0:2:0:0:
64,274,35787,5,0,0:2:0:0:
64,274,35960,2,0,P|46:231|54:185,1,95,2|0,1:2|0:2,0:0:0:0:
74,141,36477,1,0,0:0:0:0:
122,59,36822,2,0,L|186:55,1,47.5,0|0,1:2|0:2,0:0:0:0:
217,55,37167,1,0,0:2:0:0:
217,55,37339,1,4,0:2:0:0:
334,212,38029,1,0,0:2:0:0:
334,212,38201,2,0,L|397:217,1,47.5,4|0,3:0|3:2,0:0:0:0:
428,218,38546,1,0,3:2:0:0:
468,194,38718,6,0,B|489:142|489:142|482:46,1,142.5,4|2,0:2|0:0,0:0:0:0:
468,11,39408,2,0,P|424:-6|378:3,1,95,0|8,0:2|0:0,0:0:0:0:
290,38,40098,2,0,P|246:56|200:47,1,95,2|8,1:2|0:0,0:0:0:0:
155,32,40615,1,2,0:0:0:0:
109,18,40787,2,0,P|62:9|19:27,1,95,0|8,0:2|0:2,0:0:0:0:
1,120,41477,6,0,B|-3:175|-3:175|10:198|10:198|4:276,1,142.5,2|2,1:2|0:0,0:0:0:0:
3,306,42167,2,0,P|46:324|92:316,1,95,0|8,0:2|0:2,0:0:0:0:
173,266,42856,2,0,P|219:256|263:275,1,95,2|8,1:2|0:2,0:0:0:0:
295,308,43374,1,2,0:0:0:0:
333,335,43546,2,0,P|379:343|422:325,1,95,2|8,0:2|0:0,0:0:0:0:
498,268,44236,5,4,1:2:0:0:
511,129,44753,1,2,0:0:0:0:
511,129,44925,2,0,P|509:81|482:43,1,95,0|8,0:2|0:0,0:0:0:0:
391,15,45615,2,0,P|344:6|301:24,1,95,2|8,1:2|0:0,0:0:0:0:
261,48,46132,1,2,0:0:0:0:
218,68,46305,2,0,P|171:76|128:58,1,95,2|8,0:2|0:2,0:0:0:0:
34,41,46994,6,0,B|31:96|31:96|46:118|46:118|43:178,1,142.5,2|2,1:2|0:0,0:0:0:0:
16,218,47684,2,0,P|7:264|25:307,1,95,2|8,0:2|0:0,0:0:0:0:
114,339,48374,2,0,P|160:347|203:329,1,95,2|8,1:2|0:2,0:0:0:0:
243,301,48891,1,2,0:0:0:0:
266,260,49063,2,0,L|329:269,2,47.5,2|2|2,0:2|3:2|3:2,0:0:0:0:
262,212,49580,1,2,3:2:0:0:
264,116,49925,6,0,L|217:109,2,47.5,2|2|0,3:0|3:0|1:0,0:0:0:0:
297,82,50443,2,0,L|343:78,1,47.5,2|2,3:0|3:0,0:0:0:0:
391,73,50787,1,2,1:2:0:0:
486,73,51132,6,0,B|480:152|480:152|501:178|501:178|495:260,1,190,6|8,1:2|0:2,0:0:0:0:
455,341,52167,2,0,L|392:337,1,47.5,0|0,1:2|0:0,0:0:0:0:
360,332,52512,2,0,B|281:326|281:326|255:347|255:347|173:341,1,190,2|8,0:0|0:2,0:0:0:0:
88,309,53546,2,0,L|82:247,1,47.5,2|2,0:0|0:0,0:0:0:0:
50,227,53891,6,0,P|31:183|39:137,1,95,4|2,1:2|0:0,0:0:0:0:
107,70,54580,1,8,0:2:0:0:
190,25,54925,2,0,L|237:19,1,47.5,2|0,0:0|0:0,0:0:0:0:
284,15,55270,2,0,P|330:7|373:25,1,95,0|0,1:0|1:0,0:0:0:0:
447,84,55960,2,0,P|465:127|457:173,1,95,10|10,0:2|0:2,0:0:0:0:
394,245,56649,5,0,1:2:0:0:
308,203,56994,2,0,L|310:155,2,47.5,2|0|8,0:0|0:2|0:2,0:0:0:0:
241,271,57684,2,0,L|228:331,1,47.5,2|0,0:0|0:0,0:0:0:0:
201,354,58029,2,0,P|154:361|111:343,1,95,8|0,0:2|1:2,0:0:0:0:
35,287,58718,2,0,P|16:243|24:197,1,95,10|10,0:2|0:2,0:0:0:0:
75,117,59408,5,6,1:2:0:0:
162,80,59753,1,10,1:2:0:0:
162,80,59925,2,0,L|159:32,2,47.5,2|10|2,0:2|1:2|0:2,0:0:0:0:
205,99,60443,2,0,L|217:159,1,47.5,10|2,0:2|0:2,0:0:0:0:
233,189,60787,1,4,0:2:0:0:
233,189,62167,6,0,L|243:299,2,95,2|0|0,0:2|0:0|0:0,0:0:0:0:
258,97,63201,1,0,0:2:0:0:
180,41,63546,6,0,L|117:32,1,47.5,6|0,1:2|1:0,0:0:0:0:
97,5,63891,2,0,L|34:14,1,47.5,8|2,0:2|0:0,0:0:0:0:
8,36,64236,2,0,P|-10:79|-2:125,1,95,0|8,1:2|0:2,0:0:0:0:
12,219,64925,2,0,L|8:281,1,47.5,2|0,1:2|1:0,0:0:0:0:
7,314,65270,1,8,0:2:0:0:
34,352,65443,2,0,P|78:371|124:363,1,95,2|0,0:0|1:0,0:0:0:0:
166,342,65960,1,8,0:2:0:0:
258,360,66305,6,0,L|319:342,1,47.5,2|0,1:2|1:0,0:0:0:0:
350,360,66649,2,0,L|402:326,1,47.5,8|2,0:2|0:0,0:0:0:0:
437,338,66994,2,0,L|478:291,1,47.5,0|0,1:2|1:0,0:0:0:0:
499,266,67339,1,8,0:2:0:0:
464,177,67684,2,0,L|416:180,2,47.5,0|0|10,1:2|1:0|0:2,0:0:0:0:
486,135,68201,1,2,0:0:0:0:
388,30,68718,2,0,L|325:24,1,47.5,8|2,0:2|0:0,0:0:0:0:
293,20,69063,6,0,P|246:12|203:31,1,95,4|8,1:2|0:2,0:0:0:0:
163,55,69580,2,0,P|120:73|73:66,1,95,2|0,0:0|1:0,0:0:0:0:
26,57,70098,2,0,L|18:103,1,47.5,8|2,0:2|0:0,0:0:0:0:
5,149,70443,1,2,1:2:0:0:
27,241,70787,1,8,0:2:0:0:
94,308,71132,2,0,L|157:308,1,47.5,2|2,1:2|1:2,0:0:0:0:
182,334,71477,2,0,L|242:316,1,47.5,10|2,0:2|0:0,0:0:0:0:
269,298,71822,6,0,P|287:255|278:209,1,95,6|8,1:2|0:2,0:0:0:0:
254,167,72339,1,2,0:0:0:0:
140,80,72856,2,0,L|93:84,1,47.5,8|2,0:2|0:0,0:0:0:0:
53,112,73201,2,0,L|-9:103,2,47.5,0|8|8,1:2|0:0|0:2,0:0:0:0:
66,157,73718,1,0,1:0:0:0:
61,204,73891,2,0,L|-1:212,2,47.5,8|2|8,0:2|1:2|1:2,0:0:0:0:
155,195,74580,6,0,L|215:177,1,47.5,6|0,1:2|1:0,0:0:0:0:
220,138,74925,2,0,L|283:135,1,47.5,8|2,0:2|0:0,0:0:0:0:
315,131,75270,2,0,P|361:122|404:140,1,95,0|8,1:2|0:2,0:0:0:0:
464,213,75960,2,0,L|468:274,1,47.5,2|0,1:2|1:0,0:0:0:0:
470,307,76305,1,8,0:2:0:0:
455,352,76477,2,0,P|411:370|365:361,1,95,2|0,0:0|1:0,0:0:0:0:
320,347,76994,1,8,0:2:0:0:
226,329,77339,6,0,L|160:317,1,47.5,2|0,1:2|1:0,0:0:0:0:
138,345,77684,2,0,L|78:318,1,47.5,8|2,0:2|0:0,0:0:0:0:
59,293,78029,2,0,L|6:291,2,47.5,0|0|8,1:2|1:0|0:2,0:0:0:0:
63,198,78718,2,0,L|55:132,1,47.5,2|0,1:2|1:0,0:0:0:0:
62,103,79063,1,10,0:2:0:0:
89,63,79236,2,0,P|132:46|178:55,1,95,2|0,0:0|1:0,0:0:0:0:
220,77,79753,2,0,L|283:71,1,47.5,8|0,0:2|0:0,0:0:0:0:
314,70,80098,5,4,1:2:0:0:
406,91,80443,2,0,L|458:85,2,47.5,8|2|8,0:2|0:0|1:2,0:0:0:0:
354,171,81132,2,0,L|291:177,1,47.5,10|0,1:2|1:0,0:0:0:0:
259,181,81477,1,6,1:2:0:0:
167,153,81822,2,0,P|120:144|77:160,1,95,8|10,0:2|1:2,0:0:0:0:
1,218,82512,2,0,L|7:281,1,47.5,10|0,0:2|1:0,0:0:0:0:
15,311,82856,5,6,1:2:0:0:
106,337,83201,2,0,L|100:389,2,47.5,8|2|8,1:2|1:2|1:2,0:0:0:0:
151,321,83718,1,0,1:2:0:0:
195,303,83891,2,0,L|201:240,1,47.5,8|2,1:2|1:2,0:0:0:0:
209,209,84236,1,4,1:2:0:0:
280,146,84580,1,0,0:0:0:0:
280,146,84753,2,0,L|270:36,2,95
280,146,86994,6,0,P|287:192|270:236,1,95,4|8,1:2|0:2,0:0:0:0:
234,267,87512,2,0,P|190:283|143:276,1,95,2|0,0:2|1:0,0:0:0:0:
99,260,88029,1,8,0:2:0:0:
8,231,88374,2,0,L|5:183,1,47.5,2|0,1:2|1:0,0:0:0:0:
5,135,88718,1,8,0:2:0:0:
15,88,88891,2,0,P|58:70|104:76,1,95,2|0,0:2|1:0,0:0:0:0:
148,95,89408,1,8,0:2:0:0:
239,121,89753,6,0,P|285:129|328:111,1,95,2|8,1:2|0:2,0:0:0:0:
371,89,90270,2,0,P|414:72|461:79,1,95,2|0,0:2|1:0,0:0:0:0:
502,102,90787,1,8,0:2:0:0:
483,195,91132,2,0,L|421:200,2,47.5,2|2|8,1:2|0:2|0:2,0:0:0:0:
509,234,91649,1,2,0:2:0:0:
464,317,91994,2,0,L|469:380,2,47.5,0|8|0,1:0|0:0|0:0,0:0:0:0:
417,306,92512,6,0,P|370:298|326:315,1,95,4|8,1:2|0:2,0:0:0:0:
288,342,93029,2,0,P|244:359|198:352,1,95,2|0,0:2|1:0,0:0:0:0:
155,330,93546,1,8,0:2:0:0:
152,234,93891,2,0,L|157:181,1,47.5,2|0,1:2|0:0,0:0:0:0:
197,162,94236,1,8,0:2:0:0:
233,131,94408,2,0,P|241:84|223:41,1,95,2|2,0:2|1:2,0:0:0:0:
180,20,94925,1,10,0:0:0:0:
85,23,95270,5,6,1:2:0:0:
46,109,95615,2,0,L|-1:106,2,47.5,8|0|8,0:2|0:0|1:2,0:0:0:0:
70,201,96305,1,8,0:2:0:0:
134,270,96649,2,0,P|177:288|223:280,1,95,6|8,0:2|0:2,0:0:0:0:
267,261,97167,1,2,0:0:0:0:
352,219,97512,2,0,L|356:155,1,47.5,8|8,0:0|0:2,0:0:0:0:
360,124,97856,1,8,0:0:0:0:
348,78,98029,6,0,B|301:50|301:50|205:43,1,142.5,2|0,0:0|0:0,0:0:0:0:
72,66,99063,1,0,0:0:0:0:
9,137,99408,2,0,P|-8:180|-1:226,1,95
50,306,100098,1,0,0:0:0:0:
233,356,100787,6,0,B|289:354|289:354|312:368|312:368|390:365,1,142.5,2|2,0:2|0:2,0:0:0:0:
479,272,101822,1,2,0:2:0:0:
509,182,102167,2,0,P|516:135|498:91,1,95,0|0,0:2|0:2,0:0:0:0:
460,62,102684,1,2,0:2:0:0:
368,87,103029,2,0,L|363:149,2,47.5,2|0|0,0:2|0:2|0:2,0:0:0:0:
330,58,103546,6,0,B|244:35|275:102|175:81,1,142.5,2|2,0:2|0:2,0:0:0:0:
52,86,104580,1,2,0:2:0:0:
3,167,104925,2,0,P|-4:213|14:256,1,95,0|0,0:0|0:2,0:0:0:0:
94,308,105656,1,0,0:2:0:0:
256,320,106306,6,0,B|312:318|312:318|335:332|335:332|413:329,1,135.264083333333,2|0,0:2|0:2,0:0:0:0:
464,305,107224,2,0,L|468:241,1,47.5,2|2,0:2|0:0,0:0:0:0:
256,192,107857,12,0,111822,0:2:0:0:
