osu file format v14

[General]
AudioFilename: audio.mp3
AudioLeadIn: 0
PreviewTime: 63203
Countdown: 0
SampleSet: Soft
StackLeniency: 0.3
Mode: 0
LetterboxInBreaks: 0
WidescreenStoryboard: 0

[Editor]
Bookmarks: 27686,51134,111824
DistanceSpacing: 1.7
BeatDivisor: 4
GridSize: 4
TimelineZoom: 3.899999

[Metadata]
Title:Kimi to Watashi no Sentence
TitleUnicode:君と私のセンテンス
Artist:Soyokaze Mirai
ArtistUnicode:そよかぜみらい
Creator:kwk
Version:Insane
Source:となりに彼女のいる幸せ ~Two Farce~
Tags:Lafayla Dakinibrave Log Off Now Mordred tonari ni kanojo no iru shiawase tonakai prekano entergram eroge visual novel opening Japanese video game
BeatmapID:1679496
BeatmapSetID:772053

[Difficulty]
HPDrainRate:6
CircleSize:3.6
OverallDifficulty:8
ApproachRate:8.2
SliderMultiplier:1.4
SliderTickRate:1

[Events]
//Background and Video events
0,0,"63092091_p0.jpg",0,0
//Break Periods
//Storyboard Layer 0 (Background)
//Storyboard Layer 1 (Fail)
//Storyboard Layer 2 (Pass)
//Storyboard Layer 3 (Foreground)
//Storyboard Layer 4 (Overlay)
//Storyboard Sound Samples

[TimingPoints]
4237,344.827586206897,4,2,0,38,1,0
4237,-100,4,2,0,38,0,0
11133,365.853658536585,4,2,0,38,1,0
12426,344.827586206897,4,2,0,38,1,0
12512,344.827586206897,4,2,0,38,1,0
14926,-100,4,2,0,42,0,0
15098,-100,4,2,0,42,0,0
15270,-71.4285714285714,4,2,0,52,0,0
26649,-71.4285714285714,4,2,0,20,0,0
26994,-71.4285714285714,4,2,0,30,0,0
27339,-71.4285714285714,4,2,0,40,0,0
27684,-100,4,2,0,40,0,0
38718,-83.3333333333333,4,2,0,48,0,0
56649,-76.9230769230769,4,2,0,50,0,0
60787,-125,4,2,0,50,0,0
63201,-55.5555555555556,4,2,0,50,0,0
63546,-62.5,4,2,0,60,0,1
84236,-71.4285714285714,4,2,0,60,0,0
84753,-71.4285714285714,4,2,0,45,0,0
85443,-200,4,2,0,20,0,0
85529,-200,4,2,0,5,0,0
86994,-71.4285714285714,4,2,0,52,0,0
96649,-71.4285714285714,4,2,0,46,0,0
100615,-71.4285714285714,4,2,0,38,0,0
100787,-100,4,2,0,38,0,0
104925,365.853658536585,4,2,0,38,1,0
106219,344.827586206897,4,2,0,38,1,0
106306,402.684563758389,4,2,0,38,1,0
106306,-100,4,2,0,38,0,0
106707,344.827586206897,4,2,0,38,1,0
106707,-100,4,2,0,38,0,0
107224,405.405405405405,4,2,0,38,1,0
107224,-100,4,2,0,38,0,0
107426,344.827586206897,4,2,0,38,1,0
107426,-100,4,2,0,38,0,0
107943,-100,4,2,0,32,0,0
108805,-100,4,2,0,26,0,0
110184,-100,4,2,0,18,0,0
110874,-100,4,2,0,12,0,0
111219,-100,4,2,0,12,0,0
111822,-100,4,2,0,5,0,0

[Colours]
Combo1 : 255,255,166
Combo2 : 255,128,128
Combo3 : 0,255,255
Combo4 : 0,255,128

[HitObjects]
94,151,4107,6,0,L|89:131,3,17.6353333333333,0|0|0|2,0:0|0:0|0:0|0:0,0:0:0:0:
122,184,4409,1,0,0:2:0:0:
155,193,4581,1,0,0:2:0:0:
186,177,4754,1,2,0:2:0:0:
63,269,5099,5,0,0:2:0:0:
137,231,5271,1,2,0:2:0:0:
42,260,5443,1,0,0:2:0:0:
116,332,5616,1,0,0:2:0:0:
67,166,5961,1,0,0:2:0:0:
116,332,6305,1,0,0:2:0:0:
406,143,6995,5,2,0:2:0:0:
382,169,7168,1,0,0:0:0:0:
349,178,7340,1,0,0:2:0:0:
318,162,7512,1,2,0:0:0:0:
469,235,7857,5,0,0:0:0:0:
448,229,8030,1,2,0:0:0:0:
445,249,8202,1,0,0:2:0:0:
465,253,8374,1,0,0:0:0:0:
344,180,8719,1,0,0:0:0:0:
356,273,8892,6,0,L|367:329,2,35,2|0|0,0:2|0:0|0:0,0:0:0:0:
271,229,9237,1,2,0:2:0:0:
187,270,9409,1,0,0:2:0:0:
105,224,9581,1,0,0:2:0:0:
131,126,9754,5,2,0:2:0:0:
178,138,9926,1,0,0:2:0:0:
221,114,10099,1,0,0:0:0:0:
231,66,10271,1,2,0:0:0:0:
199,205,10616,5,0,0:2:0:0:
157,128,10788,1,2,0:2:0:0:
218,200,10961,1,0,0:0:0:0:
170,286,11133,1,0,0:0:0:0:
307,158,11498,1,0,0:2:0:0:
170,286,11864,1,0,0:2:0:0:
447,190,12426,6,0,L|433:215,2,17.5,0|0|2,0:0|0:0|0:2,0:0:0:0:
369,343,12856,1,0,0:2:0:0:
298,259,13029,1,0,0:2:0:0:
96,328,13374,1,2,0:2:0:0:
216,343,13546,1,2,0:2:0:0:
50,227,13805,2,0,L|54:197,2,17.5
256,192,13977,12,0,15098,0:2:0:0:
187,111,15270,6,0,P|203:157|205:206,1,98,4|0,1:2|0:0,0:0:0:0:
9,276,15615,1,8,0:2:0:0:
8,187,15787,2,0,P|51:160|124:165,1,98,2|0,0:2|1:2,0:0:0:0:
281,164,16132,1,0,0:0:0:0:
337,83,16305,1,8,0:2:0:0:
283,0,16477,1,0,0:0:0:0:
190,30,16649,6,0,L|199:140,1,98,2|0,1:2|0:0,0:0:0:0:
330,246,16994,1,8,0:2:0:0:
373,162,17167,2,0,P|325:151|280:166,1,98,2|0,0:2|1:2,0:0:0:0:
109,218,17512,2,0,B|148:232|148:232|204:221,1,98,0|8,0:0|0:2,0:0:0:0:
62,136,17856,1,8,0:0:0:0:
0,269,18029,6,0,L|100:305,1,98,4|0,1:2|0:0,0:0:0:0:
271,384,18374,1,8,0:2:0:0:
290,287,18546,2,0,P|212:300|186:339,1,98,2|0,0:2|1:2,0:0:0:0:
78,147,18891,1,0,0:0:0:0:
59,244,19063,2,0,P|137:231|163:192,1,98,8|0,0:2|0:0,0:0:0:0:
248,59,19408,1,0,1:2:0:0:
202,145,19580,1,2,0:2:0:0:
285,196,19753,1,8,0:2:0:0:
332,109,19925,6,0,P|375:86|428:92,1,98,2|0,0:2|1:2,0:0:0:0:
512,228,20270,1,2,0:0:0:0:
496,324,20443,1,8,0:0:0:0:
408,279,20615,1,0,0:0:0:0:
344,378,20787,6,0,L|232:382,1,98,4|0,1:2|0:0,0:0:0:0:
69,309,21132,1,8,0:2:0:0:
141,374,21305,2,0,P|164:331|161:283,1,98,2|0,0:2|1:2,0:0:0:0:
44,149,21649,1,0,0:0:0:0:
132,192,21822,1,8,0:2:0:0:
175,104,21994,1,0,0:0:0:0:
87,61,22167,6,0,P|42:52|-14:74,1,98,2|0,1:2|0:0,0:0:0:0:
166,12,22512,1,8,0:2:0:0:
246,50,22684,2,0,L|359:41,1,98,2|0,0:2|1:2,0:0:0:0:
462,154,23029,2,0,B|415:171|415:171|349:159,1,98,0|8,0:0|0:0,0:0:0:0:
224,181,23374,1,0,0:0:0:0:
323,318,23546,6,0,L|299:204,1,98,6|0,1:2|0:0,0:0:0:0:
154,103,23891,2,0,L|133:198,1,98,8|0,0:2|0:0,0:0:0:0:
79,373,24236,1,0,1:2:0:0:
0,315,24408,2,0,P|35:284|112:280,1,98,2|0,0:0|0:0,0:0:0:0:
170,320,24753,1,0,1:0:0:0:
260,229,24925,6,0,P|266:167|246:116,1,98,2|0,1:2|0:0,0:0:0:0:
183,12,25270,1,8,0:2:0:0:
124,182,25443,1,2,0:0:0:0:
106,85,25615,1,0,1:2:0:0:
46,249,25787,5,2,0:0:0:0:
189,119,25960,1,10,0:2:0:0:
170,320,26132,1,2,0:0:0:0:
71,127,27684,6,0,P|139:100|236:139,1,140,2|0,1:2|0:2,0:0:0:0:
288,191,28201,1,0,0:2:0:0:
284,225,28374,1,0,0:2:0:0:
202,113,28718,1,0,0:2:0:0:
75,314,29063,6,0,L|237:279,1,140,2|0,1:2|0:2,0:0:0:0:
352,306,29580,1,0,0:2:0:0:
322,225,29753,1,0,0:2:0:0:
311,257,29925,1,0,0:0:0:0:
303,291,30098,1,0,0:0:0:0:
402,332,30270,1,0,0:2:0:0:
505,289,30443,6,0,L|458:131,1,140,2|0,1:2|0:2,0:0:0:0:
330,20,30960,1,0,0:2:0:0:
303,111,31132,2,0,P|371:105|417:55,1,140,0|0,0:2|0:2,0:0:0:0:
330,20,31649,1,0,0:2:0:0:
330,20,31822,2,0,L|256:38,1,70,2|0,1:2|0:0,0:0:0:0:
0,159,32339,5,0,0:2:0:0:
75,102,32512,1,0,0:2:0:0:
91,132,32684,1,0,0:0:0:0:
95,166,32856,1,0,0:0:0:0:
42,249,33029,1,0,0:2:0:0:
98,327,33201,6,0,P|159:298|259:305,1,140,2|0,1:2|0:2,0:0:0:0:
316,346,33718,1,0,0:2:0:0:
400,295,33891,2,0,L|409:122,1,140,0|0,0:2|0:2,0:0:0:0:
407,155,34408,1,0,0:2:0:0:
303,113,34580,6,0,L|313:269,1,140,0|0,1:2|0:2,0:0:0:0:
249,325,35098,1,0,0:2:0:0:
162,244,35270,1,0,0:2:0:0:
193,228,35443,1,0,0:0:0:0:
228,229,35615,1,0,0:0:0:0:
166,332,35787,1,0,0:2:0:0:
67,255,35960,6,0,L|56:78,1,140,2|0,1:2|0:2,0:0:0:0:
121,33,36477,1,0,0:0:0:0:
291,157,36822,1,0,1:2:0:0:
283,191,36994,1,0,0:2:0:0:
384,136,37167,1,0,0:2:0:0:
450,229,37339,6,0,P|492:171|487:100,1,140,4|0,0:2|0:2,0:0:0:0:
271,37,38029,1,0,0:2:0:0:
271,37,38201,1,4,3:0:0:0:
271,37,38374,1,0,3:2:0:0:
279,120,38546,1,0,3:2:0:0:
207,174,38718,6,0,L|93:150,2,84,4|0|8,0:2|1:0|1:2,0:0:0:0:
293,226,39236,1,2,0:0:0:0:
236,312,39408,1,0,0:2:0:0:
283,277,39580,1,0,1:2:0:0:
340,291,39753,1,8,0:0:0:0:
426,342,39925,1,2,0:0:0:0:
504,278,40098,6,0,L|507:189,2,84,2|0|8,1:2|1:0|0:0,0:0:0:0:
414,209,40615,1,2,0:0:0:0:
303,256,40787,1,0,0:2:0:0:
357,277,40960,1,0,1:2:0:0:
412,257,41132,1,8,0:2:0:0:
432,158,41305,1,2,0:0:0:0:
358,88,41477,6,0,L|198:99,2,84,2|0|8,1:2|1:0|0:0,0:0:0:0:
432,158,41994,1,2,0:0:0:0:
512,60,42167,1,0,0:2:0:0:
497,116,42339,1,0,1:2:0:0:
508,173,42512,1,8,0:2:0:0:
508,274,42684,1,2,0:0:0:0:
429,336,42856,2,0,P|381:333|336:358,2,84,2|0|8,1:2|1:0|0:2,0:0:0:0:
476,166,43374,5,2,0:0:0:0:
508,274,43546,1,2,0:2:0:0:
395,125,43718,1,2,1:2:0:0:
369,235,43891,1,8,0:0:0:0:
268,131,44063,1,2,0:0:0:0:
339,52,44236,6,0,P|378:158|335:219,1,168,4|8,1:2|0:0,0:0:0:0:
259,230,44753,1,2,0:0:0:0:
165,192,44925,2,0,L|62:226,2,84,0|0|8,0:2|1:0|0:0,0:0:0:0:
219,106,45443,1,2,0:0:0:0:
271,19,45615,6,0,L|374:53,2,84,2|0|8,1:2|0:0|0:0,0:0:0:0:
164,32,46132,1,2,0:0:0:0:
56,4,46305,1,2,0:2:0:0:
78,58,46477,1,0,1:2:0:0:
51,110,46649,1,8,0:2:0:0:
20,208,46822,1,2,0:0:0:0:
76,292,46994,6,0,P|120:272|164:283,1,83.9999974365235,2|0,1:2|1:0,0:0:0:0:
280,344,47339,1,8,0:2:0:0:
360,282,47512,1,2,0:0:0:0:
308,118,47684,1,2,0:2:0:0:
284,218,47856,1,0,1:0:0:0:
360,282,48029,1,8,0:0:0:0:
460,256,48201,1,2,0:0:0:0:
460,156,48374,6,0,L|420:56,2,84,2|0|8,1:2|1:0|0:2,0:0:0:0:
424,336,48891,1,2,0:0:0:0:
344,280,49063,1,2,0:2:0:0:
277,336,49236,1,2,3:2:0:0:
203,294,49408,1,2,3:2:0:0:
138,349,49580,1,2,3:2:0:0:
64,307,49753,5,0,1:0:0:0:
128,251,49925,1,2,3:0:0:0:
203,294,50098,1,2,3:0:0:0:
64,307,50270,5,0,1:0:0:0:
128,251,50443,1,2,3:0:0:0:
104,172,50615,1,2,3:0:0:0:
64,307,50787,6,0,L|219:271,1,126,2|0,1:2|0:0,0:0:0:0:
435,308,51132,6,0,P|373:366|305:297,1,168,6|0,1:2|0:0,0:0:0:0:
311,329,51649,1,8,0:2:0:0:
333,212,51822,1,8,0:2:0:0:
333,212,52167,1,0,1:2:0:0:
428,204,52339,1,0,0:0:0:0:
440,105,52512,6,0,L|354:113,1,84,2|0,0:0|0:0,0:0:0:0:
250,194,52856,1,8,0:2:0:0:
210,119,53029,1,0,0:0:0:0:
246,42,53201,1,8,0:2:0:0:
332,215,53546,1,2,0:0:0:0:
372,290,53718,1,2,0:0:0:0:
335,366,53891,6,0,L|230:357,1,84,4|0,1:2|0:0,0:0:0:0:
193,294,54236,1,2,0:0:0:0:
167,384,54408,1,8,0:2:0:0:
219,204,54580,1,8,0:2:0:0:
46,383,54925,2,0,P|50:323|37:282,1,84,2|0,0:0|0:0,0:0:0:0:
0,176,55270,6,0,P|100:179|104:112,1,168,0|0,1:0|1:0,0:0:0:0:
261,0,55960,1,10,0:2:0:0:
170,45,56132,1,2,1:2:0:0:
216,136,56305,1,10,0:2:0:0:
306,89,56477,1,2,0:2:0:0:
429,150,56649,6,0,L|417:263,1,91,0|0,1:2|0:0,0:0:0:0:
328,222,56994,2,0,L|316:335,1,91,2|0,0:0|0:2,0:0:0:0:
83,150,57339,6,0,L|95:263,1,91,8|0,0:2|0:0,0:0:0:0:
184,222,57684,2,0,L|196:335,1,91,2|0,0:0|0:0,0:0:0:0:
406,344,58029,6,0,P|447:345|498:313,1,91,8|0,0:2|0:0,0:0:0:0:
431,152,58374,2,0,P|390:151|339:183,1,91,0|0,1:2|0:0,0:0:0:0:
205,331,58718,5,10,0:2:0:0:
114,286,58891,1,2,1:2:0:0:
160,195,59063,1,10,0:2:0:0:
250,242,59236,1,2,1:2:0:0:
308,368,59408,5,6,1:2:0:0:
413,348,59580,1,0,0:0:0:0:
511,211,59753,1,10,1:2:0:0:
406,231,59925,1,2,0:2:0:0:
226,161,60098,1,10,1:2:0:0:
331,141,60270,1,2,0:2:0:0:
430,9,60443,1,10,0:2:0:0:
327,25,60615,1,2,0:2:0:0:
158,237,60787,6,0,B|98:124|153:54|153:54|227:70|225:164,1,336,4|0,0:2|0:0,0:0:0:0:
214,298,62167,1,2,0:2:0:0:
512,237,63201,6,0,P|431:217|312:266,1,189,0|0,0:2|0:2,0:0:0:0:
224,330,63546,5,6,1:2:0:0:
87,279,63718,1,0,1:0:0:0:
152,375,63891,1,8,0:2:0:0:
199,229,64063,1,2,0:0:0:0:
394,368,64236,1,0,1:2:0:0:
343,235,64408,1,0,1:0:0:0:
309,325,64580,1,8,0:2:0:0:
437,256,64753,1,2,0:0:0:0:
379,144,64925,6,0,P|325:139|269:174,1,112,2|0,1:2|1:0,0:0:0:0:
111,304,65270,1,8,0:2:0:0:
161,199,65443,2,0,L|134:67,1,112,2|0,0:0|0:0,0:0:0:0:
217,0,65787,1,0,1:0:0:0:
319,78,65960,2,0,P|375:93|441:52,1,112,8|0,0:2|0:0,0:0:0:0:
499,215,66305,5,2,1:2:0:0:
354,185,66477,1,0,1:0:0:0:
503,118,66649,1,8,0:2:0:0:
417,266,66822,1,2,0:0:0:0:
228,129,66994,1,0,1:2:0:0:
314,277,67167,1,0,1:0:0:0:
166,363,67339,1,8,0:2:0:0:
80,215,67512,1,2,0:0:0:0:
228,129,67684,6,0,L|364:103,1,112,0|0,1:2|1:0,0:0:0:0:
512,229,68029,1,10,0:2:0:0:
482,121,68201,2,0,P|399:203|442:312,1,224,2|0,0:0|1:0,0:0:0:0:
273,376,68718,2,0,L|282:309,3,56,8|0|2|0,0:2|0:0|0:0|0:0,0:0:0:0:
345,343,69063,6,0,P|316:296|307:243,1,112,4|0,1:2|1:0,0:0:0:0:
311,56,69408,1,8,0:2:0:0:
359,159,69580,2,0,L|493:132,2,112,2|0|0,0:0|0:0|1:0,0:0:0:0:
246,153,70098,1,8,0:2:0:0:
205,257,70270,1,2,0:0:0:0:
279,341,70443,6,0,L|430:313,1,112,2|0,1:2|0:0,0:0:0:0:
205,257,70787,2,0,L|54:229,1,112,8|0,0:2|0:0,0:0:0:0:
110,42,71132,1,2,1:2:0:0:
133,152,71305,1,2,1:2:0:0:
23,175,71477,1,10,0:2:0:0:
0,66,71649,1,2,0:0:0:0:
201,79,71822,6,0,P|263:81|367:27,1,112,6|0,1:2|0:0,0:0:0:0:
429,14,72167,1,8,0:2:0:0:
512,167,72339,2,0,P|394:136|308:190,1,224,2|0,0:0|1:0,0:0:0:0:
273,293,72856,1,8,0:2:0:0:
202,205,73029,1,2,0:0:0:0:
193,335,73201,5,0,1:2:0:0:
311,185,73374,1,8,0:0:0:0:
63,253,73546,1,8,0:2:0:0:
171,117,73718,1,0,1:0:0:0:
157,316,73891,5,8,0:2:0:0:
81,152,74063,1,2,1:2:0:0:
264,318,74236,1,8,1:2:0:0:
342,154,74408,1,2,1:2:0:0:
199,5,74580,5,6,1:2:0:0:
256,150,74753,1,0,1:0:0:0:
83,152,74925,1,8,0:2:0:0:
140,297,75098,1,2,0:0:0:0:
0,384,75270,2,0,L|11:254,1,112,0|0,1:2|1:0,0:0:0:0:
136,78,75615,1,8,0:2:0:0:
101,229,75787,1,0,0:0:0:0:
69,16,75960,5,2,1:2:0:0:
13,169,76132,1,0,1:0:0:0:
174,140,76305,1,8,0:2:0:0:
69,16,76477,2,0,L|84:132,1,112,2|0,0:0|0:0,0:0:0:0:
118,322,76822,1,0,1:0:0:0:
118,322,76994,1,8,0:2:0:0:
101,229,77167,1,2,0:0:0:0:
0,374,77339,5,2,1:2:0:0:
205,365,77512,1,0,1:0:0:0:
101,229,77684,1,8,0:2:0:0:
283,323,77856,1,2,0:0:0:0:
260,153,78029,1,0,1:2:0:0:
371,326,78201,1,0,1:0:0:0:
184,279,78374,1,8,0:2:0:0:
343,238,78546,1,2,0:0:0:0:
343,0,78718,5,2,1:2:0:0:
461,119,78891,1,0,1:0:0:0:
343,238,79063,1,10,0:2:0:0:
224,119,79236,2,0,P|169:110|119:133,2,112,2|0|0,0:0|1:2|1:0,0:0:0:0:
429,219,79753,2,0,L|502:202,3,56,8|0|0|0,0:2|0:0|0:0|0:0,0:0:0:0:
480,298,80098,5,4,1:2:0:0:
512,126,80270,1,2,0:0:0:0:
325,0,80443,5,8,0:2:0:0:
356,172,80615,1,2,0:0:0:0:
177,384,80787,5,8,1:2:0:0:
209,212,80960,1,0,1:0:0:0:
22,86,81132,5,10,1:2:0:0:
54,258,81305,1,0,1:0:0:0:
226,97,81477,5,6,1:2:0:0:
226,97,81649,1,0,0:0:0:0:
0,168,81822,5,8,0:2:0:0:
0,168,81994,1,0,0:0:0:0:
226,97,82167,5,10,1:2:0:0:
203,274,82339,1,2,1:2:0:0:
26,251,82512,1,10,0:2:0:0:
49,74,82684,1,0,1:0:0:0:
284,216,82856,6,0,B|372:236|462:192|462:192|364:156,1,224,6|8,1:2|1:2,0:0:0:0:
282,7,83374,2,0,L|305:124,1,112,2|8,1:2|1:2,0:0:0:0:
145,300,83718,1,0,1:2:0:0:
121,109,83891,1,8,1:2:0:0:
284,218,84063,2,0,P|295:252|292:300,1,56,2|0,1:2|0:0,0:0:0:0:
204,376,84236,6,0,B|116:396|-11:355|-11:355|105:310,1,294,4|0,1:2|0:0,0:0:0:0:
137,244,84925,1,2,0:0:0:0:
137,244,85098,1,0,0:0:0:0:
53,106,85443,6,0,P|169:113|80:154,1,297.5
90,159,86994,6,0,P|174:149|221:167,1,98,4|0,1:2|1:0,0:0:0:0:
338,168,87339,1,8,0:2:0:0:
278,95,87512,2,0,L|303:-25,1,98,2|0,0:2|1:2,0:0:0:0:
449,9,87856,1,0,1:0:0:0:
498,93,88029,1,8,0:2:0:0:
436,170,88201,1,0,0:0:0:0:
338,168,88374,6,0,P|328:225|357:289,1,98,2|0,1:2|1:0,0:0:0:0:
227,384,88718,1,8,0:2:0:0:
152,318,88891,2,0,L|36:293,1,98,2|0,0:2|1:2,0:0:0:0:
0,165,89236,2,0,B|45:181|45:181|95:168,1,98,0|8,1:0|0:2,0:0:0:0:
184,194,89580,1,0,0:0:0:0:
148,10,89753,6,0,L|165:157,1,98,2|0,1:2|0:0,0:0:0:0:
225,280,90098,1,8,0:2:0:0:
275,198,90270,2,0,P|196:186|160:215,1,98,2|0,0:2|1:2,0:0:0:0:
0,365,90615,1,0,1:0:0:0:
97,384,90787,2,0,P|84:306|45:280,1,98,8|0,0:2|0:0,0:0:0:0:
73,136,91132,1,2,1:2:0:0:
124,218,91305,1,2,0:2:0:0:
210,172,91477,1,8,0:2:0:0:
158,88,91649,6,0,P|157:30|178:-10,1,98,2|0,0:2|1:2,0:0:0:0:
345,9,91994,1,0,1:0:0:0:
353,97,92167,2,0,L|281:85,3,49,8|0|0|0,0:0|0:0|0:0|0:0,0:0:0:0:
246,53,92512,6,0,L|260:172,1,98,4|0,1:2|1:0,0:0:0:0:
377,283,92856,1,8,0:2:0:0:
438,201,93029,2,0,P|395:178|347:181,1,98,2|0,0:2|1:2,0:0:0:0:
231,327,93374,1,0,1:0:0:0:
274,239,93546,1,8,0:2:0:0:
186,196,93718,1,0,0:0:0:0:
143,284,93891,6,0,P|134:329|156:385,1,98,2|0,1:2|0:0,0:0:0:0:
322,323,94236,1,8,0:2:0:0:
408,368,94408,2,0,L|521:359,1,98,2|0,0:2|1:2,0:0:0:0:
440,180,94753,2,0,B|435:291,1,98,2|10,1:2|0:0,0:0:0:0:
258,384,95098,1,0,0:0:0:0:
284,252,95270,6,0,P|243:247|188:268,1,98,6|0,1:2|0:0,0:0:0:0:
16,177,95615,2,0,P|57:182|112:161,1,98,8|0,0:2|0:0,0:0:0:0:
144,71,95960,1,8,1:2:0:0:
52,96,96132,1,0,1:0:0:0:
84,256,96305,1,8,0:2:0:0:
199,148,96477,1,0,1:0:0:0:
339,192,96649,6,0,L|436:190,1,98,6|0,0:2|0:0,0:0:0:0:
368,328,96994,1,8,0:2:0:0:
281,283,97167,1,2,0:0:0:0:
273,381,97339,1,0,0:2:0:0:
281,283,97512,5,8,0:0:0:0:
443,365,97684,1,8,0:2:0:0:
207,330,97856,1,8,0:0:0:0:
444,269,98029,1,2,0:0:0:0:
256,192,98201,12,0,100615,0:0:0:0:
106,143,100787,5,2,0:2:0:0:
130,169,100960,1,0,0:2:0:0:
163,178,101132,1,0,0:2:0:0:
194,162,101305,1,2,0:2:0:0:
43,235,101649,5,0,0:2:0:0:
64,229,101822,1,2,0:2:0:0:
67,249,101994,1,0,0:2:0:0:
47,253,102167,1,0,0:2:0:0:
168,180,102512,1,0,0:2:0:0:
292,280,102684,6,0,L|281:336,2,35,2|0|0,0:2|0:0|0:2,0:0:0:0:
352,210,103029,1,2,0:2:0:0:
279,139,103201,1,0,0:2:0:0:
335,57,103374,1,0,0:2:0:0:
406,132,103546,5,2,0:2:0:0:
453,144,103718,1,0,0:2:0:0:
496,120,103891,1,0,0:2:0:0:
506,72,104063,1,2,0:2:0:0:
313,205,104408,5,0,0:2:0:0:
355,128,104580,1,2,0:2:0:0:
294,200,104753,1,0,0:0:0:0:
342,286,104925,1,0,0:0:0:0:
205,158,105290,1,0,0:2:0:0:
342,286,105656,1,0,0:2:0:0:
65,190,106219,6,0,L|72:212,2,17.5,0|0|2,0:0|0:0|0:2,0:0:0:0:
143,343,106707,1,0,0:2:0:0:
214,259,106879,1,0,0:2:0:0:
121,72,107224,1,2,0:2:0:0:
0,88,107426,1,2,0:0:0:0:
248,118,107770,2,0,L|271:106,2,17.5,0|2|0,0:2|0:0|0:0,0:0:0:0:
256,192,108029,12,0,111822,0:2:0:0:
