osu file format v14

[General]
AudioFilename: audio.mp3
AudioLeadIn: 0
PreviewTime: 63203
Countdown: 0
SampleSet: Soft
StackLeniency: 0.4
Mode: 0
LetterboxInBreaks: 0
WidescreenStoryboard: 1

[Editor]
Bookmarks: 27686,51134,111824
DistanceSpacing: 1.5
BeatDivisor: 8
GridSize: 4
TimelineZoom: 2.6

[Metadata]
Title:Kimi to Watashi no Sentence
TitleUnicode:君と私のセンテンス
Artist:Soyokaze Mirai
ArtistUnicode:そよかぜみらい
Creator:kwk
Version:Dakini's Light Insane
Source:となりに彼女のいる幸せ ~Two Farce~
Tags:Lafayla Dakinibrave Log Off Now Mordred tonari ni kanojo no iru shiawase tonakai prekano entergram eroge visual novel opening Japanese video game
BeatmapID:1678799
BeatmapSetID:772053

[Difficulty]
HPDrainRate:5.7
CircleSize:4
OverallDifficulty:8.2
ApproachRate:9
SliderMultiplier:1.6
SliderTickRate:1

[Events]
//Background and Video events
0,0,"63092091_p0.jpg",0,0
//Break Periods
//Storyboard Layer 0 (Background)
//Storyboard Layer 1 (Fail)
//Storyboard Layer 2 (Pass)
//Storyboard Layer 3 (Foreground)
//Storyboard Layer 4 (Overlay)
//Storyboard Sound Samples

[TimingPoints]
4237,344.827586206897,4,2,0,38,1,0
4237,-125,4,2,0,38,0,0
5616,-166.666666666667,4,2,0,38,0,0
6995,-125,4,2,0,38,0,0
11133,365.853658536585,4,2,0,38,1,0
11133,-166.666666666667,4,2,0,38,0,0
12426,344.827586206897,4,2,0,38,1,0
12512,344.827586206897,4,2,0,38,1,0
12512,-125,4,2,0,38,0,0
14925,-125,4,2,0,42,0,0
15270,-100,4,2,0,52,0,0
26649,-100,4,2,0,20,0,0
26994,-100,4,2,0,30,0,0
27339,-100,4,2,0,40,0,0
27684,-125,4,2,0,40,0,0
38718,-111.111111111111,4,2,0,48,0,0
51132,-142.857142857143,4,2,0,48,0,0
52080,-142.857142857143,4,2,0,48,0,0
52167,-142.857142857143,4,2,0,48,0,0
56649,-142.857142857143,4,2,0,50,0,0
58718,-111.111111111111,4,2,0,50,0,0
63546,-83.3333333333333,4,2,0,60,0,1
84236,-125,4,2,0,60,0,0
84753,-125,4,2,0,45,0,0
84839,-125,4,2,0,45,0,0
84925,-125,4,2,0,45,0,0
85443,-125,4,2,0,20,0,0
85529,-125,4,2,0,5,0,0
85615,-125,4,2,0,5,0,0
86994,-100,4,2,0,52,0,0
96649,-100,4,2,0,46,0,0
100615,-100,4,2,0,38,0,0
104925,365.853658536585,4,2,0,38,1,0
106219,344.827586206897,4,2,0,38,1,0
106306,402.684563758389,4,2,0,38,1,0
106306,-100,4,2,0,38,0,0
106707,344.827586206897,4,2,0,38,1,0
106707,-100,4,2,0,38,0,0
107224,405.405405405405,4,2,0,38,1,0
107224,-100,4,2,0,38,0,0
107426,344.827586206897,4,2,0,38,1,0
107426,-100,4,2,0,38,0,0

[Colours]
Combo1 : 255,255,166
Combo2 : 255,128,128
Combo3 : 0,255,255
Combo4 : 0,255,128

[HitObjects]
240,256,4237,6,0,P|245:285|241:345,2,64,2|0|0,0:0|0:2|0:2,0:0:0:0:
207,169,4754,2,0,B|237:159|268:168|268:168|299:177|340:167,1,128,2|0,0:2|0:2,0:0:0:0:
404,121,5271,1,2,0:2:0:0:
404,121,5443,1,0,0:2:0:0:
474,185,5616,6,0,B|459:231|459:231|469:293,2,95.9999999999998,0|0|0,0:2|0:2|0:2,0:0:0:0:
399,339,6995,6,0,L|328:330,1,64,2|0,0:2|0:0,0:0:0:0:
271,275,7340,1,0,0:2:0:0:
200,321,7512,2,0,P|206:352|202:383,2,64,2|0|0,0:0|0:0|0:0,0:0:0:0:
198,238,8030,2,0,P|191:206|195:175,1,64,2|0,0:0|0:2,0:0:0:0:
252,109,8374,5,0,0:0:0:0:
252,109,8719,1,0,0:0:0:0:
174,98,8892,5,2,0:2:0:0:
174,98,8978,1,0,0:0:0:0:
174,98,9064,1,0,0:0:0:0:
222,35,9237,1,2,0:2:0:0:
302,47,9409,1,0,0:2:0:0:
332,123,9581,1,0,0:2:0:0:
384,59,9754,6,0,L|468:53,2,64,2|0|0,0:2|0:2|0:0,0:0:0:0:
327,132,10271,2,0,B|255:119|273:161|175:133,1,128,2|0,0:0|0:2,0:0:0:0:
114,107,10788,2,0,P|109:137|125:192,1,64,2|0,0:2|0:0,0:0:0:0:
187,243,11133,6,0,P|196:277|179:343,2,95.9999970703126,0|0|0,0:0|0:2|0:2,0:0:0:0:
59,338,12512,6,0,L|199:326,1,128,0|0,0:0|0:2,0:0:0:0:
261,366,13029,2,0,L|263:290,1,64,0|0,0:2|0:0,0:0:0:0:
202,250,13374,1,2,0:2:0:0:
276,227,13546,2,0,P|308:240|338:287,1,64,2|0,0:2|0:0,0:0:0:0:
332,336,13891,5,2,0:2:0:0:
256,192,13977,12,0,14925,0:0:0:0:
146,226,15270,6,0,P|228:206|308:262,1,160,4|8,1:2|0:2,0:0:0:0:
340,310,15787,2,0,P|369:280|375:229,1,80,2|0,0:2|1:2,0:0:0:0:
334,176,16132,1,0,0:0:0:0:
214,126,16305,2,0,P|252:125|289:109,1,80,8|0,0:2|0:0,0:0:0:0:
360,43,16563,1,0,0:0:0:0:
360,43,16649,6,0,P|316:111|337:198,1,160,2|8,1:2|0:2,0:0:0:0:
446,269,17167,2,0,P|388:251|344:264,1,80,2|0,0:2|1:2,0:0:0:0:
301,298,17512,2,0,P|243:316|199:303,1,80,0|8,0:0|0:2,0:0:0:0:
141,242,17856,1,8,0:0:0:0:
123,384,18029,6,0,P|151:309|114:217,1,160,0|8,1:2|0:2,0:0:0:0:
87,152,18546,2,0,B|178:130|163:187|251:155,1,160,2|0,0:2|0:0,0:0:0:0:
380,113,19063,2,0,P|324:107|292:75,1,80,8|0,0:2|0:0,0:0:0:0:
439,191,19408,6,0,P|478:190|512:210,2,80,0|2|8,1:2|0:2|0:2,0:0:0:0:
381,269,19925,2,0,L|295:252,1,80,2|0,0:2|1:2,0:0:0:0:
241,196,20270,1,2,0:0:0:0:
215,276,20443,2,0,L|219:318,3,40,8|0|0|0,0:0|0:0|0:0|0:0,0:0:0:0:
136,358,20787,6,0,B|218:324|206:381|304:344,1,160,4|8,1:2|0:2,0:0:0:0:
384,374,21305,2,0,P|384:334|371:296,1,80,2|0,0:2|1:2,0:0:0:0:
292,261,21649,1,0,0:0:0:0:
358,210,21822,2,0,P|357:170|370:132,1,80,8|0,0:2|0:0,0:0:0:0:
451,121,22167,6,0,P|374:124|305:65,1,160,2|8,1:2|0:2,0:0:0:0:
228,137,22684,2,0,P|151:134|82:193,1,160,2|0,0:2|0:0,0:0:0:0:
26,301,23201,1,8,0:0:0:0:
18,274,23287,1,0,0:0:0:0:
2,251,23374,1,0,0:0:0:0:
27,325,23546,6,0,L|205:304,1,160,6|8,1:2|0:2,0:0:0:0:
295,231,24063,2,0,P|280:267|282:308,1,80,0|0,0:0|1:2,0:0:0:0:
355,281,24408,1,2,0:0:0:0:
245,169,24580,2,0,P|286:171|332:137,1,80,0|0,1:0|0:0,0:0:0:0:
364,85,24839,1,0,0:0:0:0:
364,85,24925,6,0,B|394:120|394:120|416:249,1,160,2|8,1:2|0:2,0:0:0:0:
424,324,25443,2,0,P|370:298|328:299,1,80,2|0,0:0|1:2,0:0:0:0:
268,346,25787,1,2,0:0:0:0:
194,293,25960,1,10,0:2:0:0:
272,337,26132,1,2,0:0:0:0:
256,192,26822,12,0,27512,0:0:0:0:
433,289,27684,6,0,P|376:261|315:275,1,128,2|0,1:2|0:2,0:0:0:0:
251,330,28201,1,0,0:2:0:0:
181,273,28374,2,0,L|202:132,1,128,0|0,0:2|0:2,0:0:0:0:
199,146,29063,5,2,1:2:0:0:
147,223,29236,2,0,P|100:217|45:147,1,128,0|0,0:0|0:2,0:0:0:0:
142,14,29753,2,0,P|160:57|127:140,1,128,0|0,0:2|0:0,0:0:0:0:
63,69,30270,1,0,0:2:0:0:
136,131,30443,6,0,L|274:105,1,128,2|0,1:2|0:2,0:0:0:0:
319,156,30960,1,0,0:2:0:0:
380,202,31132,2,0,L|467:185,2,64,0|0|0,0:2|0:0|0:2,0:0:0:0:
380,202,31822,5,2,1:2:0:0:
342,285,31994,2,0,P|276:279|220:215,1,128,0|0,0:0|0:2,0:0:0:0:
142,268,32512,2,0,L|149:186,1,64,0|0,0:2|0:0,0:0:0:0:
218,159,32856,1,0,0:0:0:0:
144,119,33029,1,0,0:2:0:0:
66,73,33201,6,0,P|128:75|177:36,1,128,2|0,1:2|0:2,0:0:0:0:
257,81,33718,1,0,0:2:0:0:
321,23,33891,2,0,P|383:20|432:59,1,128,0|0,0:2|0:2,0:0:0:0:
455,145,34408,1,0,0:2:0:0:
410,219,34580,6,0,P|402:256|407:297,2,64,0|0|0,1:2|0:0|0:2,0:0:0:0:
458,154,35098,1,0,0:2:0:0:
377,146,35270,2,0,B|316:132|305:171|251:151,1,128,0|0,0:2|0:0,0:0:0:0:
180,96,35787,1,0,0:2:0:0:
88,113,35960,6,0,B|41:213|129:205|82:321|82:321|83:294|67:270,1,256,2|0,1:2|0:0,0:0:0:0:
169,276,36822,2,0,P|217:288|250:316,2,64,0|0|0,1:2|0:2|0:2,0:0:0:0:
189,370,37339,6,0,P|250:379|305:271,1,192,4|0,0:2|0:0,0:0:0:0:
264,210,38029,1,0,0:0:0:0:
320,152,38201,2,0,L|391:140,1,64,4|0,3:0|3:2,0:3:0:0:
250,220,38718,6,0,L|160:235,1,72.0000000000001,4|0,1:2|0:0,0:0:0:0:
79,340,39063,2,0,B|111:258|55:278|82:193,1,144,8|0,0:2|1:2,0:0:0:0:
155,140,39580,1,0,1:2:0:0:
97,64,39753,2,0,B|34:85|-2:82,1,72.0000000000001,8|2,0:0|0:0,0:0:0:0:
193,54,40098,6,0,B|199:50|262:71,1,72.0000000000001,2|0,1:2|0:0,0:0:0:0:
378,28,40443,2,0,P|343:88|367:189,1,144,8|0,0:0|1:2,0:0:0:0:
442,112,40960,1,0,1:2:0:0:
342,176,41132,2,0,P|352:212|351:252,1,72.0000000000001,8|2,0:2|0:0,0:0:0:0:
314,338,41477,6,0,P|348:327|384:327,1,72.0000000000001,2|0,1:2|0:0,0:0:0:0:
236,306,41822,2,0,P|200:314|99:267,1,144,8|0,0:0|1:2,0:0:0:0:
42,335,42339,1,0,1:2:0:0:
98,260,42512,2,0,P|87:220|99:174,1,72.0000000000001,8|2,0:2|0:0,0:0:0:0:
146,101,42856,5,2,1:2:0:0:
8,78,43029,2,0,P|70:68|97:43,1,72.0000000000001,0|8,0:0|0:2,0:0:0:0:
143,20,43374,1,2,0:0:0:0:
224,63,43546,2,0,P|233:98|225:142,1,72.0000000000001,2|2,1:2|1:2,0:0:0:0:
160,186,43891,2,0,P|151:221|159:265,1,72.0000000000001,8|2,0:0|0:0,0:0:0:0:
183,344,44236,6,0,P|148:334|112:337,2,72.0000000000001,4|0|8,1:2|1:0|0:0,0:0:0:0:
260,302,44753,2,0,P|295:305|330:295,1,72.0000000000001,2|0,0:0|1:2,0:0:0:0:
380,365,45098,1,0,1:0:0:0:
334,303,45270,1,8,0:0:0:0:
381,222,45443,1,2,0:0:0:0:
225,196,45615,5,2,1:2:0:0:
302,209,45787,2,0,P|298:163|264:126,1,72.0000000000001,0|8,1:0|0:0,0:0:0:0:
207,117,46132,1,2,0:0:0:0:
339,43,46305,2,0,P|303:44|272:61,1,72.0000000000001,2|0,1:2|1:2,0:0:0:0:
127,19,46649,2,0,P|158:36|193:37,1,72.0000000000001,8|2,0:2|0:0,0:0:0:0:
345,35,46994,5,2,1:2:0:0:
270,69,47167,1,0,0:0:0:0:
346,127,47339,2,0,P|381:122|410:101,1,72.0000000000001,8|2,0:2|0:0,0:0:0:0:
483,159,47684,1,2,1:2:0:0:
491,77,47856,1,0,0:0:0:0:
402,113,48029,2,0,P|388:145|392:181,1,72.0000000000001,8|2,0:0|0:0,0:0:0:0:
417,266,48374,6,0,P|497:270|517:288,2,72.0000000000001,2|0|8,1:2|0:0|0:2,0:0:0:0:
355,330,48891,1,2,0:0:0:0:
300,263,49063,2,0,P|221:260|205:250,1,72.0000000000001,2|2,0:2|3:2,0:0:0:0:
160,325,49408,2,0,P|81:328|65:338,1,72.0000000000001,2|2,3:2|3:2,0:0:0:0:
28,377,49753,5,0,1:0:0:0:
6,265,49925,1,2,3:0:0:0:
1,276,50098,1,2,3:0:0:0:
59,169,50270,5,0,1:0:0:0:
17,71,50443,1,2,3:0:0:0:
12,82,50615,1,2,3:0:0:0:
129,99,50787,2,0,P|180:99|219:73,1,72.0000000000001,2|0,1:2|0:2,0:0:0:0:
298,51,51132,6,0,P|273:125|286:185,1,112,6|0,1:2|0:0,0:0:0:0:
328,227,51649,1,8,0:2:0:0:
304,322,51822,2,0,P|342:307|407:310,1,83.9999999999999,8|0,0:2|0:0,0:0:0:0:
397,314,52167,2,0,P|438:329|461:330,1,55.9999999999999,0|0,1:2|0:0,0:0:0:0:
296,332,52512,6,0,P|244:347|182:335,1,112,2|8,0:0|0:2,0:0:0:0:
130,286,53029,1,0,0:0:0:0:
56,324,53201,2,0,P|56:290|43:244,1,55.9999999999999,8|0,0:2|0:0,0:0:0:0:
0,169,53546,2,0,P|29:186|75:197,1,55.9999999999999,2|2,0:0|0:0,0:0:0:0:
174,100,53891,6,0,P|119:88|52:122,1,112,4|2,1:2|0:0,0:0:0:0:
189,184,54408,2,0,P|240:203|294:190,1,112,8|0,0:2|0:0,0:0:0:0:
376,218,54925,1,2,0:0:0:0:
360,137,55098,1,0,0:0:0:0:
407,65,55270,6,0,P|352:51|287:84,1,112,0|0,1:0|1:0,0:0:0:0:
302,70,55960,2,0,P|315:110|315:140,2,55.9999999999999,10|2|10,0:2|1:2|0:2,0:0:0:0:
232,111,56477,1,2,0:2:0:0:
156,73,56649,6,0,P|150:122|157:154,1,55.9999999999999,0|0,1:2|0:0,0:0:0:0:
211,191,56994,2,0,P|217:240|210:272,1,55.9999999999999,2|0,0:0|0:2,0:0:0:0:
82,276,57339,2,0,P|131:270|163:277,1,55.9999999999999,8|0,0:2|0:0,0:0:0:0:
200,331,57684,2,0,P|249:337|281:330,1,55.9999999999999,2|0,0:0|0:0,0:0:0:0:
324,293,58029,6,0,L|337:354,1,55.9999999999999,8|0,0:2|0:0,0:0:0:0:
420,250,58374,2,0,L|407:311,1,55.9999999999999,0|0,1:2|0:0,0:0:0:0:
345,210,58718,2,0,L|330:118,1,72.0000000000001,10|2,0:2|1:2,0:0:0:0:
424,30,59063,2,0,L|409:110,1,72.0000000000001,10|2,0:2|1:2,0:0:0:0:
316,50,59408,6,0,P|280:59|216:40,1,72.0000000000001,6|0,1:2|0:0,0:0:0:0:
100,116,59753,2,0,P|135:111|170:120,1,72.0000000000001,10|2,1:2|0:2,0:0:0:0:
267,180,60098,5,10,1:2:0:0:
262,204,60184,1,2,0:0:0:0:
259,228,60270,1,2,0:2:0:0:
257,252,60356,1,2,0:0:0:0:
259,275,60443,2,0,P|261:298|272:320,1,36,10|0,0:2|0:0,0:0:0:0:
185,382,60615,2,0,P|190:364|191:347,1,36,2|0,0:2|0:0,0:0:0:0:
130,292,60787,5,6,0:2:0:0:
256,192,60874,12,2,62167,0:2:0:0:
91,81,63201,6,0,L|95:130,3,36,0|0|0|0,0:2|0:0|0:0|0:2,0:0:0:0:
97,132,63546,5,6,1:2:0:0:
259,211,63718,1,0,1:0:0:0:
207,113,63891,1,8,0:2:0:0:
182,291,64063,1,2,0:0:0:0:
97,132,64236,2,0,P|77:176|80:238,1,96,0|0,1:2|1:0,0:0:0:0:
68,359,64580,2,0,P|40:320|0:296,1,96,8|2,0:2|0:0,0:0:0:0:
177,304,64925,6,0,B|253:310|253:310|284:339|284:339|390:348,1,192,2|8,1:2|0:2,0:0:0:0:
375,198,65443,2,0,P|324:261|383:351,1,192,2|0,0:0|1:0,0:0:0:0:
485,317,65960,2,0,P|453:282|406:274,1,96,8|0,0:2|0:0,0:0:0:0:
253,323,66305,6,0,P|244:261|267:214,1,96,2|0,1:2|1:0,0:0:0:0:
216,65,66649,2,0,P|225:127|202:174,1,96,8|2,0:2|0:0,0:0:0:0:
58,149,66994,1,0,1:2:0:0:
141,107,67167,1,0,1:0:0:0:
53,241,67339,1,8,0:2:0:0:
136,199,67512,1,2,0:0:0:0:
109,373,67684,5,0,1:2:0:0:
46,250,67856,1,0,1:0:0:0:
136,288,68029,1,10,0:2:0:0:
8,150,68201,2,0,B|119:131|96:201|217:146,1,192,2|0,0:0|1:0,0:0:0:0:
299,100,68718,2,0,P|278:156|290:215,1,96,8|2,0:2|0:0,0:0:0:0:
437,233,69063,6,0,B|418:180|374:162|374:162|406:118|391:63,1,192,4|8,1:2|0:2,0:0:0:0:
215,128,69580,2,0,P|265:119|301:71,1,96,2|0,0:0|0:0,0:0:0:0:
215,35,69925,1,0,1:0:0:0:
125,172,70098,2,0,P|118:98|95:78,1,96,8|2,0:2|0:0,0:0:0:0:
31,208,70443,6,0,P|109:188|200:261,1,192,2|8,1:2|0:2,0:0:0:0:
237,342,70960,1,0,0:0:0:0:
331,292,71132,2,0,P|343:337|335:384,1,96,2|2,1:2|1:2,0:0:0:0:
284,205,71477,2,0,P|272:160|279:113,1,96,10|2,0:2|0:0,0:0:0:0:
350,42,71822,5,6,1:2:0:0:
287,119,71994,1,0,0:0:0:0:
244,21,72167,1,8,0:2:0:0:
378,142,72339,2,0,B|267:115|288:183|184:150,1,192,2|0,0:0|1:0,0:0:0:0:
69,106,72856,2,0,P|99:157|100:204,1,96,8|2,0:2|0:0,0:0:0:0:
131,287,73201,5,0,1:2:0:0:
97,206,73374,1,8,0:0:0:0:
192,359,73546,5,8,0:2:0:0:
226,278,73718,1,0,1:0:0:0:
103,384,73891,6,0,L|206:364,1,96,8|2,0:2|1:2,0:0:0:0:
314,288,74236,2,0,L|211:268,1,96,8|2,1:2|1:2,0:0:0:0:
376,355,74580,5,6,1:2:0:0:
336,220,74753,1,0,1:0:0:0:
281,374,74925,1,8,0:2:0:0:
349,214,75098,1,2,0:0:0:0:
152,316,75270,2,0,P|202:298|226:248,1,96,0|0,1:2|1:0,0:0:0:0:
362,208,75615,2,0,P|312:190|288:140,1,96,8|0,0:2|0:0,0:0:0:0:
345,40,75960,5,2,1:2:0:0:
374,127,76132,1,0,1:0:0:0:
244,9,76305,1,8,0:2:0:0:
436,70,76477,2,0,P|370:43|288:147,1,192,2|0,0:0|1:0,0:0:0:0:
203,187,76994,2,0,P|204:147|172:88,1,96,8|2,0:2|0:0,0:0:0:0:
126,255,77339,5,2,1:2:0:0:
199,181,77512,1,0,1:0:0:0:
256,371,77684,1,8,0:2:0:0:
228,279,77856,1,2,0:0:0:0:
359,271,78029,2,0,P|306:240|296:194,1,96,0|0,1:2|1:0,0:0:0:0:
130,113,78374,2,0,P|184:145|197:190,1,96,8|2,0:2|0:0,0:0:0:0:
97,273,78718,5,2,1:2:0:0:
119,191,78891,1,0,1:0:0:0:
179,251,79063,1,10,0:2:0:0:
37,334,79236,2,0,B|145:296|131:375|241:330,1,192,2|0,0:0|1:0,0:0:0:0:
318,241,79753,1,8,0:2:0:0:
304,265,79839,1,0,0:0:0:0:
305,293,79925,1,0,0:0:0:0:
399,277,80098,5,4,1:2:0:0:
246,199,80270,1,2,0:0:0:0:
443,169,80443,5,8,0:2:0:0:
249,208,80615,1,2,0:0:0:0:
374,39,80787,5,8,1:2:0:0:
346,190,80960,1,0,1:0:0:0:
233,69,81132,5,10,1:2:0:0:
362,114,81305,1,0,1:0:0:0:
206,150,81477,6,0,P|137:140|95:71,1,144,6|0,1:2|0:0,0:0:0:0:
91,62,81822,2,0,P|92:111|74:170,1,96,8|0,0:2|0:0,0:0:0:0:
18,228,82167,1,10,1:2:0:0:
18,228,82339,1,2,1:2:0:0:
70,317,82512,1,10,0:2:0:0:
70,317,82684,1,0,1:0:0:0:
202,254,82856,6,0,P|137:251|107:225,1,96,6|0,1:2|0:0,0:0:0:0:
238,345,83201,2,0,P|278:321|326:324,1,96,8|2,1:2|1:2,0:0:0:0:
416,374,83546,1,8,1:2:0:0:
411,350,83632,1,0,0:0:0:0:
411,326,83718,1,0,1:2:0:0:
414,302,83805,1,0,0:0:0:0:
419,277,83891,2,0,P|429:249|448:227,1,48,8|0,1:2|0:0,0:0:0:0:
395,137,84063,2,0,P|385:165|366:187,1,48,2|0,1:2|0:0,0:0:0:0:
311,226,84236,6,0,P|225:186|305:150,1,224,4|0,1:2|0:0,0:0:0:0:
315,145,84925,2,0,B|267:114|193:147|193:147|126:178|46:145,1,256,2|0,0:0|0:0,0:0:0:0:
146,226,86994,6,0,L|310:248,1,160,4|8,1:2|0:2,0:0:0:0:
363,326,87512,2,0,P|392:296|398:245,1,80,2|0,0:2|1:2,0:0:0:0:
360,171,87856,1,0,1:0:0:0:
373,81,88029,2,0,P|336:97|297:98,1,80,8|0,0:2|0:0,0:0:0:0:
236,47,88287,1,0,0:0:0:0:
236,47,88374,6,0,P|192:115|213:202,1,160,2|8,1:2|0:2,0:0:0:0:
56,245,88891,2,0,P|114:227|158:240,1,80,2|0,0:2|1:2,0:0:0:0:
276,289,89236,2,0,P|237:290|201:274,1,80,0|8,1:0|0:2,0:0:0:0:
131,229,89580,1,0,0:0:0:0:
124,378,89753,6,0,P|152:303|115:211,1,160,2|8,1:2|0:2,0:0:0:0:
31,136,90270,2,0,B|109:160|109:160|193:136,1,160,2|0,0:2|1:0,0:0:0:0:
255,61,90787,2,0,P|199:55|167:23,1,80,8|0,0:2|0:0,0:0:0:0:
327,119,91132,6,0,P|366:118|400:138,2,80,2|2|8,1:2|0:2|0:2,0:0:0:0:
253,163,91649,2,0,L|167:146,1,80,2|0,0:2|1:2,0:0:0:0:
115,88,91994,1,0,1:0:0:0:
80,168,92167,2,0,L|84:210,3,40,8|0|0|0,0:0|0:0|0:0|0:0,0:0:0:0:
207,277,92512,6,0,B|120:257|142:311|39:292,1,160,4|8,1:2|0:2,0:0:0:0:
188,362,93029,2,0,P|188:322|201:284,1,80,2|0,0:2|1:2,0:0:0:0:
281,258,93374,1,0,1:0:0:0:
217,204,93546,2,0,P|216:164|229:126,1,80,8|0,0:2|0:0,0:0:0:0:
125,92,93891,6,0,P|202:95|271:36,1,160,2|8,1:2|0:2,0:0:0:0:
328,130,94408,2,0,P|405:127|474:186,1,160,2|2,0:2|1:2,0:0:0:0:
351,261,94925,1,10,0:0:0:0:
359,234,95012,1,0,0:0:0:0:
375,211,95098,1,0,0:0:0:0:
479,364,95270,6,0,B|434:362|414:325|414:325|376:353|332:345,1,160,6|8,1:2|0:2,0:0:0:0:
265,292,95787,2,0,P|250:328|252:369,1,80,0|8,0:0|1:2,0:0:0:0:
351,261,96132,1,0,1:0:0:0:
279,200,96305,2,0,P|238:198|192:232,1,80,8|0,0:2|1:0,0:0:0:0:
170,300,96563,1,0,0:0:0:0:
170,300,96649,6,0,B|144:137,1,160,6|8,0:2|0:2,0:0:0:0:
214,81,97167,2,0,P|160:55|118:56,1,80,2|0,0:0|0:2,0:0:0:0:
230,170,97512,1,8,0:0:0:0:
305,110,97684,1,8,0:2:0:0:
155,230,97856,1,8,0:0:0:0:
244,264,98029,5,2,0:0:0:0:
256,192,98115,12,2,100787,0:2:0:0:
