osu file format v14

[General]
AudioFilename: rainbow road.mp3
AudioLeadIn: 0
PreviewTime: 29541
Countdown: 0
SampleSet: Normal
StackLeniency: 0.7
Mode: 0
LetterboxInBreaks: 0
WidescreenStoryboard: 0

[Editor]
DistanceSpacing: 1.3
BeatDivisor: 4
GridSize: 4
TimelineZoom: 1.6

[Metadata]
Title:Rainbow Road
TitleUnicode:Rainbow Road
Artist:Soyo Oka
ArtistUnicode:Soyo Oka
Creator:Fretzi
Version:Extra
Source:Super Mario Kart
Tags:
BeatmapID:2133136
BeatmapSetID:1019410

[Difficulty]
HPDrainRate:6
CircleSize:3
OverallDifficulty:8.5
ApproachRate:9.5
SliderMultiplier:2
SliderTickRate:1

[Events]
//Background and Video events
0,0,"Mk8-DLC-Course-SNES_RainbowRoad.jpg",0,0
//Break Periods
//Storyboard Layer 0 (Background)
//Storyboard Layer 1 (Fail)
//Storyboard Layer 2 (Pass)
//Storyboard Layer 3 (Foreground)
//Storyboard Layer 4 (Overlay)
//Storyboard Sound Samples

[TimingPoints]
58,409.65418359335,4,1,0,100,1,0
6610,-66.6666666666667,4,1,0,100,0,0

[HitObjects]
118,280,58,6,0,L|133:155,1,100,2|0,0:0|0:0,0:0:0:0:
87,97,365,2,0,P|140:142|202:154,1,100,8|0,0:0|0:0,0:0:0:0:
272,96,672,1,2,0:0:0:0:
272,96,877,2,0,L|282:155,1,50,2|0,0:0|0:0,0:0:0:0:
331,319,1082,1,0,0:0:0:0:
258,284,1184,1,0,0:0:0:0:
178,310,1286,1,8,0:0:0:0:
116,251,1389,2,0,P|103:199|106:145,1,100
166,72,1696,5,2,0:0:0:0:
86,64,1799,1,0,0:0:0:0:
23,14,1901,1,8,0:0:0:0:
23,14,2106,1,2,0:0:0:0:
45,91,2208,1,0,0:0:0:0:
37,170,2311,1,0,0:0:0:0:
59,246,2413,1,0,0:0:0:0:
49,325,2515,6,0,L|109:333,1,50,2|0,0:0|0:0,0:0:0:0:
295,271,2720,2,0,L|235:279,1,50,8|0,0:0|0:0,0:0:0:0:
102,177,2925,1,2,0:0:0:0:
180,196,3027,1,0,0:0:0:0:
253,164,3130,2,0,L|310:169,1,50,8|0,0:0|0:0,0:0:0:0:
389,304,3335,6,0,L|398:197,1,100,2|0,0:0|0:0,0:0:0:0:
455,128,3642,2,0,P|389:170|333:179,1,100,8|0,0:0|0:0,0:0:0:0:
265,125,3949,1,2,0:0:0:0:
265,125,4154,1,2,0:0:0:0:
207,179,4256,1,0,0:0:0:0:
200,258,4359,1,0,0:0:0:0:
228,333,4461,1,0,0:0:0:0:
303,306,4564,1,8,0:0:0:0:
360,361,4666,2,0,P|407:342|432:289,1,100
335,191,4973,5,2,0:0:0:0:
410,216,5076,1,0,0:0:0:0:
483,184,5178,1,8,0:0:0:0:
483,184,5383,2,0,L|476:114,1,50,2|0,0:0|0:0,0:0:0:0:
388,28,5588,1,0,0:0:0:0:
313,55,5690,1,0,0:0:0:0:
235,38,5793,6,0,L|165:44,1,50,2|0,0:0|0:0,0:0:0:0:
43,148,5997,2,0,L|49:78,1,50,8|0,0:0|0:0,0:0:0:0:
149,244,6202,1,2,0:0:0:0:
196,180,6305,1,0,0:0:0:0:
273,157,6407,1,8,0:0:0:0:
349,177,6510,1,0,0:0:0:0:
403,238,6612,6,0,P|405:153|470:105,1,150.000005722046,4|0,0:0|0:0,0:0:0:0:
484,200,6919,1,0,0:0:0:0:
472,311,7022,2,0,P|392:327|313:283,1,150.000005722046,8|0,0:0|0:0,0:0:0:0:
272,232,7329,1,0,0:0:0:0:
186,297,7431,6,0,P|185:258|179:209,1,75.0000028610231,2|0,0:0|0:0,0:0:0:0:
97,63,7636,1,0,0:0:0:0:
184,86,7739,1,0,0:0:0:0:
263,43,7841,2,0,P|333:26|416:62,1,150.000005722046,8|0,0:0|0:0,0:0:0:0:
445,132,8148,1,0,0:0:0:0:
402,211,8251,6,0,P|363:215|318:217,1,75.0000028610231,2|0,0:0|0:0,0:0:0:0:
151,152,8455,2,0,P|190:152|234:158,1,75.0000028610231
269,324,8660,1,8,0:0:0:0:
358,311,8763,1,0,0:0:0:0:
424,370,8865,1,2,0:0:0:0:
510,347,8967,1,0,0:0:0:0:
441,285,9070,6,0,P|445:247|447:201,1,75.0000028610231,2|0,0:0|0:0,0:0:0:0:
336,45,9275,2,0,P|336:86|342:129,1,75.0000028610231,2|0,0:0|0:0,0:0:0:0:
197,231,9480,2,0,P|283:228|349:277,1,150.000005722046,8|0,0:0|0:0,0:0:0:0:
312,348,9787,1,0,0:0:0:0:
349,252,9889,6,0,P|344:153|305:93,1,150.000005722046,2|0,0:0|0:0,0:0:0:0:
233,85,10196,1,0,0:0:0:0:
159,135,10299,2,0,P|119:135|77:131,1,75.0000028610231,8|0,0:0|0:0,0:0:0:0:
307,25,10504,1,2,0:0:0:0:
307,25,10709,6,0,P|385:42|414:140,1,150.000005722046,2|0,0:0|0:0,0:0:0:0:
369,175,11016,1,0,0:0:0:0:
280,157,11118,2,0,P|276:193|276:239,1,75.0000028610231,8|0,0:0|0:0,0:0:0:0:
321,375,11323,1,0,0:0:0:0:
400,331,11425,1,0,0:0:0:0:
486,355,11528,6,0,P|485:319|482:273,1,75.0000028610231,2|0,0:0|0:0,0:0:0:0:
371,156,11733,2,0,P|335:160|289:160,1,75.0000028610231,2|0,0:0|0:0,0:0:0:0:
170,337,11937,2,0,P|166:300|166:263,1,75.0000028610231,8|0,0:0|0:0,0:0:0:0:
92,94,12142,1,2,0:0:0:0:
92,94,12347,5,2,0:0:0:0:
137,180,12450,1,0,0:0:0:0:
234,185,12552,1,8,0:0:0:0:
291,108,12654,1,8,0:0:0:0:
252,17,12757,1,2,0:0:0:0:
298,103,12859,1,0,0:0:0:0:
388,141,12962,1,8,0:0:0:0:
462,78,13064,1,8,0:0:0:0:
382,152,13166,6,0,P|381:233|415:316,1,150.000005722046,4|0,0:0|0:0,0:0:0:0:
480,344,13474,1,0,0:0:0:0:
384,299,13576,2,0,P|290:290|223:306,1,150.000005722046,8|0,0:0|0:0,0:0:0:0:
167,359,13883,1,0,0:0:0:0:
98,300,13986,6,0,L|105:216,1,75.0000028610231,2|0,0:0|0:0,0:0:0:0:
146,81,14191,1,0,0:0:0:0:
229,116,14293,1,0,0:0:0:0:
299,60,14395,2,0,P|382:37|468:65,1,150.000005722046,8|0,0:0|0:0,0:0:0:0:
482,131,14703,1,0,0:0:0:0:
445,213,14805,6,0,P|398:215|365:214,1,75.0000028610231,2|0,0:0|0:0,0:0:0:0:
245,127,15010,2,0,P|242:173|239:206,1,75.0000028610231
254,351,15215,1,8,0:0:0:0:
167,333,15317,1,0,0:0:0:0:
83,364,15420,1,2,0:0:0:0:
3,325,15522,1,0,0:0:0:0:
62,256,15624,6,0,P|63:220|66:174,1,75.0000028610231,2|0,0:0|0:0,0:0:0:0:
177,57,15829,2,0,P|213:61|259:61,1,75.0000028610231,2|0,0:0|0:0,0:0:0:0:
378,238,16034,1,8,0:0:0:0:
358,141,16136,1,0,0:0:0:0:
399,53,16239,1,0,0:0:0:0:
488,41,16341,1,0,0:0:0:0:
505,137,16444,6,0,P|415:140|314:186,1,150.000005722046,4|0,0:0|0:0,0:0:0:0:
339,247,16751,1,0,0:0:0:0:
362,344,16853,2,0,P|321:339|271:327,1,75.0000028610231,8|0,0:0|0:0,0:0:0:0:
212,119,17058,1,2,0:0:0:0:
212,119,17263,5,2,0:0:0:0:
243,202,17365,1,0,0:0:0:0:
191,276,17468,1,0,0:0:0:0:
222,359,17570,1,0,0:0:0:0:
308,336,17673,1,8,0:0:0:0:
388,376,17775,2,0,P|361:300|370:222,1,150.000005722046
439,124,18082,6,0,P|401:135|355:137,1,75.0000028610231,2|0,0:0|0:0,0:0:0:0:
224,300,18287,2,0,P|224:260|214:215,1,75.0000028610231,2|0,0:0|0:0,0:0:0:0:
133,68,18492,2,0,P|93:70|49:84,1,75.0000028610231,8|0,0:0|0:0,0:0:0:0:
25,269,18697,1,2,0:0:0:0:
25,269,18902,6,0,P|123:300|170:278,1,150.000005722046,2|0,0:0|0:0,0:0:0:0:
209,206,19209,1,0,0:0:0:0:
271,271,19311,2,0,P|271:310|260:355,1,75.0000028610231,8|0,0:0|0:0,0:0:0:0:
104,213,19516,1,2,0:0:0:0:
138,129,19618,1,0,0:0:0:0:
219,165,19721,6,0,P|308:185|377:172,1,150.000005722046,4|0,0:0|0:0,0:0:0:0:
435,119,20028,1,0,0:0:0:0:
480,197,20131,2,0,P|480:243|486:280,1,75.0000028610231,8|0,0:0|0:0,0:0:0:0:
399,346,20335,1,2,0:0:0:0:
399,346,20540,6,0,P|399:300|393:263,1,75.0000028610231,2|0,0:0|0:0,0:0:0:0:
314,66,20745,2,0,P|314:112|320:149,1,75.0000028610231
206,223,20950,1,8,0:0:0:0:
112,158,21052,2,0,P|96:249|162:340,1,150.000005722046
215,223,21360,6,0,P|253:211|291:208,1,75.0000028610231,2|0,0:0|0:0,0:0:0:0:
436,360,21564,2,0,P|424:322|421:284,1,75.0000028610231,2|0,0:0|0:0,0:0:0:0:
460,105,21769,2,0,P|422:117|384:120,1,75.0000028610231,8|0,0:0|0:0,0:0:0:0:
233,35,21974,1,2,0:0:0:0:
270,133,22076,1,0,0:0:0:0:
209,218,22179,6,0,P|167:217|124:206,1,75.0000028610231,2|0,0:0|0:0,0:0:0:0:
19,26,22384,2,0,P|26:62|27:100,1,75.0000028610231,2|0,0:0|0:0,0:0:0:0:
1,268,22588,1,8,0:0:0:0:
98,230,22691,1,0,0:0:0:0:
162,313,22793,1,2,0:0:0:0:
265,296,22896,1,0,0:0:0:0:
159,290,22998,6,0,P|142:199|208:141,1,150.000005722046,4|0,0:0|0:0,0:0:0:0:
260,179,23305,1,0,0:0:0:0:
359,144,23408,2,0,P|351:180|350:218,1,75.0000028610231,8|0,0:0|0:0,0:0:0:0:
446,335,23613,1,2,0:0:0:0:
446,335,23817,6,0,P|409:342|371:343,1,75.0000028610231,2|0,0:0|0:0,0:0:0:0:
233,151,24022,2,0,P|240:187|241:225,1,75.0000028610231
95,345,24227,1,8,0:0:0:0:
26,264,24330,2,0,P|-2:184|38:111,1,150.000005722046
0,16,24637,6,0,P|36:23|74:24,1,75.0000028610231,2|0,0:0|0:0,0:0:0:0:
177,204,24842,2,0,P|175:166|181:129,1,75.0000028610231,2|0,0:0|0:0,0:0:0:0:
349,26,25046,1,8,0:0:0:0:
322,112,25149,1,0,0:0:0:0:
360,192,25251,1,2,0:0:0:0:
340,280,25354,1,0,0:0:0:0:
257,314,25456,6,0,P|219:322|170:347,1,75.0000028610231,2|0,0:0|0:0,0:0:0:0:
43,120,25661,2,0,P|38:158|45:213,1,75.0000028610231,2|0,0:0|0:0,0:0:0:0:
195,61,25866,1,8,0:0:0:0:
271,108,25968,1,0,0:0:0:0:
352,71,26071,1,2,0:0:0:0:
437,102,26173,1,0,0:0:0:0:
415,201,26275,6,0,P|408:284|454:358,1,150.000005722046,4|0,0:0|0:0,0:0:0:0:
511,266,26583,1,0,0:0:0:0:
415,201,26685,2,0,P|368:209|329:210,1,75.0000028610231,8|0,0:0|0:0,0:0:0:0:
261,141,26890,1,2,0:0:0:0:
261,141,27095,5,2,0:0:0:0:
178,172,27197,1,0,0:0:0:0:
104,120,27300,1,0,0:0:0:0:
21,151,27402,1,0,0:0:0:0:
44,237,27504,1,8,0:0:0:0:
134,246,27607,2,0,P|163:303|118:408,1,150.000005722046
0,322,27914,6,0,P|36:318|74:320,1,75.0000028610231,4|0,0:0|0:0,0:0:0:0:
263,373,28119,2,0,P|258:335|260:298,1,75.0000028610231,8|0,0:0|0:0,0:0:0:0:
351,118,28324,2,0,P|313:122|276:120,1,75.0000028610231,2|0,0:0|0:0,0:0:0:0:
88,61,28528,1,8,0:0:0:0:
121,144,28631,1,0,0:0:0:0:
70,218,28733,5,4,0:0:0:0:
112,297,28836,1,0,0:0:0:0:
213,270,28938,1,8,0:0:0:0:
309,311,29041,1,8,0:0:0:0:
377,232,29143,1,4,0:0:0:0:
350,130,29245,1,0,0:0:0:0:
304,34,29348,1,8,0:0:0:0:
408,38,29450,1,8,0:0:0:0:
458,137,29553,1,4,0:0:0:0:
458,137,29757,5,0,0:0:0:0:
361,119,29860,1,0,0:0:0:0:
289,184,29962,2,0,P|247:181|205:175,1,75.0000028610231,8|0,0:0|0:0,0:0:0:0:
64,98,30167,1,0,0:0:0:0:
32,189,30269,1,0,0:0:0:0:
67,280,30372,6,0,P|109:280|151:278,1,75.0000028610231,2|0,0:0|0:0,0:0:0:0:
278,117,30577,2,0,P|278:159|276:201,1,75.0000028610231
409,343,30782,2,0,P|366:342|324:344,1,75.0000028610231,8|0,0:0|0:0,0:0:0:0:
505,139,30986,1,2,0:0:0:0:
459,224,31089,1,0,0:0:0:0:
512,125,31191,6,0,P|474:72|392:101,1,150.000005722046,2|0,0:0|0:0,0:0:0:0:
337,165,31498,1,0,0:0:0:0:
304,75,31601,1,8,0:0:0:0:
224,130,31703,1,0,0:0:0:0:
136,85,31806,1,0,0:0:0:0:
73,159,31908,1,0,0:0:0:0:
125,241,32011,6,0,P|129:285|132:329,1,75.0000028610231,2|0,0:0|0:0,0:0:0:0:
224,130,32215,2,0,P|268:125|312:123,1,75.0000028610231
379,336,32420,2,0,P|382:291|387:248,1,75.0000028610231,8|0,0:0|0:0,0:0:0:0:
500,69,32625,1,2,0:0:0:0:
500,69,32830,6,0,P|410:47|374:96,1,150.000005722046,4|0,0:0|0:0,0:0:0:0:
364,179,33137,1,0,0:0:0:0:
435,244,33239,2,0,P|479:232|517:227,1,75.0000028610231,8|0,0:0|0:0,0:0:0:0:
303,245,33444,2,0,P|228:214|152:233,1,150.000005722046,2|0,0:0|0:0,0:0:0:0:
91,294,33752,5,0,0:0:0:0:
57,202,33854,2,0,P|51:164|41:128,1,75.0000028610231,2|0,0:0|0:0,0:0:0:0:
191,15,34059,1,8,0:0:0:0:
165,108,34161,1,0,0:0:0:0:
241,169,34264,2,0,P|278:164|315:165,1,75.0000028610231,2|0,0:0|0:0,0:0:0:0:
392,104,34468,6,0,P|352:186|366:276,1,150.000005722046,2|0,0:0|0:0,0:0:0:0:
416,318,34776,1,0,0:0:0:0:
332,368,34878,2,0,P|304:355|253:345,1,75.0000028610231,8|0,0:0|0:0,0:0:0:0:
166,374,35083,1,2,0:0:0:0:
166,374,35288,5,2,0:0:0:0:
198,282,35390,1,0,0:0:0:0:
140,203,35493,1,8,0:0:0:0:
43,221,35595,1,0,0:0:0:0:
136,195,35697,1,2,0:0:0:0:
180,108,35800,1,0,0:0:0:0:
102,48,35902,1,8,0:0:0:0:
19,98,36005,1,0,0:0:0:0:
110,40,36107,6,0,P|190:18|270:37,1,150.000005722046,4|0,0:0|0:0,0:0:0:0:
339,78,36414,1,0,0:0:0:0:
292,163,36517,1,8,0:0:0:0:
357,235,36619,1,0,0:0:0:0:
310,321,36722,1,0,0:0:0:0:
407,323,36824,1,0,0:0:0:0:
301,343,36926,6,0,P|262:351|218:352,1,75.0000028610231,2|0,0:0|0:0,0:0:0:0:
148,125,37131,2,0,P|149:164|142:208,1,75.0000028610231
21,369,37336,2,0,P|60:377|104:378,1,75.0000028610231,8|0,0:0|0:0,0:0:0:0:
3,180,37541,1,2,0:0:0:0:
45,267,37643,1,0,0:0:0:0:
12,167,37746,6,0,P|70:214|157:202,1,150.000005722046,2|0,0:0|0:0,0:0:0:0:
232,249,38053,1,0,0:0:0:0:
305,184,38155,1,8,0:0:0:0:
264,95,38258,1,0,0:0:0:0:
358,67,38360,1,0,0:0:0:0:
408,149,38463,1,0,0:0:0:0:
301,134,38565,6,0,P|261:132|220:139,1,75.0000028610231,2|0,0:0|0:0,0:0:0:0:
79,19,38770,2,0,P|81:59|74:100,1,75.0000028610231
109,246,38975,2,0,P|69:244|28:251,1,75.0000028610231,8|0,0:0|0:0,0:0:0:0:
282,118,39179,1,2,0:0:0:0:
282,118,39384,6,0,P|351:171|308:219,1,150.000005722046,4|0,0:0|0:0,0:0:0:0:
267,286,39692,1,0,0:0:0:0:
174,257,39794,2,0,P|125:271|95:274,1,75.0000028610231,8|0,0:0|0:0,0:0:0:0:
22,166,39999,2,0,P|53:236|64:321,1,150.000005722046,2|0,0:0|0:0,0:0:0:0:
131,380,40306,5,0,0:0:0:0:
219,339,40408,2,0,P|257:328|293:323,1,75.0000028610231,2|0,0:0|0:0,0:0:0:0:
365,122,40613,2,0,P|364:161|369:198,1,75.0000028610231,8|0,0:0|0:0,0:0:0:0:
488,359,40818,2,0,P|487:319|492:282,1,75.0000028610231,2|0,0:0|0:0,0:0:0:0:
512,88,41023,6,0,P|423:105|341:101,1,150.000005722046,2|0,0:0|0:0,0:0:0:0:
278,55,41330,1,0,0:0:0:0:
199,111,41433,2,0,P|154:106|113:91,1,75.0000028610231,8|0,0:0|0:0,0:0:0:0:
62,171,41637,1,2,0:0:0:0:
62,171,41842,5,2,0:0:0:0:
151,132,41945,1,0,0:0:0:0:
227,191,42047,1,8,0:0:0:0:
185,280,42149,1,0,0:0:0:0:
238,198,42252,1,2,0:0:0:0:
335,198,42354,1,0,0:0:0:0:
416,253,42457,1,8,0:0:0:0:
386,345,42559,1,0,0:0:0:0:
422,243,42662,6,0,P|417:154|344:103,1,150.000005722046,4|0,0:0|0:0,0:0:0:0:
287,154,42969,1,0,0:0:0:0:
208,96,43071,1,8,0:0:0:0:
136,161,43174,1,0,0:0:0:0:
62,96,43276,1,0,0:0:0:0:
29,187,43378,1,0,0:0:0:0:
23,72,43481,6,0,P|64:70|103:74,1,75.0000028610231,2|0,0:0|0:0,0:0:0:0:
172,244,43686,2,0,P|170:203|174:164,1,75.0000028610231
232,15,43890,2,0,P|272:20|311:19,1,75.0000028610231,8|0,0:0|0:0,0:0:0:0:
338,227,44095,1,2,0:0:0:0:
377,138,44198,1,0,0:0:0:0:
340,242,44300,6,0,P|297:179|227:149,1,150.000005722046,2|0,0:0|0:0,0:0:0:0:
124,102,44607,1,0,0:0:0:0:
64,178,44710,1,8,0:0:0:0:
106,259,44812,1,0,0:0:0:0:
56,347,44915,1,0,0:0:0:0:
124,277,45017,1,0,0:0:0:0:
189,350,45119,6,0,P|228:351|272:344,1,75.0000028610231,2|0,0:0|0:0,0:0:0:0:
351,174,45324,2,0,P|351:218|358:252,1,75.0000028610231
203,177,45529,2,0,P|203:133|196:98,1,75.0000028610231,8|0,0:0|0:0,0:0:0:0:
396,61,45734,1,2,0:0:0:0:
396,61,45939,6,0,P|380:120|433:211,1,150.000005722046,4|0,0:0|0:0,0:0:0:0:
479,124,46246,1,0,0:0:0:0:
507,217,46348,2,0,P|502:257|506:297,1,75.0000028610231,8|0,0:0|0:0,0:0:0:0:
315,221,46553,2,0,P|274:219|235:226,1,75.0000028610231
148,378,46758,6,0,P|194:311|148:276,1,150.000005722046,2|0,0:0|0:0,0:0:0:0:
55,270,47065,1,0,0:0:0:0:
105,187,47168,2,0,P|110:147|106:107,1,75.0000028610231,8|0,0:0|0:0,0:0:0:0:
326,36,47373,2,0,P|286:31|246:35,1,75.0000028610231
363,190,47577,6,0,P|291:173|229:253,1,150.000005722046,4|0,0:0|0:0,0:0:0:0:
261,313,47885,1,0,0:0:0:0:
170,277,47987,1,8,0:0:0:0:
77,308,48089,1,0,0:0:0:0:
105,214,48192,1,0,0:0:0:0:
88,118,48294,1,0,0:0:0:0:
17,186,48397,1,2,0:0:0:0:
17,186,48602,5,0,0:0:0:0:
100,136,48704,1,0,0:0:0:0:
196,170,48806,2,0,P|206:205|224:252,1,75.0000028610231,8|0,0:0|0:0,0:0:0:0:
378,348,49011,1,0,0:0:0:0:
407,254,49114,1,0,0:0:0:0:
351,173,49216,6,0,P|439:187|497:117,1,150.000005722046,4|0,0:0|0:0,0:0:0:0:
462,56,49523,1,0,0:0:0:0:
366,75,49626,2,0,P|327:74|282:57,1,75.0000028610231,8|0,0:0|0:0,0:0:0:0:
212,120,49830,1,2,0:0:0:0:
212,120,50035,6,0,P|211:160|203:205,1,75.0000028610231,2|0,0:0|0:0,0:0:0:0:
283,352,50240,2,0,P|283:311|291:266,1,75.0000028610231
135,314,50445,1,8,0:0:0:0:
73,238,50547,2,0,P|59:165|171:134,1,150.000005722046
201,161,50855,6,0,P|245:164|278:160,1,75.0000028610231,4|0,0:0|0:0,0:0:0:0:
408,54,51059,1,8,0:0:0:0:
408,54,51264,2,0,P|405:98|409:131,1,75.0000028610231,2|0,0:0|0:0,0:0:0:0:
377,298,51469,1,8,0:0:0:0:
284,268,51572,1,0,0:0:0:0:
193,305,51674,6,0,P|138:309|103:315,1,75.0000028610231,2|0,0:0|0:0,0:0:0:0:
312,361,51879,2,0,P|365:376|399:382,1,75.0000028610231,2|0,0:0|0:0,0:0:0:0:
263,193,52084,2,0,P|266:137|272:103,1,75.0000028610231,8|0,0:0|0:0,0:0:0:0:
397,258,52288,1,2,0:0:0:0:
427,165,52391,1,0,0:0:0:0:
372,83,52493,6,0,P|285:95|206:64,1,150.000005722046,4|0,0:0|0:0,0:0:0:0:
147,19,52800,1,0,0:0:0:0:
103,106,52903,2,0,P|108:160|108:196,1,75.0000028610231,8|0,0:0|0:0,0:0:0:0:
160,264,53108,1,2,0:0:0:0:
160,264,53313,6,0,P|214:258|250:258,1,75.0000028610231,2|0,0:0|0:0,0:0:0:0:
389,350,53517,1,0,0:0:0:0:
342,263,53620,1,0,0:0:0:0:
434,231,53722,1,8,0:0:0:0:
364,162,53825,2,0,P|434:130|505:162,1,150.000005722046,0|0,0:0|2:0,2:0:0:0:
436,239,54132,6,0,P|378:264|341:266,1,75.0000028610231,4|0,0:0|0:0,0:0:0:0:
236,128,54337,1,8,0:0:0:0:
139,142,54439,1,0,0:0:0:0:
245,161,54542,2,0,P|248:224|237:259,1,75.0000028610231,2|0,0:0|0:0,0:0:0:0:
178,371,54746,1,8,0:0:0:0:
87,336,54849,1,0,0:0:0:0:
147,258,54951,5,4,0:0:0:0:
253,221,55054,1,0,0:0:0:0:
356,264,55156,1,8,0:0:0:0:
396,369,55258,1,8,0:0:0:0:
347,271,55361,1,4,0:0:0:0:
400,174,55463,1,0,0:0:0:0:
502,124,55566,1,8,0:0:0:0:
392,161,55668,1,8,0:0:0:0:
295,101,55770,5,4,0:0:0:0:
