osu file format v14

[General]
AudioFilename: audio.mp3
AudioLeadIn: 0
PreviewTime: -1
Countdown: 0
SampleSet: Normal
StackLeniency: 0.6
Mode: 1
LetterboxInBreaks: 0
WidescreenStoryboard: 1

[Editor]
DistanceSpacing: 1
BeatDivisor: 3
GridSize: 8
TimelineZoom: 1

[Metadata]
Title:Sweet Dreams (Funk)
TitleUnicode:Sweet Dreams (Funk)
Artist:South America Memes
ArtistUnicode:South America Memes
Creator:Ycro
Version:10/10 Muzukashii
Source:SAM
Tags:Ycro 10/10 brazil music funk memes of brazil eis que a 10/10
BeatmapID:1736392
BeatmapSetID:828796

[Difficulty]
HPDrainRate:6.9
CircleSize:2
OverallDifficulty:7.5
ApproachRate:7.5
SliderMultiplier:1.62791453846945
SliderTickRate:1

[Events]
//Background and Video events
0,0,"Taiko-Dunskin.png",0,0
//Break Periods
2,7900,26475
//Storyboard Layer 0 (Background)
//Storyboard Layer 1 (Fail)
//Storyboard Layer 2 (Pass)
//Storyboard Layer 3 (Foreground)
//Storyboard Sound Samples

[TimingPoints]
0,300,4,1,1,100,1,0

[HitObjects]
155,193,0,5,0,0:0:0:0:
255,191,400,1,4,0:0:0:0:
300,191,600,1,4,0:0:0:0:
366,187,800,1,4,0:0:0:0:
444,184,1000,1,4,0:0:0:0:
250,118,1200,1,8,0:0:0:0:
326,116,1400,1,8,0:0:0:0:
401,110,1600,1,8,0:0:0:0:
450,108,1800,1,8,0:0:0:0:
266,193,2000,5,2,0:0:0:0:
245,92,2400,1,0,0:0:0:0:
248,182,2600,1,4,0:0:0:0:
246,268,2800,1,4,0:0:0:0:
252,350,3000,1,4,0:0:0:0:
383,94,3200,1,8,0:0:0:0:
392,184,3400,1,8,0:0:0:0:
395,270,3600,1,8,0:0:0:0:
397,355,3800,1,8,0:0:0:0:
110,157,4000,1,0,0:0:0:0:
111,250,4200,1,8,0:0:0:0:
107,335,4400,1,8,0:0:0:0:
206,162,4600,1,8,0:0:0:0:
210,261,4800,1,8,0:0:0:0:
210,346,5000,1,8,0:0:0:0:
310,156,5200,1,8,0:0:0:0:
310,257,5400,1,8,0:0:0:0:
314,348,5600,1,8,0:0:0:0:
417,154,5800,1,8,0:0:0:0:
420,257,6000,1,4,0:0:0:0:
92,93,6300,1,0,0:0:0:0:
155,164,6500,1,0,0:0:0:0:
187,218,6700,1,0,0:0:0:0:
238,277,6900,1,0,0:0:0:0:
314,280,7100,1,0,0:0:0:0:
378,258,7300,1,0,0:0:0:0:
445,203,7700,1,4,0:0:0:0:
256,194,27300,5,0,0:0:0:0:
256,194,27600,1,0,0:0:0:0:
256,194,27900,1,0,0:0:0:0:
256,194,28200,5,0,0:0:0:0:
256,194,28500,1,0,0:0:0:0:
255,200,28800,1,0,0:0:0:0:
255,200,29100,1,0,0:0:0:0:
255,200,29400,1,0,0:0:0:0:
255,200,29700,1,0,0:0:0:0:
255,200,30000,1,0,0:0:0:0:
255,200,30200,1,8,0:0:0:0:
255,200,30400,1,8,0:0:0:0:
255,200,30700,1,0,0:0:0:0:
252,129,30900,1,0,0:0:0:0:
257,276,31100,1,0,0:0:0:0:
255,200,31300,1,0,0:0:0:0:
255,200,31500,1,0,0:0:0:0:
255,200,31700,1,0,0:0:0:0:
255,200,31900,1,0,0:0:0:0:
255,200,32100,1,0,0:0:0:0:
255,200,32300,1,0,0:0:0:0:
255,200,32500,1,0,0:0:0:0:
255,200,32700,1,0,0:0:0:0:
255,200,32900,1,0,0:0:0:0:
255,200,33100,1,0,0:0:0:0:
255,200,33300,1,0,0:0:0:0:
256,192,34500,5,0,0:0:0:0:
256,192,34700,1,0,0:0:0:0:
256,192,34900,1,0,0:0:0:0:
256,192,35100,1,0,0:0:0:0:
256,192,35300,1,0,0:0:0:0:
256,192,35500,1,0,0:0:0:0:
256,192,35700,1,0,0:0:0:0:
256,192,35900,1,0,0:0:0:0:
256,192,36100,1,0,0:0:0:0:
256,192,36300,1,0,0:0:0:0:
256,192,36500,5,0,0:0:0:0:
256,192,36700,1,0,0:0:0:0:
256,192,36900,1,0,0:0:0:0:
255,191,37100,2,0,L|125:194,1,108.527635897963
254,191,37800,1,8,0:0:0:0:
254,191,38000,1,8,0:0:0:0:
254,191,38300,5,0,0:0:0:0:
254,191,38500,1,0,0:0:0:0:
254,191,38700,1,0,0:0:0:0:
254,191,38900,1,0,0:0:0:0:
254,191,39100,1,0,0:0:0:0:
254,191,39300,1,0,0:0:0:0:
254,191,39500,1,0,0:0:0:0:
254,191,39700,1,0,0:0:0:0:
254,191,39900,1,0,0:0:0:0:
254,191,40100,1,0,0:0:0:0:
254,191,40300,5,0,0:0:0:0:
254,191,40500,1,0,0:0:0:0:
254,191,40700,1,0,0:0:0:0:
254,191,40900,1,0,0:0:0:0:
254,191,41100,1,0,0:0:0:0:
254,191,41300,1,0,0:0:0:0:
254,191,41500,1,8,0:0:0:0:
254,191,41700,1,4,0:0:0:0:
255,191,41900,5,0,0:0:0:0:
255,191,42100,1,0,0:0:0:0:
255,191,42300,1,0,0:0:0:0:
255,191,42500,1,0,0:0:0:0:
255,191,42700,1,0,0:0:0:0:
255,191,42900,1,0,0:0:0:0:
255,191,43100,1,0,0:0:0:0:
255,191,43300,5,0,0:0:0:0:
255,191,43500,1,0,0:0:0:0:
255,191,43700,1,0,0:0:0:0:
254,184,43900,1,0,0:0:0:0:
254,184,44100,1,0,0:0:0:0:
255,191,44300,5,0,0:0:0:0:
254,184,44500,1,0,0:0:0:0:
254,184,44700,1,0,0:0:0:0:
255,191,44900,1,0,0:0:0:0:
254,184,45100,1,0,0:0:0:0:
254,184,45300,6,8,L|138:268,2,108.527635897963
254,184,46100,5,0,0:0:0:0:
254,184,46300,1,0,0:0:0:0:
254,184,46500,1,0,0:0:0:0:
254,184,46700,1,0,0:0:0:0:
254,184,46900,1,0,0:0:0:0:
254,184,47100,5,0,0:0:0:0:
254,184,47300,1,0,0:0:0:0:
254,184,47500,1,0,0:0:0:0:
254,184,47700,1,0,0:0:0:0:
254,184,47900,1,0,0:0:0:0:
254,184,48100,5,0,0:0:0:0:
254,184,48300,1,0,0:0:0:0:
254,184,48500,1,0,0:0:0:0:
254,184,48700,1,0,0:0:0:0:
254,184,48900,1,0,0:0:0:0:
252,186,49100,1,8,0:0:0:0:
252,186,49300,1,0,0:0:0:0:
252,186,49500,1,0,0:0:0:0:
252,186,49700,5,0,0:0:0:0:
252,186,49900,1,0,0:0:0:0:
252,186,50100,1,0,0:0:0:0:
252,186,50300,1,0,0:0:0:0:
252,186,50500,1,0,0:0:0:0:
252,186,50700,1,0,0:0:0:0:
252,186,50900,1,0,0:0:0:0:
250,188,51100,1,0,0:0:0:0:
250,188,51300,5,0,0:0:0:0:
250,188,51500,1,0,0:0:0:0:
250,188,51700,1,0,0:0:0:0:
250,188,51900,1,0,0:0:0:0:
250,188,52100,1,0,0:0:0:0:
250,188,52300,1,0,0:0:0:0:
250,188,52500,1,0,0:0:0:0:
250,188,52700,1,0,0:0:0:0:
250,188,52900,6,8,L|253:309,2,108.527635897963
250,188,53700,1,0,0:0:0:0:
250,188,53900,1,0,0:0:0:0:
250,188,54100,1,0,0:0:0:0:
250,188,54300,1,0,0:0:0:0:
250,188,54500,1,0,0:0:0:0:
250,188,54700,1,0,0:0:0:0:
250,188,54900,1,0,0:0:0:0:
250,188,55100,1,0,0:0:0:0:
250,188,55300,1,0,0:0:0:0:
250,188,55500,5,0,0:0:0:0:
250,188,55700,1,0,0:0:0:0:
250,188,55900,5,0,0:0:0:0:
250,188,56100,1,0,0:0:0:0:
250,188,56300,1,0,0:0:0:0:
250,188,56500,1,0,0:0:0:0:
250,188,56700,1,0,0:0:0:0:
250,188,56900,1,0,0:0:0:0:
250,188,57100,1,0,0:0:0:0:
254,188,57300,1,8,0:0:0:0:
254,188,57500,1,8,0:0:0:0:
254,188,57700,1,8,0:0:0:0:
254,188,57900,1,8,0:0:0:0:
254,188,58100,1,8,0:0:0:0:
254,188,58300,1,8,0:0:0:0:
254,188,58500,1,8,0:0:0:0:
254,188,58700,1,8,0:0:0:0:
254,188,58900,1,8,0:0:0:0:
254,188,59100,1,8,0:0:0:0:
259,188,59300,1,8,0:0:0:0:
259,188,59500,1,8,0:0:0:0:
259,188,59700,1,8,0:0:0:0:
259,188,59900,1,8,0:0:0:0:
259,188,60100,1,8,0:0:0:0:
259,188,60300,1,4,0:0:0:0:
259,188,60500,1,8,0:0:0:0:
259,188,60700,1,8,0:0:0:0:
259,188,60900,1,8,0:0:0:0:
259,188,61100,1,4,0:0:0:0:
259,188,61300,1,8,0:0:0:0:
259,188,61500,1,8,0:0:0:0:
259,188,61700,1,8,0:0:0:0:
259,188,61900,1,8,0:0:0:0:
259,188,62100,1,8,0:0:0:0:
259,188,62300,1,8,0:0:0:0:
259,188,62500,1,8,0:0:0:0:
259,188,62700,1,8,0:0:0:0:
259,188,62900,1,8,0:0:0:0:
259,188,63100,1,8,0:0:0:0:
259,188,63300,1,8,0:0:0:0:
259,188,63500,1,8,0:0:0:0:
259,188,63700,1,8,0:0:0:0:
259,188,63900,1,8,0:0:0:0:
259,188,64100,1,8,0:0:0:0:
259,188,64300,1,8,0:0:0:0:
259,188,64500,1,8,0:0:0:0:
259,188,64700,1,8,0:0:0:0:
259,188,64900,1,8,0:0:0:0:
259,188,65100,1,8,0:0:0:0:
259,188,65300,1,8,0:0:0:0:
259,188,65500,1,8,0:0:0:0:
259,188,65700,1,8,0:0:0:0:
259,188,65900,1,8,0:0:0:0:
259,188,66100,1,8,0:0:0:0:
259,188,66300,1,8,0:0:0:0:
259,188,66500,1,8,0:0:0:0:
259,188,66700,1,8,0:0:0:0:
259,188,66900,1,8,0:0:0:0:
259,188,67100,1,8,0:0:0:0:
259,188,67300,1,8,0:0:0:0:
259,188,67500,1,8,0:0:0:0:
259,188,67700,1,8,0:0:0:0:
259,188,67900,1,8,0:0:0:0:
259,188,68100,1,8,0:0:0:0:
259,188,68300,1,8,0:0:0:0:
259,188,68500,1,8,0:0:0:0:
259,188,68700,1,8,0:0:0:0:
259,188,68900,1,8,0:0:0:0:
259,188,69100,1,4,0:0:0:0:
259,188,69300,1,14,0:0:0:0:
259,188,69500,1,8,0:0:0:0:
259,188,69700,1,8,0:0:0:0:
259,188,69900,1,8,0:0:0:0:
259,188,70100,1,8,0:0:0:0:
259,188,70300,1,8,0:0:0:0:
259,188,70500,1,8,0:0:0:0:
259,188,70700,1,4,0:0:0:0:
259,188,70900,1,8,0:0:0:0:
259,188,71100,1,8,0:0:0:0:
259,188,71300,1,8,0:0:0:0:
259,188,71500,1,8,0:0:0:0:
259,188,71700,1,8,0:0:0:0:
259,188,71900,1,8,0:0:0:0:
259,188,72100,1,8,0:0:0:0:
259,188,72300,1,8,0:0:0:0:
259,188,72500,1,8,0:0:0:0:
259,188,72700,1,8,0:0:0:0:
259,188,72900,1,8,0:0:0:0:
259,188,73100,1,8,0:0:0:0:
259,188,73300,1,8,0:0:0:0:
259,188,73500,1,8,0:0:0:0:
259,188,73700,1,8,0:0:0:0:
259,188,73900,1,8,0:0:0:0:
259,188,74100,1,8,0:0:0:0:
259,188,74300,1,8,0:0:0:0:
259,188,74500,1,8,0:0:0:0:
259,188,74700,1,8,0:0:0:0:
259,188,74900,1,8,0:0:0:0:
259,188,75100,1,8,0:0:0:0:
184,188,75600,1,4,0:0:0:0:
332,189,75900,1,12,0:0:0:0:
253,192,76700,5,0,0:0:0:0:
253,192,76900,1,0,0:0:0:0:
253,192,77100,1,0,0:0:0:0:
253,192,77300,1,0,0:0:0:0:
253,192,77500,1,0,0:0:0:0:
253,192,77700,5,0,0:0:0:0:
253,192,77900,1,0,0:0:0:0:
253,192,78100,1,0,0:0:0:0:
253,192,78300,1,0,0:0:0:0:
253,192,78500,1,0,0:0:0:0:
252,186,78700,5,0,0:0:0:0:
252,186,78900,1,0,0:0:0:0:
252,186,79100,1,0,0:0:0:0:
252,186,79300,1,0,0:0:0:0:
252,186,79500,1,0,0:0:0:0:
252,186,79700,5,8,0:0:0:0:
252,186,79900,1,8,0:0:0:0:
252,186,80100,1,8,0:0:0:0:
252,186,80300,1,8,0:0:0:0:
252,186,80500,1,8,0:0:0:0:
252,186,80700,1,8,0:0:0:0:
252,186,80900,1,8,0:0:0:0:
252,186,81100,1,8,0:0:0:0:
252,186,81300,1,8,0:0:0:0:
252,186,81500,1,8,0:0:0:0:
252,186,81700,1,8,0:0:0:0:
252,186,81900,1,8,0:0:0:0:
252,186,82100,1,8,0:0:0:0:
252,186,82300,1,8,0:0:0:0:
252,186,82500,1,8,0:0:0:0:
252,186,82700,1,8,0:0:0:0:
252,186,82900,1,8,0:0:0:0:
252,186,83100,1,8,0:0:0:0:
252,186,83300,1,8,0:0:0:0:
252,186,83500,1,8,0:0:0:0:
252,186,83700,1,8,0:0:0:0:
252,186,83900,1,8,0:0:0:0:
252,186,84100,5,8,0:0:0:0:
252,186,84300,1,8,0:0:0:0:
252,186,84500,1,8,0:0:0:0:
252,186,84700,1,8,0:0:0:0:
252,186,84900,5,8,0:0:0:0:
252,186,85100,1,8,0:0:0:0:
252,186,85300,1,8,0:0:0:0:
252,186,85500,1,8,0:0:0:0:
252,186,85700,1,8,0:0:0:0:
252,186,85900,1,8,0:0:0:0:
252,186,86100,1,8,0:0:0:0:
252,186,86300,1,8,0:0:0:0:
252,186,86500,1,8,0:0:0:0:
252,186,86700,1,8,0:0:0:0:
252,186,86900,1,8,0:0:0:0:
252,186,87100,1,8,0:0:0:0:
252,186,87300,1,8,0:0:0:0:
252,186,87500,1,8,0:0:0:0:
252,186,87700,1,8,0:0:0:0:
252,186,87900,5,8,0:0:0:0:
252,186,88100,1,8,0:0:0:0:
255,182,88300,1,8,0:0:0:0:
255,182,88500,1,8,0:0:0:0:
255,182,88700,1,8,0:0:0:0:
257,181,88900,1,8,0:0:0:0:
255,180,89100,1,8,0:0:0:0:
255,182,89300,1,8,0:0:0:0:
255,182,89500,1,8,0:0:0:0:
255,182,89700,1,8,0:0:0:0:
257,181,89900,1,8,0:0:0:0:
255,180,90100,1,8,0:0:0:0:
255,182,90300,1,8,0:0:0:0:
253,191,90600,5,0,0:0:0:0:
253,191,90800,1,0,0:0:0:0:
253,191,91000,1,0,0:0:0:0:
253,191,91200,2,0,L|464:191,1,162.791453846945
253,191,91800,5,8,0:0:0:0:
308,286,92000,1,0,0:0:0:0:
135,93,92200,1,0,0:0:0:0:
366,236,92400,1,0,0:0:0:0:
88,157,92600,1,0,0:0:0:0:
392,163,92800,1,0,0:0:0:0:
96,237,93000,1,0,0:0:0:0:
388,88,93200,1,0,0:0:0:0:
129,297,93400,5,0,0:0:0:0:
321,50,93600,1,0,0:0:0:0:
197,328,93800,1,0,0:0:0:0:
251,43,94000,1,0,0:0:0:0:
279,331,94200,1,0,0:0:0:0:
179,56,94400,1,0,0:0:0:0:
352,292,94600,1,0,0:0:0:0:
116,97,94800,1,0,0:0:0:0:
395,217,95000,1,0,0:0:0:0:
96,178,95200,5,0,0:0:0:0:
402,142,95400,1,0,0:0:0:0:
110,258,95600,1,0,0:0:0:0:
369,68,95800,1,0,0:0:0:0:
168,317,96000,1,0,0:0:0:0:
292,46,96200,1,0,0:0:0:0:
248,336,96400,1,0,0:0:0:0:
213,46,96600,1,0,0:0:0:0:
328,326,96800,1,0,0:0:0:0:
135,68,97000,1,0,0:0:0:0:
388,274,97200,5,0,0:0:0:0:
83,131,97400,1,0,0:0:0:0:
413,197,97600,1,0,0:0:0:0:
83,211,97800,1,0,0:0:0:0:
408,122,98000,1,0,0:0:0:0:
98,282,98200,1,0,0:0:0:0:
356,54,98400,1,0,0:0:0:0:
175,319,98600,1,0,0:0:0:0:
276,42,98800,1,0,0:0:0:0:
254,331,99000,1,0,0:0:0:0:
326,302,99200,5,0,0:0:0:0:
198,46,99400,1,0,0:0:0:0:
388,250,99600,1,0,0:0:0:0:
136,91,99800,1,0,0:0:0:0:
408,186,100000,1,0,0:0:0:0:
123,162,100200,1,0,0:0:0:0:
415,124,100400,1,0,0:0:0:0:
132,240,100600,1,0,0:0:0:0:
358,62,100800,1,0,0:0:0:0:
183,300,101000,1,0,0:0:0:0:
257,326,101200,5,0,0:0:0:0:
290,52,101400,1,0,0:0:0:0:
335,313,101600,1,0,0:0:0:0:
208,63,101800,1,0,0:0:0:0:
397,269,102000,1,0,0:0:0:0:
161,117,102200,1,0,0:0:0:0:
414,198,102400,1,0,0:0:0:0:
152,197,102600,1,0,0:0:0:0:
413,120,102800,1,0,0:0:0:0:
172,278,103000,1,0,0:0:0:0:
256,192,103200,12,0,117500,0:0:0:0:
255,188,117700,6,0,B|352:174|444:256|231:368|202:371|463:355,1,379.846725642872
255,188,118800,1,0,0:0:0:0:
255,188,119000,1,0,0:0:0:0:
255,188,119200,1,0,0:0:0:0:
255,188,119400,1,0,0:0:0:0:
255,188,119600,1,0,0:0:0:0:
255,188,119800,1,0,0:0:0:0:
255,188,120000,1,0,0:0:0:0:
255,188,120200,1,0,0:0:0:0:
255,188,120400,1,0,0:0:0:0:
255,188,120600,5,0,0:0:0:0:
255,188,120800,1,0,0:0:0:0:
255,188,121000,1,0,0:0:0:0:
255,188,121200,1,0,0:0:0:0:
255,188,121400,1,0,0:0:0:0:
255,188,121600,1,0,0:0:0:0:
255,188,121800,1,0,0:0:0:0:
255,188,122000,1,0,0:0:0:0:
255,188,122200,1,0,0:0:0:0:
255,188,122400,1,0,0:0:0:0:
112,139,123000,6,0,B|169:114|169:114|174:319,1,217.055271795927
328,140,123800,2,0,B|242:221|336:330|401:308|424:246|415:152|316:137,1,325.58290769389
297,113,124800,2,0,L|170:308,1,217.055271795927
120,147,125500,2,0,B|175:122|175:122|169:337,1,271.319089744908
352,146,126400,2,0,B|232:146|263:376|407:332|467:230|358:146,1,379.846725642872
186,144,127600,6,0,B|187:320|186:332|324:305|363:296|194:195,1,379.846725642872
185,300,128600,2,0,B|184:120|183:96|316:133|296:195,1,271.319089744908
192,164,129400,2,0,B|296:153|309:156|282:342|279:366|152:353|119:274|241:242,1,379.846725642872
179,175,130500,2,0,B|312:178|339:181|163:331|139:344|301:334,1,325.58290769389
243,178,131500,2,0,L|245:367,1,162.791453846945
198,186,132100,2,0,B|194:373|194:368|311:362,1,217.055271795927
256,192,132900,12,0,136126,0:0:0:0:
