osu file format v14

[General]
AudioFilename: audio.mp3
AudioLeadIn: 1000
PreviewTime: 91816
Countdown: 1
SampleSet: None
StackLeniency: 0.6
Mode: 0
LetterboxInBreaks: 1
WidescreenStoryboard: 1

[Editor]
Bookmarks: 91978
DistanceSpacing: 1.8
BeatDivisor: 4
GridSize: 8
TimelineZoom: 1

[Metadata]
Title:Kininaru Anoko
TitleUnicode:Kininaru Anoko
Artist:Soutaisei Riron
ArtistUnicode:Soutaisei Riron
Creator:ghdjhsdsgfodtce
Version:Futsuu
Source:
Tags:
BeatmapID:1901564
BeatmapSetID:911154

[Difficulty]
HPDrainRate:5.5
CircleSize:3.8
OverallDifficulty:7
ApproachRate:9
SliderMultiplier:1.8
SliderTickRate:1

[Events]
//Background and Video events
0,0,"bgimage.jpg",0,0
//Break Periods
//Storyboard Layer 0 (Background)
//Storyboard Layer 1 (Fail)
//Storyboard Layer 2 (Pass)
//Storyboard Layer 3 (Foreground)
//Storyboard Sound Samples

[TimingPoints]
723,312.5,4,2,1,70,1,0
1348,-66.6666666666667,4,2,1,60,0,0
1973,-100,4,2,1,60,0,0
4160,-83.3333333333333,4,2,1,60,0,0
4473,-100,4,2,1,60,0,0
31973,-133.333333333333,4,2,1,60,0,0
40723,-100,4,2,1,70,0,0
56816,-50,4,2,1,60,0,0
56973,-100,4,2,1,60,0,0
61973,-83.3333333333333,4,2,1,80,0,0
81973,-90.9090909090909,4,2,1,80,0,0
84160,-83.3333333333333,4,2,1,60,0,0
84473,-100,4,2,1,60,0,0
111973,-83.3333333333333,4,2,1,80,0,0
131660,-83.3333333333333,4,2,1,80,0,0
131973,-66.6666666666667,4,2,1,80,0,1
151973,-83.3333333333333,4,2,1,80,0,0
161973,-66.6666666666667,4,2,1,60,0,1
171973,-333.333333333333,4,2,1,50,0,0
172598,-83.3333333333333,4,2,1,40,0,0
173223,-83.3333333333333,4,2,1,35,0,0
173848,-83.3333333333333,4,2,1,30,0,0
174473,-83.3333333333333,4,2,1,25,0,0
175098,-83.3333333333333,4,2,1,20,0,0
175723,-83.3333333333333,4,2,1,15,0,0
176348,-83.3333333333333,4,2,1,10,0,0
176973,-83.3333333333333,4,2,1,5,0,0

[Colours]
Combo1 : 128,255,128
Combo2 : 0,128,255
Combo3 : 255,128,192
Combo4 : 255,128,64

[HitObjects]
256,192,723,5,0,0:0:0:0:
256,192,1035,1,0,0:0:0:0:
160,80,1348,6,0,B|128:104|128:104|128:144,1,67.5000025749208
224,140,1504,2,0,B|256:164|256:164|256:204,1,67.5000025749208
160,208,1660,2,0,B|128:232|128:232|128:272,1,67.5000025749208
224,268,1816,2,0,B|256:292|256:292|256:332,1,67.5000025749208
296,168,1973,6,0,P|280:96|216:64,1,135
224,140,2285,2,0,L|160:208,1,90
296,280,2598,1,0,0:0:0:0:
413,318,2754,1,0,0:0:0:0:
296,280,2910,1,0,0:0:0:0:
413,318,3066,1,0,0:0:0:0:
360,176,3223,6,0,P|328:128|264:96,1,90
203,187,3535,1,0,0:0:0:0:
296,280,3691,1,0,0:0:0:0:
360,176,3848,2,0,P|409:121|481:125,1,135
440,192,4160,2,0,B|462:237|462:237|468:237|468:237|461:241|461:241|468:243|468:243|493:299,1,107.999996704102
360,176,4473,6,0,P|289:157|203:180,1,135
134,232,4785,2,0,P|190:245|258:225,1,90
360,176,5098,1,0,0:0:0:0:
235,254,5254,1,0,0:0:0:0:
360,176,5410,1,0,0:0:0:0:
235,254,5566,1,0,0:0:0:0:
249,102,5723,6,0,P|266:67|321:60,1,90
423,116,6035,1,0,0:0:0:0:
329,200,6191,1,0,0:0:0:0:
249,102,6348,2,0,P|203:43|131:42,1,135
168,112,6660,2,0,B|107:215,1,90
256,252,6973,6,0,B|286:228|316:252|346:275|376:252|412:233,1,135
371,99,7285,2,0,L|294:145,1,90
184,208,7598,1,0,0:0:0:0:
240,95,7754,1,0,0:0:0:0:
184,208,7910,1,0,0:0:0:0:
240,95,8066,1,0,0:0:0:0:
237,265,8223,6,0,P|283:297|334:312,1,90
417,232,8535,1,0,0:0:0:0:
316,161,8691,1,0,0:0:0:0:
237,265,8848,2,0,P|221:336|266:392,1,135
296,319,9160,2,0,B|413:298,1,90
184,224,9473,6,0,B|112:216|112:216|72:184|56:128|88:88,2,180
312,208,10254,1,0,0:0:0:0:
184,128,10410,2,0,P|240:113|326:119,1,135
376,88,10723,6,0,L|392:208,1,90
339,327,11035,2,0,L|297:247,1,90
222,138,11348,5,0,0:0:0:0:
249,102,11426,1,0,0:0:0:0:
289,81,11504,1,0,0:0:0:0:
333,76,11582,1,0,0:0:0:0:
376,88,11660,1,0,0:0:0:0:
77,304,11973,6,0,L|85:209,1,90
160,320,12285,2,0,P|168:272|168:224,1,90
240,336,12598,1,0,0:0:0:0:
240,208,12754,1,0,0:0:0:0:
325,338,12910,2,0,L|428:329,1,90
434,79,13223,6,0,L|426:174,1,90
352,64,13535,2,0,P|344:112|343:159,1,90
272,48,13848,1,0,0:0:0:0:
272,176,14004,1,0,0:0:0:0:
186,45,14160,2,0,L|83:54,1,90
128,208,14473,5,0,0:0:0:0:
272,176,14629,1,0,0:0:0:0:
190,46,14785,2,0,P|175:101|188:163,1,90
221,254,15098,5,0,0:0:0:0:
358,310,15254,1,0,0:0:0:0:
365,157,15410,2,0,P|329:184|305:221,1,90
183,186,15723,6,0,P|226:118|310:61,2,180
235,301,16504,1,0,0:0:0:0:
352,256,16660,1,0,0:0:0:0:
352,256,16973,6,0,P|304:298|230:302,1,135
272,233,17285,2,0,L|232:147,1,90
86,109,17598,2,0,L|123:190,1,90
208,318,17910,1,0,0:0:0:0:
208,318,18223,6,0,P|165:270|161:196,1,135
230,238,18535,2,0,L|316:198,1,90
365,56,18848,2,0,L|283:93,1,90
156,178,19160,1,0,0:0:0:0:
156,178,19473,6,0,B|226:245|226:245|265:269|341:235,2,180
239,48,20254,1,0,0:0:0:0:
367,130,20410,2,0,P|373:165|351:237,1,90
187,202,20723,6,0,L|83:192,1,90
362,217,21035,2,0,L|465:226,1,90
187,202,21348,5,0,0:0:0:0:
362,217,21504,1,0,0:0:0:0:
282,122,21660,1,0,0:0:0:0:
272,216,21816,2,0,L|269:239,2,22.5
282,122,21973,6,0,L|209:60,1,90
234,192,22285,2,0,P|194:163|160:129,1,90
189,259,22598,1,0,0:0:0:0:
98,169,22754,1,0,0:0:0:0:
130,321,22910,2,0,L|50:387,1,90
189,259,23223,6,0,L|261:320,1,90
237,189,23535,2,0,P|276:217|310:251,1,90
282,122,23848,1,0,0:0:0:0:
373,212,24004,1,0,0:0:0:0:
341,60,24160,2,0,L|420:-6,1,90
282,122,24473,5,0,0:0:0:0:
237,262,24629,1,0,0:0:0:0:
391,256,24785,2,0,P|350:215|290:195,1,90
138,153,25098,5,0,0:0:0:0:
237,262,25254,1,0,0:0:0:0:
96,320,25410,2,0,P|109:276|135:241,1,90
253,134,25723,6,0,B|266:89|266:89|242:56|201:52|168:66|155:81|139:110,2,180
203,278,26504,1,0,0:0:0:0:
352,249,26660,1,0,0:0:0:0:
352,249,26973,6,0,B|371:177|371:177|330:120,1,135
292,191,27285,2,0,L|197:199,1,90
91,92,27598,2,0,L|179:83,1,90
333,93,27910,1,0,0:0:0:0:
333,93,28223,6,0,C|269:79|203:113,1,135
275,152,28535,2,0,L|283:246,1,90
185,360,28848,2,0,L|176:270,1,90
186,118,29160,1,0,0:0:0:0:
186,118,29473,6,0,B|231:180|209:238|209:238|176:215,1,135
138,192,29785,1,0,0:0:0:0:
257,287,29941,1,0,0:0:0:0:
280,137,30098,2,0,L|291:45,1,90
356,185,30410,2,0,L|367:93,1,90
437,232,30723,2,0,C|454:186|447:130,1,90
416,328,31035,6,0,L|405:351,2,22.5
160,312,31348,5,0,0:0:0:0:
234,175,31504,1,0,0:0:0:0:
98,249,31660,1,0,0:0:0:0:
242,306,31816,1,0,0:0:0:0:
367,223,31973,6,0,P|387:192|389:160,6,67.5000025749208
283,145,33066,6,0,P|263:114|261:82,1,67.5000025749208
198,234,33379,1,0,0:0:0:0:
198,234,33535,2,0,P|234:241|258:262,1,67.5000025749208
333,347,33848,2,0,P|353:316|355:284,3,67.5000025749208
145,223,34473,6,0,P|125:192|123:160,7,67.5000025749208
292,161,35723,6,0,P|312:130|314:98,3,67.5000025749208
131,210,36348,2,0,P|152:235|158:268,1,67.5000025749208
161,100,36660,1,0,0:0:0:0:
306,186,36816,1,0,0:0:0:0:
195,314,36973,6,0,P|226:334|258:336,6,67.5000025749208
359,120,38066,2,0,P|343:88|316:70,3,67.5000025749208
256,184,38691,5,0,0:0:0:0:
256,184,38848,2,0,P|236:215|234:247,3,67.5000025749208
80,312,39473,6,0,L|147:312,1,67.5000025749208
392,304,39785,2,0,L|324:311,1,67.5000025749208
59,254,40098,2,0,L|125:274,1,67.5000025749208
410,181,40410,2,0,L|355:227,1,67.5000025749208
202,261,40723,5,0,0:0:0:0:
424,280,40879,1,0,0:0:0:0:
266,117,41035,5,0,0:0:0:0:
346,325,41191,1,0,0:0:0:0:
306,221,41348,5,0,0:0:0:0:
312,176,41426,1,0,0:0:0:0:
333,137,41504,1,0,0:0:0:0:
365,106,41582,1,0,0:0:0:0:
406,87,41660,1,0,0:0:0:0:
74,160,41973,6,0,L|64:271,1,90
168,184,42285,2,0,P|168:240|158:295,1,90
272,208,42598,1,0,0:0:0:0:
272,336,42754,1,0,0:0:0:0:
376,264,42910,2,0,L|368:174,1,90
450,30,43223,6,0,L|459:126,1,90
344,64,43535,2,0,P|352:104|352:159,1,90
232,128,43848,1,0,0:0:0:0:
168,16,44004,1,0,0:0:0:0:
88,168,44160,2,0,L|95:78,1,90
200,216,44473,5,0,0:0:0:0:
288,333,44629,1,0,0:0:0:0:
376,208,44785,2,0,P|318:197|268:160,1,90
208,72,45098,5,0,0:0:0:0:
352,89,45254,1,0,0:0:0:0:
280,224,45410,2,0,P|260:169|267:106,1,90
384,176,45723,6,0,B|422:219|422:219|474:274|381:340,2,180
264,208,46504,1,0,0:0:0:0:
320,320,46660,1,0,0:0:0:0:
320,320,46973,6,0,L|176:312,1,135
248,240,47285,2,0,P|248:320|232:352,1,90
88,256,47598,2,0,P|88:176|104:144,1,90
248,96,47910,1,0,0:0:0:0:
248,96,48223,6,0,L|151:203,1,135
253,203,48535,2,0,P|196:146|162:135,1,90
129,305,48848,2,0,P|185:361|219:372,1,90
355,305,49160,1,0,0:0:0:0:
355,305,49473,6,0,B|313:275|275:267|275:267|274:261|274:261|269:266|269:266|233:262|183:276,2,180,4|0|0,3:2|0:0|0:0,0:0:0:0:
87,307,50254,1,0,0:0:0:0:
113,197,50410,2,0,B|136:156|136:156|191:161,1,90
303,283,50723,6,0,L|376:357,1,90
178,159,51035,2,0,L|104:85,1,90
303,283,51348,5,0,0:0:0:0:
178,159,51504,1,0,0:0:0:0:
178,283,51660,1,0,0:0:0:0:
246,217,51816,2,0,L|263:201,2,22.5
178,283,51973,6,0,L|266:350,1,90
247,215,52285,2,0,P|294:244|335:282,1,90
323,139,52598,1,0,0:0:0:0:
431,207,52754,1,0,0:0:0:0:
425,81,52910,2,0,L|344:40,1,90
323,139,53223,6,0,L|355:245,1,90
235,180,53535,2,0,P|246:234|267:286,1,90
137,225,53848,1,0,0:0:0:0:
165,350,54004,1,0,0:0:0:0:
48,302,54160,2,0,L|37:212,1,90
267,157,54473,5,0,0:0:0:0:
137,225,54629,1,0,0:0:0:0:
116,72,54785,2,0,P|162:104|192:160,1,90
224,247,55098,5,0,0:0:0:0:
293,377,55254,1,0,0:0:0:0:
397,265,55410,2,0,P|352:262|309:275,1,90
200,339,55723,6,0,P|164:366|83:279,2,180
253,224,56504,2,0,P|268:186|329:181,1,90
423,232,56816,2,0,P|441:244|431:265,2,45
303,373,56973,6,0,P|240:385|174:351,1,135
245,313,57285,2,0,L|253:218,1,90
146,112,57598,2,0,L|137:200,1,90
147,354,57910,1,0,0:0:0:0:
147,354,58223,6,0,P|133:290|167:224,1,135
206,296,58535,2,0,L|300:304,1,90
414,206,58848,2,0,L|324:197,1,90
172,207,59160,1,0,0:0:0:0:
172,207,59473,5,0,0:0:0:0:
272,282,59629,1,0,0:0:0:0:
240,160,59785,1,0,0:0:0:0:
197,278,59941,1,0,0:0:0:0:
304,210,60098,5,0,0:0:0:0:
173,131,60254,1,0,0:0:0:0:
64,238,60410,1,0,0:0:0:0:
64,238,60723,6,0,P|44:170|107:78,1,180
223,201,61191,1,0,0:0:0:0:
288,336,61348,1,0,0:0:0:0:
326,358,61426,1,0,0:0:0:0:
370,355,61504,1,0,0:0:0:0:
404,327,61582,1,0,0:0:0:0:
416,284,61660,1,0,0:0:0:0:
402,242,61738,1,0,0:0:0:0:
366,216,61816,1,0,0:0:0:0:
335,206,61894,1,0,0:0:0:0:
304,232,61973,6,0,P|236:286|156:300,1,161.999995056153
190,212,62285,2,0,P|217:163|223:106,1,107.999996704102
56,33,62598,2,0,P|43:118|71:195,1,161.999995056153
130,122,62910,2,0,P|158:74|205:40,1,107.999996704102
383,114,63223,6,0,L|372:234,1,107.999996704102
248,352,63535,1,0,0:0:0:0:
248,352,63848,5,0,0:0:0:0:
211,256,64004,1,0,0:0:0:0:
332,319,64160,1,0,0:0:0:0:
296,224,64316,1,0,0:0:0:0:
152,312,64473,6,0,P|80:344|64:248,1,161.999995056153
40,192,64785,2,0,L|99:102,1,107.999996704102
216,104,65098,2,0,L|227:231,1,107.999996704102
368,320,65410,1,0,0:0:0:0:
393,142,65566,1,0,0:0:0:0:
328,224,65723,6,0,L|176:304,1,161.999995056153
168,208,66035,2,0,L|320:288,1,161.999995056153
408,232,66348,2,0,P|448:176|440:112,1,107.999996704102
312,24,66660,1,0,0:0:0:0:
312,24,66973,6,0,P|302:110|255:176,1,161.999995056153
176,192,67285,2,0,L|64:201,1,107.999996704102
170,319,67598,5,0,0:0:0:0:
176,192,67754,1,0,0:0:0:0:
79,288,67911,1,0,0:0:0:0:
218,265,68067,1,0,0:0:0:0:
95,186,68223,6,0,P|55:196|89:288,1,161.999995056153
168,264,68535,2,0,L|249:192,1,107.999996704102
424,128,68848,2,0,L|442:234,1,107.999996704102
320,96,69160,1,0,0:0:0:0:
344,200,69316,1,0,0:0:0:0:
282,337,69473,6,0,B|290:285|253:235,1,107.999996704102
141,166,69785,2,0,B|133:218|169:267,1,107.999996704102
356,226,70098,6,0,B|301:184|217:192,1,107.999996704102
66,276,70410,2,0,B|121:319|205:310,1,107.999996704102
256,191,70723,5,0,0:0:0:0:
190,71,70879,1,0,0:0:0:0:
119,189,71035,1,0,0:0:0:0:
257,111,71191,1,0,0:0:0:0:
120,109,71347,1,0,0:0:0:0:
187,229,71503,1,0,0:0:0:0:
188,150,71660,5,0,0:0:0:0:
188,150,71973,6,0,P|175:235|203:312,1,161.999995056153
262,238,72285,2,0,P|290:190|337:156,1,107.999996704102
484,265,72598,2,0,P|416:318|336:333,1,161.999995056153
370,245,72910,2,0,P|397:196|403:139,1,107.999996704102
235,49,73223,6,0,L|123:59,1,107.999996704102
16,168,73535,1,0,0:0:0:0:
16,168,73848,5,0,0:0:0:0:
131,241,74004,1,0,0:0:0:0:
117,151,74160,1,0,0:0:0:0:
30,257,74316,1,0,0:0:0:0:
208,296,74473,6,0,P|264:288|248:160,1,215.999993408203
112,224,74941,1,0,0:0:0:0:
231,229,75098,2,0,P|275:194|197:91,1,215.999993408203
98,127,75566,1,0,0:0:0:0:
231,229,75723,6,0,B|315:293|315:293|355:319|394:326|455:287,2,215.999993408203
205,105,76504,1,0,0:0:0:0:
334,180,76660,1,0,0:0:0:0:
334,180,76973,6,0,B|200:184|200:184|189:172|189:172|168:184|168:184|152:176|152:176|128:184,1,215.999993408203
272,232,77441,1,0,0:0:0:0:
336,80,77598,2,0,B|392:40|440:48|440:48|472:96|448:160,1,215.999993408203
384,280,78066,1,0,0:0:0:0:
208,184,78223,6,0,P|117:125|7:153,2,215.999993408203
384,280,79004,1,0,0:0:0:0:
379,79,79160,2,0,P|360:136|304:184,1,107.999996704102
112,240,79473,6,0,L|112:128,1,107.999996704102
200,8,79785,2,0,P|193:61|201:114,1,107.999996704102
280,248,80098,2,0,P|264:192|280:136,1,107.999996704102
376,32,80410,2,0,P|363:83|387:130,1,107.999996704102
442,338,80723,5,0,0:0:0:0:
446,185,80879,1,0,0:0:0:0:
328,256,81035,2,0,P|282:293|170:293,1,161.999995056153
136,288,81348,1,0,0:0:0:0:
105,262,81426,1,0,0:0:0:0:
94,223,81504,1,0,0:0:0:0:
106,185,81582,1,0,0:0:0:0:
137,160,81660,1,0,0:0:0:0:
177,156,81738,1,0,0:0:0:0:
212,175,81816,1,0,0:0:0:0:
231,211,81894,1,0,0:0:0:0:
240,240,81973,6,0,P|284:297|356:299,1,135
434,239,82285,2,0,L|348:203,1,90
200,80,82598,1,0,0:0:0:0:
298,157,82754,1,0,0:0:0:0:
200,80,82910,1,0,0:0:0:0:
298,157,83066,1,0,0:0:0:0:
224,264,83223,6,0,P|184:288|128:256,1,99.0000030212403
81,165,83535,1,0,0:0:0:0:
208,160,83691,1,0,0:0:0:0:
107,88,83848,2,0,P|34:103|2:167,1,135
81,165,84160,2,0,B|109:206|109:206|106:212|106:212|113:208|113:208|111:215|111:215|147:264,1,107.999996704102
315,209,84473,6,0,P|278:162|192:168,1,135
240,228,84785,2,0,L|215:328,1,90
48,368,85098,1,0,0:0:0:0:
160,264,85254,1,0,0:0:0:0:
48,368,85410,1,0,0:0:0:0:
160,264,85566,1,0,0:0:0:0:
70,280,85723,6,0,P|50:248|58:193,1,90
158,126,86035,1,0,0:0:0:0:
252,192,86191,1,0,0:0:0:0:
361,131,86348,2,0,B|408:147|420:167|421:186|421:186|434:201|434:201|430:243|414:251,1,135
338,217,86660,2,0,L|241:188,1,90
120,160,86973,6,0,P|168:224|232:232,1,135
327,139,87285,2,0,L|238:127,1,90
121,162,87598,1,0,0:0:0:0:
226,237,87754,1,0,0:0:0:0:
121,162,87910,1,0,0:0:0:0:
226,237,88066,1,0,0:0:0:0:
178,98,88223,6,0,P|211:80|265:92,1,90
373,157,88535,1,0,0:0:0:0:
226,237,88691,1,0,0:0:0:0:
369,324,88848,2,0,P|371:239|321:196,1,135
267,144,89160,2,0,P|246:183|259:240,1,90
373,157,89473,6,0,B|403:76|336:43|336:43|332:76|295:89,2,180
317,270,90254,1,0,0:0:0:0:
245,134,90410,1,0,0:0:0:0:
245,134,90723,5,0,0:0:0:0:
54,145,90879,1,0,0:0:0:0:
229,221,91035,5,0,0:0:0:0:
86,204,91191,1,0,0:0:0:0:
219,299,91348,5,0,0:0:0:0:
115,267,91504,1,0,0:0:0:0:
212,359,91660,5,0,0:0:0:0:
133,333,91816,1,0,0:0:0:0:
305,333,91973,6,0,L|372:265,1,90
239,279,92285,2,0,P|270:242|307:211,1,90
175,228,92598,1,0,0:0:0:0:
273,146,92754,1,0,0:0:0:0:
119,164,92910,2,0,L|59:79,1,90
119,164,93223,6,0,L|143:256,1,90
198,133,93535,2,0,P|214:178|222:226,1,90
274,103,93848,1,0,0:0:0:0:
296,229,94004,1,0,0:0:0:0:
358,87,94160,2,0,L|460:77,1,90
296,229,94473,6,0,P|259:265|195:271,1,90
212,148,94785,1,0,0:0:0:0:
332,110,94941,1,0,0:0:0:0:
243,245,95098,6,0,P|194:231|157:178,1,90
272,131,95410,1,0,0:0:0:0:
365,216,95566,1,0,0:0:0:0:
203,208,95723,2,0,P|191:158|266:49,2,180
365,216,96504,1,0,0:0:0:0:
272,131,96660,1,0,0:0:0:0:
272,131,96973,6,0,L|416:123,1,135
344,51,97285,2,0,P|344:131|360:163,1,90
389,235,97598,2,0,P|341:277|267:281,1,135
309,212,97910,2,0,L|269:126,1,90
185,179,98223,2,0,L|278:289,1,135
292,188,98535,2,0,P|228:236|212:268,1,90
172,335,98848,2,0,P|109:321|61:265,1,135
142,257,99160,2,0,L|188:174,1,90
94,134,99473,2,0,L|59:273,1,135
133,333,99785,2,0,P|123:253|103:223,1,90
65,155,100097,2,0,P|107:107|180:94,1,135
148,169,100410,2,0,L|198:249,1,90
275,186,100722,2,0,L|169:87,1,135
168,191,101035,2,0,P|225:135|237:101,1,90
269,29,101348,2,0,P|332:34|386:84,1,135
308,104,101660,1,0,0:0:0:0:
231,233,101816,5,0,0:0:0:0:
231,233,101894,1,0,0:0:0:0:
231,233,101973,1,0,0:0:0:0:
112,189,102129,2,0,P|99:186|86:174,2,22.5
146,297,102285,6,0,P|188:332|224:376,1,90
231,233,102598,1,0,0:0:0:0:
329,315,102754,1,0,0:0:0:0:
294,166,102910,2,0,L|346:91,1,90
231,233,103223,6,0,L|210:140,1,90
125,270,103535,2,0,P|116:225|99:184,1,90
76,336,103848,1,0,0:0:0:0:
1,238,104004,1,0,0:0:0:0:
125,268,104160,2,0,L|221:276,1,90
418,193,104473,5,0,0:0:0:0:
273,173,104629,1,0,0:0:0:0:
302,324,104785,2,0,P|335:278|345:215,1,90
273,173,105098,5,0,0:0:0:0:
163,272,105254,1,0,0:0:0:0:
298,345,105410,2,0,P|289:300|266:263,1,90
163,272,105723,6,0,P|91:309|-9:316,2,180
251,182,106504,1,0,0:0:0:0:
329,84,106660,1,0,0:0:0:0:
220,336,106973,6,0,P|159:315|119:253,1,135
199,255,107285,2,0,L|253:177,1,90
213,32,107598,2,0,L|161:104,1,90
92,241,107910,1,0,0:0:0:0:
92,241,108223,6,0,P|112:179|174:139,1,135
173,220,108535,2,0,L|250:274,1,90
398,247,108848,2,0,L|324:194,1,90
188,127,109160,2,0,P|176:117|161:108,2,22.5
459,341,109473,6,0,L|491:366,1,22.5
459,341,110723,6,0,L|491:366,1,22.5
493,275,111191,6,0,L|532:290,1,22.5
507,202,111660,6,0,L|548:205,1,22.5
208,232,111973,6,0,P|276:286|356:300,1,161.999995056153
309,217,112285,2,0,P|271:173|217:143,1,107.999996704102
78,40,112598,2,0,P|65:125|93:202,1,161.999995056153
141,120,112910,2,0,P|160:65|159:3,1,107.999996704102
224,194,113223,6,0,L|233:306,1,107.999996704102
280,128,113535,1,0,0:0:0:0:
280,128,113848,5,0,0:0:0:0:
216,256,114004,1,0,0:0:0:0:
137,137,114160,1,0,0:0:0:0:
266,200,114316,1,0,0:0:0:0:
212,136,114473,6,0,P|192:80|104:64,1,107.999996704102
266,200,114785,2,0,P|286:256|374:272,1,107.999996704102
170,207,115098,2,0,P|113:227|97:315,1,107.999996704102
264,200,115410,1,0,0:0:0:0:
91,267,115566,6,0,P|119:222|170:207,1,107.999996704102
326,278,115879,2,0,P|281:250|266:200,1,107.999996704102
151,57,116191,2,0,P|196:85|212:136,1,107.999996704102
160,272,116504,1,0,0:0:0:0:
280,192,116660,2,0,P|324:153|354:99,1,107.999996704102
328,248,116973,6,0,P|232:248|208:184,1,161.999995056153
289,84,117285,2,0,L|278:203,1,107.999996704102
225,316,117598,5,0,0:0:0:0:
329,220,117754,1,0,0:0:0:0:
193,180,117910,1,0,0:0:0:0:
289,84,118066,1,0,0:0:0:0:
261,200,118223,6,0,P|232:240|128:216,1,161.999995056153
181,74,118535,2,0,L|300:84,1,107.999996704102
464,152,118848,2,0,L|344:162,1,107.999996704102
181,230,119160,1,0,0:0:0:0:
396,248,119316,1,0,0:0:0:0:
280,222,119473,6,0,B|234:229|179:186,1,107.999996704102
369,101,119785,2,0,B|414:93|469:135,1,107.999996704102
282,177,120098,6,0,B|246:128|254:76,1,107.999996704102
367,146,120410,2,0,B|403:195|395:247,1,107.999996704102
124,186,120723,5,0,0:0:0:0:
245,248,120879,1,0,0:0:0:0:
238,111,121035,1,0,0:0:0:0:
167,252,121191,1,0,0:0:0:0:
282,177,121347,1,0,0:0:0:0:
159,115,121503,1,0,0:0:0:0:
203,181,121660,5,0,0:0:0:0:
203,181,121973,6,0,P|253:110|326:74,1,161.999995056153
315,165,122285,2,0,P|302:219|312:275,1,107.999996704102
493,300,122598,2,0,P|482:214|433:148,1,161.999995056153
402,236,122910,2,0,P|405:295|352:335,1,107.999996704102
336,152,123223,5,0,0:0:0:0:
341,269,123379,1,0,0:0:0:0:
305,103,123535,1,0,0:0:0:0:
305,103,123848,5,0,0:0:0:0:
168,104,124004,1,0,0:0:0:0:
264,208,124160,1,0,0:0:0:0:
120,208,124316,1,0,0:0:0:0:
241,98,124473,6,0,L|420:112,1,161.999995056153
378,213,124785,2,0,L|258:223,1,107.999996704102
312,72,125098,6,0,L|388:234,1,161.999995056153
280,248,125410,2,0,L|211:149,1,107.999996704102
430,164,125723,6,0,P|435:262|338:276,2,215.999993408203
265,80,126504,1,0,0:0:0:0:
380,216,126660,1,0,0:0:0:0:
380,216,126973,6,0,B|246:220|246:220|235:208|235:208|214:220|214:220|198:212|198:212|174:220,1,215.999993408203
317,297,127441,1,0,0:0:0:0:
136,128,127598,2,0,B|110:127|82:46|82:46|166:30|192:64,1,215.999993408203
317,297,128066,1,0,0:0:0:0:
232,136,128223,6,0,B|212:126|212:116|212:107|232:97|241:97|251:97|270:107|270:116|270:126|251:136|232:145|231:289,2,215.999993408203
272,312,129004,1,0,0:0:0:0:
432,224,129160,2,0,P|432:280|360:288,1,107.999996704102
312,248,129473,6,0,L|312:136,1,107.999996704102
224,16,129785,2,0,P|231:69|223:122,1,107.999996704102
144,256,130098,2,0,P|160:200|144:144,1,107.999996704102
48,40,130410,2,0,P|61:91|37:138,1,107.999996704102
256,192,130723,12,0,131660,0:0:0:0:
32,352,131973,6,0,L|183:338,1,135.000005149842
392,320,132285,1,0,0:0:0:0:
168,256,132441,1,0,0:0:0:0:
335,94,132598,6,0,L|486:107,1,135.000005149842
288,248,132910,1,0,0:0:0:0:
512,184,133066,1,0,0:0:0:0:
236,104,133223,6,0,P|110:132|95:138,1,135.000005149842
212,65,133535,2,0,P|128:101|98:155,1,135.000005149842
170,47,133848,2,0,P|98:97|130:161,1,135.000005149842
106,37,134160,2,0,P|65:90|110:135,1,135.000005149842
256,376,134473,6,0,L|269:216,1,135.000005149842
344,24,134785,1,0,0:0:0:0:
200,208,134941,1,0,0:0:0:0:
120,0,135098,6,0,L|133:159,1,135.000005149842
272,312,135410,1,0,0:0:0:0:
64,208,135566,1,0,0:0:0:0:
339,181,135723,6,0,B|339:142|339:142|339:112|346:89|399:89|407:112|407:135|407:135|407:181,1,202.500007724762
228,254,136035,2,0,B|199:282|199:282|177:304|165:327|205:367|228:355|244:338|244:338|278:304,1,202.500007724762
355,231,136348,2,0,B|398:231|398:231|433:231|459:239|459:239|459:300|459:300|433:309|407:309|407:309|355:309,1,270.000010299683
84,145,136973,5,0,0:0:0:0:
309,102,137129,1,0,0:0:0:0:
96,42,137285,2,0,L|-40:31,1,135.000005149842
309,188,137598,5,0,0:0:0:0:
84,145,137754,1,0,0:0:0:0:
309,102,137910,2,0,L|445:91,1,135.000005149842
170,162,138223,6,0,P|75:249|65:262,1,135.000005149842
129,140,138535,2,0,P|74:213|76:274,1,135.000005149842
84,145,138848,2,0,P|47:224|107:263,1,135.000005149842
23,168,139160,2,0,P|14:234|76:250,1,135.000005149842
320,149,139473,5,0,0:0:0:0:
263,300,139629,1,0,0:0:0:0:
304,33,139785,5,0,0:0:0:0:
407,158,139941,1,0,0:0:0:0:
247,185,140098,5,0,0:0:0:0:
349,309,140254,1,0,0:0:0:0:
138,140,140410,5,0,0:0:0:0:
298,113,140566,1,0,0:0:0:0:
241,265,140723,6,0,P|210:312|141:349,1,135.000005149842
39,223,141035,2,0,P|70:176|139:139,1,135.000005149842
144,355,141348,1,0,0:0:0:0:
137,139,141504,5,0,0:0:0:0:
119,95,141582,1,0,0:0:0:0:
72,87,141660,1,0,0:0:0:0:
241,265,141816,5,0,0:0:0:0:
289,271,141894,1,0,0:0:0:0:
319,234,141973,2,0,L|469:221,1,135.000005149842
224,224,142285,1,0,0:0:0:0:
440,149,142441,1,0,0:0:0:0:
239,35,142598,6,0,L|401:18,1,135.000005149842
145,42,142910,1,0,0:0:0:0:
361,117,143066,1,0,0:0:0:0:
89,228,143223,6,0,P|217:223|233:224,1,135.000005149842
102,183,143535,2,0,P|192:196|234:241,1,135.000005149842
137,155,143848,2,0,P|218:185|204:255,1,135.000005149842
197,128,144160,2,0,P|249:168|217:224,1,135.000005149842
416,32,144473,6,0,L|403:175,1,135.000005149842
292,366,144785,1,0,0:0:0:0:
326,139,144941,1,0,0:0:0:0:
367,365,145098,6,0,L|354:221,1,135.000005149842
243,34,145410,1,0,0:0:0:0:
277,258,145566,1,0,0:0:0:0:
137,74,145723,6,0,B|137:35|137:35|137:5|129:-17|76:-17|68:5|68:28|68:28|68:74,1,202.500007724762
248,147,146035,2,0,B|276:175|276:175|298:197|310:220|270:260|248:248|231:231|231:231|197:197,1,202.500007724762
100,144,146348,2,0,B|56:144|56:144|21:144|-4:152|-4:152|-4:213|-4:213|21:222|47:222|47:222|100:222,1,270.000010299683
464,360,146973,6,0,B|408:360|408:360|392:352|392:352|376:360|376:360|304:360,1,135.000005149842
104,352,147285,1,0,0:0:0:0:
104,352,147441,1,0,0:0:0:0:
332,360,147598,6,0,B|292:320|292:320|286:303|286:303|269:297|269:297|218:246,1,135.000005149842
83,99,147910,1,0,0:0:0:0:
83,99,148066,1,0,0:0:0:0:
307,48,148223,5,0,0:0:0:0:
216,184,148379,1,0,0:0:0:0:
480,248,148535,5,0,0:0:0:0:
344,157,148691,1,0,0:0:0:0:
334,321,148848,5,0,0:0:0:0:
424,184,149004,1,0,0:0:0:0:
160,128,149160,5,0,0:0:0:0:
297,218,149316,1,0,0:0:0:0:
40,128,149473,6,0,B|0:96|0:96|24:128|72:248,1,202.500007724762
168,261,149785,2,0,B|215:242|215:242|176:247|48:228,1,202.500007724762
219,143,150098,6,0,B|211:92|211:92|227:129|296:217,1,202.500007724762
271,321,150410,2,0,B|231:353|231:353|255:321|296:216,1,202.500007724762
392,120,150723,6,0,B|440:144|440:144|440:240,1,135.000005149842
440,256,150957,1,0,0:0:0:0:
440,288,151035,1,0,0:0:0:0:
224,144,151191,1,0,0:0:0:0:
224,176,151269,1,0,0:0:0:0:
224,208,151348,6,0,B|224:287|224:287|136:287|136:287|136:247,1,202.500007724762
136,216,151660,1,0,0:0:0:0:
136,184,151738,1,0,0:0:0:0:
136,152,151816,1,0,0:0:0:0:
136,120,151894,1,0,0:0:0:0:
136,96,151973,6,0,P|164:35|268:4,1,161.999995056153
224,83,152285,2,0,L|301:167,1,107.999996704102
174,270,152598,5,0,0:0:0:0:
333,245,152754,1,0,0:0:0:0:
174,270,152910,5,0,0:0:0:0:
332,237,153066,1,0,0:0:0:0:
224,83,153223,6,0,B|181:61|181:61|119:120,1,107.999996704102
64,246,153535,1,0,0:0:0:0:
62,84,153691,1,0,0:0:0:0:
224,83,153848,6,0,L|389:100,1,161.999995056153
397,179,154160,2,0,B|357:222|357:222|268:189,1,107.999996704102
158,133,154473,6,0,P|97:161|66:265,1,161.999995056153
145,221,154785,2,0,L|276:249,1,107.999996704102
397,179,155098,5,0,0:0:0:0:
310,315,155254,1,0,0:0:0:0:
397,179,155410,5,0,0:0:0:0:
310,315,155566,1,0,0:0:0:0:
471,322,155723,6,0,B|500:318|500:318|385:265,1,107.999996704102
293,196,156035,1,0,0:0:0:0:
428,285,156191,1,0,0:0:0:0:
437,122,156348,6,0,L|271:106,1,161.999995056153
201,74,156660,2,0,B|172:70|172:70|287:17,1,107.999996704102
93,101,156973,6,0,P|32:129|1:233,1,161.999995056153
80,189,157285,2,0,L|164:266,1,107.999996704102
257,132,157598,5,0,0:0:0:0:
241,293,157754,1,0,0:0:0:0:
257,132,157910,5,0,0:0:0:0:
241,293,158066,1,0,0:0:0:0:
80,189,158223,6,0,B|123:167|123:167|185:226,1,107.999996704102
176,369,158535,1,0,0:0:0:0:
241,221,158691,1,0,0:0:0:0:
81,190,158848,6,0,P|35:146|47:50,1,161.999995056153
104,108,159160,2,0,B|147:86|147:86|209:145,1,107.999996704102
294,292,159473,6,0,P|348:330|454:305,1,161.999995056153
376,259,159785,2,0,L|400:147,1,107.999996704102
237,163,160098,5,0,0:0:0:0:
381,89,160254,1,0,0:0:0:0:
237,163,160410,5,0,0:0:0:0:
381,89,160566,1,0,0:0:0:0:
245,1,160723,6,0,L|303:122,1,107.999996704102
292,260,161035,1,0,0:0:0:0:
146,189,161191,1,0,0:0:0:0:
291,98,161348,5,0,0:0:0:0:
211,238,161504,1,0,0:0:0:0:
135,93,161660,5,0,0:0:0:0:
271,177,161816,1,0,0:0:0:0:
67,127,161973,6,0,P|15:143|63:245,1,202.500007724762
146,189,162285,1,0,0:0:0:0:
33,356,162441,1,0,0:0:0:0:
235,333,162598,5,0,0:0:0:0:
41,273,162754,1,0,0:0:0:0:
296,282,162910,5,0,0:0:0:0:
251,84,163066,1,0,0:0:0:0:
437,165,163223,6,0,B|469:183|469:183|402:271,1,135.000005149842
232,164,163535,2,0,B|200:145|200:145|191:192|191:192|157:247,1,135.000005149842
342,140,163848,6,0,B|360:107|360:107|391:143|391:143|421:152|421:152|448:175,1,135.000005149842
442,367,164160,2,0,B|478:367|478:367|484:340|484:340|463:322|463:322|471:292|471:292|464:257,1,135.000005149842
210,364,164473,5,0,0:0:0:0:
395,283,164629,1,0,0:0:0:0:
232,164,164785,1,0,0:0:0:0:
122,333,164941,5,0,0:0:0:0:
306,254,165097,1,0,0:0:0:0:
145,134,165253,1,0,0:0:0:0:
256,304,165410,5,0,0:0:0:0:
63,210,165566,2,0,P|28:158|61:27,1,202.500007724762
182,48,165879,5,0,0:0:0:0:
263,232,166035,1,0,0:0:0:0:
63,210,166191,1,0,0:0:0:0:
251,132,166348,5,0,0:0:0:0:
435,213,166504,1,0,0:0:0:0:
413,13,166660,1,0,0:0:0:0:
413,13,166973,6,0,B|347:157|347:157|346:209,1,202.500007724762
251,132,167285,2,0,B|317:276|317:276|318:328,1,202.500007724762
435,213,167598,5,0,0:0:0:0:
300,62,167754,1,0,0:0:0:0:
215,255,167910,1,0,0:0:0:0:
191,54,168066,6,0,B|165:16|165:16|194:61|225:175,1,202.500007724762
215,255,168379,1,0,0:0:0:0:
105,85,168535,1,0,0:0:0:0:
121,286,168691,6,0,P|245:356|413:340,1,270.000010299683
451,214,169160,1,0,0:0:0:0:
367,108,169316,1,0,0:0:0:0:
342,309,169473,5,0,0:0:0:0:
446,135,169629,1,0,0:0:0:0:
249,183,169785,5,0,0:0:0:0:
423,287,169941,1,0,0:0:0:0:
296,127,170098,5,0,0:0:0:0:
260,326,170254,1,0,0:0:0:0:
115,204,170410,5,0,0:0:0:0:
298,248,170566,1,0,0:0:0:0:
139,285,170723,5,0,0:0:0:0:
179,128,170879,1,0,0:0:0:0:
162,266,171035,5,0,0:0:0:0:
194,140,171191,1,0,0:0:0:0:
181,251,171348,5,0,0:0:0:0:
206,150,171504,1,0,0:0:0:0:
196,239,171660,5,0,0:0:0:0:
216,158,171816,1,0,0:0:0:0:
233,353,171973,6,0,B|273:336|292:290|266:211|187:185|187:185|108:158|82:79|88:20|88:20|148:14|227:40|253:119|253:119|279:198|358:224|404:204|424:160,1,863.999973632813
