osu file format v14

[General]
AudioFilename: kininaru.mp3
AudioLeadIn: 1000
PreviewTime: 61827
Countdown: 0
SampleSet: Soft
StackLeniency: 0.7
Mode: 0
LetterboxInBreaks: 0
WidescreenStoryboard: 0

[Editor]
Bookmarks: 723,41973,81973,131973
DistanceSpacing: 0.9
BeatDivisor: 4
GridSize: 4
TimelineZoom: 3.099999

[Metadata]
Title:Ki ni Naru Ano ko
TitleUnicode:気になるあの娘
Artist:Soutaisei Riron
ArtistUnicode:相対性理論
Creator:Alonevpk
Version:Alonuschted
Source:
Tags:That Girl on Your Mind Kininaru Anoko Synchroniciteen Zchtyllinusvpk Achtyllinuschted Cyllinus Zchted
BeatmapID:1085671
BeatmapSetID:510627

[Difficulty]
HPDrainRate:6
CircleSize:4
OverallDifficulty:8
ApproachRate:9.2
SliderMultiplier:1.8
SliderTickRate:1

[Events]
//Background and Video events
0,0,"bg.jpg",0,0
//Break Periods
//Storyboard Layer 0 (Background)
//Storyboard Layer 1 (Fail)
//Storyboard Layer 2 (Pass)
//Storyboard Layer 3 (Foreground)
//Storyboard Sound Samples

[TimingPoints]
723,312.5,4,2,0,70,1,0
1973,312.5,4,2,0,70,1,0
31973,-133.333333333333,4,2,0,60,0,0
40410,-100,4,2,0,60,0,0
40723,-100,4,2,0,70,0,0
61973,-100,4,2,0,80,0,1
81973,-100,4,2,0,80,0,0
111973,-83.3333333333333,4,2,0,80,0,1
121973,-83.3333333333333,4,2,0,80,0,1
131660,-83.3333333333333,4,2,0,80,0,0
131973,-76.9230769230769,4,2,0,80,0,1
151973,-83.3333333333333,4,2,0,80,0,0
172598,-83.3333333333333,4,2,0,75,0,0
173223,-83.3333333333333,4,2,0,70,0,0
173848,-83.3333333333333,4,2,0,60,0,0
174473,-83.3333333333333,4,2,0,55,0,0
175098,-83.3333333333333,4,2,0,45,0,0
175723,-83.3333333333333,4,2,0,25,0,0
176348,-83.3333333333333,4,2,0,17,0,0
176973,-83.3333333333333,4,2,0,9,0,0
177285,-83.3333333333333,4,2,0,5,0,0

[Colours]
Combo1 : 128,255,128
Combo2 : 0,128,255
Combo3 : 255,128,192
Combo4 : 255,128,64

[HitObjects]
316,76,723,5,4,0:0:0:0:
316,76,1035,1,4,0:0:0:0:
408,172,1348,5,4,1:3:0:0:
392,212,1426,1,0,3:0:0:0:
356,240,1504,1,0,3:0:0:0:
312,248,1582,1,0,3:0:0:0:
268,252,1660,1,4,1:3:0:0:
228,272,1738,1,0,3:0:0:0:
208,312,1816,1,0,3:0:0:0:
224,352,1894,1,0,3:0:0:0:
264,372,1973,6,0,L|296:188,2,180,4|0|0,0:0|1:0|0:0,0:0:0:0:
192,224,2754,1,0,0:0:0:0:
356,348,2910,2,0,P|396:328|460:336,1,90,0|0,1:0|0:0,0:0:0:0:
312,268,3223,1,0,0:0:0:0:
512,224,3379,2,0,P|472:248|364:164,1,180,0|0,0:0|0:0,0:0:0:0:
467,54,3848,2,0,P|492:91|496:136,1,90,0|0,0:0|0:0,0:0:0:0:
308,48,4160,2,0,P|344:22|389:19,1,90,0|0,1:0|0:0,0:0:0:0:
292,172,4473,6,0,B|184:196|216:120|80:160,2,180,0|0|0,0:0|1:0|0:0,0:0:0:0:
148,248,5254,1,0,0:0:0:0:
257,85,5410,2,0,P|302:80|344:96,1,90,0|0,1:0|0:0,0:0:0:0:
396,200,5723,1,0,0:0:0:0:
244,330,5879,2,0,P|235:243|292:176,1,180,0|0,0:0|0:0,0:0:0:0:
404,336,6348,2,0,P|360:326|321:303,1,90,0|0,0:0|0:0,0:0:0:0:
384,144,6660,2,0,P|400:176|408:268,1,90,0|0,1:0|0:0,0:0:0:0:
160,256,6973,6,0,P|228:200|324:216,2,180,0|0|0,0:0|1:0|0:0,0:0:0:0:
220,328,7754,1,0,0:0:0:0:
68,224,7910,2,0,L|-40:240,1,90,0|0,1:0|0:0,0:0:0:0:
136,144,8223,1,0,0:0:0:0:
56,324,8379,2,0,P|124:340|192:244,1,180,0|0,0:0|0:0,0:0:0:0:
111,104,8848,2,0,P|107:148|124:189,1,90,0|0,0:0|0:0,0:0:0:0:
288,228,9160,2,0,P|304:186|300:142,1,90,0|0,1:0|0:0,0:0:0:0:
123,108,9473,6,0,L|308:144,2,180,0|0|0,0:0|1:0|0:0,0:0:0:0:
300,56,10254,1,0,0:0:0:0:
136,204,10410,2,0,L|40:184,1,90,0|0,1:0|0:0,0:0:0:0:
244,188,10723,1,0,0:0:0:0:
192,284,10879,2,0,P|148:232|184:96,1,180,0|0,0:0|0:0,0:0:0:0:
256,64,11348,1,0,1:0:0:0:
256,64,11426,1,0,3:0:0:0:
256,64,11504,1,0,3:0:0:0:
256,64,11582,1,0,3:0:0:0:
256,64,11660,1,0,1:0:0:0:
256,64,11973,6,0,P|208:92|160:88,1,90,4|0,0:0|0:0,0:0:0:0:
10,103,12285,2,0,P|54:111|88:140,1,90,0|0,1:0|0:0,0:0:0:0:
120,240,12598,1,0,0:0:0:0:
120,240,12754,1,0,0:0:0:0:
228,192,12910,2,0,P|271:199|305:228,1,90,0|0,1:0|0:0,0:0:0:0:
452,344,13223,2,0,B|400:352|372:296|372:296|400:268|400:224,1,180,0|0,0:0|1:0,0:0:0:0:
472,132,13691,1,0,0:0:0:0:
305,228,13848,1,0,0:0:0:0:
305,228,14004,1,0,0:0:0:0:
220,148,14160,2,0,P|180:152|132:208,1,90,0|0,1:0|0:0,0:0:0:0:
44,340,14473,6,0,L|64:240,1,90,0|0,0:0|0:0,0:0:0:0:
44,140,14785,2,0,P|40:204|144:292,1,180,0|0,1:0|0:0,0:0:0:0:
113,285,15254,1,0,0:0:0:0:
281,215,15410,2,0,L|192:212,1,90,0|0,1:0|0:0,0:0:0:0:
432,76,15723,2,0,P|344:60|272:128,1,180,0|0,0:0|1:0,0:0:0:0:
372,164,16191,1,0,0:0:0:0:
248,0,16348,1,0,0:0:0:0:
248,0,16504,1,0,0:0:0:0:
164,184,16660,2,0,L|176:292,1,90,0|0,1:0|0:0,0:0:0:0:
284,368,16973,6,0,P|328:364|372:324,1,90,0|0,0:0|0:0,0:0:0:0:
242,213,17285,2,0,P|259:254|296:280,1,90,0|0,1:0|0:0,0:0:0:0:
412,204,17598,2,0,P|480:216|508:340,1,180,0|0,0:0|1:0,0:0:0:0:
428,296,18066,1,0,0:0:0:0:
348,156,18223,2,0,P|332:120|344:60,1,90,0|0,0:0|0:0,0:0:0:0:
464,32,18535,2,0,P|480:68|468:128,1,90,0|0,1:0|0:0,0:0:0:0:
300,232,18848,2,0,B|252:220|228:188|228:188|176:176|108:232,1,180,0|0,0:0|1:0,0:0:0:0:
88,292,19316,1,0,0:0:0:0:
16,156,19473,6,0,L|32:48,1,90,0|0,0:0|0:0,0:0:0:0:
152,120,19785,2,0,L|138:209,1,90,0|0,1:0|0:0,0:0:0:0:
4,312,20098,2,0,P|32:288|108:288,1,90,0|0,0:0|0:0,0:0:0:0:
192,324,20410,2,0,P|220:348|296:348,1,90,0|0,1:0|0:0,0:0:0:0:
400,320,20723,2,0,P|424:284|376:156,1,180,0|0,0:0|1:0,0:0:0:0:
387,162,21191,1,0,0:0:0:0:
308,308,21348,1,0,0:0:0:0:
216,244,21504,1,0,0:0:0:0:
336,328,21660,1,0,1:0:0:0:
144,192,21816,1,2,0:3:0:0:
344,248,21973,6,0,P|376:236|420:184,1,90,0|0,0:0|0:0,0:0:0:0:
432,88,22285,2,0,P|420:56|368:12,1,90,0|0,1:0|0:0,0:0:0:0:
326,150,22598,1,0,0:0:0:0:
326,150,22754,1,0,0:0:0:0:
224,88,22910,2,0,L|136:120,1,90,0|0,1:0|0:0,0:0:0:0:
72,228,23223,2,0,P|100:172|88:48,1,180,0|0,0:0|1:0,0:0:0:0:
4,164,23691,1,0,0:0:0:0:
148,272,23848,1,0,0:0:0:0:
148,272,24004,1,0,0:0:0:0:
81,127,24160,2,0,P|37:135|-7:183,1,90,0|0,1:0|0:0,0:0:0:0:
164,268,24473,6,0,P|179:225|159:163,1,90,0|0,0:0|0:0,0:0:0:0:
28,316,24785,2,0,B|124:344|104:272|220:308,1,180,0|0,1:0|0:0,0:0:0:0:
288,356,25254,1,0,0:0:0:0:
224,224,25410,2,0,P|172:216|112:224,1,90,0|0,1:0|0:0,0:0:0:0:
344,296,25723,2,0,P|388:298|433:290,1,90,0|0,0:0|0:0,0:0:0:0:
388,168,26035,1,0,1:0:0:0:
388,168,26191,1,0,0:0:0:0:
312,352,26348,2,0,P|360:364|448:244,1,180,0|0,0:0|1:0,0:0:0:0:
392,184,26816,1,0,0:0:0:0:
251,277,26973,6,0,P|255:233|280:196,1,90,0|0,0:0|0:0,0:0:0:0:
192,108,27285,2,0,P|188:152|163:189,1,90,0|0,1:0|0:0,0:0:0:0:
48,304,27598,2,0,B|100:268|156:284|156:284|160:336|212:364,1,180,0|0,0:0|1:0,0:0:0:0:
251,277,28066,1,0,0:0:0:0:
100,168,28223,2,0,L|92:276,1,90,0|0,0:0|0:0,0:0:0:0:
188,108,28535,2,0,L|180:216,1,90,0|0,1:0|0:0,0:0:0:0:
268,60,28848,2,0,P|224:84|116:-8,1,180,0|0,0:0|1:0,0:0:0:0:
268,60,29316,1,0,0:0:0:0:
176,204,29473,6,0,P|220:176|284:184,1,90,0|0,0:0|0:0,0:0:0:0:
312,324,29785,2,0,P|265:299|240:240,1,90,0|0,1:0|0:0,0:0:0:0:
348,147,30098,2,0,P|350:199|311:250,1,90,0|0,0:0|0:0,0:0:0:0:
176,204,30410,1,0,1:0:0:0:
276,116,30566,1,0,0:0:0:0:
308,320,30723,1,0,0:0:0:0:
308,320,30879,1,0,0:0:0:0:
128,200,31035,2,0,P|116:156|168:24,1,180,0|0,1:0|1:0,0:0:0:0:
216,224,31504,1,0,1:0:0:0:
36,112,31660,1,0,1:0:0:0:
244,144,31816,1,0,1:0:0:0:
152,292,31973,6,0,P|112:296|60:284,1,67.5000025749208,4|0,0:0|0:0,0:0:0:0:
252,232,32285,2,0,P|275:264|291:315,1,67.5000025749208,0|0,0:0|0:0,0:0:0:0:
151,176,32598,2,0,B|140:132|140:132|172:40,1,135.000005149842,0|0,1:0|0:0,0:0:0:0:
72,220,33066,2,0,L|53:136,1,67.5000025749208,0|0,3:0|0:0,0:0:0:0:
230,131,33379,1,0,3:0:0:0:
180,260,33535,2,0,L|158:323,1,67.5000025749208,0|0,3:0|0:0,0:0:0:0:
260,204,33848,2,0,P|216:244|120:224,1,135.000005149842,0|0,1:0|0:0,0:0:0:0:
88,176,34316,1,0,0:0:0:0:
176,332,34473,6,0,B|200:344|200:344|228:330|228:330|256:358|256:358|292:320|356:324,1,202.500007724762,0|0,3:0|0:0,0:0:0:0:
488,336,35098,2,0,P|456:324|433:299,1,67.5000025749208,0|0,1:0|0:0,0:0:0:0:
416,168,35410,2,0,P|447:179|470:204,1,67.5000025749208,0|0,0:0|3:0,0:0:0:0:
332,252,35723,1,0,0:0:0:0:
332,252,35879,2,0,P|296:212|296:124,1,135.000005149842,0|0,3:0|0:0,0:0:0:0:
320,52,36348,2,0,P|352:72|376:120,1,67.5000025749208,0|0,1:0|0:0,0:0:0:0:
200,152,36660,1,0,1:0:0:0:
184,32,36816,1,0,1:0:0:0:
280,184,36973,6,0,B|268:224|216:252|164:232|164:232|176:296|120:328,1,236.250009012223,4|0,0:0|0:0,0:0:0:0:
72,252,37598,2,0,L|-8:260,1,67.5000025749208,0|0,1:0|0:0,0:0:0:0:
48,352,37910,1,0,0:0:0:0:
164,144,38066,2,0,L|84:152,1,67.5000025749208,0|0,3:0|0:0,0:0:0:0:
4,64,38379,2,0,L|71:57,1,67.5000025749208,0|0,3:0|3:0,0:0:0:0:
0,160,38691,1,0,0:0:0:0:
164,56,38848,2,0,P|204:64|240:96,1,67.5000025749208,0|0,1:0|0:0,0:0:0:0:
284,168,39160,2,0,P|246:185|199:180,1,67.5000025749208,0|0,0:0|0:0,0:0:0:0:
88,184,39473,6,0,B|116:148|144:144|144:144|184:212|140:284,1,202.500007724762,0|0,3:0|0:0,0:0:0:0:
80,328,40098,6,0,L|4:320,1,67.5000025749208,0|0,1:0|0:0,0:0:0:0:
147,270,40410,6,0,L|250:280,1,90,4|0,0:0|0:0,0:0:0:0:
320,352,40723,5,0,0:0:0:0:
436,284,40879,1,0,0:0:0:0:
256,192,41035,1,4,1:2:0:0:
296,364,41191,1,0,0:0:0:0:
436,284,41348,1,0,3:0:0:0:
436,284,41426,1,0,3:0:0:0:
436,284,41504,1,0,3:0:0:0:
436,284,41582,1,0,3:0:0:0:
436,284,41660,1,0,1:0:0:0:
436,284,41973,6,0,P|423:244|448:170,1,90,4|0,0:0|0:0,0:0:0:0:
504,88,42285,2,0,L|388:104,1,90,0|0,1:0|0:0,0:0:0:0:
304,256,42598,2,0,P|328:164|252:88,1,180,0|0,0:0|1:0,0:0:0:0:
232,188,43066,1,0,0:0:0:0:
160,80,43223,6,0,L|262:94,1,90,0|0,0:0|0:0,0:0:0:0:
232,188,43535,2,0,L|130:174,1,90,0|0,1:0|0:0,0:0:0:0:
76,376,43848,2,0,P|124:384|176:368,1,90,0|0,0:0|0:0,0:0:0:0:
156,268,44160,2,0,P|107:268|58:293,1,90,0|0,1:0|0:0,0:0:0:0:
280,276,44473,6,0,B|380:264|348:324|456:312,1,180,0|0,0:0|1:0,0:0:0:0:
451,312,44941,1,0,0:0:0:0:
500,216,45098,2,0,L|492:112,1,90,0|0,0:0|0:0,0:0:0:0:
364,60,45410,2,0,L|356:164,1,90,0|0,1:0|0:0,0:0:0:0:
240,144,45723,6,0,P|252:196|236:256,1,90,0|0,0:0|0:0,0:0:0:0:
68,120,46035,2,0,P|117:99|178:104,1,90,0|0,1:0|0:0,0:0:0:0:
246,231,46348,1,0,0:0:0:0:
132,192,46504,1,0,0:0:0:0:
140,328,46660,2,0,P|208:316|308:328,1,135,0|0,1:0|0:0,0:0:0:0:
308,272,46973,6,0,P|295:314|306:371,1,90,0|0,0:0|0:0,0:0:0:0:
464,324,47285,2,0,P|450:278|400:232,1,90,0|0,1:0|0:0,0:0:0:0:
208,184,47598,1,0,0:0:0:0:
308,272,47754,1,0,0:0:0:0:
392,168,47910,2,0,L|288:152,1,90,0|0,1:0|0:0,0:0:0:0:
204,272,48223,6,0,P|217:314|206:371,1,90,0|0,0:0|0:0,0:0:0:0:
48,324,48535,2,0,P|62:278|112:232,1,90,0|0,1:0|0:0,0:0:0:0:
304,184,48848,1,0,0:0:0:0:
204,272,49004,1,0,0:0:0:0:
120,168,49160,2,0,L|224:152,1,90,0|0,1:0|0:0,0:0:0:0:
442,139,49473,5,0,0:0:0:0:
304,184,49629,1,0,0:0:0:0:
390,66,49785,1,0,1:0:0:0:
390,212,49941,1,0,0:0:0:0:
304,94,50098,2,0,P|344:87|411:107,1,90,0|0,0:0|0:0,0:0:0:0:
417,297,50410,2,0,P|426:254|404:180,1,90,0|0,1:0|0:0,0:0:0:0:
237,159,50723,5,0,0:0:0:0:
242,246,50879,1,0,0:0:0:0:
246,333,51035,2,0,B|253:269|253:269|237:237,1,90,0|0,1:0|0:0,0:0:0:0:
128,72,51348,1,0,0:0:0:0:
135,179,51504,1,0,0:0:0:0:
143,287,51660,1,0,1:0:0:0:
128,72,51816,1,2,0:3:0:0:
220,132,51973,6,0,P|267:137|321:120,1,90,0|0,0:0|0:0,0:0:0:0:
468,64,52285,2,0,P|421:59|367:76,1,90,0|0,1:0|0:0,0:0:0:0:
359,273,52598,2,0,P|291:183|319:112,1,180,0|0,0:0|1:0,0:0:0:0:
216,248,53066,1,0,0:0:0:0:
45,252,53223,6,0,P|39:297|47:341,1,90,0|0,0:0|0:0,0:0:0:0:
218,337,53535,2,0,P|223:292|216:248,1,90,0|0,1:0|0:0,0:0:0:0:
304,306,53848,2,0,B|202:331|234:258|97:302,1,180,0|0,0:0|1:0,0:0:0:0:
128,293,54316,1,0,0:0:0:0:
257,129,54473,6,0,L|267:231,1,90,0|0,0:0|0:0,0:0:0:0:
136,203,54785,2,0,L|126:305,1,90,0|0,1:0|0:0,0:0:0:0:
233,65,55098,2,0,L|243:167,1,90,0|0,0:0|0:0,0:0:0:0:
336,220,55410,2,0,P|377:202|436:204,1,90,0|0,1:0|0:0,0:0:0:0:
464,344,55723,6,0,L|368:340,1,90,0|0,0:0|0:0,0:0:0:0:
232,300,56035,2,0,L|136:296,1,90,0|0,1:0|0:0,0:0:0:0:
288,224,56348,1,0,0:0:0:0:
142,296,56504,1,0,0:0:0:0:
304,240,56660,1,0,1:0:0:0:
288,376,56816,1,2,0:3:0:0:
192,324,56973,6,0,L|96:320,1,90,0|0,0:0|0:0,0:0:0:0:
112,176,57285,2,0,L|208:180,1,90,0|0,1:0|0:0,0:0:0:0:
288,224,57598,1,0,0:0:0:0:
192,324,57754,1,0,0:0:0:0:
112,176,57910,1,0,1:0:0:0:
176,284,58066,1,0,0:0:0:0:
288,224,58223,6,0,P|297:186|269:110,1,90,0|0,0:0|0:0,0:0:0:0:
70,159,58535,2,0,P|105:174|185:160,1,90,0|0,1:0|0:0,0:0:0:0:
128,80,58848,1,0,0:0:0:0:
287,136,59004,1,0,0:0:0:0:
184,264,59160,1,0,1:0:0:0:
156,172,59316,1,0,0:0:0:0:
288,224,59473,5,4,0:0:0:0:
216,68,59629,1,0,0:0:0:0:
184,264,59785,1,0,1:0:0:0:
287,136,59941,1,0,0:0:0:0:
412,240,60098,2,0,L|404:340,1,90,4|0,0:0|0:0,0:0:0:0:
296,352,60410,2,0,L|304:252,1,90,0|0,1:0|0:0,0:0:0:0:
463,137,60723,6,0,B|366:109|380:172|264:128,1,180,4|4,0:0|1:2,0:0:0:0:
296,160,61348,5,4,1:3:0:0:
303,115,61426,1,0,3:0:0:0:
264,94,61504,1,0,3:0:0:0:
231,125,61582,1,0,3:0:0:0:
251,163,61660,1,4,1:3:0:0:
241,206,61738,1,0,3:0:0:0:
204,230,61816,1,0,3:0:0:0:
161,223,61894,1,0,3:0:0:0:
133,189,61973,6,0,P|129:153|146:97,1,90,4|0,0:0|0:0,0:0:0:0:
284,312,62285,2,0,L|112:325,1,135,0|0,1:0|0:0,0:0:0:0:
116,320,62598,2,0,P|158:297|218:304,1,90,0|0,0:0|0:0,0:0:0:0:
32,368,62910,2,0,P|20:296|48:216,1,135,0|0,1:0|0:0,0:0:0:0:
68,216,63223,5,0,0:0:0:0:
44,88,63379,1,0,0:0:0:0:
157,209,63535,1,0,1:0:0:0:
168,56,63691,1,0,0:0:0:0:
68,216,63848,2,0,L|176:208,1,90,0|0,0:0|0:0,0:0:0:0:
228,136,64160,2,0,L|336:128,1,90,0|0,1:0|0:0,0:0:0:0:
260,264,64473,6,0,P|288:180|228:72,1,180,0|0,0:0|1:0,0:0:0:0:
172,180,64941,1,0,0:0:0:0:
368,228,65098,2,0,P|409:222|453:180,1,90,0|0,0:0|0:0,0:0:0:0:
260,264,65410,1,0,1:0:0:0:
375,138,65566,1,0,0:0:0:0:
416,372,65723,6,0,L|427:242,1,90,0|0,0:0|0:0,0:0:0:0:
375,138,66035,2,0,L|364:268,1,90,0|0,1:0|0:0,0:0:0:0:
204,328,66348,2,0,P|263:350|336:304,1,135,0|0,0:0|0:0,0:0:0:0:
260,264,66660,2,0,P|257:309|288:366,1,90,0|0,1:0|0:0,0:0:0:0:
464,143,66973,6,0,L|264:131,1,180,0|0,0:0|1:0,0:0:0:0:
284,132,67441,1,0,0:0:0:0:
84,208,67598,2,0,P|140:219|184:208,1,90,0|0,0:0|0:0,0:0:0:0:
184,48,67910,2,0,P|127:36|84:48,1,90,0|0,1:0|0:0,0:0:0:0:
104,288,68223,5,0,0:0:0:0:
133,128,68379,1,0,0:0:0:0:
228,340,68535,1,0,1:0:0:0:
228,177,68691,1,0,0:0:0:0:
316,304,68848,2,0,B|392:326|379:279|466:304,1,135,0|0,0:0|0:0,0:0:0:0:
472,224,69160,2,0,P|469:280|490:320,1,90,0|0,1:0|0:0,0:0:0:0:
316,304,69473,6,0,L|208:300,1,90,4|0,0:0|0:0,0:0:0:0:
88,328,69785,1,0,1:0:0:0:
59,189,69941,1,0,0:0:0:0:
227,300,70098,1,0,0:0:0:0:
198,161,70254,1,0,0:0:0:0:
88,328,70410,1,0,1:0:0:0:
59,189,70566,1,0,0:0:0:0:
288,208,70723,6,0,P|298:167|273:91,1,90,0|0,0:0|0:0,0:0:0:0:
143,245,71035,2,0,L|300:240,1,135,0|0,1:0|0:0,0:0:0:0:
376,210,71348,2,0,P|335:200|259:225,1,90,0|0,0:0|0:0,0:0:0:0:
476,300,71660,2,0,P|500:256|464:160,1,135,0|0,1:0|0:0,0:0:0:0:
460,156,71973,6,0,L|456:48,1,90,4|0,0:0|0:0,0:0:0:0:
375,210,72285,2,0,L|379:318,1,90,0|0,1:0|0:0,0:0:0:0:
288,160,72598,2,0,P|280:104|292:60,1,90,0|0,0:0|0:0,0:0:0:0:
52,140,72910,2,0,P|124:116|208:148,1,135,0|0,1:0|0:0,0:0:0:0:
204,164,73223,5,0,0:0:0:0:
192,32,73379,1,0,0:0:0:0:
116,216,73535,2,0,B|132:316,1,90,0|0,1:0|0:0,0:0:0:0:
292,288,73848,2,0,B|308:188,1,90,0|0,0:0|0:0,0:0:0:0:
152,328,74160,2,0,P|212:340|288:308,1,135,0|0,1:0|0:0,0:0:0:0:
292,288,74473,6,0,P|343:278|407:300,1,90,0|0,0:0|0:0,0:0:0:0:
496,132,74785,1,0,1:0:0:0:
376,184,74941,1,0,0:0:0:0:
284,88,75098,2,0,B|181:65|204:126|106:95,1,180,0|0,0:0|1:0,0:0:0:0:
44,16,75566,1,0,0:0:0:0:
187,207,75723,6,0,P|203:153|175:95,1,90,0|0,0:0|0:0,0:0:0:0:
44,312,76035,2,0,P|28:258|56:200,1,90,0|0,1:0|0:0,0:0:0:0:
32,84,76348,2,0,L|172:100,1,135,0|0,0:0|0:0,0:0:0:0:
195,122,76660,2,0,L|312:108,1,90,0|0,1:0|0:0,0:0:0:0:
436,32,76973,6,0,P|427:73|451:153,1,90,4|0,0:0|0:0,0:0:0:0:
488,212,77285,2,0,P|494:256|473:324,1,90,0|0,1:0|0:0,0:0:0:0:
392,356,77598,1,0,0:0:0:0:
340,204,77754,1,0,0:0:0:0:
288,340,77910,2,0,L|168:324,1,90,0|0,1:0|0:0,0:0:0:0:
44,288,78223,6,0,P|92:272|172:280,1,90,0|0,0:0|0:0,0:0:0:0:
16,168,78535,2,0,P|66:169|139:204,1,90,0|0,1:0|0:0,0:0:0:0:
30,45,78848,2,0,P|77:63|133:121,1,90,0|0,0:0|0:0,0:0:0:0:
200,216,79160,2,0,P|260:192|336:220,1,135,0|0,1:0|0:0,0:0:0:0:
340,156,79473,6,0,L|332:324,1,135,4|0,0:0|0:0,0:0:0:0:
304,320,79785,2,0,P|262:322|211:276,1,90,0|0,1:0|0:0,0:0:0:0:
8,268,80098,2,0,P|47:246|108:252,1,90,0|0,0:0|0:0,0:0:0:0:
280,244,80410,1,0,1:0:0:0:
144,304,80566,1,0,0:0:0:0:
132,136,80723,5,0,0:0:0:0:
280,244,80879,1,0,0:0:0:0:
400,108,81035,2,0,P|361:89|279:96,1,90,0|0,1:0|0:0,0:0:0:0:
102,158,81348,5,4,1:3:0:0:
131,171,81426,1,0,3:0:0:0:
161,158,81504,1,0,3:0:0:0:
171,126,81582,1,0,3:0:0:0:
155,98,81660,1,4,1:3:0:0:
132,136,81738,1,0,3:0:0:0:
124,181,81816,1,0,3:0:0:0:
134,224,81894,1,0,3:0:0:0:
154,264,81973,6,0,P|193:283|288:270,1,135,4|0,0:0|0:0,0:0:0:0:
324,260,82285,2,0,B|389:225|457:264,1,135,0|0,1:0|0:0,0:0:0:0:
482,296,82598,1,0,0:0:0:0:
432,152,82754,1,0,0:0:0:0:
390,347,82910,1,0,1:0:0:0:
432,152,83066,1,0,0:0:0:0:
279,279,83223,6,0,P|235:279|176:262,2,90,0|0|0,0:0|0:0|1:0,0:0:0:0:
400,244,83691,1,0,0:0:0:0:
246,149,83848,1,0,0:0:0:0:
240,127,83926,1,0,0:0:0:0:
235,104,84004,1,0,0:0:0:0:
230,81,84082,1,0,0:0:0:0:
224,59,84160,1,0,1:0:0:0:
0,192,84473,6,0,P|60:214|154:182,1,135,0|0,0:0|0:0,0:0:0:0:
171,189,84785,2,0,P|236:168|316:200,1,135,0|0,1:0|0:0,0:0:0:0:
331,217,85098,1,0,0:0:0:0:
263,342,85254,1,0,0:0:0:0:
211,170,85410,2,0,P|211:124|235:64,1,90,0|0,1:0|0:0,0:0:0:0:
375,258,85723,5,0,0:0:0:0:
375,258,85879,2,0,P|375:311|347:370,2,90,0|0|0,0:0|1:0|0:0,0:0:0:0:
261,311,86348,2,0,L|216:311,1,45,0|0,0:0|0:0,0:0:0:0:
330,258,86504,2,0,L|375:258,1,45,0|0,0:0|0:0,0:0:0:0:
253,233,86660,2,0,P|244:184|253:135,1,90,0|0,1:0|0:0,0:0:0:0:
482,186,86973,6,0,P|419:210|336:166,1,135,0|0,0:0|0:0,0:0:0:0:
340,103,87285,2,0,P|338:149|311:195,1,90,0|0,1:0|0:0,0:0:0:0:
141,243,87598,1,0,0:0:0:0:
206,116,87754,1,0,0:0:0:0:
320,299,87910,2,0,P|271:305|216:299,1,90,0|0,1:0|0:0,0:0:0:0:
391,276,88223,6,0,P|435:268|479:277,2,90,0|0|0,0:0|0:0|1:0,0:0:0:0:
437,353,88691,1,0,0:0:0:0:
456,170,88848,1,0,0:0:0:0:
457,147,88926,1,0,0:0:0:0:
458,124,89004,1,0,0:0:0:0:
459,101,89082,1,0,0:0:0:0:
460,78,89160,1,0,1:0:0:0:
462,34,89473,6,0,L|457:132,1,90,0|0,0:0|0:0,0:0:0:0:
365,278,89785,2,0,L|371:173,1,90,0|0,1:0|0:0,0:0:0:0:
381,47,90098,1,0,0:0:0:0:
209,163,90254,1,0,0:0:0:0:
381,47,90410,2,0,L|290:54,1,90,0|0,1:0|0:0,0:0:0:0:
56,78,90723,5,0,1:0:0:0:
190,258,90879,1,0,1:0:0:0:
211,125,91035,5,0,1:0:0:0:
88,313,91191,1,0,1:0:0:0:
308,261,91348,5,8,0:3:0:0:
51,219,91504,5,8,0:3:0:0:
220,338,91660,1,8,0:3:0:0:
202,114,91816,1,8,0:3:0:0:
336,214,91973,6,0,L|442:195,1,90,4|0,0:0|0:0,0:0:0:0:
295,295,92285,2,0,L|189:276,1,90,0|0,1:0|0:0,0:0:0:0:
47,246,92598,1,0,0:0:0:0:
127,331,92754,1,0,0:0:0:0:
178,168,92910,2,0,L|159:62,1,90,0|0,1:0|0:0,0:0:0:0:
40,49,93223,5,0,0:0:0:0:
178,168,93379,1,0,0:0:0:0:
62,156,93535,1,0,1:0:0:0:
265,119,93691,1,0,0:0:0:0:
221,341,93848,2,0,P|212:299|221:248,1,90,0|0,0:0|0:0,0:0:0:0:
360,69,94160,2,0,P|369:111|360:162,1,90,0|0,1:0|0:0,0:0:0:0:
202,251,94473,6,0,L|305:266,1,90,0|0,0:0|0:0,0:0:0:0:
77,220,94785,2,0,L|60:125,1,90,0|0,1:0|0:0,0:0:0:0:
212,164,95098,1,0,0:0:0:0:
285,73,95254,1,0,0:0:0:0:
129,29,95410,2,0,L|146:128,1,90,0|0,1:0|0:0,0:0:0:0:
285,246,95723,6,0,L|392:246,1,90,0|0,0:0|0:0,0:0:0:0:
476,305,96035,1,0,1:0:0:0:
300,342,96191,1,0,0:0:0:0:
348,140,96348,2,0,L|453:140,1,90,0|0,0:0|0:0,0:0:0:0:
404,251,96660,1,0,1:0:0:0:
404,251,96816,1,0,0:0:0:0:
170,322,96973,6,0,L|276:322,1,90,0|0,0:0|0:0,0:0:0:0:
397,118,97285,2,0,L|292:118,1,90,0|0,1:0|0:0,0:0:0:0:
54,323,97598,2,0,P|100:323|141:310,1,90,0|0,0:0|0:0,0:0:0:0:
281,100,97910,2,0,P|235:100|194:113,1,90,0|0,1:0|0:0,0:0:0:0:
89,238,98223,5,0,0:0:0:0:
260,238,98379,1,0,0:0:0:0:
171,137,98535,1,0,1:0:0:0:
207,322,98691,1,0,0:0:0:0:
272,77,98848,5,0,0:0:0:0:
260,238,99004,1,0,0:0:0:0:
394,132,99160,1,0,1:0:0:0:
181,36,99316,1,0,0:0:0:0:
30,250,99473,6,0,L|130:250,1,90,0|0,0:0|0:0,0:0:0:0:
278,314,99785,1,0,1:0:0:0:
202,103,99941,1,0,0:0:0:0:
30,250,100098,6,0,L|140:250,1,90,0|0,0:0|0:0,0:0:0:0:
297,119,100410,1,0,1:0:0:0:
248,339,100566,1,0,0:0:0:0:
30,250,100723,6,0,L|132:250,1,90,0|0,0:0|0:0,0:0:0:0:
353,262,101035,1,0,1:0:0:0:
164,346,101191,1,0,0:0:0:0:
176,138,101348,2,0,L|182:35,1,90,0|0,0:0|0:0,0:0:0:0:
316,212,101660,1,0,1:0:0:0:
97,289,101816,5,0,0:0:0:0:
97,289,101894,1,0,0:0:0:0:
97,289,101973,2,0,L|81:199,1,90,0|2,0:0|0:3,0:0:0:0:
225,213,102285,1,0,1:0:0:0:
113,109,102441,1,0,0:0:0:0:
129,325,102598,1,0,0:0:0:0:
336,319,102754,1,0,0:0:0:0:
212,110,102910,2,0,L|193:216,1,90,0|0,1:0|0:0,0:0:0:0:
336,319,103223,6,0,L|351:228,1,90,0|0,0:0|0:0,0:0:0:0:
401,31,103535,2,0,L|401:133,1,90,0|0,1:0|0:0,0:0:0:0:
370,345,103848,2,0,L|370:238,1,90,0|0,0:0|0:0,0:0:0:0:
354,31,104160,2,0,L|370:125,1,90,0|0,1:0|0:0,0:0:0:0:
421,340,104473,5,0,0:0:0:0:
468,185,104629,1,0,0:0:0:0:
256,262,104785,2,0,P|247:218|256:170,1,90,0|0,1:0|0:0,0:0:0:0:
354,31,105098,1,0,0:0:0:0:
364,219,105254,1,0,0:0:0:0:
172,70,105410,2,0,P|225:67|277:79,1,90,0|0,1:0|0:0,0:0:0:0:
243,336,105723,6,0,B|224:294|224:294|218:244,1,90,0|0,0:0|0:0,0:0:0:0:
379,131,106035,2,0,B|376:178|376:178|363:220,1,90,0|0,1:0|0:0,0:0:0:0:
166,153,106348,2,0,P|127:130|97:95,2,90,0|0|0,0:0|0:0|1:0,0:0:0:0:
256,193,106816,1,0,0:0:0:0:
440,241,106973,6,0,L|455:152,1,90,0|0,0:0|0:0,0:0:0:0:
359,314,107285,2,0,L|253:314,1,90,0|0,1:0|0:0,0:0:0:0:
89,254,107598,2,0,P|134:262|193:253,1,90,0|0,0:0|0:0,0:0:0:0:
379,201,107910,1,0,1:0:0:0:
379,201,108066,1,0,0:0:0:0:
140,151,108223,6,0,L|125:63,1,90,0|0,0:0|0:0,0:0:0:0:
36,288,108535,2,0,L|51:199,1,90,0|0,1:0|0:0,0:0:0:0:
226,114,108848,2,0,B|224:64|224:64|208:15,2,90,0|0|2,0:0|0:0|1:3,0:0:0:0:
86,81,109473,1,0,1:0:0:0:
256,194,110723,5,4,1:0:0:0:
256,194,110801,1,0,0:0:0:0:
162,153,111191,2,0,L|96:150,2,45,0|0|0,1:0|0:0|0:0,0:0:0:0:
259,104,111660,1,0,0:0:0:0:
370,265,111973,6,0,B|322:167|406:145|370:44,1,215.999993408203,4|0,0:0|1:0,0:0:0:0:
455,207,112441,1,0,0:0:0:0:
274,305,112598,2,0,B|181:305|181:305|142:242|75:242,1,215.999993408203,0|0,0:0|1:0,0:0:0:0:
91,339,113066,1,0,0:0:0:0:
229,216,113223,6,0,P|249:166|249:111,1,107.999996704102,0|0,0:0|0:0,0:0:0:0:
157,92,113535,2,0,P|96:92|47:60,1,107.999996704102,0|0,1:0|0:0,0:0:0:0:
292,31,113848,2,0,P|348:31|405:56,1,107.999996704102,0|0,0:0|0:0,0:0:0:0:
313,214,114160,1,0,1:0:0:0:
249,112,114316,1,0,0:0:0:0:
171,255,114473,6,0,P|117:255|61:230,1,107.999996704102,0|0,0:0|0:0,0:0:0:0:
255,341,114785,2,0,L|368:341,1,107.999996704102,0|0,1:0|0:0,0:0:0:0:
473,154,115098,2,0,L|363:154,1,107.999996704102,0|0,0:0|0:0,0:0:0:0:
171,243,115410,1,0,1:0:0:0:
171,243,115566,6,0,L|281:243,1,107.999996704102,0|0,0:0|0:0,0:0:0:0:
336,335,115879,2,0,P|280:343|214:335,1,107.999996704102,0|0,0:0|1:0,0:0:0:0:
117,154,116191,2,0,P|173:146|239:154,1,107.999996704102,0|0,0:0|0:0,0:0:0:0:
393,191,116504,2,0,B|439:203|460:182|501:191,2,107.999996704102,0|0|0,0:0|1:0|0:0,0:0:0:0:
315,322,116973,6,0,P|358:222|327:80,1,215.999993408203,4|0,0:0|1:0,0:0:0:0:
215,43,117441,1,0,0:0:0:0:
104,229,117598,2,0,P|188:229|280:197,1,161.999995056153,0|0,0:0|0:0,0:0:0:0:
282,197,117910,1,0,1:0:0:0:
117,58,118066,1,0,0:0:0:0:
315,170,118223,6,0,L|439:170,1,107.999996704102,0|0,0:0|0:0,0:0:0:0:
255,322,118535,2,0,L|143:322,1,107.999996704102,0|0,1:0|0:0,0:0:0:0:
6,266,118848,1,0,0:0:0:0:
147,322,119004,1,0,0:0:0:0:
88,165,119160,2,0,P|66:115|60:60,1,107.999996704102,0|0,1:0|0:0,0:0:0:0:
349,15,119473,6,0,L|349:129,1,107.999996704102,0|0,0:0|0:0,0:0:0:0:
247,325,119785,2,0,P|225:276|218:219,1,107.999996704102,0|0,1:0|0:0,0:0:0:0:
320,109,120098,1,0,0:0:0:0:
423,220,120254,1,0,0:0:0:0:
247,325,120410,2,0,L|132:325,1,107.999996704102,0|0,1:0|0:0,0:0:0:0:
367,325,120723,6,0,P|423:325|481:308,2,107.999996704102,0|0|0,0:0|0:0|1:0,0:0:0:0:
187,292,121191,1,0,0:0:0:0:
211,142,121348,1,0,0:0:0:0:
336,304,121504,1,0,0:0:0:0:
112,336,121660,2,0,L|0:336,1,107.999996704102,0|0,1:0|0:0,0:0:0:0:
307,241,121973,6,0,P|210:241|106:177,1,215.999993408203,4|0,0:0|1:0,0:0:0:0:
100,289,122441,1,0,0:0:0:0:
41,97,122598,2,0,B|75:97|110:83|110:83|161:110|203:84,1,161.999995056153,0|0,0:0|0:0,0:0:0:0:
286,63,122910,1,0,1:0:0:0:
155,12,123066,1,0,0:0:0:0:
394,140,123223,6,0,L|521:117,1,107.999996704102,0|0,0:0|0:0,0:0:0:0:
370,234,123535,2,0,L|242:256,1,107.999996704102,0|0,1:0|0:0,0:0:0:0:
100,337,123848,2,0,P|109:283|100:228,1,107.999996704102,0|0,0:0|0:0,0:0:0:0:
52,32,124160,2,0,P|43:86|52:141,1,107.999996704102,0|0,1:0|0:0,0:0:0:0:
160,143,124473,6,0,B|220:137|256:102|256:102|251:120|385:94,1,215.999993408203,0|0,0:0|1:0,0:0:0:0:
288,19,124941,1,0,0:0:0:0:
268,192,125098,2,0,B|256:288|212:323|212:323|167:292|177:239,1,215.999993408203,0|0,0:0|1:0,0:0:0:0:
78,334,125566,1,0,0:0:0:0:
338,330,125723,6,0,L|448:320,1,107.999996704102,0|0,0:0|0:0,0:0:0:0:
407,144,126035,1,0,1:0:0:0:
234,325,126191,1,0,0:0:0:0:
213,196,126348,1,0,0:0:0:0:
370,237,126504,1,0,0:0:0:0:
114,274,126660,2,0,L|95:167,1,107.999996704102,0|0,1:0|0:0,0:0:0:0:
322,112,126973,6,0,P|231:150|199:48,1,215.999993408203,4|0,0:0|1:0,0:0:0:0:
284,29,127441,1,0,0:0:0:0:
254,244,127598,2,0,B|179:218|121:240|121:240|50:172,1,215.999993408203,0|0,0:0|1:0,0:0:0:0:
151,123,128066,1,0,0:0:0:0:
183,338,128223,6,0,P|243:338|313:322,1,107.999996704102,0|0,0:0|0:0,0:0:0:0:
491,251,128535,2,0,L|369:251,1,107.999996704102,0|0,1:0|0:0,0:0:0:0:
207,196,128848,1,0,0:0:0:0:
290,329,129004,1,0,0:0:0:0:
447,166,129160,1,0,1:0:0:0:
398,333,129316,1,0,0:0:0:0:
447,166,129473,6,0,P|447:113|428:51,1,107.999996704102,0|0,0:0|0:0,0:0:0:0:
242,281,129785,2,0,P|294:260|335:215,1,107.999996704102,0|0,1:0|0:0,0:0:0:0:
52,132,130098,2,0,P|52:192|75:243,1,107.999996704102,0|0,0:0|0:0,0:0:0:0:
285,40,130410,2,0,P|228:62|189:106,1,107.999996704102,0|0,1:0|0:0,0:0:0:0:
149,301,130723,6,0,P|165:245|158:183,1,107.999996704102,0|0,0:0|0:0,0:0:0:0:
63,96,131035,1,0,1:0:0:0:
282,154,131191,1,0,0:0:0:0:
68,233,131348,1,0,0:0:0:0:
284,301,131504,1,0,0:0:0:0:
184,98,131660,1,0,1:0:0:0:
152,256,131816,1,0,3:0:0:0:
152,256,131894,1,0,3:0:0:0:
152,256,131973,6,0,P|184:244|232:176,1,116.999994644165,4|0,0:0|0:0,0:0:0:0:
80,72,132285,2,0,P|74:105|109:181,1,116.999994644165,0|0,1:0|0:0,0:0:0:0:
296,96,132598,1,0,0:0:0:0:
184,40,132754,1,0,0:0:0:0:
208,208,132910,2,0,P|268:212|328:176,1,116.999994644165,0|0,1:0|0:0,0:0:0:0:
432,96,133223,2,0,P|372:136|384:248,1,175.499991966248,0|0,0:0|0:0,0:0:0:0:
412,256,133535,2,0,P|340:244|280:284,1,116.999994644165,0|0,1:0|0:0,0:0:0:0:
192,372,133848,1,0,0:0:0:0:
360,344,134004,1,0,0:0:0:0:
176,272,134160,2,0,L|56:292,1,116.999994644165,0|0,1:0|0:0,0:0:0:0:
280,356,134473,6,0,P|324:328|328:184,1,175.499991966248,0|0,0:0|0:0,0:0:0:0:
304,188,134785,2,0,P|296:164|336:72,1,116.999994644165,0|0,1:0|0:0,0:0:0:0:
503,203,135098,2,0,P|422:219|383:147,1,175.499991966248,0|0,0:0|0:0,0:0:0:0:
424,120,135410,1,0,1:0:0:0:
500,288,135566,1,0,0:0:0:0:
304,240,135723,2,0,B|356:212|356:212|420:224,1,116.999994644165,0|0,0:0|0:0,0:0:0:0:
288,344,136035,2,0,L|268:168,1,175.499991966248,0|0,1:0|0:0,0:0:0:0:
264,124,136348,1,0,0:0:0:0:
156,264,136504,1,0,0:0:0:0:
264,124,136660,2,0,P|272:88|228:8,1,116.999994644165,0|0,1:0|0:0,0:0:0:0:
44,155,136973,6,0,P|129:155|179:87,1,175.499991966248,0|0,0:0|0:0,0:0:0:0:
152,52,137285,2,0,L|140:196,1,116.999994644165,0|0,1:0|0:0,0:0:0:0:
136,264,137598,1,0,0:0:0:0:
264,124,137754,1,0,0:0:0:0:
20,128,137910,2,0,P|60:168|117:175,1,116.999994644165,0|0,1:0|0:0,0:0:0:0:
276,96,138223,2,0,P|328:92|384:216,1,175.499991966248,0|0,0:0|0:0,0:0:0:0:
367,265,138535,2,0,P|321:231|308:175,1,116.999994644165,0|0,1:0|0:0,0:0:0:0:
464,92,138848,1,0,0:0:0:0:
460,268,139004,1,0,0:0:0:0:
276,96,139160,2,0,P|328:92|384:216,1,175.499991966248,0|0,1:0|0:0,0:0:0:0:
307,175,139473,5,0,0:0:0:0:
116,68,139629,1,0,0:0:0:0:
275,95,139785,2,0,L|108:172,1,175.499991966248,4|0,1:2|0:0,0:0:0:0:
76,192,140098,5,0,0:0:0:0:
176,20,140254,1,0,0:0:0:0:
266,216,140410,2,0,L|128:108,1,175.499991966248,4|0,1:2|0:0,0:0:0:0:
96,76,140723,5,0,0:0:0:0:
308,48,140879,1,0,0:0:0:0:
168,236,141035,2,0,L|205:64,1,175.499991966248,4|0,1:2|0:0,0:0:0:0:
216,20,141348,1,4,0:3:0:0:
300,200,141504,1,0,3:0:0:0:
300,200,141582,1,0,3:0:0:0:
300,200,141660,1,4,1:2:0:0:
60,68,141816,1,0,3:0:0:0:
60,68,141894,1,0,3:0:0:0:
60,68,141973,6,0,B|192:39|145:126|291:96,1,233.999989288331,4|0,0:0|1:0,0:0:0:0:
108,164,142441,1,0,0:0:0:0:
236,16,142598,1,0,0:0:0:0:
220,208,142754,1,0,0:0:0:0:
76,64,142910,2,0,P|136:60|192:108,1,116.999994644165,0|0,1:0|0:0,0:0:0:0:
66,310,143223,2,0,P|51:226|107:163,1,175.499991966248,0|0,0:0|0:0,0:0:0:0:
156,172,143535,2,0,P|96:176|40:128,1,116.999994644165,0|0,1:0|0:0,0:0:0:0:
200,84,143848,1,0,0:0:0:0:
152,268,144004,1,0,0:0:0:0:
4,199,144160,2,0,P|73:149|155:171,1,175.499991966248,0|0,1:0|0:0,0:0:0:0:
92,248,144473,6,0,B|140:188|212:208|212:208|240:268|320:268,1,233.999989288331,0|0,0:0|1:0,0:0:0:0:
176,304,144941,1,0,0:0:0:0:
300,172,145098,2,0,P|376:156|448:284,1,233.999989288331,0|0,0:0|1:0,0:0:0:0:
356,252,145566,1,0,0:0:0:0:
288,152,145723,2,0,P|280:112|340:32,1,116.999994644165,0|0,0:0|0:0,0:0:0:0:
456,132,146035,2,0,P|464:172|404:252,1,116.999994644165,0|0,1:0|0:0,0:0:0:0:
260,284,146348,2,0,B|228:256|184:236|116:256|144:280|92:300|60:296|24:280,1,233.999989288331,0|0,0:0|1:0,0:0:0:0:
240,188,146973,6,0,P|272:140|244:12,1,175.499991966248,4|0,0:0|0:0,0:0:0:0:
212,40,147285,2,0,P|264:68|344:44,1,116.999994644165,0|0,1:0|0:0,0:0:0:0:
404,24,147598,1,0,0:0:0:0:
304,164,147754,1,0,0:0:0:0:
424,8,147910,2,0,P|476:20|492:152,1,175.499991966248,0|0,1:0|0:0,0:0:0:0:
432,92,148223,6,0,L|256:80,1,175.499991966248,0|0,0:0|0:0,0:0:0:0:
188,104,148535,2,0,L|364:116,1,175.499991966248,0|0,1:0|0:0,0:0:0:0:
428,152,148848,2,0,P|357:141|277:229,1,175.499991966248,0|0,0:0|0:0,0:0:0:0:
192,216,149160,2,0,P|248:252|252:376,1,175.499991966248,0|0,1:0|0:0,0:0:0:0:
164,320,149473,6,0,P|112:288|84:228,1,116.999994644165,0|0,0:0|0:0,0:0:0:0:
222,108,149785,2,0,P|220:169|182:223,1,116.999994644165,4|0,1:2|0:0,0:0:0:0:
10,164,150098,2,0,P|63:134|129:140,1,116.999994644165,0|0,0:0|0:0,0:0:0:0:
244,248,150410,2,0,P|301:239|346:203,1,116.999994644165,4|0,1:2|0:0,0:0:0:0:
484,104,150723,2,0,L|368:88,1,116.999994644165,4|0,0:0|3:0,0:0:0:0:
324,80,150957,1,0,3:0:0:0:
324,80,151035,1,0,1:0:0:0:
152,180,151191,1,0,3:0:0:0:
173,176,151269,1,0,3:0:0:0:
196,173,151347,1,0,1:0:0:0:
400,40,151504,1,0,3:0:0:0:
344,28,151582,1,0,3:0:0:0:
294,56,151660,1,0,1:0:0:0:
275,110,151738,1,0,3:0:0:0:
300,160,151816,1,0,3:0:0:0:
344,196,151894,1,0,3:0:0:0:
348,248,151973,6,0,L|384:20,2,215.999993408203,4|0|0,0:0|1:0|0:0,0:0:0:0:
276,144,152754,1,0,0:0:0:0:
252,304,152910,2,0,P|208:312|132:256,1,107.999996704102,0|0,1:0|0:0,0:0:0:0:
108,152,153223,1,0,0:0:0:0:
72,292,153379,2,0,P|140:292|188:168,1,215.999993408203,0|0,0:0|0:0,0:0:0:0:
28,212,153848,1,0,0:0:0:0:
0,48,154004,1,0,0:0:0:0:
160,176,154160,2,0,L|288:148,1,107.999996704102,0|0,1:0|0:0,0:0:0:0:
392,124,154473,6,0,L|160:73,2,215.999993408203,0|0|0,0:0|1:0|0:0,0:0:0:0:
256,8,155254,1,0,0:0:0:0:
328,200,155410,2,0,P|332:248|280:324,1,107.999996704102,0|0,1:0|0:0,0:0:0:0:
188,348,155723,1,0,0:0:0:0:
57,169,155879,2,0,P|160:156|232:232,1,215.999993408203,0|0,0:0|0:0,0:0:0:0:
328,320,156348,2,0,P|380:320|432:268,1,107.999996704102,0|0,0:0|0:0,0:0:0:0:
448,98,156660,2,0,P|446:176|508:224,1,161.999995056153,0|0,1:0|0:0,0:0:0:0:
512,192,156973,6,0,L|284:204,2,215.999993408203,0|0|0,0:0|1:0|0:0,0:0:0:0:
422,286,157754,1,0,0:0:0:0:
328,112,157910,1,0,1:0:0:0:
256,296,158066,1,0,0:0:0:0:
108,164,158223,1,0,0:0:0:0:
288,208,158379,2,0,P|360:148|328:32,1,215.999993408203,0|0,0:0|0:0,0:0:0:0:
188,112,158848,2,0,L|52:92,1,107.999996704102,0|0,0:0|0:0,0:0:0:0:
181,223,159160,2,0,L|317:203,1,107.999996704102,0|0,1:0|0:0,0:0:0:0:
440,324,159473,6,0,B|284:300|284:300|188:316,2,215.999993408203,0|0|0,0:0|1:0|0:0,0:0:0:0:
392,224,160254,1,0,0:0:0:0:
464,144,160410,1,0,1:0:0:0:
287,207,160566,1,0,0:0:0:0:
504,244,160723,1,0,0:0:0:0:
248,200,160879,2,0,P|220:164|60:168,1,215.999993408203,0|0,0:0|0:0,0:0:0:0:
96,320,161348,2,0,P|120:292|116:196,1,107.999996704102,0|0,0:0|0:0,0:0:0:0:
32,16,161660,2,0,P|8:44|12:140,1,107.999996704102,0|0,1:0|0:0,0:0:0:0:
98,92,161973,6,0,B|228:116|172:32|320:60,2,215.999993408203,4|0|0,0:0|1:0|0:0,0:0:0:0:
256,144,162754,1,0,0:0:0:0:
64,180,162910,2,0,L|188:196,1,107.999996704102,0|0,1:0|0:0,0:0:0:0:
40,272,163223,1,0,0:0:0:0:
184,68,163379,2,0,P|63:54|-8:146,1,215.999993408203,0|0,0:0|0:0,0:0:0:0:
272,132,163848,2,0,P|292:92|272:12,1,107.999996704102,0|0,0:0|0:0,0:0:0:0:
240,252,164160,2,0,P|220:292|240:372,1,107.999996704102,0|0,1:0|0:0,0:0:0:0:
112,216,164473,6,0,L|336:248,2,215.999993408203,0|0|0,0:0|1:0|0:0,0:0:0:0:
184,144,165254,1,0,0:0:0:0:
80,308,165410,1,0,1:0:0:0:
4,232,165566,1,0,0:0:0:0:
184,264,165723,1,0,0:0:0:0:
64,156,165879,2,0,P|124:176|212:56,1,215.999993408203,0|0,0:0|0:0,0:0:0:0:
172,0,166348,2,0,P|134:31|124:84,1,107.999996704102,0|0,0:0|0:0,0:0:0:0:
268,162,166660,2,0,P|254:110|214:75,1,107.999996704102,0|0,1:0|0:0,0:0:0:0:
140,244,166973,6,0,B|260:272|224:176|360:212,2,215.999993408203,0|0|0,0:0|1:0|0:0,0:0:0:0:
116,152,167754,1,0,0:0:0:0:
168,336,167910,1,0,1:0:0:0:
48,276,168066,1,0,0:0:0:0:
212,136,168223,1,0,0:0:0:0:
307,307,168379,2,0,P|318:206|415:174,1,215.999993408203,0|0,0:0|0:0,0:0:0:0:
392,264,168848,2,0,L|498:249,1,107.999996704102,0|0,0:0|0:0,0:0:0:0:
292,56,169160,2,0,L|185:70,1,107.999996704102,0|0,1:0|0:0,0:0:0:0:
304,204,169473,6,0,P|344:192|380:40,2,215.999993408203,0|0|0,0:0|1:0|0:0,0:0:0:0:
155,107,170254,1,2,0:3:0:0:
155,107,170410,2,0,P|208:104|256:128,1,107.999996704102,0|0,1:0|3:3,0:0:0:0:
300,236,170723,1,0,1:0:0:0:
364,88,170879,1,0,1:0:0:0:
288,264,171035,1,0,1:0:0:0:
176,112,171191,1,0,1:0:0:0:
375,157,171348,5,8,0:3:0:0:
136,226,171504,1,8,0:3:0:0:
207,59,171660,1,8,0:3:0:0:
303,323,171816,1,8,0:3:0:0:
256,192,171973,5,4,1:2:0:0:
256,192,172051,12,0,179473,0:0:0:0:
