osu file format v14

[General]
AudioFilename: audio.mp3
AudioLeadIn: 0
PreviewTime: 55622
Countdown: 0
SampleSet: Soft
StackLeniency: 0.7
Mode: 0
LetterboxInBreaks: 0
WidescreenStoryboard: 1

[Editor]
DistanceSpacing: 1.3
BeatDivisor: 4
GridSize: 16
TimelineZoom: 1.1

[Metadata]
Title:Uso Janai (TV Size)
TitleUnicode:嘘じゃない (TV Size)
Artist:Soushi Sakiyama
ArtistUnicode:崎山蒼志
Creator:Ryxliee
Version:Normal
Source:僕のヒーローアカデミア
Tags:Anime Japanese Jpop Pop J-pop Believe BNHA MHA Boku No Hero My Academia Season 5 Five Ending Ed2 Ed 2 Two Hawks Male Vocalist Froskya Esutarosa Revialink
BeatmapID:3129669
BeatmapSetID:1529048

[Difficulty]
HPDrainRate:3.5
CircleSize:3
OverallDifficulty:4
ApproachRate:5.5
SliderMultiplier:1.4
SliderTickRate:1

[Events]
//Background and Video events
0,0,"81138363_p0.jpg",0,0
Video,0,"video.mp4"
//Break Periods
//Storyboard Layer 0 (Background)
//Storyboard Layer 1 (Fail)
//Storyboard Layer 2 (Pass)
//Storyboard Layer 3 (Foreground)
//Storyboard Layer 4 (Overlay)
//Storyboard Sound Samples

[TimingPoints]
40,710.059171597633,4,2,1,54,1,0
11400,-100,4,2,1,34,0,0
17081,-100,4,2,1,36,0,0
22761,-100,4,2,1,38,0,0
28442,-100,4,2,1,40,0,0
34122,-100,4,2,3,37,0,0
34655,-100,4,2,3,41,0,0
34832,-100,4,2,3,44,0,0
39803,-100,4,2,3,46,0,0
42643,-100,4,2,3,47,0,0
43531,-100,4,2,3,38,0,0
43619,-100,4,2,3,40,0,0
43708,-100,4,2,3,50,0,0
43886,-100,4,2,3,48,0,0
44063,-100,4,2,3,46,0,0
44418,-100,4,2,3,45,0,0
44773,-100,4,2,3,50,0,0
44951,-100,4,2,3,52,0,0
45128,-100,4,2,3,51,0,0
45306,-100,4,2,3,53,0,0
45483,-100,4,2,3,57,0,0
51164,-100,4,2,3,59,0,0
54004,-100,4,2,2,62,0,0
54359,-100,4,2,2,38,0,0
55069,-100,4,2,2,40,0,0
55247,-100,4,2,2,37,0,0
55779,-100,4,2,2,38,0,0
56134,-100,4,2,0,60,0,0
56312,-100,4,2,4,55,0,0
56489,-100,4,2,2,52,0,0
56844,-90.9090909090909,4,2,4,68,0,1
78146,-90.9090909090909,4,2,4,67,0,1
78324,-90.9090909090909,4,2,4,68,0,1
78501,-90.9090909090909,4,2,4,66,0,1
78679,-90.9090909090909,4,2,4,68,0,1
79034,-90.9090909090909,4,2,4,68,0,0
79566,-90.9090909090909,4,2,4,63,0,1
87022,-90.9090909090909,4,2,2,60,0,0
87377,-90.9090909090909,4,2,2,38,0,0
87732,-90.9090909090909,4,2,2,35,0,0

[Colours]
Combo1 : 210,118,91
Combo2 : 228,86,86
Combo3 : 202,165,147
Combo4 : 218,181,118

[HitObjects]
1,28,11400,5,2,3:2:0:0:
34,113,11755,2,0,P|96:85|159:111,1,140,2|2,0:0|0:0,0:0:0:0:
179,157,12643,1,2,0:0:0:0:
179,157,12821,1,2,3:2:0:0:
128,232,13176,1,2,0:0:0:0:
48,275,13531,2,0,P|41:308|49:342,1,70,10|2,3:2|0:0,0:0:0:0:
135,374,14241,5,2,3:2:0:0:
210,323,14596,1,2,0:0:0:0:
289,367,14951,2,0,P|322:374|356:366,1,70,10|2,3:2|0:0,0:0:0:0:
432,315,15661,2,0,L|456:177,1,140,0|8,3:0|3:2,0:0:0:0:
412,0,17081,5,2,3:2:0:0:
326,29,17436,2,0,B|364:67|364:67|333:147,1,140,2|2,0:0|0:0,0:0:0:0:
318,193,18324,1,2,0:0:0:0:
318,193,18501,1,0,3:2:0:0:
227,204,18856,1,2,0:0:0:0:
185,123,19211,2,0,L|172:54,1,70,10|2,3:2|0:0,0:0:0:0:
86,26,19921,5,2,3:2:0:0:
25,93,20276,1,2,0:0:0:0:
82,163,20631,1,10,3:2:0:0:
12,221,20986,2,0,P|5:254|13:288,1,70,2|0,0:0|3:0,0:0:0:0:
47,374,21696,1,2,0:0:0:0:
131,339,22051,2,0,P|179:322|229:337,1,105,8|2,3:2|0:0,0:0:0:0:
268,360,22761,5,2,3:2:0:0:
295,273,23116,1,2,0:0:0:0:
221,220,23471,2,0,L|207:142,1,70,10|2,3:2|0:0,0:0:0:0:
185,118,24004,1,2,0:0:0:0:
185,118,24182,1,0,3:2:0:0:
195,27,24537,1,2,0:0:0:0:
282,0,24892,2,0,L|360:14,1,70,10|2,3:2|0:0,0:0:0:0:
435,44,25602,5,2,3:2:0:0:
485,119,25957,1,2,0:0:0:0:
440,198,26312,2,0,L|452:266,1,70,10|2,3:2|0:0,0:0:0:0:
437,356,27022,2,0,B|396:376|363:343|388:343|352:307|310:327,1,140,0|8,3:0|3:2,0:0:0:0:
130,304,28442,5,2,3:2:0:0:
57,358,28797,1,2,0:0:0:0:
0,287,29152,2,0,L|12:218,1,70,10|2,3:2|0:0,0:0:0:0:
40,184,29684,1,2,0:0:0:0:
40,184,29862,1,0,3:2:0:0:
53,94,30217,1,2,0:0:0:0:
110,23,30572,2,0,L|178:35,1,70,10|2,3:2|0:0,0:0:0:0:
267,58,31282,6,0,L|335:45,1,70,2|2,3:2|0:0,0:0:0:0:
378,28,31815,2,0,P|393:58|394:92,1,70,2|2,0:0|0:0,0:0:0:0:
378,136,32347,1,2,0:0:0:0:
304,189,32702,1,0,3:0:0:0:
346,366,33412,2,0,P|395:380|444:364,1,105,8|0,3:2|0:0,0:0:0:0:
478,333,34122,6,0,L|512:339,2,35,2|0|2,3:0|3:0|3:2,0:0:0:0:
407,275,34832,2,0,B|376:194|376:194|414:156,1,140,2|0,0:0|0:0,0:0:0:0:
452,130,35720,1,2,3:2:0:0:
452,130,35897,1,2,3:2:0:0:
470,40,36253,1,8,0:0:0:0:
386,5,36608,1,0,3:0:0:0:
328,75,36963,6,0,L|334:109,2,35,2|0|0,3:0|3:0|3:0,0:0:0:0:
261,13,37673,2,0,P|228:6|194:14,1,70,0|2,0:0|3:2,0:0:0:0:
152,34,38205,2,0,L|139:102,1,70,2|2,0:0|0:0,0:0:0:0:
118,142,38738,1,0,3:0:0:0:
37,184,39093,1,10,0:0:0:0:
3,268,39448,2,0,L|9:302,1,35,0|2,0:0|0:0,0:0:0:0:
21,346,39803,6,0,P|53:339|87:347,1,70,2|2,3:0|3:2,0:0:0:0:
129,366,40335,1,2,0:0:0:0:
195,304,40690,2,0,L|263:317,1,70,2|0,0:0|0:0,0:0:0:0:
297,355,41223,1,2,0:0:0:0:
297,355,41400,2,0,L|365:342,1,70,2|0,0:0|0:0,0:0:0:0:
408,358,41933,1,10,0:0:0:0:
488,315,42288,1,2,0:0:0:0:
501,224,42643,6,0,B|492:174|492:174|458:151|458:151|450:102,1,140,2|0,3:0|0:0,0:0:0:0:
450,62,43531,1,2,0:0:0:0:
450,62,43708,2,0,L|484:55,2,35,2|2|2,3:2|0:0|0:0,0:0:0:0:
362,86,44418,2,0,L|293:73,1,70,0|8,3:0|0:0,0:0:0:0:
254,63,44951,1,2,3:2:0:0:
254,63,45128,1,2,3:2:0:0:
176,16,45483,6,0,P|120:55|111:123,1,140,2|2,3:0|0:0,0:0:0:0:
121,172,46371,1,2,0:0:0:0:
121,172,46548,1,2,0:0:0:0:
199,218,46903,2,0,L|268:209,1,70,2|0,0:0|3:0,0:0:0:0:
355,234,47613,1,8,0:0:0:0:
252,384,48324,6,0,B|202:375|202:375|179:341|179:341|130:333,1,140,2|2,3:0|0:0,0:0:0:0:
90,340,49211,1,2,0:0:0:0:
90,340,49389,1,2,3:2:0:0:
17,284,49744,2,0,P|2:254|0:219,1,70,2|0,0:0|3:0,0:0:0:0:
21,128,50454,1,8,0:0:0:0:
153,3,51164,5,2,3:0:0:0:
211,72,51519,1,2,3:2:0:0:
153,141,51874,2,0,L|161:210,1,70,2|2,0:0|0:0,0:0:0:0:
200,233,52406,2,0,L|191:302,1,70,2|0,0:0|0:0,0:0:0:0:
186,347,52939,1,2,3:2:0:0:
269,384,53294,1,8,0:0:0:0:
394,252,54004,5,0,3:0:0:0:
482,33,56134,5,4,1:0:0:0:
482,33,56312,2,0,P|498:63|499:98,1,70,0|0,3:0|0:0,0:0:0:0:
486,146,56844,6,0,L|410:133,1,77,4|2,3:1|3:2,0:0:0:0:
336,65,57554,2,0,L|260:78,1,77,10|2,1:2|1:2,0:0:0:0:
215,94,58087,1,8,0:0:0:0:
215,94,58264,1,2,3:2:0:0:
151,171,58619,2,0,P|142:208|150:245,1,77,2|10,3:2|1:2,0:0:0:0:
243,283,59329,2,0,L|281:279,1,38.5,2|0,1:2|1:0,0:0:0:0:
331,272,59684,5,2,3:2:0:0:
413,215,60039,1,2,3:2:0:0:
485,284,60395,1,10,1:2:0:0:
435,371,60750,2,0,P|397:379|360:371,1,77,2|2,1:2|3:2,0:0:0:0:
321,349,61282,1,8,0:0:0:0:
321,349,61460,1,2,3:2:0:0:
226,314,61815,1,10,1:2:0:0:
133,351,62170,2,0,L|86:342,1,38.5,2|0,1:2|1:0,0:0:0:0:
45,339,62525,6,0,L|32:263,1,77,4|2,3:1|3:2,0:0:0:0:
81,175,63235,2,0,L|94:99,1,77,10|2,1:2|1:2,0:0:0:0:
111,54,63767,1,8,0:0:0:0:
111,54,63945,2,0,L|148:47,1,38.5,2|0,3:2|3:0,0:0:0:0:
192,22,64300,1,4,3:1:0:0:
275,88,64655,1,8,1:2:0:0:
275,88,64832,2,0,P|283:125|275:162,1,77,4|8,3:1|1:2,0:0:0:0:
248,204,65365,6,0,L|210:210,1,38.5,4|0,3:1|0:0,0:0:0:0:
160,219,65720,1,2,3:2:0:0:
122,312,66075,1,10,1:2:0:0:
202,371,66430,2,0,L|276:357,1,77,2|10,1:2|1:2,0:0:0:0:
338,278,67140,2,0,P|375:269|412:277,1,77,2|10,3:2|1:2,0:0:0:0:
458,308,67673,1,0,3:0:0:0:
458,308,67850,1,2,3:2:0:0:
510,223,68205,6,0,L|496:147,1,77,4|2,3:1|3:2,0:0:0:0:
468,51,68915,1,10,1:2:0:0:
380,2,69270,2,0,P|341:2|308:20,1,77,2|2,1:2|3:2,0:0:0:0:
282,65,69803,1,8,0:0:0:0:
282,65,69980,1,2,3:2:0:0:
186,94,70335,1,10,1:2:0:0:
181,193,70690,1,2,1:2:0:0:
274,229,71045,6,0,P|312:227|345:209,1,77,2|2,3:2|3:2,0:0:0:0:
424,148,71755,2,0,L|437:223,1,77,10|2,1:2|1:2,0:0:0:0:
477,254,72288,2,0,P|495:287|496:325,1,77,8|8,0:0|0:0,0:0:0:0:
474,370,72821,1,2,3:2:0:0:
393,320,73176,1,12,3:1:0:0:
393,320,73353,2,0,L|317:333,1,77,0|0,1:2|1:2,0:0:0:0:
283,370,73886,6,0,L|245:363,1,38.5,4|0,3:1|0:0,0:0:0:0:
196,349,74241,1,2,3:2:0:0:
101,382,74596,1,10,1:2:0:0:
24,317,74951,2,0,L|30:279,1,38.5,2|8,1:2|0:0,0:0:0:0:
64,241,75306,2,0,P|82:207|83:169,1,77,2|2,3:2|3:2,0:0:0:0:
46,145,75838,1,0,0:0:0:0:
46,145,76016,2,0,P|27:111|26:73,1,77,10|2,1:2|1:2,0:0:0:0:
96,1,76726,5,4,3:1:0:0:
188,38,77081,1,2,1:2:0:0:
202,137,77436,1,10,1:2:0:0:
265,214,77791,2,0,L|344:199,1,77,2|10,3:2|1:2,0:0:0:0:
383,172,78324,1,0,3:0:0:0:
383,172,78501,2,0,L|389:133,1,38.5,2|0,3:2|3:0,0:0:0:0:
424,99,78856,1,12,1:2:0:0:
424,99,79034,1,12,1:2:0:0:
507,223,79566,6,0,P|515:260|507:297,1,77,4|2,3:1|3:2,0:0:0:0:
478,340,80099,1,0,0:0:0:0:
478,340,80276,1,10,1:2:0:0:
381,366,80631,1,2,1:2:0:0:
285,335,80986,2,0,L|271:259,1,77,2|2,3:2|3:2,0:0:0:0:
244,223,81519,1,0,0:0:0:0:
244,223,81696,1,10,1:2:0:0:
300,140,82051,2,0,L|307:102,1,38.5,2|0,1:2|1:2,0:0:0:0:
289,55,82406,5,2,3:2:0:0:
191,34,82761,1,2,3:2:0:0:
117,101,83116,1,10,1:2:0:0:
20,75,83471,2,0,L|6:0,2,77,2|2|2,1:2|3:2|3:2,0:0:0:0:
2,173,84537,1,10,1:2:0:0:
78,237,84892,1,2,1:2:0:0:
164,187,85247,6,0,P|220:182|267:214,1,115.5,4|0,3:1|1:0,0:0:0:0:
298,253,85957,2,0,L|284:328,1,77,12|2,1:1|0:0,0:0:0:0:
199,381,86667,1,8,3:2:0:0:
135,304,87022,2,0,P|98:296|61:304,1,77,8|2,3:2|0:0,0:0:0:0:
0,384,87732,1,2,0:0:0:0:
