osu file format v14

[General]
AudioFilename: audio.mp3
AudioLeadIn: 0
PreviewTime: 55622
Countdown: 0
SampleSet: Soft
StackLeniency: 0.7
Mode: 0
LetterboxInBreaks: 0
WidescreenStoryboard: 1

[Editor]
DistanceSpacing: 1.3
BeatDivisor: 4
GridSize: 16
TimelineZoom: 1.8

[Metadata]
Title:Uso Janai (TV Size)
TitleUnicode:嘘じゃない (TV Size)
Artist:Soushi Sakiyama
ArtistUnicode:崎山蒼志
Creator:Ryxliee
Version:Hard
Source:僕のヒーローアカデミア
Tags:Anime Japanese Jpop Pop J-pop Believe BNHA MHA Boku No Hero My Academia Season 5 Five Ending Ed2 Ed 2 Two Hawks Male Vocalist Froskya Esutarosa Revialink
BeatmapID:3130527
BeatmapSetID:1529048

[Difficulty]
HPDrainRate:4.4
CircleSize:3.5
OverallDifficulty:5.6
ApproachRate:7.5
SliderMultiplier:1.4
SliderTickRate:1

[Events]
//Background and Video events
0,0,"81138363_p0.jpg",0,0
Video,0,"video.mp4"
//Break Periods
//Storyboard Layer 0 (Background)
//Storyboard Layer 1 (Fail)
//Storyboard Layer 2 (Pass)
//Storyboard Layer 3 (Foreground)
//Storyboard Layer 4 (Overlay)
//Storyboard Sound Samples

[TimingPoints]
40,710.059171597633,4,2,1,54,1,0
11400,-66.6666666666667,4,2,1,34,0,0
17081,-66.6666666666667,4,2,1,36,0,0
22761,-66.6666666666667,4,2,1,38,0,0
28442,-66.6666666666667,4,2,1,40,0,0
34122,-58.8235294117647,4,2,3,37,0,0
34655,-58.8235294117647,4,2,3,41,0,0
34832,-58.8235294117647,4,2,3,44,0,0
39803,-58.8235294117647,4,2,3,46,0,0
42643,-58.8235294117647,4,2,3,47,0,0
43531,-58.8235294117647,4,2,3,38,0,0
43619,-58.8235294117647,4,2,3,40,0,0
43708,-58.8235294117647,4,2,3,50,0,0
43886,-58.8235294117647,4,2,3,48,0,0
44063,-58.8235294117647,4,2,3,46,0,0
44418,-58.8235294117647,4,2,3,45,0,0
44773,-58.8235294117647,4,2,3,50,0,0
44951,-58.8235294117647,4,2,3,52,0,0
45128,-58.8235294117647,4,2,3,51,0,0
45306,-58.8235294117647,4,2,3,53,0,0
45483,-58.8235294117647,4,2,3,57,0,0
51164,-58.8235294117647,4,2,3,59,0,0
54004,-58.8235294117647,4,2,2,62,0,1
54093,-58.8235294117647,4,2,2,62,0,0
54359,-58.8235294117647,4,2,2,38,0,0
55069,-58.8235294117647,4,2,2,40,0,0
55247,-58.8235294117647,4,2,2,37,0,0
55779,-58.8235294117647,4,2,2,38,0,0
56134,-58.8235294117647,4,2,0,60,0,0
56312,-76.9230769230769,4,2,4,55,0,0
56489,-76.9230769230769,4,2,2,52,0,0
56755,-76.9230769230769,4,2,2,5,0,0
56844,-50,4,2,4,68,0,1
78146,-50,4,2,4,67,0,1
78324,-50,4,2,4,68,0,1
78501,-50,4,2,4,66,0,1
78679,-50,4,2,4,68,0,1
79034,-50,4,2,4,68,0,0
79566,-50,4,2,4,63,0,1
87022,-66.6666666666667,4,2,2,60,0,0
87377,-66.6666666666667,4,2,2,38,0,0
87732,-66.6666666666667,4,2,2,35,0,0

[Colours]
Combo1 : 210,118,91
Combo2 : 228,86,86
Combo3 : 202,165,147
Combo4 : 218,181,118

[HitObjects]
415,19,11400,6,0,P|441:22|467:28,1,52.5,2|2,3:2|0:0,0:0:0:0:
496,101,11755,2,0,P|445:110|393:118,1,105,2|8,0:0|3:2,0:0:0:0:
252,49,12466,2,0,P|240:72|238:98,1,52.5,2|2,0:0|0:0,0:0:0:0:
252,176,12821,1,2,3:2:0:0:
403,233,13176,5,2,0:0:0:0:
403,233,13353,1,2,0:0:0:0:
480,250,13531,2,0,P|485:275|490:301,1,52.5,10|2,3:2|0:0,0:0:0:0:
445,366,13886,2,0,P|419:360|393:356,1,52.5,2|2,0:0|0:0,0:0:0:0:
312,308,14241,6,0,B|305:268|305:268|285:254|285:254|277:214,2,105,2|2|10,3:2|0:0|3:2,0:0:0:0:
170,377,15306,1,2,0:0:0:0:
30,304,15661,2,0,P|26:252|55:210,1,105,0|0,3:0|0:0,0:0:0:0:
129,179,16193,1,0,0:0:0:0:
129,179,16371,2,0,P|132:127|103:85,1,105,8|0,3:2|0:0,0:0:0:0:
272,0,17081,6,0,P|260:23|258:49,1,52.5,2|2,3:2|0:0,0:0:0:0:
239,126,17436,2,0,P|290:134|342:143,1,105,2|8,0:0|3:2,0:0:0:0:
472,231,18146,2,0,P|446:234|420:240,1,52.5,2|2,0:0|0:0,0:0:0:0:
373,303,18501,1,0,3:2:0:0:
224,268,18856,5,2,0:0:0:0:
224,268,19034,1,2,0:0:0:0:
283,215,19211,2,0,P|288:189|283:164,1,52.5,10|2,3:2|0:0,0:0:0:0:
207,145,19566,2,0,P|201:119|206:94,1,52.5,2|2,0:0|0:0,0:0:0:0:
238,10,19921,6,0,B|287:27|287:27|336:9,2,105,2|2|10,3:2|0:0|3:2,0:0:0:0:
81,0,20986,1,2,0:0:0:0:
0,135,21341,2,0,P|8:186|17:238,1,105,0|2,3:0|0:0,0:0:0:0:
94,213,21874,1,2,0:0:0:0:
94,214,22051,2,0,P|169:216|207:281,1,157.5,8|2,3:2|0:0,0:0:0:0:
230,357,22761,6,0,P|255:360|281:367,1,52.5,2|2,3:2|0:0,0:0:0:0:
359,384,23116,1,2,0:0:0:0:
482,286,23471,2,0,B|452:255|452:255|475:197,1,105,10|2,3:2|0:0,0:0:0:0:
512,130,24004,1,2,0:0:0:0:
512,130,24182,1,0,3:2:0:0:
376,58,24537,5,2,0:0:0:0:
376,58,24714,1,2,0:0:0:0:
411,128,24892,2,0,P|407:153|400:179,1,52.5,10|2,3:2|0:0,0:0:0:0:
334,221,25247,2,0,P|337:246|343:272,1,52.5,2|2,0:0|0:0,0:0:0:0:
364,360,25602,6,0,B|421:383|421:383|452:353,2,105,2|2|10,3:2|0:0|3:2,0:0:0:0:
229,277,26667,1,2,0:0:0:0:
110,380,27022,2,0,P|58:370|6:362,1,105,0|0,3:0|0:0,0:0:0:0:
0,288,27554,1,0,0:0:0:0:
0,288,27732,2,0,P|9:236|17:184,1,105,8|0,3:2|0:0,0:0:0:0:
81,6,28442,6,0,P|106:0|131:5,1,52.5,2|2,3:2|0:0,0:0:0:0:
198,47,28797,1,2,0:0:0:0:
136,192,29152,2,0,B|112:249|112:249|142:280,1,105,10|2,3:2|0:0,0:0:0:0:
206,336,29684,1,2,0:0:0:0:
206,336,29862,1,0,3:2:0:0:
342,254,30217,5,2,0:0:0:0:
342,254,30395,1,2,0:0:0:0:
415,225,30572,2,0,P|418:199|424:173,1,52.5,10|2,3:2|0:0,0:0:0:0:
493,135,30927,2,0,P|487:109|483:83,1,52.5,2|2,0:0|0:0,0:0:0:0:
418,21,31282,6,0,P|369:4|320:21,1,105,2|2,3:2|0:0,0:0:0:0:
262,74,31815,2,0,P|213:90|164:73,1,105,2|2,0:0|0:0,0:0:0:0:
105,21,32347,1,2,0:0:0:0:
1,139,32702,2,0,P|10:190|18:242,1,105,0|0,3:0|0:0,0:0:0:0:
40,323,33235,1,0,0:0:0:0:
40,323,33412,2,0,B|84:300|125:341|92:341|132:381|179:358,1,157.5,8|0,3:2|0:0,0:0:0:0:
243,304,34122,6,0,L|312:316,2,59.5,2|0|2,3:0|3:0|3:2,0:0:0:0:
192,235,34655,1,2,0:0:0:0:
192,235,34744,1,2,0:0:0:0:
192,235,34832,2,0,P|168:181|191:128,1,119,2|2,0:0|0:0,0:0:0:0:
240,62,35365,2,0,P|269:66|298:73,1,59.5,2|0,0:0|0:0,0:0:0:0:
364,21,35720,1,2,3:2:0:0:
442,49,35897,2,0,P|450:77|447:106,1,59.5,2|0,3:2|0:0,0:0:0:0:
375,171,36253,2,0,B|342:204|342:204|368:271,1,119,8|0,0:0|3:0,0:0:0:0:
407,344,36785,1,0,0:0:0:0:
470,289,36963,6,0,L|480:230,2,59.5,2|0|0,3:0|3:0|3:0,0:0:0:0:
407,344,37495,1,0,0:0:0:0:
407,344,37673,2,0,P|378:352|349:348,1,59.5,0|2,0:0|0:0,0:0:0:0:
286,293,38028,1,2,3:2:0:0:
203,339,38205,2,0,P|144:329|85:319,1,119,2|2,0:0|0:0,0:0:0:0:
33,254,38738,1,0,3:0:0:0:
1,67,39093,2,0,P|30:61|59:55,1,59.5,10|0,0:0|0:0,0:0:0:0:
130,10,39448,2,0,P|158:18|187:20,1,59.5,0|2,0:0|0:0,0:0:0:0:
257,85,39803,6,0,P|264:142|227:187,1,119,2|2,3:0|3:2,0:0:0:0:
153,149,40335,2,0,P|96:142|51:179,1,119,2|2,0:0|0:0,0:0:0:0:
16,268,40868,2,0,P|22:297|26:326,1,59.5
96,372,41223,1,2,0:0:0:0:
162,322,41400,2,0,B|206:314|206:314|228:329|228:329|273:322,1,119,2|0,0:0|0:0,0:0:0:0:
354,375,41933,2,0,P|369:351|374:322,1,59.5,10|0,0:0|0:0,0:0:0:0:
355,239,42288,1,2,0:0:0:0:
462,81,42643,6,0,B|495:114|495:114|469:181,1,119,2|0,3:0|3:0,0:0:0:0:
391,167,43176,1,0,0:0:0:0:
391,167,43353,1,0,0:0:0:0:
337,101,43531,1,2,0:0:0:0:
337,101,43619,1,2,0:0:0:0:
337,101,43708,2,0,P|307:107|278:113,1,59.5,2|2,3:2|0:0,0:0:0:0:
180,174,44063,2,0,P|209:179|239:186,1,59.5,2|0,0:0|0:0,0:0:0:0:
284,256,44418,1,0,3:0:0:0:
131,370,44773,1,8,0:0:0:0:
57,343,44951,1,2,3:2:0:0:
57,343,45128,2,0,P|47:314|50:285,1,59.5,2|2,3:2|3:2,0:0:0:0:
118,219,45483,6,0,P|108:160|98:101,1,119,2|0,3:0|3:0,0:0:0:0:
144,33,46016,1,0,0:0:0:0:
144,33,46193,2,0,P|171:23|201:25,1,59.5,2|2,0:0|0:0,0:0:0:0:
294,45,46548,2,0,B|286:89|286:89|301:111|301:111|294:156,1,119,2|2,0:0|0:0,0:0:0:0:
321,242,47081,1,0,0:0:0:0:
321,242,47258,1,0,3:0:0:0:
174,363,47613,2,0,P|144:356|115:351,1,59.5,8|0,0:0|0:0,0:0:0:0:
48,301,47968,2,0,P|54:271|59:242,1,59.5,0|2,0:0|0:0,0:0:0:0:
108,160,48324,6,0,P|166:150|211:186,1,119,2|0,3:0|3:0,0:0:0:0:
226,271,48856,1,0,0:0:0:0:
226,271,49034,2,0,P|255:276|284:281,1,59.5,2|2,0:0|0:0,0:0:0:0:
334,362,49389,2,0,P|393:352|452:342,1,119,2|2,3:2|0:0,0:0:0:0:
512,285,49921,1,0,0:0:0:0:
512,285,50099,1,0,3:0:0:0:
374,152,50454,2,0,P|346:141|316:144,1,59.5,8|0,0:0|0:0,0:0:0:0:
358,233,50809,2,0,P|387:234|415:224,1,59.5
479,154,51164,6,0,B|505:87|505:87|472:54,1,119,2|2,3:0|3:2,0:0:0:0:
405,13,51696,1,0,0:0:0:0:
405,13,51874,2,0,P|346:23|287:33,1,119,2|2,0:0|0:0,0:0:0:0:
231,94,52406,2,0,B|182:119|136:73|173:73|128:28|72:56,1,178.5,2|2,0:0|3:2,0:0:0:0:
15,237,53294,2,0,P|20:266|25:295,1,59.5,8|0,0:0|0:0,0:0:0:0:
76,361,53649,1,0,0:0:0:0:
80,365,53826,1,0,0:0:0:0:
127,268,54004,5,0,3:0:0:0:
256,192,54359,12,0,55424,0:0:0:0:
20,21,56134,5,4,1:0:0:0:
20,21,56223,1,0,1:0:0:0:
20,21,56312,2,0,P|10:77|0:132,1,113.749994792938,0|0,3:0|0:0,0:0:0:0:
12,138,56844,6,0,B|64:128|64:128|90:146|90:146|144:138,1,140,4|2,3:1|3:2,0:0:0:0:
225,194,57377,1,0,0:0:0:0:
290,121,57554,2,0,P|296:86|301:51,1,70,10|0,1:2|0:0,0:0:0:0:
385,2,57909,1,2,1:2:0:0:
480,40,58087,1,8,0:0:0:0:
480,40,58264,2,0,P|489:73|484:107,1,70,2|8,3:2|0:0,0:0:0:0:
435,192,58619,6,0,B|471:228|471:228|442:311,1,140,2|10,3:2|1:2,0:0:0:0:
371,380,59152,1,0,0:0:0:0:
286,331,59329,1,2,1:2:0:0:
306,227,59507,1,0,1:0:0:0:
306,227,59596,1,0,1:0:0:0:
306,227,59684,2,0,P|254:183|187:195,1,140,2|2,3:2|3:2,0:0:0:0:
126,272,60217,1,0,0:0:0:0:
34,235,60395,2,0,P|29:200|23:165,1,70,10|0,1:2|0:0,0:0:0:0:
39,68,60750,5,2,1:2:0:0:
126,21,60927,1,8,1:2:0:0:
126,21,61105,2,0,P|160:11|194:16,1,70,2|8,3:2|0:0,0:0:0:0:
203,166,61460,2,0,P|177:142|165:110,1,70,2|0,3:2|0:0,0:0:0:0:
260,88,61815,2,0,P|294:92|329:98,1,70,10|0,1:2|0:0,0:0:0:0:
416,51,62170,1,2,1:2:0:0:
416,51,62347,1,0,1:0:0:0:
507,115,62525,6,0,P|494:183|482:252,1,140,4|2,3:1|3:2,0:0:0:0:
413,321,63057,1,0,0:0:0:0:
352,243,63235,2,0,P|347:208|341:173,1,70,10|0,1:2|1:0,0:0:0:0:
272,103,63590,2,0,P|266:137|261:172,1,70,2|8,1:2|0:0,0:0:0:0:
216,261,63945,1,2,3:2:0:0:
216,261,64122,1,0,3:0:0:0:
132,186,64300,6,0,P|102:125|131:63,1,140,4|8,3:1|1:2,0:0:0:0:
229,9,64832,2,0,B|177:-1|177:-1|151:17|151:17|97:9,1,140,4|8,3:1|1:2,0:0:0:0:
13,84,65365,2,0,P|0:115|0:150,1,70,4|0,3:1|0:0,0:0:0:0:
85,199,65720,2,0,P|79:233|74:268,1,70,2|0,3:2|0:0,0:0:0:0:
58,379,66075,2,0,B|94:342|94:342|177:371,1,140,10|2,1:2|1:2,0:0:0:0:
266,328,66608,1,0,3:0:0:0:
363,382,66785,6,0,B|371:329|371:329|397:311|397:311|408:257,1,140,10|2,1:2|3:2,0:0:0:0:
484,195,67318,1,0,1:0:0:0:
488,199,67406,1,0,1:0:0:0:
492,203,67495,1,10,1:2:0:0:
423,132,67673,1,0,3:0:0:0:
477,50,67850,1,2,3:2:0:0:
381,13,68028,1,0,1:0:0:0:
381,13,68116,1,0,1:0:0:0:
381,13,68205,6,0,P|314:0|262:44,1,140,4|2,3:1|3:2,0:0:0:0:
282,139,68738,1,0,0:0:0:0:
202,195,68915,2,0,P|168:189|133:184,1,70,10|0,1:2|1:0,0:0:0:0:
60,117,69270,1,2,1:2:0:0:
9,202,69448,1,8,0:0:0:0:
9,202,69625,2,0,P|0:235|4:269,1,70,2|8,3:2|0:0,0:0:0:0:
63,365,69980,6,0,P|131:352|200:340,1,140,2|10,3:2|1:2,0:0:0:0:
296,363,70513,1,0,1:0:0:0:
344,278,70690,1,2,1:2:0:0:
282,197,70868,1,0,1:0:0:0:
282,197,70957,1,0,1:0:0:0:
282,197,71045,6,0,P|253:135|283:74,1,140,2|2,3:2|3:2,0:0:0:0:
357,9,71578,1,0,0:0:0:0:
456,59,71755,2,0,B|420:95|420:95|449:178,1,140,10|2,1:2|1:2,0:0:0:0:
509,257,72288,1,8,0:0:0:0:
468,346,72466,2,0,P|433:350|398:357,1,70,2|8,3:2|0:0,0:0:0:0:
312,248,72821,2,0,P|347:253|382:260,1,70,2|0,3:2|0:0,0:0:0:0:
227,299,73176,1,12,3:1:0:0:
227,299,73353,2,0,P|213:267|213:232,1,70,0|0,1:2|1:0,0:0:0:0:
270,151,73708,1,0,1:2:0:0:
245,41,73886,6,0,B|192:30|192:30|166:48|166:48|112:40,1,140,4|2,3:1|3:2,0:0:0:0:
17,15,74418,1,0,0:0:0:0:
0,111,74596,2,0,P|6:145|11:179,1,70,10|0,1:2|0:0,0:0:0:0:
86,259,74951,1,2,1:2:0:0:
86,259,75128,1,8,0:0:0:0:
176,192,75306,6,0,P|243:179|295:223,1,140,2|2,3:2|3:2,0:0:0:0:
323,315,75838,1,0,0:0:0:0:
228,287,76016,2,0,P|193:290|158:298,1,70,10|0,1:2|1:0,0:0:0:0:
95,373,76371,1,2,1:2:0:0:
95,373,76548,1,0,1:2:0:0:
19,290,76726,6,0,P|9:256|14:222,1,70,4|0,3:1|0:0,0:0:0:0:
104,185,77081,2,0,P|109:220|100:253,1,70,2|0,1:2|3:0,0:0:0:0:
33,118,77436,2,0,P|67:111|101:106,1,70,10|0,1:2|0:0,0:0:0:0:
196,45,77791,1,2,3:2:0:0:
263,130,77968,1,0,1:0:0:0:
263,130,78057,1,0,3:2:0:0:
263,130,78146,1,10,1:2:0:0:
351,88,78324,2,0,L|364:20,2,70,0|2|0,3:0|3:2|3:0,0:0:0:0:
415,195,78856,5,12,1:2:0:0:
510,111,79034,1,12,1:2:0:0:
510,111,79566,6,0,P|497:179|485:248,1,140,4|2,3:1|3:2,0:0:0:0:
504,345,80099,1,0,0:0:0:0:
414,383,80276,2,0,P|379:375|345:370,1,70,10|0,1:2|0:0,0:0:0:0:
274,302,80631,1,2,1:2:0:0:
179,356,80809,1,0,1:0:0:0:
179,356,80897,1,0,1:0:0:0:
179,356,80986,6,0,P|135:303|148:237,1,140,2|2,3:2|3:2,0:0:0:0:
219,170,81519,1,0,0:0:0:0:
219,170,81697,2,0,P|253:161|287:156,1,70,10|0,1:2|1:2,0:0:0:0:
381,189,82051,1,2,1:2:0:0:
438,109,82229,1,0,1:2:0:0:
363,25,82406,6,0,B|310:14|310:14|284:32|284:32|230:24,1,140,2|2,3:2|3:2,0:0:0:0:
144,71,82939,1,0,0:0:0:0:
65,13,83116,2,0,P|47:43|43:77,1,70,10|0,1:2|0:0,0:0:0:0:
22,176,83471,1,2,1:2:0:0:
22,176,83649,1,8,1:2:0:0:
79,271,83826,6,0,P|113:263|147:258,1,70,2|8,3:2|1:2,0:0:0:0:
225,368,84182,2,0,P|191:361|157:356,1,70,2|0,3:2|0:0,0:0:0:0:
273,266,84537,2,0,P|307:258|341:253,1,70,10|0,1:2|1:0,0:0:0:0:
435,282,84892,1,2,1:2:0:0:
484,186,85069,1,0,1:0:0:0:
484,186,85158,1,0,1:0:0:0:
484,186,85247,6,0,B|513:101|513:101|477:65,1,140,4|2,3:1|3:2,0:0:0:0:
376,10,85779,1,0,1:0:0:0:
376,10,85868,1,0,1:0:0:0:
376,10,85957,2,0,B|322:17|322:17|304:43|304:43|250:54,1,140,12|2,1:1|0:0,0:0:0:0:
163,97,86489,1,0,1:0:0:0:
128,218,86667,5,8,3:2:0:0:
18,63,87022,2,0,P|12:88|8:114,1,52.5,8|0,3:2|0:0,0:0:0:0:
21,196,87377,1,2,0:0:0:0:
21,196,87732,1,2,0:0:0:0:
