osu file format v14

[General]
AudioFilename: audio.mp3
AudioLeadIn: 0
PreviewTime: 55689
Countdown: 0
SampleSet: Normal
StackLeniency: 0.7
Mode: 1
LetterboxInBreaks: 0
WidescreenStoryboard: 1

[Editor]
Bookmarks: 11399,17080,22760,28441,34121,39802,45482,51163,56843,62524,68204,73885,79565,83825
DistanceSpacing: 1.3
BeatDivisor: 4
GridSize: 32
TimelineZoom: 1.2

[Metadata]
Title:Uso Janai (TV Size)
TitleUnicode:嘘じゃない (TV Size)
Artist:Soushi Sakiyama
ArtistUnicode:崎山蒼志
Creator:Ryxliee
Version:Futsuu
Source:僕のヒーローアカデミア
Tags:Anime Japanese Jpop Pop J-pop Believe BNHA MHA Boku No Hero My Academia Season 5 Five Ending Ed2 Ed 2 Two Hawks Male Vocalist Froskya Revialink Tachibana_
BeatmapID:3498213
BeatmapSetID:1711971

[Difficulty]
HPDrainRate:7
CircleSize:2
OverallDifficulty:3
ApproachRate:9
SliderMultiplier:1.4
SliderTickRate:1

[Events]
//Background and Video events
0,0,"96506504_p20.png",0,-65
//Break Periods
//Storyboard Layer 0 (Background)
//Storyboard Layer 1 (Fail)
//Storyboard Layer 2 (Pass)
//Storyboard Layer 3 (Foreground)
//Storyboard Layer 4 (Overlay)
//Storyboard Sound Samples

[TimingPoints]
39,355.029585798817,4,1,0,40,1,0
34121,-100,4,1,0,55,0,0
45482,-100,4,1,0,65,0,0
56843,-100,4,1,0,75,0,1
79033,-100,4,1,0,75,0,0
79565,-100,4,1,0,75,0,1
87021,-100,4,1,0,75,0,0

[HitObjects]
256,192,11399,5,0,0:0:0:0:
256,192,11754,1,8,0:0:0:0:
256,192,12464,1,0,0:0:0:0:
256,192,12642,1,8,0:0:0:0:
256,192,13175,1,0,0:0:0:0:
256,192,13530,1,8,0:0:0:0:
256,192,13885,1,8,0:0:0:0:
256,192,14062,1,8,0:0:0:0:
256,192,14240,1,0,0:0:0:0:
256,192,14595,1,0,0:0:0:0:
256,192,14950,1,8,0:0:0:0:
256,192,15305,1,0,0:0:0:0:
256,192,15660,1,0,0:0:0:0:
256,192,16370,1,8,0:0:0:0:
256,192,17080,1,0,0:0:0:0:
256,192,17435,1,8,0:0:0:0:
256,192,18145,1,8,0:0:0:0:
256,192,18323,1,0,0:0:0:0:
256,192,18855,1,0,0:0:0:0:
256,192,19210,1,8,0:0:0:0:
256,192,19565,1,8,0:0:0:0:
256,192,19743,1,8,0:0:0:0:
256,192,19920,1,0,0:0:0:0:
256,192,20275,1,0,0:0:0:0:
256,192,20630,1,0,0:0:0:0:
256,192,20985,1,8,0:0:0:0:
256,192,21163,1,8,0:0:0:0:
256,192,21340,1,0,0:0:0:0:
256,192,21695,1,0,0:0:0:0:
256,192,22050,1,8,0:0:0:0:
256,192,22760,1,8,0:0:0:0:
256,192,23115,1,0,0:0:0:0:
256,192,23470,1,8,0:0:0:0:
256,192,23825,1,8,0:0:0:0:
256,192,24003,1,0,0:0:0:0:
256,192,24536,1,0,0:0:0:0:
256,192,24891,1,8,0:0:0:0:
256,192,25246,1,8,0:0:0:0:
256,192,25423,1,8,0:0:0:0:
256,192,25601,1,0,0:0:0:0:
256,192,25956,1,0,0:0:0:0:
256,192,26311,1,8,0:0:0:0:
256,192,26666,1,8,0:0:0:0:
256,192,27021,1,0,0:0:0:0:
256,192,27731,1,8,0:0:0:0:
256,192,28441,1,8,0:0:0:0:
256,192,28796,1,0,0:0:0:0:
256,192,29151,1,0,0:0:0:0:
256,192,29506,1,8,0:0:0:0:
256,192,29683,1,0,0:0:0:0:
256,192,30216,1,0,0:0:0:0:
256,192,30571,1,8,0:0:0:0:
256,192,30926,1,8,0:0:0:0:
256,192,31104,1,8,0:0:0:0:
256,192,31281,1,0,0:0:0:0:
256,192,31636,1,0,0:0:0:0:
256,192,31814,1,8,0:0:0:0:
256,192,32169,1,8,0:0:0:0:
256,192,32346,1,0,0:0:0:0:
256,192,32701,1,0,0:0:0:0:
256,192,33411,1,8,0:0:0:0:
256,192,34121,1,12,0:0:0:0:
256,192,34476,1,0,0:0:0:0:
256,192,34654,1,8,0:0:0:0:
256,192,34831,1,8,0:0:0:0:
256,192,35186,1,8,0:0:0:0:
256,192,35364,1,0,0:0:0:0:
256,192,35719,1,0,0:0:0:0:
256,192,35896,1,8,0:0:0:0:
256,192,36252,1,8,0:0:0:0:
256,192,36607,1,0,0:0:0:0:
256,192,36962,1,8,0:0:0:0:
256,192,37317,1,8,0:0:0:0:
256,192,37494,1,0,0:0:0:0:
256,192,37849,1,0,0:0:0:0:
256,192,38027,1,8,0:0:0:0:
256,192,38204,1,8,0:0:0:0:
256,192,38559,1,0,0:0:0:0:
256,192,39092,1,8,0:0:0:0:
256,192,39802,1,0,0:0:0:0:
256,192,40157,1,8,0:0:0:0:
256,192,40334,1,0,0:0:0:0:
256,192,40689,1,0,0:0:0:0:
256,192,40867,1,8,0:0:0:0:
256,192,41222,1,8,0:0:0:0:
256,192,41399,1,0,0:0:0:0:
256,192,41932,1,0,0:0:0:0:
256,192,42287,1,8,0:0:0:0:
256,192,42642,1,8,0:0:0:0:
256,192,42997,1,0,0:0:0:0:
256,192,43175,1,0,0:0:0:0:
256,192,43352,1,8,0:0:0:0:
256,192,43707,1,8,0:0:0:0:
256,192,43884,1,8,0:0:0:0:
256,192,44062,1,0,0:0:0:0:
256,192,44417,1,0,0:0:0:0:
256,192,44772,1,8,0:0:0:0:
256,192,45482,1,8,0:0:0:0:
256,192,45660,1,8,0:0:0:0:
256,192,45837,1,0,0:0:0:0:
256,192,46370,1,0,0:0:0:0:
256,192,46547,1,8,0:0:0:0:
256,192,46902,1,8,0:0:0:0:
256,192,47257,1,0,0:0:0:0:
256,192,47612,1,8,0:0:0:0:
256,192,48323,1,8,0:0:0:0:
256,192,48500,1,8,0:0:0:0:
256,192,48678,1,0,0:0:0:0:
256,192,49033,1,0,0:0:0:0:
256,192,49210,1,0,0:0:0:0:
256,192,49388,1,8,0:0:0:0:
256,192,49743,1,0,0:0:0:0:
256,192,50098,1,0,0:0:0:0:
256,192,50453,1,8,0:0:0:0:
256,192,51163,1,0,0:0:0:0:
256,192,51518,1,0,0:0:0:0:
256,192,51873,1,8,0:0:0:0:
256,192,52228,1,0,0:0:0:0:
256,192,52405,1,8,0:0:0:0:
256,192,52938,1,0,0:0:0:0:
256,192,53293,1,0,0:0:0:0:
256,192,54003,1,12,0:0:0:0:
256,192,56133,1,0,0:0:0:0:
256,192,56311,1,0,0:0:0:0:
256,192,56843,1,12,0:0:0:0:
256,192,57198,1,0,0:0:0:0:
256,192,57376,1,0,0:0:0:0:
256,192,57553,1,8,0:0:0:0:
256,192,57908,1,0,0:0:0:0:
256,192,58086,1,8,0:0:0:0:
256,192,58263,1,0,0:0:0:0:
256,192,58441,1,0,0:0:0:0:
256,192,58618,1,8,0:0:0:0:
256,192,58973,1,0,0:0:0:0:
256,192,59328,1,0,0:0:0:0:
256,192,59683,1,8,0:0:0:0:
256,192,59861,1,8,0:0:0:0:
256,192,60039,1,0,0:0:0:0:
256,192,60394,1,8,0:0:0:0:
256,192,60749,1,0,0:0:0:0:
256,192,60926,1,8,0:0:0:0:
256,192,61104,1,0,0:0:0:0:
256,192,61459,1,0,0:0:0:0:
256,192,61814,1,8,0:0:0:0:
256,192,62524,1,12,0:0:0:0:
256,192,62879,1,0,0:0:0:0:
256,192,63056,1,0,0:0:0:0:
256,192,63234,1,8,0:0:0:0:
256,192,63411,1,8,0:0:0:0:
256,192,63589,1,0,0:0:0:0:
256,192,63944,1,0,0:0:0:0:
256,192,64121,1,0,0:0:0:0:
256,192,64299,1,12,0:0:0:0:
256,192,64654,1,8,0:0:0:0:
256,192,64831,1,4,0:0:0:0:
256,192,65186,1,0,0:0:0:0:
256,192,65364,1,12,0:0:0:0:
256,192,65719,1,0,0:0:0:0:
256,192,66074,1,8,0:0:0:0:
256,192,66429,1,0,0:0:0:0:
256,192,66607,1,0,0:0:0:0:
256,192,66784,1,8,0:0:0:0:
256,192,67139,1,8,0:0:0:0:
256,192,67317,1,0,0:0:0:0:
256,192,67494,1,0,0:0:0:0:
256,192,68204,1,12,0:0:0:0:
256,192,68559,1,8,0:0:0:0:
256,192,68737,1,8,0:0:0:0:
256,192,68914,1,0,0:0:0:0:
256,192,69092,1,0,0:0:0:0:
256,192,69269,1,8,0:0:0:0:
256,192,69624,1,8,0:0:0:0:
256,192,69802,1,0,0:0:0:0:
256,192,69979,1,8,0:0:0:0:
256,192,70334,1,0,0:0:0:0:
256,192,70689,1,0,0:0:0:0:
256,192,71044,1,8,0:0:0:0:
256,192,71222,1,0,0:0:0:0:
256,192,71399,1,0,0:0:0:0:
256,192,71754,1,8,0:0:0:0:
256,192,72287,1,8,0:0:0:0:
256,192,72465,1,0,0:0:0:0:
256,192,72642,1,0,0:0:0:0:
256,192,72820,1,8,0:0:0:0:
256,192,73175,1,12,0:0:0:0:
256,192,73885,1,8,0:0:0:0:
256,192,74240,1,0,0:0:0:0:
256,192,74417,1,0,0:0:0:0:
256,192,74595,1,8,0:0:0:0:
256,192,75127,1,8,0:0:0:0:
256,192,75305,1,0,0:0:0:0:
256,192,75482,1,8,0:0:0:0:
256,192,75660,1,8,0:0:0:0:
256,192,76015,1,8,0:0:0:0:
256,192,76370,1,0,0:0:0:0:
256,192,76725,1,12,0:0:0:0:
256,192,77080,1,0,0:0:0:0:
256,192,77257,1,0,0:0:0:0:
256,192,77435,1,8,0:0:0:0:
256,192,77790,1,8,0:0:0:0:
256,192,78145,1,0,0:0:0:0:
256,192,78323,1,8,0:0:0:0:
256,192,78500,1,0,0:0:0:0:
256,192,78855,1,12,0:0:0:0:
256,192,79033,1,12,0:0:0:0:
256,192,79565,1,12,0:0:0:0:
256,192,79920,1,0,0:0:0:0:
256,192,80098,1,0,0:0:0:0:
256,192,80275,1,8,0:0:0:0:
256,192,80985,1,8,0:0:0:0:
256,192,81340,1,8,0:0:0:0:
256,192,81518,1,0,0:0:0:0:
256,192,81695,1,8,0:0:0:0:
256,192,82050,1,0,0:0:0:0:
256,192,82228,1,0,0:0:0:0:
256,192,82405,1,8,0:0:0:0:
256,192,82760,1,8,0:0:0:0:
256,192,83115,1,0,0:0:0:0:
256,192,83470,1,8,0:0:0:0:
256,192,83648,1,0,0:0:0:0:
256,192,83825,1,8,0:0:0:0:
256,192,84003,1,0,0:0:0:0:
256,192,84181,1,8,0:0:0:0:
256,192,84536,1,0,0:0:0:0:
256,192,84891,1,8,0:0:0:0:
256,192,85068,1,0,0:0:0:0:
256,192,85246,1,8,0:0:0:0:
256,192,85778,1,0,0:0:0:0:
256,192,85956,1,8,0:0:0:0:
256,192,86311,1,0,0:0:0:0:
256,192,86488,1,0,0:0:0:0:
256,192,86666,1,12,0:0:0:0:
256,192,87021,1,12,0:0:0:0:
