osu file format v14

[General]
AudioFilename: audio.mp3
AudioLeadIn: 0
PreviewTime: 55689
Countdown: 0
SampleSet: Normal
StackLeniency: 0.7
Mode: 1
LetterboxInBreaks: 0
WidescreenStoryboard: 1

[Editor]
Bookmarks: 11399,17080,22760,28441,34121,39802,45482,56843
DistanceSpacing: 1.4
BeatDivisor: 4
GridSize: 32
TimelineZoom: 3.199999

[Metadata]
Title:Uso Janai (TV Size)
TitleUnicode:嘘じゃない (TV Size)
Artist:Soushi Sakiyama
ArtistUnicode:崎山蒼志
Creator:Ryxliee
Version:Froskya's Promise
Source:僕のヒーローアカデミア
Tags:Anime Japanese Jpop Pop J-pop Believe BNHA MHA Boku No Hero My Academia Season 5 Five Ending Ed2 Ed 2 Two Hawks Male Vocalist Froskya Revialink Tachibana_
BeatmapID:3514143
BeatmapSetID:1711971

[Difficulty]
HPDrainRate:5.5
CircleSize:2
OverallDifficulty:5
ApproachRate:10
SliderMultiplier:1.4
SliderTickRate:1

[Events]
//Background and Video events
0,0,"96506504_p20.png",0,-65
//Break Periods
//Storyboard Layer 0 (Background)
//Storyboard Layer 1 (Fail)
//Storyboard Layer 2 (Pass)
//Storyboard Layer 3 (Foreground)
//Storyboard Layer 4 (Overlay)
//Storyboard Sound Samples

[TimingPoints]
39,355.029585798817,4,1,0,40,1,0
34121,-100,4,1,0,55,0,0
45482,-100,4,1,0,65,0,0
56843,-100,4,1,0,75,0,1
79033,-100,4,1,0,75,0,0
79565,-100,4,1,0,75,0,1
87021,-100,4,1,0,75,0,0

[HitObjects]
256,192,11399,5,8,0:0:0:0:
256,192,11576,1,8,0:0:0:0:
256,192,11754,1,0,0:0:0:0:
256,192,12110,1,8,0:0:0:0:
256,192,12465,1,0,0:0:0:0:
256,192,12642,1,8,0:0:0:0:
256,192,13175,1,0,0:0:0:0:
256,192,13352,1,0,0:0:0:0:
256,192,13530,1,8,0:0:0:0:
256,192,13707,1,0,0:0:0:0:
256,192,13885,1,8,0:0:0:0:
256,192,14062,1,8,0:0:0:0:
256,192,14240,1,0,0:0:0:0:
256,192,14595,1,0,0:0:0:0:
256,192,14950,1,8,0:0:0:0:
256,192,15305,1,8,0:0:0:0:
256,192,15660,1,0,0:0:0:0:
256,192,16370,1,8,0:0:0:0:
256,192,17080,5,8,0:0:0:0:
256,192,17257,1,8,0:0:0:0:
256,192,17435,1,0,0:0:0:0:
256,192,17791,1,8,0:0:0:0:
256,192,18146,1,0,0:0:0:0:
256,192,18323,1,8,0:0:0:0:
256,192,18856,1,0,0:0:0:0:
256,192,19033,1,0,0:0:0:0:
256,192,19211,1,8,0:0:0:0:
256,192,19388,1,0,0:0:0:0:
256,192,19566,1,8,0:0:0:0:
256,192,19743,1,8,0:0:0:0:
256,192,19921,1,0,0:0:0:0:
256,192,20276,1,0,0:0:0:0:
256,192,20631,1,8,0:0:0:0:
256,192,20986,1,8,0:0:0:0:
256,192,21341,1,0,0:0:0:0:
256,192,21695,1,8,0:0:0:0:
256,192,21873,1,0,0:0:0:0:
256,192,22051,1,8,0:0:0:0:
256,192,22583,1,0,0:0:0:0:
256,192,22760,5,8,0:0:0:0:
256,192,22937,1,8,0:0:0:0:
256,192,23115,1,0,0:0:0:0:
256,192,23471,1,8,0:0:0:0:
256,192,23826,1,0,0:0:0:0:
256,192,24003,1,8,0:0:0:0:
256,192,24536,1,0,0:0:0:0:
256,192,24713,1,0,0:0:0:0:
256,192,24891,1,8,0:0:0:0:
256,192,25068,1,0,0:0:0:0:
256,192,25246,1,8,0:0:0:0:
256,192,25423,1,8,0:0:0:0:
256,192,25601,1,0,0:0:0:0:
256,192,25956,1,0,0:0:0:0:
256,192,26311,1,8,0:0:0:0:
256,192,26666,1,8,0:0:0:0:
256,192,27021,1,0,0:0:0:0:
256,192,27731,1,8,0:0:0:0:
256,192,28263,1,0,0:0:0:0:
256,192,28441,5,8,0:0:0:0:
256,192,28618,1,8,0:0:0:0:
256,192,28796,1,0,0:0:0:0:
256,192,29152,1,8,0:0:0:0:
256,192,29507,1,0,0:0:0:0:
256,192,29684,1,8,0:0:0:0:
256,192,30217,1,0,0:0:0:0:
256,192,30394,1,0,0:0:0:0:
256,192,30572,1,8,0:0:0:0:
256,192,30749,1,0,0:0:0:0:
256,192,30927,1,8,0:0:0:0:
256,192,31104,1,8,0:0:0:0:
256,192,31282,1,0,0:0:0:0:
256,192,31637,1,0,0:0:0:0:
256,192,31814,1,8,0:0:0:0:
256,192,32169,1,8,0:0:0:0:
256,192,32347,1,0,0:0:0:0:
256,192,32702,1,0,0:0:0:0:
256,192,33412,1,8,0:0:0:0:
256,192,34121,1,12,0:0:0:0:
256,192,34299,1,0,0:0:0:0:
256,192,34476,1,0,0:0:0:0:
256,192,34654,1,8,0:0:0:0:
256,192,34713,1,8,0:0:0:0:
256,192,34772,1,8,0:0:0:0:
256,192,34831,1,8,0:0:0:0:
256,192,35009,1,0,0:0:0:0:
256,192,35186,1,8,0:0:0:0:
256,192,35275,1,8,0:0:0:0:
256,192,35364,1,8,0:0:0:0:
256,192,35541,1,0,0:0:0:0:
256,192,35719,1,8,0:0:0:0:
256,192,35896,1,0,0:0:0:0:
256,192,36252,1,8,0:0:0:0:
256,192,36607,1,0,0:0:0:0:
256,192,36962,1,8,0:0:0:0:
256,192,37139,1,0,0:0:0:0:
256,192,37317,1,0,0:0:0:0:
256,192,37849,1,0,0:0:0:0:
256,192,38027,1,8,0:0:0:0:
256,192,38204,1,8,0:0:0:0:
256,192,38293,1,8,0:0:0:0:
256,192,38382,1,0,0:0:0:0:
256,192,38559,1,8,0:0:0:0:
256,192,38737,1,0,0:0:0:0:
256,192,39092,1,8,0:0:0:0:
256,192,39624,1,0,0:0:0:0:
256,192,39713,1,0,0:0:0:0:
256,192,39802,1,8,0:0:0:0:
256,192,39979,1,0,0:0:0:0:
256,192,40157,1,8,0:0:0:0:
256,192,40246,1,0,0:0:0:0:
256,192,40334,1,8,0:0:0:0:
256,192,40512,1,0,0:0:0:0:
256,192,40689,1,8,0:0:0:0:
256,192,41222,1,8,0:0:0:0:
256,192,41399,1,8,0:0:0:0:
256,192,41577,1,0,0:0:0:0:
256,192,41932,1,8,0:0:0:0:
256,192,42287,1,0,0:0:0:0:
256,192,42642,1,8,0:0:0:0:
256,192,42820,1,0,0:0:0:0:
256,192,42997,1,0,0:0:0:0:
256,192,43530,1,0,0:0:0:0:
256,192,43618,1,0,0:0:0:0:
256,192,43707,1,8,0:0:0:0:
256,192,43885,1,8,0:0:0:0:
256,192,44062,1,0,0:0:0:0:
256,192,44417,1,0,0:0:0:0:
256,192,44772,1,8,0:0:0:0:
256,192,44950,1,0,0:0:0:0:
256,192,45127,1,0,0:0:0:0:
256,192,45305,1,0,0:0:0:0:
256,192,45394,1,0,0:0:0:0:
256,192,45482,1,8,0:0:0:0:
256,192,45660,1,8,0:0:0:0:
256,192,45837,1,0,0:0:0:0:
256,192,46192,1,0,0:0:0:0:
256,192,46370,1,8,0:0:0:0:
256,192,46459,1,0,0:0:0:0:
256,192,46547,1,8,0:0:0:0:
256,192,46725,1,0,0:0:0:0:
256,192,46902,1,8,0:0:0:0:
256,192,47080,1,0,0:0:0:0:
256,192,47257,1,0,0:0:0:0:
256,192,47612,1,8,0:0:0:0:
256,192,48145,1,0,0:0:0:0:
256,192,48234,1,0,0:0:0:0:
256,192,48323,1,8,0:0:0:0:
256,192,48500,1,8,0:0:0:0:
256,192,48678,1,0,0:0:0:0:
256,192,48855,1,0,0:0:0:0:
256,192,49033,1,8,0:0:0:0:
256,192,49210,1,8,0:0:0:0:
256,192,49299,1,0,0:0:0:0:
256,192,49388,1,8,0:0:0:0:
256,192,49565,1,0,0:0:0:0:
256,192,49743,1,8,0:0:0:0:
256,192,50098,1,0,0:0:0:0:
256,192,50453,1,8,0:0:0:0:
256,192,51163,1,8,0:0:0:0:
256,192,51340,1,0,0:0:0:0:
256,192,51518,1,8,0:0:0:0:
256,192,51695,1,0,0:0:0:0:
256,192,51784,1,0,0:0:0:0:
256,192,51873,1,8,0:0:0:0:
256,192,52228,1,0,0:0:0:0:
256,192,52405,1,8,0:0:0:0:
256,192,52760,1,8,0:0:0:0:
256,192,52938,1,0,0:0:0:0:
256,192,53293,1,8,0:0:0:0:
256,192,54003,1,4,0:0:0:0:
256,192,54358,1,8,0:0:0:0:
256,192,54713,1,8,0:0:0:0:
256,192,55068,1,8,0:0:0:0:
256,192,55246,1,0,0:0:0:0:
256,192,55778,1,8,0:0:0:0:
256,192,56133,5,0,0:0:0:0:
256,192,56222,1,0,0:0:0:0:
256,192,56311,1,0,0:0:0:0:
256,192,56488,1,8,0:0:0:0:
256,192,56843,1,12,0:0:0:0:
256,192,57198,1,8,0:0:0:0:
256,192,57376,1,0,0:0:0:0:
256,192,57464,1,0,0:0:0:0:
256,192,57553,1,8,0:0:0:0:
256,192,57731,1,0,0:0:0:0:
256,192,57908,1,8,0:0:0:0:
256,192,57997,1,8,0:0:0:0:
256,192,58086,1,0,0:0:0:0:
256,192,58175,1,0,0:0:0:0:
256,192,58263,1,8,0:0:0:0:
256,192,58441,1,8,0:0:0:0:
256,192,58530,1,0,0:0:0:0:
256,192,58618,1,8,0:0:0:0:
256,192,58796,1,0,0:0:0:0:
256,192,58973,1,8,0:0:0:0:
256,192,59328,1,8,0:0:0:0:
256,192,59506,1,0,0:0:0:0:
256,192,59595,1,0,0:0:0:0:
256,192,59683,1,8,0:0:0:0:
256,192,60039,1,0,0:0:0:0:
256,192,60394,1,8,0:0:0:0:
256,192,60571,1,0,0:0:0:0:
256,192,60749,1,8,0:0:0:0:
256,192,60837,1,0,0:0:0:0:
256,192,60926,1,8,0:0:0:0:
256,192,61104,1,0,0:0:0:0:
256,192,61281,1,8,0:0:0:0:
256,192,61459,1,0,0:0:0:0:
256,192,61636,1,0,0:0:0:0:
256,192,61725,1,0,0:0:0:0:
256,192,61814,1,8,0:0:0:0:
256,192,61991,1,0,0:0:0:0:
256,192,62080,1,0,0:0:0:0:
256,192,62169,1,8,0:0:0:0:
256,192,62257,1,8,0:0:0:0:
256,192,62346,1,0,0:0:0:0:
256,192,62524,1,12,0:0:0:0:
256,192,62879,1,8,0:0:0:0:
256,192,63056,1,0,0:0:0:0:
256,192,63145,1,0,0:0:0:0:
256,192,63234,1,8,0:0:0:0:
256,192,63411,1,0,0:0:0:0:
256,192,63589,1,8,0:0:0:0:
256,192,63766,1,8,0:0:0:0:
256,192,63944,1,0,0:0:0:0:
256,192,64121,1,0,0:0:0:0:
256,192,64299,1,12,0:0:0:0:
256,192,64654,1,0,0:0:0:0:
256,192,64831,1,12,0:0:0:0:
256,192,65186,1,0,0:0:0:0:
256,192,65275,1,0,0:0:0:0:
256,192,65364,1,12,0:0:0:0:
256,192,65719,1,0,0:0:0:0:
256,192,66074,1,8,0:0:0:0:
256,192,66429,1,8,0:0:0:0:
256,192,66607,1,0,0:0:0:0:
256,192,66784,1,12,0:0:0:0:
256,192,67139,1,0,0:0:0:0:
256,192,67317,1,0,0:0:0:0:
256,192,67405,1,0,0:0:0:0:
256,192,67494,1,8,0:0:0:0:
256,192,67672,1,8,0:0:0:0:
256,192,67849,1,0,0:0:0:0:
256,192,68204,1,12,0:0:0:0:
256,192,68559,1,8,0:0:0:0:
256,192,68737,1,0,0:0:0:0:
256,192,68825,1,0,0:0:0:0:
256,192,68914,1,8,0:0:0:0:
256,192,69092,1,0,0:0:0:0:
256,192,69269,1,8,0:0:0:0:
256,192,69447,1,8,0:0:0:0:
256,192,69536,1,8,0:0:0:0:
256,192,69624,1,0,0:0:0:0:
256,192,69802,1,8,0:0:0:0:
256,192,69979,1,0,0:0:0:0:
256,192,70334,1,8,0:0:0:0:
256,192,70689,1,8,0:0:0:0:
256,192,70867,1,0,0:0:0:0:
256,192,70956,1,0,0:0:0:0:
256,192,71044,1,8,0:0:0:0:
256,192,71399,1,0,0:0:0:0:
256,192,71754,1,8,0:0:0:0:
256,192,71932,1,0,0:0:0:0:
256,192,72110,1,0,0:0:0:0:
256,192,72287,1,8,0:0:0:0:
256,192,72376,1,0,0:0:0:0:
256,192,72465,1,8,0:0:0:0:
256,192,72642,1,8,0:0:0:0:
256,192,72820,1,0,0:0:0:0:
256,192,73175,1,12,0:0:0:0:
256,192,73352,1,0,0:0:0:0:
256,192,73707,1,0,0:0:0:0:
256,192,73796,1,0,0:0:0:0:
256,192,73884,1,12,0:0:0:0:
256,192,74062,1,8,0:0:0:0:
256,192,74240,1,0,0:0:0:0:
256,192,74417,1,0,0:0:0:0:
256,192,74506,1,0,0:0:0:0:
256,192,74595,1,8,0:0:0:0:
256,192,74950,1,0,0:0:0:0:
256,192,75127,1,8,0:0:0:0:
256,192,75216,1,0,0:0:0:0:
256,192,75305,1,8,0:0:0:0:
256,192,75482,1,0,0:0:0:0:
256,192,75660,1,8,0:0:0:0:
256,192,75837,1,0,0:0:0:0:
256,192,75926,1,0,0:0:0:0:
256,192,76015,1,8,0:0:0:0:
256,192,76192,1,0,0:0:0:0:
256,192,76370,1,0,0:0:0:0:
256,192,76547,1,8,0:0:0:0:
256,192,76725,1,12,0:0:0:0:
256,192,77080,1,8,0:0:0:0:
256,192,77257,1,0,0:0:0:0:
256,192,77435,1,8,0:0:0:0:
256,192,77790,1,8,0:0:0:0:
256,192,77967,1,0,0:0:0:0:
256,192,78056,1,0,0:0:0:0:
256,192,78145,1,8,0:0:0:0:
256,192,78323,1,0,0:0:0:0:
256,192,78500,1,8,0:0:0:0:
256,192,78678,1,0,0:0:0:0:
256,192,78855,1,4,0:0:0:0:
256,192,79033,1,4,0:0:0:0:
256,192,79565,5,12,0:0:0:0:
256,192,79920,1,8,0:0:0:0:
256,192,80098,1,8,0:0:0:0:
256,192,80275,1,0,0:0:0:0:
256,192,80630,1,0,0:0:0:0:
256,192,80808,1,8,0:0:0:0:
256,192,80896,1,8,0:0:0:0:
256,192,80985,1,0,0:0:0:0:
256,192,81163,1,0,0:0:0:0:
256,192,81340,1,8,0:0:0:0:
256,192,81518,1,8,0:0:0:0:
256,192,81607,1,0,0:0:0:0:
256,192,81695,1,8,0:0:0:0:
256,192,81873,1,0,0:0:0:0:
256,192,82050,1,8,0:0:0:0:
256,192,82228,1,8,0:0:0:0:
256,192,82317,1,8,0:0:0:0:
256,192,82405,1,0,0:0:0:0:
256,192,82760,1,0,0:0:0:0:
256,192,82849,1,0,0:0:0:0:
256,192,82938,1,8,0:0:0:0:
256,192,83027,1,8,0:0:0:0:
256,192,83115,1,0,0:0:0:0:
256,192,83293,1,8,0:0:0:0:
256,192,83470,1,8,0:0:0:0:
256,192,83648,1,0,0:0:0:0:
256,192,83737,1,0,0:0:0:0:
256,192,83825,1,8,0:0:0:0:
256,192,84003,1,0,0:0:0:0:
256,192,84181,1,8,0:0:0:0:
256,192,84269,1,8,0:0:0:0:
256,192,84358,1,0,0:0:0:0:
256,192,84536,1,8,0:0:0:0:
256,192,84713,1,0,0:0:0:0:
256,192,84891,1,8,0:0:0:0:
256,192,84979,1,8,0:0:0:0:
256,192,85068,1,0,0:0:0:0:
256,192,85157,1,0,0:0:0:0:
256,192,85246,1,12,0:0:0:0:
256,192,85601,1,8,0:0:0:0:
256,192,85778,1,0,0:0:0:0:
256,192,85867,1,0,0:0:0:0:
256,192,85956,1,12,0:0:0:0:
256,192,86311,1,0,0:0:0:0:
256,192,86488,1,0,0:0:0:0:
256,192,86577,1,0,0:0:0:0:
256,192,86666,1,12,0:0:0:0:
256,192,87021,1,12,0:0:0:0:
256,192,87376,1,0,0:0:0:0:
256,192,87731,1,8,0:0:0:0:
