osu file format v14

[General]
AudioFilename: audio.mp3
AudioLeadIn: 0
PreviewTime: 55622
Countdown: 0
SampleSet: Soft
StackLeniency: 0.7
Mode: 0
LetterboxInBreaks: 0
WidescreenStoryboard: 1

[Editor]
DistanceSpacing: 1.3
BeatDivisor: 4
GridSize: 8
TimelineZoom: 2.5

[Metadata]
Title:Uso Janai (TV Size)
TitleUnicode:嘘じゃない (TV Size)
Artist:Soushi Sakiyama
ArtistUnicode:崎山蒼志
Creator:Ryxliee
Version:Esutarosa's Belief
Source:僕のヒーローアカデミア
Tags:Anime Japanese Jpop Pop J-pop Believe BNHA MHA Boku No Hero My Academia Season 5 Five Ending Ed2 Ed 2 Two Hawks Male Vocalist Froskya Esutarosa Revialink
BeatmapID:3153176
BeatmapSetID:1529048

[Difficulty]
HPDrainRate:5
CircleSize:4
OverallDifficulty:7.2
ApproachRate:8.4
SliderMultiplier:1.55
SliderTickRate:1

[Events]
//Background and Video events
0,0,"81138363_p0.jpg",0,0
Video,0,"video.mp4"
//Break Periods
//Storyboard Layer 0 (Background)
//Storyboard Layer 1 (Fail)
//Storyboard Layer 2 (Pass)
//Storyboard Layer 3 (Foreground)
//Storyboard Layer 4 (Overlay)
//Storyboard Sound Samples

[TimingPoints]
40,710.059171597633,4,2,1,54,1,0
11400,-65.359477124183,4,2,1,34,0,0
17081,-65.359477124183,4,2,1,36,0,0
22761,-65.359477124183,4,2,1,38,0,0
28442,-65.359477124183,4,2,1,40,0,0
34122,-58.1395348837209,4,2,3,37,0,0
34655,-58.1395348837209,4,2,3,41,0,0
34832,-58.1395348837209,4,2,3,44,0,0
39803,-58.1395348837209,4,2,3,46,0,0
42643,-58.1395348837209,4,2,3,47,0,0
43531,-58.1395348837209,4,2,3,38,0,0
43619,-58.1395348837209,4,2,3,40,0,0
43708,-58.1395348837209,4,2,3,50,0,0
43886,-58.1395348837209,4,2,3,48,0,0
44063,-58.1395348837209,4,2,3,46,0,0
44418,-58.1395348837209,4,2,3,45,0,0
44773,-58.1395348837209,4,2,3,50,0,0
44951,-58.1395348837209,4,2,3,52,0,0
45128,-58.1395348837209,4,2,3,51,0,0
45306,-58.1395348837209,4,2,3,53,0,0
45483,-58.1395348837209,4,2,3,57,0,0
51164,-58.1395348837209,4,2,3,59,0,0
54004,-47.1698113207547,4,2,2,62,0,1
54048,-47.1698113207547,4,2,2,5,0,1
54093,-47.1698113207547,4,2,2,5,0,0
54359,-47.1698113207547,4,2,2,38,0,0
55069,-47.1698113207547,4,2,2,40,0,0
55247,-47.1698113207547,4,2,2,37,0,0
55779,-47.1698113207547,4,2,2,38,0,0
56134,-47.1698113207547,4,2,0,60,0,0
56312,-81.3008130081301,4,2,4,55,0,0
56400,-81.3008130081301,4,2,4,5,0,0
56489,-81.3008130081301,4,2,2,52,0,0
56755,-81.3008130081301,4,2,2,5,0,0
56844,-48.3091787439614,4,2,4,68,0,1
78146,-48.3091787439614,4,2,4,67,0,1
78324,-48.3091787439614,4,2,4,68,0,1
78501,-48.3091787439614,4,2,4,66,0,1
78679,-48.3091787439614,4,2,4,68,0,1
79034,-48.3091787439614,4,2,4,68,0,0
79566,-48.3091787439614,4,2,4,63,0,1
87022,-48.3091787439614,4,2,2,60,0,0
87377,-48.3091787439614,4,2,2,38,0,0
87732,-48.3091787439614,4,2,2,35,0,0

[Colours]
Combo1 : 210,118,91
Combo2 : 228,86,86
Combo3 : 202,165,147
Combo4 : 218,181,118

[HitObjects]
466,44,11400,6,0,P|435:52|414:95,1,59.2875,2|2,3:2|0:0,0:0:0:0:
335,76,11755,2,0,P|357:132|376:200,1,118.575,2|8,0:0|3:2,0:0:0:0:
360,334,12466,2,0,P|389:339|419:310,1,59.2875026687337,2|2,0:0|0:0,0:0:0:0:
467,269,12821,1,2,3:2:0:0:
261,128,13176,5,2,0:0:0:0:
261,128,13353,1,2,0:0:0:0:
202,195,13531,2,0,P|173:201|133:214,1,59.2875026687337,10|2,3:2|0:0,0:0:0:0:
276,260,13886,2,0,P|305:266|345:279,1,59.2875026687337,2|2,0:0|0:0,0:0:0:0:
446,221,14241,2,0,B|461:184|461:184|417:112,2,118.575005337467,2|2|10,3:2|0:0|3:2,0:0:0:0:
400,315,15306,2,0,P|367:333|345:329,1,59.2875026687337,2|0,0:0|0:0,0:0:0:0:
278,293,15661,1,0,3:0:0:0:
278,293,16371,1,8,3:2:0:0:
41,52,17081,6,0,P|74:66|92:101,1,59.2875026687337,2|2,3:2|0:0,0:0:0:0:
180,94,17436,2,0,P|155:147|133:214,1,118.575005337467,2|8,0:0|3:2,0:0:0:0:
48,292,18146,2,0,P|64:327|103:339,1,59.2875026687337,2|2,0:0|0:0,0:0:0:0:
156,352,18501,1,0,3:2:0:0:
337,232,18856,5,2,0:0:0:0:
337,232,19034,1,2,0:0:0:0:
275,167,19211,2,0,P|248:157|208:147,1,59.2875026687337,10|2,3:2|0:0,0:0:0:0:
341,90,19566,2,0,P|367:80|408:70,1,59.2875026687337,2|2,0:0|0:0,0:0:0:0:
506,159,19921,2,0,B|492:210|492:210|492:220|492:220|474:288,2,118.575005337467,2|2|10,3:2|0:0|3:2,0:0:0:0:
389,295,20986,2,0,P|361:315|325:313,1,59.2875026687337,2|0,0:0|0:0,0:0:0:0:
264,288,21341,1,0,3:0:0:0:
264,288,21696,2,0,P|270:262|283:214,1,59.2875026687337,2|2,0:0|0:0,0:0:0:0:
213,188,22051,2,0,P|195:102|174:-1,1,177.862508006201,8|2,3:2|0:0,0:0:0:0:
286,18,22761,6,0,P|331:30|342:59,1,59.2875026687337,2|2,3:2|0:0,0:0:0:0:
360,129,23116,1,2,0:0:0:0:
360,129,23471,2,0,P|309:154|247:195,1,118.575005337467,10|2,3:2|0:0,0:0:0:0:
168,186,24004,1,2,0:0:0:0:
124,275,24182,2,0,P|152:283|180:293,1,59.2875026687337,0|0,3:2|0:0,0:0:0:0:
294,365,24537,5,2,0:0:0:0:
294,365,24714,1,2,0:0:0:0:
360,307,24892,2,0,P|383:297|420:288,1,59.2875026687337,10|2,3:2|0:0,0:0:0:0:
288,230,25247,2,0,P|264:220|228:211,1,59.2875026687337,2|2,0:0|0:0,0:0:0:0:
131,133,25602,2,0,B|91:147|91:147|12:106,2,118.575005337467,2|2|10,3:2|0:0|3:2,0:0:0:0:
201,47,26667,2,0,P|221:25|259:21,1,59.2875026687337,2|0,0:0|0:0,0:0:0:0:
325,32,27022,1,0,3:0:0:0:
325,32,27732,1,8,3:2:0:0:
512,219,28264,5,2,0:0:0:0:
512,219,28442,2,0,P|482:228|449:249,1,59.2875026687337,2|2,3:2|0:0,0:0:0:0:
392,303,28797,1,2,0:0:0:0:
392,303,29152,2,0,P|333:307|302:244,1,118.575005337467,10|2,3:2|0:0,0:0:0:0:
345,181,29684,1,2,0:0:0:0:
298,100,29862,2,0,P|265:102|229:113,1,59.2875026687337,0|0,3:2|0:0,0:0:0:0:
136,179,30217,5,2,0:0:0:0:
136,179,30395,1,2,0:0:0:0:
74,114,30572,2,0,P|47:104|7:94,1,59.2875026687337,10|2,3:2|0:0,0:0:0:0:
140,37,30927,2,0,P|166:27|207:17,1,59.2875026687337,2|2,0:0|0:0,0:0:0:0:
308,76,31282,2,0,B|367:96|367:96|370:101|370:101|422:117,2,118.575005337467,2|2|8,3:2|0:0|3:2,0:0:0:0:
432,209,32170,1,2,0:0:0:0:
432,209,32347,2,0,P|411:237|376:242,1,59.2875026687337,2|0,0:0|0:0,0:0:0:0:
313,226,32702,1,0,3:0:0:0:
313,226,33412,2,0,P|299:283|186:264,1,177.862508006201,8|0,3:2|0:0,0:0:0:0:
131,203,34122,6,0,P|140:170|152:132,1,66.6500010169983,2|0,3:0|3:0,0:0:0:0:
235,36,34477,1,2,3:2:0:0:
77,80,34655,6,0,L|68:55,2,22.2166670056661,2|0|0,0:0|0:0|0:0,0:0:0:0:
80,95,34832,6,0,P|58:163|37:239,1,133.300002033997,2|2,0:0|0:0,0:0:0:0:
66,333,35365,2,0,P|105:336|136:293,1,66.6500010169983,2|0,0:0|0:0,0:0:0:0:
245,262,35720,1,2,3:2:0:0:
135,174,35897,2,0,P|141:208|149:249,1,66.6500010169983,2|0,3:2|0:0,0:0:0:0:
215,360,36253,2,0,P|244:347|288:336,1,66.6500010169983,8|0,0:0|0:0,0:0:0:0:
343,273,36608,2,0,P|372:286|416:297,1,66.6500010169983,0|0,3:0|0:0,0:0:0:0:
512,227,36963,6,0,P|496:162|474:83,1,133.300002033997,2|0,3:0|3:0,0:0:0:0:
396,21,37495,2,0,P|366:37|361:77,1,66.6500010169983
449,163,37850,1,2,0:0:0:0:
377,235,38028,2,0,P|345:226|297:218,1,66.6500010169983,2|2,3:2|0:0,0:0:0:0:
192,125,38383,2,0,P|203:156|215:198,1,66.6500010169983,0|2,0:0|0:0,0:0:0:0:
228,327,38738,1,0,3:0:0:0:
228,327,39093,2,0,P|199:351|153:348,2,66.6500010169983,10|0|0,0:0|0:0|0:0,0:0:0:0:
90,282,39803,6,0,P|82:246|75:209,1,66.6500010169983,2|0,3:0|3:0,0:0:0:0:
128,98,40158,1,2,3:2:0:0:
0,202,40335,2,0,P|7:166|15:129,1,66.6500010169983,2|0,0:0|0:0,0:0:0:0:
130,0,40690,2,0,B|99:0|79:27|99:57|99:57|130:100,1,133.300002033997,2|0,0:0|0:0,0:0:0:0:
238,161,41223,1,2,0:0:0:0:
193,250,41400,2,0,P|161:260|130:272,1,66.6500010169983,2|0,0:0|3:0,0:0:0:0:
296,60,41933,6,0,P|328:70|359:82,1,66.6500010169983,10|0,0:0|0:0,0:0:0:0:
486,40,42288,2,0,P|467:71|451:101,1,66.6500010169983,2|0,0:0|0:0,0:0:0:0:
365,186,42643,2,0,P|386:256|406:331,1,133.300002033997,2|0,3:0|3:0,0:0:0:0:
290,384,43176,2,0,P|298:350|339:334,1,66.6500010169983
475,267,43531,1,2,0:0:0:0:
475,267,43619,1,2,0:0:0:0:
475,267,43708,2,0,L|490:226,6,33.3250005084992,2|0|2|0|2|0|0,3:2|0:0|0:0|0:0|0:0|0:0|0:0,0:0:0:0:
443,348,44418,1,0,3:0:0:0:
274,142,44773,5,8,0:0:0:0:
312,261,44951,1,2,3:2:0:0:
207,331,45128,1,2,3:2:0:0:
228,256,45306,1,2,3:2:0:0:
188,136,45483,6,0,P|138:119|88:187,1,133.300002033997,2|0,3:0|3:0,0:0:0:0:
88,284,46016,2,0,P|119:270|158:259,1,66.6500010169983,0|2,0:0|0:0,0:0:0:0:
276,240,46371,1,2,0:0:0:0:
153,336,46548,2,0,P|184:345|215:359,1,66.6500010169983,2|0,0:0|0:0,0:0:0:0:
351,368,46903,2,0,P|396:342|365:262,1,133.300002033997,2|0,0:0|3:0,0:0:0:0:
330,174,47613,5,8,0:0:0:0:
334,183,47791,1,0,0:0:0:0:
428,154,47968,1,0,0:0:0:0:
432,145,48146,1,2,0:0:0:0:
385,32,48324,6,0,P|320:46|241:68,1,133.300002033997,2|0,3:0|3:0,0:0:0:0:
134,16,48856,2,0,P|156:46|182:86,1,66.6500010169983,0|2,0:0|0:0,0:0:0:0:
280,145,49211,1,2,0:0:0:0:
116,192,49389,2,0,P|148:177|195:161,1,66.6500010169983,2|0,3:2|0:0,0:0:0:0:
320,79,49744,2,0,P|362:112|334:192,1,133.300002033997,2|0,0:0|3:0,0:0:0:0:
219,220,50454,5,8,0:0:0:0:
224,236,50631,1,0,0:0:0:0:
321,297,50809,1,0,0:0:0:0:
326,281,50986,1,0,0:0:0:0:
228,365,51164,6,0,P|199:356|157:350,1,66.6500010169983,2|0,3:0|3:0,0:0:0:0:
326,275,51519,2,0,P|354:266|397:260,1,66.6500010169983,2|0,3:2|0:0,0:0:0:0:
207,188,51874,2,0,P|218:223|229:259,1,66.6500010169983,2|0,0:0|0:0,0:0:0:0:
301,348,52229,1,2,0:0:0:0:
166,318,52406,2,0,P|99:338|33:364,1,133.300002033997,2|0,0:0|0:0,0:0:0:0:
72,239,52939,1,2,3:2:0:0:
181,130,53294,5,8,0:0:0:0:
179,116,53471,1,0,0:0:0:0:
82,60,53649,1,0,0:0:0:0:
80,74,53826,1,0,0:0:0:0:
167,295,54004,6,0,L|199:311,1,20.5375000313377,0|0,3:0|0:0,0:0:0:0:
466,40,56134,5,4,1:0:0:0:
466,40,56223,1,0,1:0:0:0:
466,40,56312,2,0,L|455:79,1,23.831250363636,0|0,3:0|0:0,0:0:0:0:
403,133,56489,2,0,B|410:168|410:168|409:173|409:173|419:214,1,71.4937510909081,2|0,0:0|0:0,0:0:0:0:
479,293,56844,6,0,B|445:313|445:313|443:318|443:318|392:346,1,80.2125022337008,4|0,3:1|0:0,0:0:0:0:
244,175,57199,2,0,B|275:192|275:192|277:197|277:197|311:217,1,80.2125022337008,2|0,3:2|0:0,0:0:0:0:
512,100,57554,2,0,P|498:137|485:175,1,80.2125022337008,10|0,1:2|0:0,0:0:0:0:
348,32,57909,1,2,1:2:0:0:
408,236,58087,1,8,0:0:0:0:
242,53,58264,2,0,B|217:53|201:64|201:64|196:90|209:120,1,80.2125022337008,2|8,3:2|0:0,0:0:0:0:
494,26,58619,2,0,B|453:25|434:66|437:74|440:81|422:123|379:122,1,160.425004467402,2|10,3:2|1:2,0:0:0:0:
245,56,59152,1,0,0:0:0:0:
199,213,59329,2,0,P|234:198|319:170,1,120.318753350551,2|0,1:2|1:0,0:0:0:0:
392,191,59684,6,0,P|403:237|373:269,1,80.2125022337008,2|0,3:2|0:0,0:0:0:0:
274,318,60039,1,2,3:2:0:0:
274,318,60395,2,0,B|310:327|310:327|317:333|317:333|364:346,1,80.2125022337008,10|0,1:2|0:0,0:0:0:0:
311,171,60750,2,0,B|274:180|274:180|268:186|268:186|221:199,1,80.2125022337008,2|8,1:2|1:2,0:0:0:0:
112,130,61105,1,2,3:2:0:0:
194,293,61282,1,8,0:0:0:0:
261,87,61460,2,0,B|300:64|300:64|353:96,1,80.2125022337008,2|0,3:2|0:0,0:0:0:0:
424,253,61815,2,0,B|385:276|385:276|355:257,1,80.2125022337008,10|0,1:2|0:0,0:0:0:0:
163,158,62170,5,2,1:2:0:0:
403,62,62347,1,0,1:0:0:0:
272,302,62525,2,0,B|262:266|262:266|263:256|263:256|253:219,1,80.2125022337008,4|0,3:1|0:0,0:0:0:0:
392,69,62880,2,0,B|382:104|382:104|383:114|383:114|373:151,1,80.2125022337008,2|0,3:2|0:0,0:0:0:0:
187,43,63235,2,0,P|222:21|270:-4,1,80.2125022337008,10|0,1:2|1:0,0:0:0:0:
401,231,63590,2,0,P|361:218|309:205,1,80.2125022337008,2|8,1:2|0:0,0:0:0:0:
153,137,63945,1,2,3:2:0:0:
153,137,64122,1,0,3:0:0:0:
44,244,64300,6,0,B|71:280|80:316|80:316|117:291|185:285,1,160.425004467402,4|8,3:1|1:2,0:0:0:0:
252,212,64832,1,4,3:1:0:0:
207,351,65010,2,0,P|274:359|349:375,1,120.318753350551
395,322,65365,2,0,P|391:286|356:262,1,80.2125022337008,4|0,3:1|0:0,0:0:0:0:
203,151,65720,2,0,P|213:188|226:252,1,80.2125022337008,2|0,3:2|0:0,0:0:0:0:
341,109,66075,1,10,1:2:0:0:
341,109,66430,6,0,B|337:96|348:72|348:72|366:66|390:72,1,80.2125022337008,2|0,1:2|3:0,0:0:0:0:
477,234,66785,2,0,P|434:245|381:263,1,80.2125022337008,10|0,1:2|0:0,0:0:0:0:
256,147,67140,1,2,3:2:0:0:
187,361,67318,1,0,1:0:0:0:
187,361,67406,1,0,1:0:0:0:
187,361,67495,1,10,1:2:0:0:
361,242,67673,1,0,3:0:0:0:
117,178,67850,1,2,3:2:0:0:
295,360,68028,1,0,1:0:0:0:
295,360,68116,1,0,1:0:0:0:
295,360,68205,6,0,B|283:326|283:326|284:315|284:315|267:264,1,80.2125022337008,4|0,3:1|0:0,0:0:0:0:
373,81,68560,2,0,B|361:115|361:115|362:126|362:126|345:177,1,80.2125022337008,2|0,3:2|0:0,0:0:0:0:
122,264,68915,2,0,P|163:242|216:219,1,80.2125022337008,10|0,1:2|1:0,0:0:0:0:
294,97,69270,1,2,1:2:0:0:
241,300,69448,1,8,0:0:0:0:
163,70,69625,2,0,B|138:70|122:81|122:81|117:107|130:137,1,80.2125022337008,2|8,3:2|0:0,0:0:0:0:
364,214,69980,2,0,B|321:213|303:255|306:262|309:270|290:311|249:310,1,160.425004467402,2|10,3:2|1:2,0:0:0:0:
129,206,70513,1,0,1:0:0:0:
51,360,70690,2,0,L|9:217,1,120.318753350551,2|0,1:2|1:0,0:0:0:0:
22,163,71045,6,0,P|57:133|97:141,1,80.2125022337008,2|0,3:2|0:0,0:0:0:0:
177,276,71400,1,2,3:2:0:0:
177,276,71755,2,0,B|188:238|188:238|187:233|187:233|197:195,1,80.2125022337008,10|0,1:2|0:0,0:0:0:0:
237,85,72111,1,2,1:2:0:0:
107,213,72288,2,0,B|96:175|96:175|97:170|97:170|87:132,1,80.2125022337008,8|2,0:0|3:2,0:0:0:0:
46,23,72643,1,8,0:0:0:0:
176,131,72821,2,0,P|207:160|259:157,1,80.2125022337008,2|0,3:2|0:0,0:0:0:0:
352,74,73176,1,12,3:1:0:0:
217,7,73353,2,0,P|228:51|240:103,1,80.2125022337008,0|0,1:2|1:0,0:0:0:0:
364,199,73708,5,0,1:2:0:0:
235,287,73886,1,4,3:1:0:0:
365,366,74063,1,0,0:0:0:0:
242,201,74241,2,0,P|195:204|161:256,1,80.2125022337008,2|0,3:2|0:0,0:0:0:0:
117,352,74596,1,10,1:2:0:0:
117,352,75128,5,8,0:0:0:0:
49,284,75306,2,0,P|55:253|68:204,1,80.2125022337008,2|8,3:2|0:0,0:0:0:0:
153,116,75661,1,2,3:2:0:0:
153,116,75838,1,0,0:0:0:0:
33,37,76016,2,0,P|43:75|51:115,1,80.2125022337008,10|0,1:2|1:0,0:0:0:0:
214,257,76371,2,0,P|186:229|155:202,1,80.2125022337008,2|0,1:2|1:2,0:0:0:0:
287,107,76726,1,4,3:1:0:0:
287,107,77081,5,2,1:2:0:0:
372,167,77258,1,0,3:0:0:0:
372,167,77436,2,0,B|405:157|405:157|411:151|411:151|446:140,1,80.2125022337008,10|0,1:2|0:0,0:0:0:0:
356,17,77791,1,2,3:2:0:0:
287,211,77968,1,0,1:0:0:0:
287,211,78057,1,0,3:2:0:0:
287,211,78146,1,10,1:2:0:0:
439,82,78324,1,0,3:0:0:0:
226,136,78501,1,2,3:2:0:0:
405,236,78679,1,0,3:0:0:0:
264,3,78856,5,12,1:2:0:0:
156,242,79034,1,12,1:2:0:0:
156,242,79566,6,0,B|194:251|194:251|200:256|200:256|235:264,1,80.2125022337008,4|0,3:1|0:0,0:0:0:0:
392,134,79921,2,0,B|365:162|365:162|357:165|357:165|333:191,1,80.2125022337008,2|0,3:2|0:0,0:0:0:0:
182,55,80276,2,0,P|194:97|206:143,1,80.2125022337008,10|0,1:2|0:0,0:0:0:0:
306,25,80631,1,2,1:2:0:0:
250,201,80809,1,0,1:0:0:0:
399,32,80986,6,0,B|424:33|437:50|437:50|435:73|454:94,1,80.2125022337008,2|0,3:2|0:0,0:0:0:0:
397,238,81341,1,2,3:2:0:0:
506,158,81519,1,0,0:0:0:0:
348,91,81696,2,0,B|314:104|314:104|309:110|309:110|263:127,1,80.2125022337008,10|0,1:2|1:2,0:0:0:0:
149,69,82051,5,2,1:2:0:0:
208,196,82229,1,0,1:2:0:0:
57,124,82406,2,0,P|21:154|26:204,1,80.2125022337008,2|0,3:2|0:0,0:0:0:0:
188,6,82761,2,0,P|220:28|227:67,1,80.2125022337008,2|0,3:2|0:0,0:0:0:0:
99,190,83116,1,10,1:2:0:0:
99,190,83471,6,0,B|109:214|119:221|119:221|138:221|165:207,1,80.2125022337008,2|8,1:2|1:2,0:0:0:0:
305,99,83826,2,0,B|279:95|268:100|268:100|258:117|257:147,1,80.2125022337008,2|8,3:2|1:2,0:0:0:0:
269,312,84182,2,0,B|284:291|285:279|285:279|276:262|250:246,1,80.2125022337008,2|0,3:2|0:0,0:0:0:0:
169,119,84537,1,10,1:2:0:0:
169,119,84892,2,0,B|156:152|156:152|156:160|156:160|144:197,1,80.2125022337008,2|0,1:2|1:0,0:0:0:0:
30,351,85247,6,0,P|111:329|202:309,1,160.425004467402,4|2,3:1|3:2,0:0:0:0:
294,207,85779,1,0,1:0:0:0:
294,207,85868,1,0,1:0:0:0:
294,207,85957,2,0,B|321:219|347:240|347:240|388:203|462:192,1,160.425004467402,12|2,1:1|0:0,0:0:0:0:
345,77,86489,1,0,1:0:0:0:
434,300,86667,1,8,3:2:0:0:
172,186,87022,5,8,3:2:0:0:
485,34,87377,5,2,0:0:0:0:
485,34,87732,1,2,0:0:0:0:
