osu file format v14

[General]
AudioFilename: audio.mp3
AudioLeadIn: 0
PreviewTime: 56076
Countdown: 0
SampleSet: Soft
StackLeniency: 0.7
Mode: 0
LetterboxInBreaks: 0
WidescreenStoryboard: 1

[Editor]
Bookmarks: 34611,57333,80040,116963,127614,128324,183709,195069,203590,245839
DistanceSpacing: 0.9
BeatDivisor: 8
GridSize: 4
TimelineZoom: 2.2

[Metadata]
Title:Uso Janai
TitleUnicode:嘘じゃない
Artist:Soushi Sakiyama
ArtistUnicode:崎山蒼志
Creator:AirinCat
Version:Fujirin's Insane
Source:僕のヒーローアカデミア
Tags:fuju japanese rock jrock believe anime bnha heroaca my hero academia mha boku no ending hawks keigo takami wing 2 second season 5 five fifth
BeatmapID:3275830
BeatmapSetID:1572017

[Difficulty]
HPDrainRate:5
CircleSize:4
OverallDifficulty:7.4
ApproachRate:8.8
SliderMultiplier:1.8
SliderTickRate:1

[Events]
//Background and Video events
0,0,"Takami.Keigo.full.3254311.jpg",0,0
//Break Periods
2,117163,126985
2,183709,194440
//Storyboard Layer 0 (Background)
//Storyboard Layer 1 (Fail)
//Storyboard Layer 2 (Pass)
//Storyboard Layer 3 (Foreground)
//Storyboard Layer 4 (Overlay)
//Storyboard Sound Samples

[TimingPoints]
514,710.059171597633,4,2,1,30,1,0
514,-100,4,2,1,30,0,0
11874,-74.0740740740741,4,2,1,40,0,0
23235,-71.4285714285714,4,2,1,40,0,0
33886,-181.818181818181,4,2,1,40,0,0
34596,-80,4,2,1,60,0,0
36727,-62.5,4,2,1,60,0,0
37437,-66.6666666666667,4,2,1,60,0,0
45957,-62.5,4,2,1,60,0,0
54478,-55.5555555555556,4,2,1,80,0,0
54567,-55.5555555555556,4,2,1,5,0,0
55188,-66.6666666666667,4,2,1,20,0,0
56608,-66.6666666666667,4,2,1,70,0,0
56963,-100,4,2,1,70,0,0
57229,-66.6666666666667,4,2,1,5,0,0
57318,-55.5555555555556,4,2,1,80,0,1
64419,-52.6315789473684,4,2,1,80,0,0
64774,-47.6190476190476,4,2,1,80,0,1
65306,-58.8235294117647,4,2,1,80,0,0
65839,-52.6315789473684,4,2,1,80,0,1
79508,-52.6315789473684,4,2,1,70,0,0
88561,-62.5,4,2,1,60,0,0
94241,-66.6666666666667,4,2,1,60,0,0
102762,-142.857142857143,4,2,1,40,0,0
103472,-90.9090909090909,4,2,1,40,0,0
104892,-166.666666666667,4,2,2,60,0,0
105513,-166.666666666667,4,2,2,5,0,0
105602,-62.5,4,2,1,60,0,0
128324,-83.3333333333333,4,2,1,50,0,0
134005,-71.4285714285714,4,2,1,50,0,0
135425,-62.5,4,2,1,60,0,0
136135,-55.5555555555556,4,2,1,70,0,0
136845,-55.5555555555556,4,2,1,70,0,0
138620,-66.6666666666667,4,2,1,50,0,0
139330,-62.5,4,2,1,80,0,0
139685,-55.5555555555556,4,2,1,80,0,1
146786,-55.5555555555556,4,2,1,80,0,0
147141,-47.6190476190476,4,2,1,80,0,1
147673,-58.8235294117647,4,2,1,80,0,0
148206,-52.6315789473684,4,2,1,80,0,1
159567,-52.6315789473684,4,2,1,70,0,0
179448,-76.9230769230769,4,2,1,70,0,0
179803,-58.8235294117647,4,2,1,80,0,0
180158,-50,4,2,1,85,0,0
180514,-50,4,2,1,90,0,0
180869,-50,4,2,1,5,0,0
183709,710.059171597633,4,2,1,40,1,0
195069,-100,4,2,1,40,0,0
200040,-100,4,2,1,60,0,0
202880,-58.8235294117647,4,2,1,60,0,0
203590,-55.5555555555556,4,2,1,80,0,1
210691,-52.6315789473684,4,2,1,80,0,0
211046,-47.6190476190476,4,2,1,80,0,1
211578,-58.8235294117647,4,2,1,80,0,0
212111,-52.6315789473684,4,2,1,80,0,1
223472,-52.6315789473684,4,2,1,80,0,0
246016,-52.6315789473684,4,2,1,30,0,0

[Colours]
Combo1 : 228,166,129
Combo2 : 237,135,135
Combo3 : 226,167,197

[HitObjects]
512,192,11874,6,0,P|484:179|455:170,1,60.7500002317429,2|2,1:2|0:2,0:2:0:0:
408,99,12229,2,0,P|351:121|292:136,1,121.500000463486,2|0,0:2|3:2,0:2:0:0:
456,267,12940,1,2,0:2:0:0:
456,267,13117,2,0,P|397:282|340:304,1,121.500000463486,2|0,0:2|0:0,0:2:0:0:
213,378,13650,2,0,P|226:352|229:322,1,60.7500002317429,2|0,0:2|0:2,0:0:0:0:
73,206,14005,1,2,3:2:0:0:
73,206,14182,1,0,0:2:0:0:
164,279,14360,2,0,P|161:248|147:222,1,60.7500002317429,2|2,0:2|0:2,0:0:0:0:
289,106,14715,6,0,P|345:126|404:143,2,121.500000463486,2|2|2,1:2|0:2|3:2,0:2:0:0:
289,106,15780,2,0,P|296:76|310:49,1,60.7500002317429,2|0,0:2|0:0,0:0:0:0:
223,167,16135,2,0,P|247:222|258:282,1,121.500000463486,2|0,0:2|0:2,0:2:0:0:
166,252,16667,1,0,0:0:0:0:
166,252,16845,1,2,3:2:0:0:
512,248,17555,6,0,P|484:259|454:266,1,60.7500002317429,2|2,1:2|0:2,0:2:0:0:
473,376,17910,2,0,P|415:355|356:342,1,121.500000463486,2|0,0:2|3:2,0:2:0:0:
114,265,18620,5,2,0:2:0:0:
114,265,18798,2,0,P|142:254|171:246,1,60.7500002317429,2|0,0:2|0:2,0:2:0:0:
171,246,19330,2,0,P|178:216|189:188,1,60.7500002317429,2|0,0:2|0:2,0:0:0:0:
172,15,19685,1,2,3:2:0:0:
172,15,19863,1,0,0:2:0:0:
136,128,20040,2,0,P|128:98|117:70,1,60.7500002317429,2|2,0:2|0:2,0:0:0:0:
310,0,20395,6,0,P|287:57|274:116,2,121.500000463486,2|2|2,1:2|0:2|3:2,0:2:0:0:
512,191,21460,2,0,P|453:203|413:248,1,121.500000463486,2|0,0:2|0:2,0:2:0:0:
413,247,22170,1,2,0:2:0:0:
364,312,22348,1,2,0:2:0:0:
364,312,22525,2,0,P|306:293|247:277,1,121.500000463486,0|0,3:2|0:0,0:2:0:0:
196,131,23058,5,2,0:2:0:0:
196,131,23235,2,0,P|187:161|178:191,1,62.9999980773926,2|2,1:2|0:2,0:0:0:0:
268,70,23590,2,0,P|258:39|250:9,1,62.9999980773926,2|0,0:2|0:2,0:2:0:0:
113,135,23945,2,0,B|52:146|61:180|-1:183,1,125.999996154785,2|0,3:2|0:2,0:2:0:0:
266,181,24478,2,0,P|296:190|326:198,1,62.9999980773926,2|0,0:2|0:2,0:2:0:0:
326,198,25011,6,0,P|356:188|386:180,1,62.9999980773926,2|2,0:2|0:2,0:0:0:0:
312,322,25366,1,2,3:2:0:0:
312,322,25543,1,0,0:2:0:0:
379,272,25721,2,0,P|388:302|396:332,1,62.9999980773926,2|2,0:2|0:2,0:0:0:0:
219,283,26076,6,0,P|220:221|265:180,2,125.999996154785,2|2|2,1:2|0:2|3:2,0:2:0:0:
188,44,27141,2,0,P|157:53|127:61,1,62.9999980773926,2|0,0:2|0:0,0:0:0:0:
285,76,27496,2,0,P|293:45|302:15,2,62.9999980773926,2|0|0,0:2|0:2|0:2,0:2:0:0:
370,71,28028,1,0,0:2:0:0:
386,213,28206,2,0,P|325:195|264:179,1,125.999996154785,2|0,3:2|0:0,0:2:0:0:
205,259,28738,5,2,0:2:0:0:
205,259,28916,2,0,P|214:289|222:319,1,62.9999980773926,2|2,1:2|0:2,0:0:0:0:
114,224,29271,2,0,P|131:163|145:102,2,125.999996154785,2|2|0,0:2|3:2|0:2,0:2:0:0:
53,104,30158,2,0,P|45:134|36:164,1,62.9999980773926,2|0,0:0|0:0,0:0:0:0:
36,164,30691,6,0,P|28:133|19:103,1,62.9999980773926,2|2,0:2|0:2,0:0:0:0:
0,298,31046,1,2,3:2:0:0:
0,298,31224,1,2,0:2:0:0:
64,241,31401,2,0,P|71:271|80:301,1,62.9999980773926,2|0,0:2|0:2,0:0:0:0:
174,357,31756,6,0,P|214:310|275:311,1,125.999996154785,2|0,1:2|0:2,0:2:0:0:
402,258,32289,2,0,P|372:246|344:231,1,62.9999980773926,2|2,0:2|3:2,0:0:0:0:
296,135,32644,2,0,P|266:123|238:108,1,62.9999980773926,2|2,0:2|0:2,0:0:0:0:
238,108,32910,1,0,3:0:0:0:
238,108,32999,1,0,3:2:0:0:
397,94,33176,2,0,P|408:64|423:36,1,62.9999980773926,2|0,0:2|0:2,0:2:0:0:
501,18,33531,1,0,0:2:0:0:
501,18,33709,1,0,0:2:0:0:
320,55,33886,6,0,P|285:40|252:23,1,74.2500022659302,2|0,3:2|0:0,0:2:0:0:
59,97,34596,5,10,3:2:0:0:
59,97,34774,1,2,1:2:0:0:
129,132,34951,2,0,P|153:119|179:108,1,56.25,2|2,1:2|0:2,0:0:0:0:
179,107,35188,2,0,L|189:123,2,18.75,2|2|2,0:2|0:2|0:2,0:0:0:0:
265,163,35484,2,0,P|289:150|315:139,1,56.25,0|0,3:0|3:2,0:0:0:0:
315,138,35750,1,0,3:2:0:0:
315,138,35839,2,0,L|328:162,2,28.125,0|0|0,3:2|3:2|3:2,0:0:0:0:
413,290,36194,5,0,3:2:0:0:
413,290,36371,2,0,P|453:252|452:198,1,112.5,0|10,1:2|0:2,0:0:0:0:
304,275,36993,1,0,3:2:0:0:
299,281,37082,2,0,P|265:267|230:258,1,72,2|0,0:2|0:2,0:2:0:0:
51,187,37437,1,2,1:2:0:0:
99,127,37614,1,0,1:0:0:0:
174,143,37792,1,0,1:2:0:0:
174,143,38324,5,2,0:2:0:0:
228,85,38502,1,2,1:2:0:0:
228,85,38590,1,0,3:0:0:0:
228,85,38679,2,0,L|218:52,1,33.7500012874604,2|0,3:2|0:0,0:2:0:0:
315,16,38857,1,0,3:2:0:0:
315,16,38945,1,0,3:2:0:0:
315,16,39034,2,0,L|333:80,1,67.5000025749208,0|0,3:2|1:2,0:0:0:0:
512,279,39567,6,0,P|447:282|411:229,1,135.000005149842,10|0,0:2|0:2,0:2:0:0:
316,186,40099,1,0,3:2:0:0:
316,186,40188,1,0,3:0:0:0:
316,186,40277,2,0,L|252:204,1,67.5000025749208,10|0,3:2|1:2,0:2:0:0:
165,280,40632,1,0,1:2:0:0:
92,246,40809,1,2,0:2:0:0:
120,73,41164,6,0,L|137:139,1,67.5000025749208,0|0,3:2|3:2,0:2:0:0:
240,2,41519,1,0,3:2:0:0:
240,2,41608,1,0,3:2:0:0:
240,2,41697,2,0,L|257:68,1,67.5000025749208,2|2,3:2|3:2,0:0:0:0:
374,119,42052,2,0,B|427:116|417:93|470:91,1,101.250003862381,0|0,1:2|0:0,0:0:0:0:
470,91,42407,2,0,P|446:154|428:219,1,135.000005149842,10|2,0:2|0:2,0:0:0:0:
352,257,42940,5,0,3:0:0:0:
352,257,43028,1,0,3:0:0:0:
352,257,43117,1,2,3:2:0:0:
333,337,43295,1,0,1:2:0:0:
412,357,43472,2,0,P|444:349|477:343,1,67.5000025749208,0|0,1:2|0:2,0:2:0:0:
260,306,43827,2,0,P|227:314|194:320,1,67.5000025749208,2|0,0:2|3:2,0:0:0:0:
194,320,44093,5,0,3:2:0:0:
194,320,44182,1,2,3:2:0:0:
120,282,44360,1,0,3:2:0:0:
174,214,44537,2,0,P|189:150|144:104,2,135.000005149842,0|0|10,3:2|1:2|0:2,0:2:0:0:
174,214,45425,1,2,0:3:0:0:
105,174,45602,1,2,0:3:0:0:
174,30,45780,5,2,0:3:0:0:
244,59,45957,2,0,P|312:80|382:97,1,144,2|0,3:2|1:2,0:2:0:0:
511,260,46667,2,0,P|476:267|442:278,1,72,2|2,0:0|3:2,0:0:0:0:
360,301,46934,1,0,3:0:0:0:
364,312,47022,2,0,P|414:263|415:193,1,144,0|2,3:2|3:2,0:0:0:0:
307,18,47555,1,0,0:2:0:0:
244,59,47732,2,0,P|236:111|268:153,1,108,0|0,1:2|0:0,0:0:0:0:
267,152,48087,2,0,P|302:146|337:136,2,72,10|2|0,0:2|0:2|0:2,0:0:0:0:
213,238,48620,5,2,3:2:0:0:
213,238,48709,1,0,3:0:0:0:
213,238,48798,2,0,P|178:228|142:222,1,72,2|0,3:2|1:2,0:2:0:0:
87,172,49153,1,0,1:2:0:0:
87,172,49330,1,0,0:0:0:0:
148,376,49508,2,0,P|143:340|159:309,1,72,2|2,0:0|3:2,0:0:0:0:
159,309,49774,1,0,3:2:0:0:
159,309,49863,2,0,B|231:302|225:364|292:349,2,144,2|2|0,1:2|3:0|1:2,0:2:0:0:
376,194,50928,6,0,P|366:160|359:124,1,72,10|2,0:2|0:2,0:0:0:0:
268,149,51283,2,0,P|277:183|284:219,1,72,2|0,0:2|0:0,0:0:0:0:
439,98,51638,2,0,P|400:40|331:41,2,144,2|0|2,3:2|1:2|0:2,0:2:0:0:
439,98,52703,1,2,3:2:0:0:
268,149,52880,2,0,P|199:127|129:110,1,144,2|0,3:2|0:2,0:2:0:0:
51,163,53413,2,0,B|27:137|27:137|35:101,1,72,2|0,1:2|0:2,0:2:0:0:
141,122,53768,1,10,0:2:0:0:
141,122,53945,1,2,0:2:0:0:
141,122,54123,1,2,0:2:0:0:
141,122,54300,1,0,0:2:0:0:
259,264,54478,6,0,P|335:271|373:204,1,161.999995056153,14|0,0:2|0:0,0:2:0:0:
373,203,56608,6,0,L|340:194,1,33.7500012874604,8|8,0:2|0:2,0:2:0:0:
391,0,56786,2,0,L|423:8,1,33.7500012874604,0|0,1:2|1:2,0:2:0:0:
485,58,56963,6,0,P|472:89|460:120,1,67.5,2|0,0:0|0:0,0:0:0:0:
444,128,57318,6,0,P|384:126|345:82,1,121.499996292114,6|0,1:2|0:2,0:2:0:0:
288,29,57673,2,0,P|250:41|210:48,1,80.9999975280763,2|0,1:2|0:2,0:2:0:0:
127,191,58028,2,0,P|165:178|205:171,1,80.9999975280763,10|0,0:2|0:0,0:2:0:0:
269,121,58383,1,2,0:0:0:0:
269,121,58561,1,8,0:2:0:0:
202,328,58738,6,0,B|180:295|180:295|185:254,1,80.9999975280763,2|8,1:2|0:2,0:2:0:0:
349,156,59093,2,0,B|352:247|299:216|301:306,1,161.999995056153,2|8,1:2|0:2,0:2:0:0:
300,305,59803,2,0,P|339:297|378:285,1,80.9999975280763,2|0,0:0|3:0,0:0:0:0:
437,336,60070,5,0,3:0:0:0:
445,343,60158,2,0,P|467:310|461:271,1,80.9999975280763,2|0,1:2|0:0,0:2:0:0:
365,84,60513,2,0,P|342:116|348:155,1,80.9999975280763,2|0,1:2|0:2,0:2:0:0:
185,254,60869,2,0,B|140:267|106:238|129:220|98:190|46:194,1,161.999995056153,10|2,0:2|0:2,0:2:0:0:
116,48,61401,5,10,0:2:0:0:
116,48,61490,1,2,0:0:0:0:
116,48,61579,2,0,P|122:88|130:127,1,80.9999975280763,0|8,1:2|0:2,0:0:0:0:
66,347,61934,2,0,B|41:314|41:314|53:276,1,80.9999975280763,2|0,1:2|0:2,0:2:0:0:
258,202,62289,2,0,B|283:235|283:235|270:272,1,80.9999975280763,10|0,0:2|0:2,0:2:0:0:
189,358,62644,1,2,1:2:0:0:
160,284,62821,1,4,0:3:0:0:
284,363,62999,6,0,P|343:348|402:337,1,121.499996292114,6|0,1:2|0:2,0:2:0:0:
402,336,63354,2,0,P|392:296|386:257,1,80.9999975280763,2|0,1:2|0:2,0:2:0:0:
294,0,63709,2,0,P|278:79|255:157,1,161.999995056153,10|2,0:2|0:2,0:2:0:0:
363,100,64241,1,8,0:2:0:0:
193,59,64419,1,4,0:3:0:0:
363,100,64596,1,4,0:3:0:0:
179,216,64774,6,0,P|136:161|67:155,1,141.749995674133,4|0,1:2|0:2,0:2:0:0:
68,154,65129,2,0,P|74:131|81:108,1,47.2499985580445,8|0,0:2|0:0,0:0:0:0:
271,168,65306,2,0,P|250:241|229:315,1,153.000002918243,6|4,1:2|0:3,0:2:0:0:
172,366,65750,5,4,0:3:0:0:
164,374,65839,2,0,P|158:331|149:289,1,85.4999977169037,6|0,1:2|0:0,0:2:0:0:
336,307,66194,2,0,P|377:298|420:292,1,85.4999977169037,2|0,1:2|0:2,0:2:0:0:
343,44,66549,2,0,P|272:86|270:167,1,170.999995433807,8|2,0:2|0:2,0:2:0:0:
438,30,67082,1,0,1:2:0:0:
361,218,67259,2,0,P|355:175|346:133,1,85.4999977169037,12|0,0:2|0:2,0:2:0:0:
168,17,67614,5,8,0:3:0:0:
135,43,67703,1,8,0:3:0:0:
122,83,67792,1,8,0:2:0:0:
132,123,67880,1,8,0:2:0:0:
164,148,67969,2,0,L|205:138,1,42.7499988584519,8|4,0:2|0:3,0:0:0:0:
245,60,68147,2,0,L|286:69,1,42.7499988584519,8|4,0:3|0:3,0:0:0:0:
346,133,68324,1,4,0:3:0:0:
346,133,68502,1,4,0:3:0:0:
233,324,68679,6,0,P|191:278|207:218,1,128.249996575356,4|0,1:2|0:2,0:2:0:0:
206,219,69034,2,0,P|246:231|288:242,1,85.4999977169037,2|0,1:2|0:2,0:2:0:0:
460,83,69389,2,0,P|449:124|436:165,1,85.4999977169037,10|0,0:2|0:2,0:2:0:0:
469,241,69744,1,2,0:2:0:0:
469,241,69922,1,8,0:2:0:0:
319,119,70099,6,0,P|278:73|216:74,1,128.249996575356,0|0,1:2|0:0,0:2:0:0:
196,93,70454,2,0,P|180:53|168:12,1,85.4999977169037,2|0,1:2|0:0,0:2:0:0:
47,220,70809,2,0,P|87:205|128:196,1,85.4999977169037,10|0,0:2|0:2,0:2:0:0:
222,242,71164,1,2,0:2:0:0:
198,348,71342,1,0,0:2:0:0:
122,367,71519,6,0,B|98:330|98:330|107:289,1,85.4999977169037,2|0,1:2|0:0,0:2:0:0:
288,182,71874,2,0,B|312:219|312:219|302:259,1,85.4999977169037,2|0,1:2|0:2,0:2:0:0:
128,196,72229,2,0,P|146:112|160:28,1,170.999995433807,10|0,0:2|0:2,0:2:0:0:
342,93,72762,1,10,0:2:0:0:
274,185,72939,1,0,1:2:0:0:
286,7,73117,1,8,0:2:0:0:
453,85,73295,2,0,P|432:123|422:164,1,85.4999977169037,2|0,1:2|0:2,0:2:0:0:
227,294,73650,5,14,0:2:0:0:
328,345,73827,2,0,P|307:262|273:184,1,170.999995433807,2|2,0:2|0:2,0:2:0:0:
477,281,74360,2,0,P|436:268|396:251,1,85.4999977169037,6|2,1:2|0:2,0:0:0:0:
146,264,74715,2,0,P|186:276|226:293,1,85.4999977169037,2|0,1:2|0:2,0:2:0:0:
359,163,75070,2,0,P|357:81|285:42,1,170.999995433807,10|0,0:2|0:2,0:2:0:0:
54,42,75602,5,10,0:2:0:0:
89,185,75780,2,0,P|99:143|107:101,1,85.4999977169037,2|8,1:2|0:2,0:2:0:0:
229,245,76135,2,0,P|187:253|145:263,1,85.4999977169037,0|2,1:2|0:2,0:0:0:0:
286,125,76490,2,0,P|366:152|450:169,1,170.999995433807,10|2,0:2|1:2,0:2:0:0:
450,169,77022,1,2,0:2:0:0:
320,319,77200,6,0,B|300:281|300:281|312:240,1,85.4999977169037,6|0,1:2|0:2,0:2:0:0:
387,73,77555,1,2,0:2:0:0:
512,230,77732,1,0,1:2:0:0:
477,297,77910,2,0,P|435:288|394:276,1,85.4999977169037,10|0,0:2|0:0,0:2:0:0:
211,340,78265,2,0,P|169:348|128:360,1,85.4999977169037,12|8,0:2|0:2,0:0:0:0:
128,360,78531,5,8,0:2:0:0:
128,360,78620,1,8,0:2:0:0:
245,226,78798,1,8,0:3:0:0:
137,189,78975,1,4,0:3:0:0:
166,263,79153,1,4,0:3:0:0:
194,124,79330,5,10,0:2:0:0:
94,293,79508,1,10,0:2:0:0:
319,384,80040,6,0,P|336:300|362:219,1,170.999995433807,6|0,1:2|1:2,0:2:0:0:
430,183,80573,1,2,0:2:0:0:
260,38,80750,2,0,P|274:78|285:119,1,85.4999977169037,8|0,0:2|0:2,0:2:0:0:
469,68,81105,2,0,P|427:57|387:42,1,85.4999977169037,2|0,0:2|0:2,0:0:0:0:
225,206,81460,6,0,P|145:227|102:299,1,170.999995433807,2|0,1:2|1:2,0:2:0:0:
305,326,81993,1,2,0:2:0:0:
232,372,82170,2,0,B|213:335|213:335|228:293,1,85.4999977169037,10|0,0:2|0:2,0:0:0:0:
396,146,82525,2,0,B|415:183|415:183|400:225,1,85.4999977169037,2|2,0:2|0:2,0:0:0:0:
197,116,82880,6,0,P|194:53|245:18,1,128.249996575356,2|0,1:2|0:0,0:2:0:0:
244,19,83235,2,0,P|255:59|273:99,1,85.4999977169037,0|0,1:2|0:2,0:0:0:0:
131,207,83590,2,0,P|118:166|101:126,1,85.4999977169037,8|0,0:2|0:2,0:2:0:0:
326,190,83945,1,2,0:2:0:0:
326,190,84123,1,8,0:2:0:0:
201,254,84300,6,0,P|263:268|322:292,1,128.249996575356,0|0,1:2|0:0,0:0:0:0:
322,292,84656,2,0,P|304:331|291:371,1,85.4999977169037,2|0,1:2|0:2,0:2:0:0:
452,264,85011,2,0,P|463:203|418:163,1,128.249996575356,8|0,0:2|0:0,0:2:0:0:
417,162,85366,1,4,0:3:0:0:
259,0,85543,5,4,0:3:0:0:
259,0,85632,1,4,0:3:0:0:
259,0,85721,2,0,P|195:51|206:132,1,170.999995433807,6|0,1:2|0:2,0:2:0:0:
424,77,86253,1,0,1:2:0:0:
424,77,86342,1,0,1:2:0:0:
424,77,86431,2,0,P|383:90|342:102,1,85.4999977169037,12|0,0:2|0:2,0:2:0:0:
177,221,86786,1,2,0:2:0:0:
258,246,86963,1,0,1:2:0:0:
209,373,87141,6,0,B|187:335|187:335|201:295,1,85.4999977169037,12|0,0:3|0:0,0:2:0:0:
414,169,87496,2,0,B|436:207|436:207|421:246,1,85.4999977169037,12|0,3:3|3:2,0:0:0:0:
421,246,87762,1,0,3:2:0:0:
421,246,87851,1,8,0:2:0:0:
325,192,88028,1,8,0:3:0:0:
424,77,88206,1,4,0:3:0:0:
233,121,88383,5,0,3:2:0:0:
233,121,88472,1,0,3:2:0:0:
233,121,88561,2,0,P|164:120|128:61,1,144,6|0,1:2|1:2,0:2:0:0:
308,262,89271,2,0,L|324:191,1,72,8|0,0:2|0:0,0:2:0:0:
399,245,89626,1,0,0:2:0:0:
266,343,89803,5,8,0:2:0:0:
266,343,89892,1,8,0:2:0:0:
266,343,89981,2,0,B|185:349|210:299|131:305,1,144,0|0,1:2|1:2,0:0:0:0:
4,60,90691,2,0,P|14:94|23:129,1,72,8|0,0:2|0:0,0:2:0:0:
93,38,91046,2,0,P|101:72|112:107,1,72,0|0,1:2|3:2,0:0:0:0:
112,107,91312,5,0,3:2:0:0:
112,107,91401,2,0,P|183:120|249:149,1,144,2|0,1:2|0:2,0:2:0:0:
344,52,91934,1,0,1:2:0:0:
395,0,92111,2,0,P|454:33|447:100,1,144,8|0,0:2|0:0,0:0:0:0:
403,224,92644,5,0,1:2:0:0:
403,224,92732,1,0,1:2:0:0:
403,224,92821,1,10,0:2:0:0:
350,134,92999,1,8,0:3:0:0:
495,209,93176,1,4,0:3:0:0:
355,308,93354,1,4,0:3:0:0:
208,212,93531,5,8,0:2:0:0:
140,249,93709,1,8,0:2:0:0:
157,327,93886,1,8,0:3:0:0:
245,359,94064,5,4,0:3:0:0:
245,359,94153,1,4,0:3:0:0:
245,359,94241,2,0,P|235:326|230:293,1,67.5000025749208,2|2,1:2|0:2,0:2:0:0:
285,226,94596,2,0,P|293:176|307:127,1,101.250003862381,2|0,1:2|0:0,0:2:0:0:
307,127,94951,2,0,P|340:135|373:142,1,67.5000025749208,8|0,0:2|0:0,0:0:0:0:
361,54,95306,1,2,0:2:0:0:
215,147,95484,5,2,3:2:0:0:
215,147,95573,1,2,3:2:0:0:
215,147,95661,2,0,P|149:130|83:115,1,135.000005149842,0|2,1:2|1:2,0:2:0:0:
83,115,96194,1,2,0:2:0:0:
132,213,96371,2,0,P|125:245|115:278,1,67.5000025749208,8|2,0:2|0:2,0:0:0:0:
33,300,96727,1,2,0:2:0:0:
72,384,96904,5,2,3:2:0:0:
72,384,96993,1,2,3:2:0:0:
72,384,97082,2,0,P|136:365|203:352,1,135.000005149842,2|2,1:2|1:2,0:2:0:0:
512,248,97792,2,0,P|445:234|380:216,1,135.000005149842,10|2,0:2|3:2,0:2:0:0:
305,149,98324,1,0,3:2:0:0:
305,149,98413,1,0,3:0:0:0:
305,149,98502,2,0,P|315:116|327:85,1,67.5000025749208,2|0,1:2|0:2,0:2:0:0:
232,47,98857,2,0,P|221:79|209:110,1,67.5000025749208,2|0,0:2|0:0,0:2:0:0:
132,213,99212,2,0,P|127:148|69:119,1,135.000005149842,10|4,0:2|0:3,0:2:0:0:
194,278,99744,5,2,3:2:0:0:
194,278,99833,1,2,3:2:0:0:
194,278,99922,2,0,P|225:290|257:300,1,67.5000025749208,2|2,1:2|0:2,0:0:0:0:
116,384,100277,2,0,P|93:320|64:259,1,135.000005149842,2|8,1:2|0:2,0:2:0:0:
257,300,100987,5,2,0:2:0:0:
309,362,101164,2,0,P|340:349|372:339,2,67.5000025749208,2|0|0,0:2|1:2|0:2,0:0:0:0:
200,230,101697,2,0,P|189:262|177:293,1,67.5000025749208,2|0,0:2|0:0,0:0:0:0:
312,188,102052,2,0,P|288:124|270:59,1,135.000005149842,8|2,0:2|0:2,0:0:0:0:
270,59,102585,1,2,0:2:0:0:
121,229,102762,6,0,P|90:219|62:207,1,62.9999980773926,4|0,1:2|1:2,0:2:0:0:
61,207,103472,6,0,P|107:188|154:173,1,99.0000030212403,2|0,3:2|0:0,0:2:0:0:
258,211,104064,2,0,P|263:187|268:164,1,33.0000010070801,2|0,0:2|0:2,0:0:0:0:
318,119,104360,1,0,0:2:0:0:
318,119,104537,2,0,P|302:67|292:21,1,99.0000030212403,2|2,0:2|3:3,0:2:0:0:
292,23,105602,6,0,L|363:7,1,72,6|2,1:2|0:2,0:2:0:0:
307,144,105957,2,0,P|245:125|167:109,1,144,2|8,1:2|0:2,0:2:0:0:
167,109,106667,1,2,0:2:0:0:
39,189,106845,1,10,0:2:0:0:
113,253,107022,2,0,P|121:214|131:180,1,72,0|0,1:2|0:2,0:2:0:0:
85,41,107377,2,0,P|75:75|68:111,1,72,2|0,1:2|0:2,0:0:0:0:
200,239,107732,2,0,L|277:258,1,72,8|0,0:2|0:2,0:2:0:0:
343,208,108087,1,2,0:2:0:0:
343,208,108265,1,2,0:2:0:0:
430,310,108442,6,0,P|479:260|473:191,1,144,2|2,1:2|1:2,0:2:0:0:
426,64,108975,1,0,0:2:0:0:
510,93,109153,2,0,P|444:103|358:131,1,144,10|2,0:2|0:2,0:2:0:0:
272,194,109685,1,8,0:2:0:0:
272,194,109774,1,0,3:0:0:0:
272,194,109863,2,0,P|265:152|257:115,1,72,2|8,1:2|0:2,0:2:0:0:
191,22,110218,1,0,1:2:0:0:
191,22,110573,2,0,P|118:33|101:105,1,144,10|0,0:2|0:2,0:2:0:0:
41,207,111105,5,0,3:2:0:0:
41,207,111194,1,0,3:0:0:0:
41,207,111283,2,0,L|121:190,1,72,2|2,1:2|0:2,0:0:0:0:
238,346,111638,2,0,P|174:322|87:301,1,144,2|8,1:2|0:2,0:2:0:0:
100,303,112348,1,2,0:2:0:0:
239,251,112525,1,2,0:2:0:0:
183,183,112703,2,0,P|193:143|206:100,1,72,2|0,1:2|0:2,0:2:0:0:
354,152,113058,2,0,P|343:191|331:235,1,72,2|0,1:2|0:0,0:2:0:0:
181,330,113413,2,0,B|106:312|148:265|67:250,1,144,10|2,0:2|0:2,0:2:0:0:
6,309,113945,5,2,3:2:0:0:
6,309,114034,1,0,3:2:0:0:
6,309,114123,2,0,P|27:239|42:162,1,144,2|2,1:2|1:2,0:2:0:0:
24,78,114656,2,0,P|7:75|-9:70,3,24,2|2|2|10,3:2|0:2|0:2|0:2,0:2:0:0:
108,37,115011,1,2,0:2:0:0:
193,92,115188,2,0,P|200:56|208:15,1,72,2|0,0:2|1:2,0:2:0:0:
131,170,115543,6,0,P|188:130|253:153,1,144,8|4,0:2|0:3,0:0:0:0:
343,227,116076,1,8,0:2:0:0:
214,328,116253,1,8,0:2:0:0:
229,241,116431,5,8,0:3:0:0:
307,359,116608,1,4,0:3:0:0:
307,359,116963,5,6,0:2:0:0:
44,166,127614,5,2,0:2:0:0:
97,222,127792,1,2,0:3:0:0:
49,284,127969,1,2,0:3:0:0:
49,284,128147,1,2,0:3:0:0:
165,344,128324,6,0,B|211:356|246:324|226:313|261:277|306:286,1,161.999995056153,6|0,1:2|0:2,0:2:0:0:
375,229,129034,2,0,L|388:286,1,53.9999983520508,2|2,0:2|0:2,0:0:0:0:
473,260,129389,2,0,L|460:203,1,53.9999983520508,2|0,1:2|0:2,0:2:0:0:
502,99,129744,2,0,P|443:109|379:135,1,107.999996704102,10|0,0:2|0:2,0:2:0:0:
397,125,130454,5,2,0:2:0:0:
340,186,130691,5,2,0:2:0:0:
379,273,130928,5,2,0:2:0:0:
250,329,131164,6,0,B|199:325|172:288|200:278|162:245|118:251,1,161.999995056153,2|0,1:2|0:2,0:2:0:0:
32,289,131874,2,0,P|25:262|18:236,1,53.9999983520508,2|2,0:2|0:2,0:0:0:0:
80,174,132229,2,0,P|83:147|89:120,1,53.9999983520508,2|0,1:2|0:2,0:2:0:0:
34,23,132585,2,0,P|89:38|138:48,1,107.999996704102,10|0,0:2|0:2,0:2:0:0:
139,47,133295,5,2,0:2:0:0:
225,124,133531,5,2,0:2:0:0:
115,219,133768,5,2,0:2:0:0:
232,298,134005,6,0,P|295:276|362:263,1,125.999996154785,2|2,1:2|0:2,0:2:0:0:
512,117,134715,2,0,P|463:108|416:96,1,94.499997116089,2|0,1:2|0:0,0:2:0:0:
420,97,135070,2,0,P|426:66|434:35,1,62.9999980773926,2|0,1:2|0:2,0:2:0:0:
260,107,135425,2,0,P|271:152|282:214,1,108,10|0,1:2|0:2,0:2:0:0:
282,212,135780,2,0,P|316:202|355:196,1,72,8|0,1:2|0:2,0:2:0:0:
247,345,136135,2,0,P|199:308|137:331,1,121.499996292114,10|0,1:2|0:2,0:2:0:0:
144,323,136490,1,8,1:2:0:0:
343,384,136667,5,8,0:2:0:0:
343,384,136756,1,8,0:2:0:0:
343,384,136845,2,0,P|353:340|362:300,1,80.9999975280763,12|0,1:2|0:0,0:2:0:0:
494,210,137200,1,4,1:3:0:0:
494,210,137289,1,4,0:3:0:0:
494,210,137377,2,0,L|486:166,1,40.4999987640381,4|4,0:3|0:3,0:0:0:0:
432,107,137555,2,0,P|376:87|328:131,1,121.499996292114,10|0,1:2|0:0,0:0:0:0:
281,191,137910,2,0,B|189:186|232:129|140:121,1,161.999995056153,12|0,1:2|0:0,0:2:0:0:
57,369,138620,6,0,P|25:332|39:282,1,101.250003862381,2|0,0:2|0:2,0:2:0:0:
107,239,138975,1,2,1:2:0:0:
107,239,139153,1,0,1:2:0:0:
203,342,139330,2,0,P|238:304|296:313,1,108,2|0,0:2|0:2,0:2:0:0:
290,309,139685,6,0,P|334:266|321:210,1,121.499996292114,6|0,1:2|0:2,0:2:0:0:
316,128,140040,2,0,P|276:138|233:147,1,80.9999975280763,2|0,1:2|0:2,0:2:0:0:
91,121,140395,2,0,P|52:55|106:-1,1,161.999995056153,10|2,0:2|0:2,0:2:0:0:
177,31,140928,1,10,0:2:0:0:
4,165,141105,6,0,P|13:204|21:251,1,80.9999975280763,2|8,1:2|0:2,0:2:0:0:
131,329,141460,2,0,B|185:327|195:286|184:282|202:236|254:245,1,161.999995056153,2|8,1:2|0:2,0:2:0:0:
254,245,142170,2,0,P|265:283|271:332,1,80.9999975280763,2|0,0:0|3:0,0:0:0:0:
344,365,142437,5,0,3:0:0:0:
347,372,142525,2,0,P|387:358|434:347,1,80.9999975280763,2|0,1:2|0:0,0:2:0:0:
512,222,142880,2,0,P|472:211|434:198,1,80.9999975280763,2|0,1:2|0:2,0:2:0:0:
317,107,143235,2,0,P|314:48|371:15,1,121.499996292114,10|0,0:2|0:0,0:2:0:0:
361,15,143590,2,0,P|397:31|451:39,1,80.9999975280763,2|8,0:2|0:2,0:0:0:0:
314,199,143945,6,0,P|281:186|223:173,1,80.9999975280763,0|8,1:2|0:2,0:0:0:0:
97,241,144300,2,0,B|65:267|65:267|75:304,1,80.9999975280763,2|0,1:2|0:2,0:2:0:0:
267,371,144656,2,0,B|299:345|299:345|288:307,1,80.9999975280763,10|0,0:2|0:2,0:2:0:0:
236,175,145011,1,2,0:2:0:0:
191,243,145188,1,2,0:2:0:0:
371,250,145366,6,0,P|429:238|507:209,1,121.499996292114,6|0,1:2|0:2,0:2:0:0:
487,217,145721,2,0,P|500:255|508:294,1,80.9999975280763,2|0,1:2|0:2,0:2:0:0:
357,150,146076,2,0,P|375:74|454:54,1,161.999995056153,10|2,0:2|0:2,0:2:0:0:
447,138,146608,1,8,0:2:0:0:
286,54,146786,1,4,0:3:0:0:
447,138,146963,1,4,0:3:0:0:
305,269,147141,6,0,B|224:259|261:213|179:210,1,141.749995674133,6|0,1:2|0:2,0:2:0:0:
181,210,147496,2,0,P|174:234|169:260,1,47.2499985580445,10|0,0:2|0:0,0:0:0:0:
43,327,147673,2,0,P|63:251|78:166,1,153.000002918243,6|4,1:2|0:3,0:2:0:0:
33,110,148117,5,4,0:3:0:0:
36,102,148206,2,0,P|82:142|142:126,1,128.249996575356,6|0,1:2|0:2,0:2:0:0:
233,146,148561,2,0,P|223:106|217:57,1,85.4999977169037,2|0,1:2|0:2,0:2:0:0:
356,1,148916,2,0,P|372:73|385:174,1,170.999995433807,8|2,0:2|0:2,0:2:0:0:
277,327,149448,1,0,1:2:0:0:
206,268,149626,6,0,P|250:224|310:236,1,128.249996575356,8|0,0:2|0:0,0:2:0:0:
310,236,149981,1,2,0:2:0:0:
401,298,150158,1,8,0:2:0:0:
484,200,150336,2,0,P|490:158|501:108,1,85.4999977169037,0|8,1:2|0:3,0:0:0:0:
428,36,150691,1,4,0:3:0:0:
428,36,150869,1,4,0:3:0:0:
322,156,151046,6,0,P|261:135|198:125,1,128.249996575356,6|0,1:2|0:2,0:2:0:0:
113,135,151401,2,0,P|130:88|137:48,1,85.4999977169037,2|0,1:2|0:2,0:2:0:0:
219,234,151756,2,0,P|138:228|107:302,1,170.999995433807,10|2,0:2|0:2,0:2:0:0:
157,364,152289,1,8,0:2:0:0:
305,271,152466,6,0,P|311:226|320:182,1,85.4999977169037,0|8,1:2|0:2,0:2:0:0:
497,221,152821,2,0,P|491:265|482:310,1,85.4999977169037,2|0,1:2|0:0,0:2:0:0:
404,117,153176,2,0,P|451:113|498:102,1,85.4999977169037,8|0,0:2|0:2,0:2:0:0:
403,236,153531,1,2,1:2:0:0:
403,236,153709,1,0,0:2:0:0:
252,137,153886,6,0,P|243:96|241:52,1,85.4999977169037,2|0,1:2|0:0,0:2:0:0:
88,183,154241,2,0,P|130:191|171:205,1,85.4999977169037,2|0,1:2|0:2,0:2:0:0:
317,285,154596,2,0,P|236:282|205:356,1,170.999995433807,10|0,0:2|0:2,0:2:0:0:
297,377,155129,1,10,0:2:0:0:
406,292,155306,1,0,1:2:0:0:
333,197,155484,1,8,0:2:0:0:
504,158,155661,2,0,P|492:197|483:252,1,85.4999977169037,2|0,1:2|0:2,0:2:0:0:
317,17,156016,5,14,0:2:0:0:
317,94,156194,2,0,P|396:92|427:8,1,170.999995433807,2|2,0:2|0:2,0:2:0:0:
283,193,156727,6,0,P|243:199|192:213,1,85.4999977169037,6|2,1:2|0:2,0:0:0:0:
83,73,157082,2,0,P|124:84|166:90,1,85.4999977169037,2|0,1:2|0:2,0:2:0:0:
134,309,157437,2,0,P|67:264|84:185,1,170.999995433807,10|0,0:2|0:2,0:2:0:0:
269,98,157969,5,2,1:2:0:0:
337,165,158147,2,0,P|318:248|309:333,1,170.999995433807,14|0,0:2|0:2,0:2:0:0:
226,359,158679,1,4,0:3:0:0:
153,233,158857,1,4,0:3:0:0:
153,233,159034,1,4,0:3:0:0:
244,264,159212,1,8,1:2:0:0:
130,330,159389,1,8,1:2:0:0:
41,227,159567,6,0,B|45:133|107:158|104:73,1,170.999995433807,6|2,1:2|1:2,0:2:0:0:
22,68,160099,1,0,1:2:0:0:
218,0,160277,2,0,P|209:37|184:181,1,170.999995433807,8|2,0:2|1:2,0:2:0:0:
221,243,160809,1,0,1:2:0:0:
369,178,160987,6,0,B|407:158|407:158|442:188,1,85.4999977169037,10|0,0:2|0:2,0:2:0:0:
326,343,161342,2,0,P|319:293|305:243,1,85.4999977169037,8|8,0:3|0:3,0:0:0:0:
461,100,161697,1,8,0:2:0:0:
461,100,161874,1,4,0:3:0:0:
512,223,162052,1,4,0:3:0:0:
419,265,162230,1,4,0:3:0:0:
286,165,162407,6,0,B|291:118|259:81|241:97|218:61|227:12,1,170.999995433807,6|0,1:2|0:2,0:2:0:0:
304,30,162940,1,0,1:2:0:0:
195,155,163117,2,0,P|114:149|75:220,1,170.999995433807,14|0,0:2|0:2,0:2:0:0:
103,296,163650,1,0,1:2:0:0:
270,272,163827,6,0,P|278:225|289:185,1,85.4999977169037,10|4,0:2|0:3,0:2:0:0:
287,188,164093,1,4,0:3:0:0:
287,188,164182,1,4,0:3:0:0:
366,133,164360,1,8,0:2:0:0:
423,213,164537,2,0,P|413:252|406:300,1,85.4999977169037,2|4,0:2|0:3,0:2:0:0:
315,361,164892,1,8,0:2:0:0:
315,361,165070,1,4,0:3:0:0:
198,262,165247,6,0,B|159:246|99:280|139:298|92:338|54:330,1,170.999995433807,6|0,1:2|0:2,0:2:0:0:
56,246,165780,1,0,1:2:0:0:
217,350,165957,2,0,P|225:265|246:178,1,170.999995433807,10|2,0:2|0:2,0:2:0:0:
360,127,166490,1,0,1:2:0:0:
360,127,166579,1,0,1:2:0:0:
360,127,166667,2,0,P|348:168|339:220,1,85.4999977169037,10|2,0:2|0:2,0:0:0:0:
145,167,167022,2,0,P|157:126|166:74,1,85.4999977169037,2|2,0:2|1:2,0:0:0:0:
219,278,167377,6,0,P|144:249|85:305,1,170.999995433807,8|0,0:2|1:2,0:0:0:0:
152,353,167910,1,2,0:2:0:0:
260,191,168087,1,10,0:2:0:0:
327,312,168265,6,0,P|394:356|462:312,1,170.999995433807,6|2,1:2|1:2,0:2:0:0:
512,191,168798,2,0,P|465:179|424:167,1,85.4999977169037,10|0,0:2|0:2,0:2:0:0:
339,21,169153,2,0,P|386:33|427:45,1,85.4999977169037,8|8,0:2|0:2,0:0:0:0:
247,142,169508,5,8,0:3:0:0:
235,43,169685,1,8,0:3:0:0:
350,122,169863,2,0,P|334:162|323:208,1,85.4999977169037,2|4,1:2|0:3,0:2:0:0:
198,272,170218,2,0,P|187:230|171:190,1,85.4999977169037,4|4,0:3|0:3,0:0:0:0:
325,311,170573,1,4,0:3:0:0:
325,311,170750,1,4,0:3:0:0:
153,362,170928,6,0,P|93:341|15:346,1,128.249996575356,6|0,1:2|0:2,0:2:0:0:
29,342,171283,2,0,P|39:300|44:258,1,85.4999977169037,2|0,1:2|0:2,0:2:0:0:
24,97,171638,2,0,P|102:78|151:143,1,170.999995433807,10|0,0:2|0:2,0:2:0:0:
151,143,172348,1,2,1:2:0:0:
74,171,172525,1,2,0:2:0:0:
174,252,172703,2,0,P|221:237|268:232,1,85.4999977169037,2|0,1:2|0:2,0:2:0:0:
361,127,173058,2,0,P|347:86|341:44,1,85.4999977169037,10|0,0:2|0:2,0:2:0:0:
260,116,173413,1,2,0:2:0:0:
260,116,173590,1,8,0:2:0:0:
375,240,173768,6,0,P|430:184|517:216,1,170.999995433807,2|2,1:2|1:2,0:2:0:0:
337,382,174478,2,0,P|297:366|255:359,1,85.4999977169037,10|0,0:2|0:2,0:2:0:0:
189,290,174833,2,0,P|202:249|210:207,1,85.4999977169037,2|8,0:2|0:2,0:0:0:0:
364,73,175188,5,2,1:2:0:0:
405,174,175366,2,0,P|364:160|323:149,1,85.4999977169037,10|0,0:2|1:2,0:2:0:0:
236,34,175721,1,2,0:2:0:0:
153,62,175898,2,0,P|139:110|132:152,1,85.4999977169037,8|0,0:2|0:2,0:2:0:0:
290,269,176253,1,6,1:2:0:0:
290,269,176608,5,6,1:2:0:0:
211,338,176786,1,2,0:2:0:0:
151,267,176963,2,0,P|108:276|56:281,1,85.4999977169037,2|0,1:2|0:2,0:2:0:0:
304,358,177318,2,0,P|391:333|471:326,1,170.999995433807,8|2,0:2|0:2,0:2:0:0:
512,233,177851,2,0,P|506:192|499:148,1,85.4999977169037,2|0,0:2|1:2,0:2:0:0:
417,73,178206,1,10,0:2:0:0:
345,147,178383,2,0,P|265:164|219:96,1,170.999995433807,2|10,1:2|0:2,0:2:0:0:
177,286,178916,1,0,0:2:0:0:
177,286,179093,2,0,P|217:276|260:269,1,85.4999977169037,2|0,1:2|0:2,0:2:0:0:
35,164,179448,6,0,P|32:116|21:73,1,87.749995983124,10|0,1:2|0:2,0:2:0:0:
100,18,179803,2,0,P|149:45|206:55,1,114.750002188683,10|0,1:2|0:2,0:2:0:0:
211,151,180158,2,0,P|146:182|102:229,1,135,10|0,1:2|0:2,0:2:0:0:
121,325,180514,2,0,P|88:250|-3:257,1,180,10|0,1:2|0:2,0:2:0:0:
256,192,180957,12,0,182289,0:0:0:0:
256,191,195069,6,0,P|251:147|242:103,2,90,0|2|0,3:2|0:2|0:2,0:2:0:0:
402,183,196135,2,0,P|379:270|361:358,1,180,2|2,0:2|0:2,0:2:0:0:
361,358,197555,1,2,0:2:0:0:
223,323,197910,2,0,P|181:339|138:352,1,90,2|2,0:2|0:2,0:2:0:0:
281,192,198620,1,2,0:2:0:0:
291,196,198797,1,2,0:2:0:0:
300,199,198975,1,2,0:2:0:0:
158,257,199330,6,0,P|159:171|84:128,2,180,2|2|0,3:2|3:2|0:0,0:2:0:0:
83,122,202880,5,10,0:2:0:0:
83,122,202969,1,8,0:2:0:0:
83,122,203058,2,0,L|72:85,1,38.2500007295609,0|0,1:2|1:2,0:2:0:0:
148,66,203235,2,0,L|158:102,1,38.2500007295609,2|0,0:2|0:0,0:2:0:0:
65,245,203413,5,0,3:0:0:0:
65,245,203501,1,0,3:2:0:0:
65,245,203590,2,0,P|104:201|163:206,1,121.499996292114,6|0,1:2|0:2,0:2:0:0:
214,264,203945,2,0,P|253:254|292:245,1,80.9999975280763,2|0,1:2|0:2,0:2:0:0:
467,169,204300,2,0,B|421:172|392:150|406:131|376:105|324:109,1,161.999995056153,10|2,0:2|0:2,0:2:0:0:
268,167,204833,1,10,0:2:0:0:
426,0,205010,6,0,B|449:34|449:34|438:73,1,80.9999975280763,2|8,1:2|0:2,0:2:0:0:
192,145,205365,2,0,B|145:80|145:80|166:0,1,161.999995056153,2|8,1:2|0:2,0:2:0:0:
347,216,206075,2,0,P|333:254|322:293,1,80.9999975280763,4|4,0:3|0:3,0:0:0:0:
371,354,206342,5,4,0:3:0:0:
375,362,206430,2,0,P|413:371|448:352,1,80.9999975280763,6|0,1:2|0:0,0:2:0:0:
264,229,206785,2,0,P|225:219|190:238,1,80.9999975280763,2|0,1:2|0:2,0:2:0:0:
412,175,207140,2,0,P|464:116|441:42,1,161.999995056153,10|2,0:2|1:2,0:2:0:0:
253,66,207673,5,10,0:2:0:0:
253,66,207762,1,2,0:0:0:0:
253,66,207851,2,0,L|330:90,1,80.9999975280763,0|8,1:2|0:2,0:0:0:0:
483,249,208206,2,0,L|405:273,1,80.9999975280763,2|8,1:2|0:3,0:2:0:0:
290,217,208561,1,4,0:3:0:0:
220,254,208738,1,4,0:3:0:0:
228,334,208916,1,4,0:3:0:0:
299,298,209093,1,4,0:3:0:0:
140,384,209271,6,0,P|141:325|94:290,1,121.499996292114,6|0,1:2|0:2,0:2:0:0:
31,246,209626,2,0,P|37:207|41:166,1,80.9999975280763,2|0,1:2|0:2,0:2:0:0:
229,0,209981,2,0,P|215:79|205:160,1,161.999995056153,10|2,0:2|0:2,0:2:0:0:
308,96,210513,1,0,1:2:0:0:
130,61,210691,1,10,0:2:0:0:
308,96,210868,1,0,1:2:0:0:
245,273,211046,6,0,B|171:264|200:226|119:214,1,141.749995674133,6|0,1:2|0:2,0:2:0:0:
119,214,211401,2,0,P|96:221|73:226,1,47.2499985580445,10|0,0:2|0:0,0:0:0:0:
273,342,211578,2,0,P|345:318|420:300,1,153.000002918243,6|4,1:2|0:3,0:2:0:0:
498,311,212022,5,4,0:3:0:0:
506,311,212111,2,0,P|511:352|484:384,1,85.4999977169037,6|0,1:2|0:0,0:2:0:0:
316,246,212466,2,0,P|289:214|294:172,1,85.4999977169037,2|0,0:2|1:2,0:0:0:0:
494,48,212821,2,0,P|453:118|372:116,1,170.999995433807,10|2,0:2|0:2,0:2:0:0:
228,0,213354,1,0,1:2:0:0:
174,58,213531,2,0,P|182:99|188:142,1,85.4999977169037,12|0,0:2|1:2,0:2:0:0:
304,322,213886,5,8,0:2:0:0:
337,296,213975,1,8,0:2:0:0:
350,256,214064,1,8,0:2:0:0:
340,216,214152,1,8,0:2:0:0:
308,191,214241,2,0,P|287:195|266:199,1,42.7499988584519,8|4,0:2|0:3,0:0:0:0:
52,131,214419,2,0,P|73:127|94:123,1,42.7499988584519,8|4,0:3|0:3,0:0:0:0:
188,142,214596,1,4,0:3:0:0:
188,142,214774,1,4,0:3:0:0:
115,346,214951,6,0,P|101:283|85:221,1,128.249996575356,6|0,1:2|0:2,0:2:0:0:
85,221,215306,2,0,P|126:230|170:236,1,85.4999977169037,2|0,1:2|0:2,0:2:0:0:
306,353,215661,2,0,P|264:343|220:337,1,85.4999977169037,10|0,0:2|0:2,0:2:0:0:
366,225,216016,1,2,1:2:0:0:
366,225,216194,1,10,0:2:0:0:
284,265,216371,6,0,B|266:204|266:204|302:150,1,128.249996575356,0|0,1:2|0:0,0:2:0:0:
301,150,216726,2,0,P|258:143|217:134,1,85.4999977169037,2|0,1:2|0:0,0:2:0:0:
336,3,217081,2,0,P|398:55|386:136,1,170.999995433807,12|2,0:2|0:2,0:2:0:0:
389,315,217614,5,0,0:2:0:0:
429,248,217791,2,0,P|471:240|512:229,1,85.4999977169037,2|0,1:2|0:0,0:2:0:0:
331,376,218146,2,0,P|289:364|247:357,1,85.4999977169037,2|0,1:2|0:2,0:2:0:0:
61,317,218501,2,0,P|107:248|189:248,1,170.999995433807,10|0,0:2|1:2,0:2:0:0:
274,185,219034,1,10,0:2:0:0:
184,65,219211,1,0,1:2:0:0:
274,185,219389,1,8,0:2:0:0:
355,85,219567,2,0,P|377:120|372:162,1,85.4999977169037,0|0,1:2|0:2,0:2:0:0:
330,311,219922,5,14,0:2:0:0:
403,262,220099,2,0,P|355:193|273:184,1,170.999995433807,2|2,0:2|0:2,0:2:0:0:
209,255,220543,1,2,0:0:0:0:
213,249,220632,2,0,P|173:237|131:227,1,85.4999977169037,6|2,1:2|0:2,0:0:0:0:
0,101,220987,2,0,P|41:91|82:78,1,85.4999977169037,0|0,1:2|0:2,0:2:0:0:
265,7,221342,2,0,P|192:47|176:128,1,170.999995433807,10|0,0:2|0:2,0:2:0:0:
351,0,221874,5,2,1:2:0:0:
371,162,222052,2,0,P|381:120|389:78,1,85.4999977169037,14|0,0:2|0:2,0:2:0:0:
286,243,222407,2,0,P|244:251|202:260,1,85.4999977169037,8|2,0:3|1:1,0:0:0:0:
365,382,222762,2,0,P|364:300|437:265,1,170.999995433807,2|4,1:1|0:3,0:0:0:0:
436,264,223206,1,4,0:3:0:0:
436,264,223294,1,4,0:3:0:0:
252,343,223472,6,0,P|210:351|168:360,1,85.4999977169037,6|0,1:2|0:0,0:2:0:0:
89,310,223827,2,0,P|81:268|72:226,1,85.4999977169037,2|0,1:2|0:2,0:2:0:0:
246,68,224182,2,0,P|269:145|208:197,1,170.999995433807,10|0,0:2|0:2,0:2:0:0:
31,138,224714,5,8,0:2:0:0:
31,138,224803,1,8,0:0:0:0:
31,138,224892,2,0,P|73:130|115:121,1,85.4999977169037,0|8,1:2|0:2,0:0:0:0:
168,359,225247,2,0,P|230:345|293:334,1,128.249996575356,0|0,1:2|0:0,0:0:0:0:
293,333,225602,2,0,B|277:282|303:241|316:265|347:226|322:176,1,170.999995433807,8|0,0:2|0:0,0:0:0:0:
455,16,226135,5,0,3:2:0:0:
455,16,226224,1,0,3:0:0:0:
455,16,226313,2,0,B|479:52|479:52|466:92,1,85.4999977169037,2|8,1:2|0:2,0:0:0:0:
242,203,226667,2,0,B|218:167|218:167|230:126,1,85.4999977169037,2|0,1:2|0:0,0:2:0:0:
493,196,227022,6,0,P|452:124|370:119,1,170.999995433807,8|0,0:2|1:2,0:2:0:0:
245,26,227555,1,0,3:0:0:0:
245,26,227643,1,0,3:2:0:0:
245,26,227732,2,0,P|204:98|122:103,1,170.999995433807,2|0,1:2|0:0,0:0:0:0:
46,243,228265,2,0,P|38:200|30:159,1,85.4999977169037,0|10,1:2|0:2,0:0:0:0:
176,265,228620,1,4,0:3:0:0:
182,291,228709,1,4,0:3:0:0:
187,316,228797,1,4,0:3:0:0:
193,341,228886,1,4,0:3:0:0:
199,366,228975,1,4,0:3:0:0:
106,335,229152,6,0,P|64:344|21:349,1,85.4999977169037,6|0,1:2|0:0,0:2:0:0:
269,304,229507,2,0,P|310:294|353:289,1,85.4999977169037,2|2,1:2|0:2,0:0:0:0:
162,192,229862,2,0,P|153:111|222:67,1,170.999995433807,8|2,0:2|0:2,0:0:0:0:
220,67,230395,1,2,1:2:0:0:
398,265,230572,5,10,0:2:0:0:
462,204,230750,1,0,1:2:0:0:
402,136,230927,2,0,L|430:10,1,128.249996575356,6|0,1:2|0:2,0:2:0:0:
429,10,231282,2,0,L|387:-1,1,42.7499988584519,10|0,0:2|0:0,0:0:0:0:
236,148,231460,2,0,L|317:173,1,85.4999977169037,4|2,1:2|0:2,0:0:0:0:
402,136,231815,1,0,1:2:0:0:
267,372,231993,6,0,P|216:308|255:237,1,170.999995433807,14|0,0:2|0:2,0:2:0:0:
467,219,232525,1,0,1:2:0:0:
467,219,232703,2,0,L|441:300,1,85.4999977169037,10|2,0:2|0:2,0:0:0:0:
223,147,233058,2,0,L|248:65,1,85.4999977169037,8|4,0:3|0:3,0:2:0:0:
497,126,233413,6,0,L|415:100,1,85.4999977169037,14|0,0:2|0:0,0:2:0:0:
256,236,233768,1,8,0:2:0:0:
289,247,233887,1,8,0:2:0:0:
322,257,234005,1,8,0:2:0:0:
355,268,234123,6,0,L|337:322,1,56.9999984779358,8|4,0:2|0:3,0:0:0:0:
153,253,234359,2,0,L|170:198,1,56.9999984779358,4|4,0:3|0:3,0:0:0:0:
448,13,234833,6,2,L|352:341,1,341.999990867615,6|10,1:2|0:2,0:1:0:0:
79,267,235898,1,0,0:2:0:0:
163,232,236075,1,10,0:2:0:0:
163,232,236164,1,10,0:0:0:0:
163,232,236253,2,0,P|155:190|145:149,1,85.4999977169037,2|10,1:2|0:2,0:0:0:0:
191,73,236608,2,0,P|233:65|274:55,1,85.4999977169037,2|0,1:2|0:2,0:2:0:0:
437,150,236963,5,10,0:2:0:0:
391,227,237140,1,2,0:2:0:0:
314,181,237318,1,2,1:2:0:0:
360,104,237495,1,2,1:2:0:0:
409,320,237673,6,2,B|361:329|326:306|345:288|311:257|255:264,1,170.999995433807,6|0,1:2|0:2,0:1:0:0:
92,374,238206,1,2,1:2:0:0:
92,374,238294,1,2,1:2:0:0:
91,374,238383,2,2,P|155:323|141:243,1,170.999995433807,10|0,0:2|1:2,0:1:0:0:
276,101,238916,1,2,0:2:0:0:
276,101,239004,1,2,0:2:0:0:
276,101,239093,2,0,P|257:21|179:0,1,170.999995433807,2|2,1:2|0:2,0:0:0:0:
27,115,239626,1,0,1:2:0:0:
27,115,239714,1,0,1:2:0:0:
27,115,239803,1,10,0:2:0:0:
85,166,239981,2,0,P|126:156|167:144,1,85.4999977169037,4|4,0:3|0:3,0:0:0:0:
291,250,240336,5,4,0:3:0:0:
291,250,240424,1,4,0:3:0:0:
291,250,240513,2,0,P|349:230|361:170,1,128.249996575356,6|0,1:2|0:2,0:2:0:0:
410,109,240868,2,0,P|451:99|492:87,1,85.4999977169037,2|2,1:2|0:2,0:0:0:0:
313,5,241223,2,0,P|271:16|230:26,1,85.4999977169037,10|0,0:2|0:2,0:2:0:0:
85,123,241578,5,2,1:2:0:0:
172,147,241756,1,8,0:2:0:0:
107,279,241933,2,0,B|95:238|95:238|112:198,1,85.4999977169037,0|8,1:2|0:2,0:0:0:0:
298,208,242288,2,0,B|310:249|310:249|292:288,1,85.4999977169037,2|0,0:2|1:2,0:2:0:0:
198,374,242643,2,0,P|198:312|206:244,1,128.249996575356,10|0,0:2|0:0,0:2:0:0:
205,246,242998,1,0,1:2:0:0:
255,133,243176,1,10,0:2:0:0:
401,220,243353,5,10,1:2:0:0:
432,181,243472,1,8,0:2:0:0:
415,135,243590,2,0,L|360:116,1,56.9999984779358,8|8,0:2|0:2,0:0:0:0:
274,47,243827,5,8,0:2:0:0:
230,59,243945,1,8,0:2:0:0:
186,71,244064,2,0,P|130:58|75:42,1,113.999996955872,10|4,1:2|0:3,0:0:0:0:
3,105,244419,5,4,0:3:0:0:
9,95,244537,2,0,P|17:122|23:150,1,56.9999984779358,4|0,0:3|0:0,0:0:0:0:
180,357,244774,6,0,P|192:277|131:222,2,170.999995433807,6|12|2,1:2|0:3|0:2,0:2:0:0:
180,357,245839,5,6,1:2:0:0:
256,192,246016,12,0,254241,0:2:0:0:
