osu file format v14

[General]
AudioFilename: heaven.mp3
AudioLeadIn: 0
PreviewTime: 96536
Countdown: 0
SampleSet: Soft
StackLeniency: 0.7
Mode: 0
LetterboxInBreaks: 0
WidescreenStoryboard: 1

[Editor]
Bookmarks: 20275,38218,58405,78592,96536,114480,132424,150368,170555,188499,206443,222144,240088
DistanceSpacing: 1.4
BeatDivisor: 8
GridSize: 32
TimelineZoom: 3.239999

[Metadata]
Title:Heaven
TitleUnicode:Heaven
Artist:Soushi Sakiyama
ArtistUnicode:崎山蒼志
Creator:Gillstar
Version:Fixxis' Insane
Source:
Tags:fixxis black man xenon- xehn xen deca japanese pop j-pop male vocal
BeatmapID:3102985
BeatmapSetID:1511868

[Difficulty]
HPDrainRate:6
CircleSize:4
OverallDifficulty:8
ApproachRate:9
SliderMultiplier:2.8
SliderTickRate:1

[Events]
//Background and Video events
0,0,"9533939b-44f8-48b5-8b4d-cc5152ee3f1e.jpg",0,0
//Break Periods
2,20476,35657
2,175242,178648
2,184214,185657
//Storyboard Layer 0 (Background)
//Storyboard Layer 1 (Fail)
//Storyboard Layer 2 (Pass)
//Storyboard Layer 3 (Foreground)
//Storyboard Layer 4 (Overlay)
//Storyboard Sound Samples

[TimingPoints]
-1032,560.747663551402,4,2,3,40,1,0
650,-153.846153846154,4,2,3,40,0,0
9622,-117.647058823529,4,2,1,50,0,0
10042,-117.647058823529,4,2,3,40,0,0
10182,-153.846153846154,4,2,3,40,0,0
19154,-285.714285714286,4,2,1,60,0,0
19295,-285.714285714286,4,2,1,40,0,0
20276,560.747663551402,4,2,1,40,1,0
37379,-100,4,2,1,40,0,0
38218,-100,4,2,1,50,0,0
56303,-100,4,2,1,50,0,0
56723,-83.3333333333333,4,2,1,80,0,0
57564,-333.333333333333,4,2,2,80,0,0
58335,-333.333333333333,4,2,1,5,0,0
58405,-83.3333333333333,4,2,1,75,0,0
77751,-1000,4,2,1,75,0,0
78592,-100,4,2,1,50,0,0
94293,-100,4,2,1,80,0,0
96536,-83.3333333333333,4,2,1,75,0,0
114480,-100,4,2,1,50,0,0
132424,-100,4,2,2,60,0,0
148125,-100,4,2,1,70,0,0
151209,-83.3333333333333,4,2,1,60,0,0
168312,-83.3333333333333,4,2,1,80,0,0
169293,-66.6666666666667,4,2,1,80,0,0
170134,-500,4,2,1,80,0,0
175041,-500,4,2,1,40,0,0
186256,-125,4,2,1,70,0,0
187938,-500,4,2,1,70,0,0
189060,-66.6666666666667,4,2,1,80,0,0
189620,-83.3333333333333,4,2,1,80,0,0
190742,-83.3333333333333,4,2,1,75,0,0
221022,-142.857142857143,4,2,1,75,0,0
222144,-90.9090909090909,4,2,1,60,0,0
240088,-83.3333333333333,4,2,1,70,0,0
248779,-1000,4,2,1,70,0,0

[Colours]
Combo1 : 185,208,176
Combo2 : 104,147,79

[HitObjects]
484,195,369,5,0,0:0:0:0:
484,195,510,1,0,0:0:0:0:
484,195,650,2,0,P|429:201|339:217,1,136.499993751526,2|0,0:0|0:0,0:0:0:0:
282,289,1210,6,0,P|280:243|268:194,1,90.9999958343508
193,168,1631,1,0,0:0:0:0:
113,239,1771,2,0,P|200:244|285:292,1,181.999991668702,2|0,0:0|0:0,0:0:0:0:
193,354,2472,5,0,0:0:0:0:
193,354,2612,1,0,0:0:0:0:
193,354,2753,2,0,P|159:347|134:344,1,45.4999979171754,2|0,0:0|0:0,0:0:0:0:
40,304,3033,2,0,P|35:267|30:209,1,90.9999958343508
132,261,3453,6,0,P|135:209|139:144,1,90.9999958343508
225,267,4014,2,0,P|269:253|373:267,1,136.499993751526,2|0,0:0|0:0,0:0:0:0:
490,299,4575,2,0,L|481:240,1,45.4999979171754
422,197,4855,5,0,0:0:0:0:
426,205,4996,1,0,0:0:0:0:
426,205,5136,2,0,P|432:149|449:69,1,136.499993751526,2|0,0:0|0:0,0:0:0:0:
349,13,5696,6,0,L|362:70,2,45.4999979171754
320,180,6117,1,0,0:0:0:0:
320,180,6257,2,0,P|322:158|331:126,2,45.4999979171754,2|0|0,0:0|0:0|0:0,0:0:0:0:
348,269,6678,1,0,0:0:0:0:
236,156,6818,6,0,P|207:159|150:163,1,45.4999979171754
320,180,7098,2,0,P|363:168|396:137,1,90.9999958343508,0|2,0:0|0:0,0:0:0:0:
347,43,7659,5,0,0:0:0:0:
347,43,7799,1,0,0:0:0:0:
347,43,7939,2,0,P|301:35|250:30,1,90.9999958343508
302,117,8500,2,0,P|256:121|211:129,1,90.9999958343508,2|0,0:0|0:0,0:0:0:0:
141,180,8921,1,0,0:0:0:0:
129,87,9201,6,0,L|137:39,2,45.4999979171754
17,262,9622,6,0,B|112:217|89:282|204:243,1,178.500003404617,8|0,0:1|0:0,0:0:0:0:
302,198,10182,6,0,P|350:201|381:237,1,90.9999958343508
379,314,10603,1,0,0:0:0:0:
274,361,10743,2,0,P|265:320|264:262,1,90.9999958343508,2|0,0:0|0:0,0:0:0:0:
323,124,11164,1,0,0:0:0:0:
245,103,11304,2,0,P|231:138|213:201,1,90.9999958343508
378,230,11725,6,0,P|404:215|444:202,1,45.4999979171754,2|0,0:0|0:0,0:0:0:0:
495,196,12005,2,0,P|493:169|393:137,1,136.499993751526,2|0,0:0|0:0,0:0:0:0:
0,340,12846,5,0,0:0:0:0:
0,340,12986,2,0,P|41:317|93:310,1,90.9999958343508,2|0,0:0|0:0,0:0:0:0:
155,319,13407,1,0,0:0:0:0:
164,320,13547,2,0,B|129:219|203:258|152:117,1,181.999991668702,0|2,0:0|0:0,0:0:0:0:
334,78,14668,6,0,P|256:65|132:52,1,181.999991668702,2|0,0:0|0:0,0:0:0:0:
68,12,15650,2,0,P|60:38|54:70,1,45.4999979171754
146,65,15930,2,0,P|165:104|170:156,1,90.9999958343508
58,224,16351,6,0,P|35:283|37:371,1,136.499993751526,2|0,0:0|0:0,0:0:0:0:
121,365,16911,2,0,P|175:349|211:343,1,90.9999958343508,2|0,0:0|0:0,0:0:0:0:
216,264,17332,1,0,0:0:0:0:
216,264,17472,2,0,P|262:275|327:284,1,90.9999958343508
127,281,17893,6,0,L|114:222,1,45.4999979171754
154,147,18173,2,0,B|105:133|105:133|20:173,1,136.499993751526,0|2,0:0|0:0,0:0:0:0:
47,56,18874,5,0,0:0:0:0:
47,56,19014,1,0,0:0:0:0:
47,56,19154,2,0,L|40:82,7,24.4999992523194,8|0|0|0|0|2|2|0,0:0|0:0|0:0|0:0|0:0|0:0|0:0|0:0,0:0:0:0:
245,166,20276,1,4,1:2:0:0:
242,173,36257,5,2,0:3:0:0:
425,139,36818,5,2,0:0:0:0:
425,139,36958,1,2,0:0:0:0:
82,213,37239,5,8,0:1:0:0:
152,170,37379,2,0,P|167:195|176:243,1,70,8|0,0:1|0:0,0:0:0:0:
245,298,37659,1,8,0:1:0:0:
327,269,37799,5,0,3:0:0:0:
327,269,37869,1,0,3:0:0:0:
327,269,37939,2,0,L|417:237,1,70,0|8,1:0|0:1,0:0:0:0:
240,380,38220,6,0,P|226:311|187:233,1,140,4|2,3:1|0:0,0:0:0:0:
216,167,38640,1,0,3:0:0:0:
218,85,38781,2,0,P|179:95|139:121,1,70,2|8,0:3|0:1,0:0:0:0:
301,134,39061,1,8,0:1:0:0:
136,182,39201,2,0,P|55:190|-6:170,1,140,2|0,0:0|0:0,0:0:0:0:
184,252,39622,6,0,L|261:268,1,70,2|0,0:3|3:0,0:0:0:0:
363,202,39902,1,8,0:1:0:0:
363,202,40042,1,0,3:0:0:0:
104,46,40323,5,2,0:0:0:0:
42,73,40463,2,0,P|65:54|111:46,1,70,0|0,1:0|0:0,0:0:0:0:
197,23,40743,2,0,P|196:61|168:109,1,70,0|10,3:0|0:1,0:0:0:0:
281,142,41024,6,0,L|376:116,1,70,0|0,0:3|3:0,0:0:0:0:
459,167,41304,1,8,0:1:0:0:
227,234,41584,5,2,1:2:0:0:
201,163,41725,1,0,3:0:0:0:
281,142,41865,1,0,0:0:0:0:
310,217,42005,2,0,P|332:260|345:298,1,70,8|2,0:1|0:0,0:0:0:0:
264,353,42285,5,0,3:0:0:0:
156,279,42425,2,0,P|95:295|43:328,1,105,8|0,0:1|0:0,0:0:0:0:
43,345,42706,6,0,P|35:280|7:207,1,140,4|2,1:2|0:0,0:0:0:0:
0,131,43126,2,0,P|32:116|67:108,1,70,0|2,3:0|0:3,0:0:0:0:
171,85,43407,1,8,0:1:0:0:
18,26,43547,1,8,0:1:0:0:
245,53,43827,6,0,P|296:62|332:61,1,70,2|0,0:0|0:0,0:0:0:0:
442,20,44108,1,2,0:3:0:0:
442,20,44248,1,0,3:0:0:0:
378,111,44388,6,0,L|395:205,1,70,8|0,0:1|3:0,0:0:0:0:
433,265,44668,2,0,P|375:248|290:249,1,140,2|2,0:0|1:2,0:0:0:0:
244,171,45089,1,0,0:0:0:0:
271,318,45229,1,0,3:0:0:0:
244,171,45369,2,0,P|268:162|323:161,1,70,10|0,0:1|0:0,0:0:0:0:
200,242,45650,5,0,3:0:0:0:
117,232,45790,2,0,P|61:251|7:313,1,140,8|2,0:1|1:2,0:0:0:0:
63,165,46210,1,0,3:0:0:0:
200,242,46351,6,0,P|236:249|277:281,1,70,0|8,0:0|0:1,0:0:0:0:
61,71,46631,6,0,P|18:88|-5:106,1,70,2|0,0:0|3:0,0:0:0:0:
216,19,46911,6,0,P|247:30|286:73,1,70,8|0,0:1|0:0,0:0:0:0:
0,106,47192,2,0,P|35:163|131:160,1,140,2|0,1:2|3:0,0:0:0:0:
206,248,47612,2,0,P|260:233|354:218,1,140,10|0,0:1|3:0,0:0:0:0:
481,257,48033,1,8,0:1:0:0:
481,257,48313,5,0,1:0:0:0:
443,158,48453,1,0,3:0:0:0:
391,287,48594,1,2,0:0:0:0:
372,111,48734,6,0,P|323:131|215:144,1,140,8|0,0:1|3:0,0:0:0:0:
172,224,49154,1,8,0:1:0:0:
336,340,49435,6,0,B|388:326|388:326|480:369,1,140,2|0,1:2|3:0,0:0:0:0:
484,267,49855,2,0,P|468:221|465:186,1,70,10|0,0:1|0:0,0:0:0:0:
397,160,50136,5,0,3:0:0:0:
299,197,50276,2,0,P|310:225|317:274,1,70,8|0,0:1|0:0,0:0:0:0:
388,332,50556,2,0,L|399:261,1,70,2|0,1:2|3:2,0:0:0:0:
460,54,50837,6,0,L|477:138,1,70,0|8,0:0|0:1,0:0:0:0:
310,117,51117,2,0,P|280:106|236:96,1,70,2|0,0:0|3:0,0:0:0:0:
362,24,51397,1,8,0:1:0:0:
391,139,51538,1,0,0:0:0:0:
289,200,51678,6,0,P|213:205|146:159,1,140,2|0,1:2|3:0,0:0:0:0:
100,84,52098,2,0,P|67:119|66:165,1,70,10|0,0:1|0:0,0:0:0:0:
193,99,52379,1,0,3:0:0:0:
193,99,52519,1,8,0:1:0:0:
273,71,52659,2,0,P|274:43|245:-6,1,70,2|0,0:0|1:0,0:0:0:0:
136,167,52939,5,0,3:0:0:0:
252,196,53080,1,2,0:0:0:0:
132,265,53220,2,0,B|232:233|191:296|314:259,1,175,8|0,0:1|0:0,0:0:0:0:
321,274,53640,2,0,P|316:314|309:359,1,70,8|0,0:1|0:0,0:0:0:0:
444,348,53921,1,0,1:0:0:0:
453,268,54061,1,2,0:0:0:0:
398,210,54201,1,0,3:0:0:0:
324,187,54341,6,0,P|294:193|241:222,1,70,10|0,0:1|0:0,0:0:0:0:
169,279,54622,1,0,3:0:0:0:
11,191,54762,2,0,P|43:200|76:225,1,70,10|0,0:1|0:0,0:0:0:0:
184,196,55042,5,8,0:1:0:0:
238,331,55182,1,8,0:1:0:0:
238,331,55323,1,8,0:1:0:0:
246,131,55463,6,0,P|246:99|241:52,1,70,8|0,0:1|0:0,0:0:0:0:
147,102,55743,1,8,0:1:0:0:
350,157,55883,2,0,P|384:156|425:162,1,70,8|0,0:1|0:0,0:0:0:0:
275,216,56164,1,10,0:1:0:0:
482,101,56304,2,0,P|465:57|357:17,1,140,0|0,1:0|0:0,0:0:0:0:
320,81,56725,2,0,P|280:94|237:114,1,83.9999974365235,4|0,1:0|0:0,0:0:0:0:
385,163,57005,5,8,1:0:0:0:
123,35,57145,2,0,P|138:90|161:243,1,209.999993591309,4|0,1:2|0:0,0:0:0:0:
161,253,57566,6,2,P|163:215|189:136,1,115.49999647522,0|0,1:0|0:0,0:1:0:0:
277,84,58407,6,0,P|331:85|355:109,1,83.9999974365235,4|0,1:0|0:0,0:0:0:0:
423,156,58687,2,0,P|439:98|431:58,1,83.9999974365235,2|0,0:0|3:0,0:0:0:0:
235,233,58968,6,0,P|181:234|157:258,1,83.9999974365235,8|0,0:0|0:0,0:0:0:0:
89,305,59248,2,0,P|73:247|81:207,1,83.9999974365235,2|0,0:0|3:0,0:0:0:0:
218,328,59528,5,4,0:3:0:0:
325,247,59668,1,0,0:0:0:0:
310,349,59809,1,0,1:0:0:0:
310,349,59949,1,0,3:0:0:0:
205,152,60089,5,8,0:0:0:0:
205,152,60159,1,0,3:0:0:0:
205,152,60229,2,0,P|160:163|112:178,1,83.9999974365235,0|2,3:0|2:0,0:0:0:0:
293,149,60510,1,8,0:0:0:0:
111,159,60650,6,0,P|129:84|125:8,1,125.999996154785,4|0,3:2|0:0,0:0:0:0:
260,13,60930,2,0,P|307:27|341:74,1,83.9999974365235,2|0,0:0|3:0,0:0:0:0:
371,181,61210,1,8,0:0:0:0:
352,283,61351,5,2,0:0:0:0:
432,135,61491,2,0,P|473:147|516:161,1,83.9999974365235,2|0,0:0|3:0,0:0:0:0:
313,125,61771,6,0,P|259:128|185:195,1,125.999996154785,2|0,0:1|0:0,0:0:0:0:
168,168,62052,2,0,P|187:213|206:268,1,83.9999974365235,0|0,1:0|3:0,0:0:0:0:
36,379,62332,6,0,P|60:306|133:281,1,125.999996154785,8|0,0:0|0:0,0:0:0:0:
117,300,62612,2,0,P|166:310|219:328,1,83.9999974365235,2|8,0:1|0:0,0:0:0:0:
380,378,62893,6,0,P|434:338|416:240,1,167.999994873047,2|2,3:2|0:0,0:0:0:0:
287,208,63313,1,0,3:0:0:0:
374,164,63453,2,0,L|470:139,1,83.9999974365235,8|0,0:0|0:0,0:0:0:0:
352,299,63734,1,2,0:0:0:0:
287,208,63874,2,0,P|291:163|303:118,1,83.9999974365235,0|4,3:0|0:3,0:0:0:0:
187,202,64154,6,0,P|121:215|19:256,1,167.999994873047,2|0,0:0|3:2,0:0:0:0:
0,130,64575,6,0,P|27:139|101:144,1,83.9999974365235,8|2,0:0|0:0,0:0:0:0:
212,108,64855,1,0,1:0:0:0:
117,60,64996,1,2,0:2:0:0:
215,10,65136,5,2,3:0:0:0:
285,151,65276,2,0,L|268:323,1,167.999994873047,2|0,0:0|3:0,0:0:0:0:
204,184,65696,2,0,P|195:226|180:270,1,83.9999974365235,8|0,0:0|0:0,0:0:0:0:
349,58,65977,2,0,P|365:121|387:239,1,167.999994873047,2|12,3:3|0:0,0:0:0:0:
100,152,66397,6,0,P|114:122|166:95,1,83.9999974365235,0|2,3:0|0:0,0:0:0:0:
453,169,66678,1,12,0:0:0:0:
210,248,66958,5,0,3:0:0:0:
347,188,67098,1,8,0:0:0:0:
246,89,67239,1,2,0:0:0:0:
210,248,67379,6,0,P|119:271|56:196,1,167.999994873047,4|2,1:0|0:0,0:0:0:0:
108,135,67799,1,0,3:0:0:0:
44,73,67939,2,0,P|32:125|18:171,1,83.9999974365235,8|0,0:0|0:0,0:0:0:0:
137,23,68220,5,2,0:0:0:0:
183,154,68360,2,0,P|244:136|376:143,1,167.999994873047,0|2,3:0|0:0,0:0:0:0:
391,71,68781,5,2,1:2:0:0:
416,191,68921,1,0,3:0:0:0:
474,80,69061,1,8,0:0:0:0:
432,270,69201,6,0,B|394:271|394:271|343:240,1,83.9999974365235,0|2,3:0|0:0,0:0:0:0:
245,70,69482,5,8,0:0:0:0:
125,97,69622,2,0,P|62:112|-6:213,1,167.999994873047,4|2,3:2|0:0,0:0:0:0:
236,220,70042,1,0,3:0:0:0:
88,188,70182,2,0,B|71:227|71:227|85:280,1,83.9999974365235,8|2,0:0|0:0,0:0:0:0:
178,315,70463,5,2,0:0:0:0:
178,315,70603,1,0,3:0:0:0:
313,248,70743,2,0,P|360:234|449:249,1,125.999996154785,2|0,0:1|0:0,0:0:0:0:
449,248,71024,2,0,P|411:239|357:202,1,83.9999974365235,0|0,1:0|3:0,0:0:0:0:
266,59,71304,6,0,P|245:113|258:185,1,125.999996154785,8|0,0:0|0:0,0:0:0:0:
258,188,71584,2,0,P|219:168|161:173,1,83.9999974365235,2|8,0:1|0:0,0:0:0:0:
80,239,71865,6,0,P|30:258|-12:257,1,83.9999974365235,0|0,3:2|0:0,0:0:0:0:
162,279,72145,1,2,0:0:0:0:
87,132,72285,1,0,3:0:0:0:
179,167,72425,5,10,0:0:0:0:
179,167,72496,1,2,0:0:0:0:
179,167,72566,1,2,0:0:0:0:
241,96,72706,1,2,1:2:0:0:
72,46,72846,2,0,P|32:54|0:83,1,83.9999974365235,0|0,3:0|0:0,0:0:0:0:
160,32,73126,1,2,0:0:0:0:
286,13,73267,6,0,P|281:127|294:203,1,167.999994873047,0|8,3:0|0:0,0:0:0:0:
361,238,73687,1,0,3:0:0:0:
269,291,73827,1,4,0:3:0:0:
412,323,73968,5,2,0:0:0:0:
329,377,74108,1,0,1:0:0:0:
329,377,74178,1,0,3:0:0:0:
329,377,74248,1,0,3:0:0:0:
361,238,74388,2,0,P|416:240|492:208,1,125.999996154785,2|0,0:0|0:0,0:0:0:0:
492,209,74668,6,0,P|473:161|426:135,1,83.9999974365235,10|2,0:0|0:0,0:0:0:0:
387,7,74949,2,0,P|347:23|319:66,1,83.9999974365235,0|0,1:0|0:0,0:0:0:0:
294,159,75229,5,12,0:0:0:0:
164,112,75369,1,0,3:0:0:0:
239,45,75510,1,2,0:0:0:0:
208,213,75650,6,0,P|166:252|54:248,1,167.999994873047,12|0,0:0|3:0,0:0:0:0:
4,303,76070,2,0,P|-15:248|-5:219,1,83.9999974365235,8|0,0:0|0:0,0:0:0:0:
122,181,76351,1,4,1:0:0:0:
359,353,76631,5,0,3:0:0:0:
255,265,76911,5,10,0:0:0:0:
129,261,77192,5,2,3:2:0:0:
301,149,77472,5,2,3:2:0:0:
188,13,77753,6,0,P|183:29|179:52,1,38.5,2|0,1:0|0:0,0:0:0:0:
155,79,78594,6,0,P|218:65|305:60,1,140,4|2,3:1|0:0,0:0:0:0:
377,114,79014,2,0,P|418:117|447:124,1,70,0|2,3:0|0:3,0:0:0:0:
451,27,79295,5,8,0:1:0:0:
509,167,79435,2,0,P|503:210|404:227,1,140,8|0,0:1|0:0,0:0:0:0:
377,114,79855,1,0,0:0:0:0:
298,136,79996,6,0,P|254:155|226:179,1,70,2|0,0:3|3:0,0:0:0:0:
200,250,80276,5,8,0:1:0:0:
145,181,80416,1,2,3:2:0:0:
285,287,80696,5,2,0:0:0:0:
216,343,80837,2,0,P|180:343|150:324,1,70,0|0,1:0|0:0,0:0:0:0:
200,250,81117,5,0,3:0:0:0:
285,287,81257,2,0,L|374:306,1,70,10|0,0:1|0:3,0:0:0:0:
416,249,81538,1,0,3:0:0:0:
369,160,81678,6,0,P|320:142|237:193,1,140,8|2,0:1|1:2,0:0:0:0:
163,139,82098,1,0,3:0:0:0:
217,72,82239,6,0,L|305:57,1,70,0|8,0:0|0:1,0:0:0:0:
366,20,82519,1,2,0:0:0:0:
410,90,82659,5,0,3:0:0:0:
511,96,82799,2,0,P|466:152|469:197,1,105,8|0,0:1|0:0,0:0:0:0:
444,175,83080,6,0,P|373:177|286:205,1,140,4|2,1:2|0:0,0:0:0:0:
221,233,83500,2,0,P|220:191|228:145,1,70,0|2,3:0|0:3,0:0:0:0:
271,91,83781,1,8,0:1:0:0:
277,93,83921,1,8,0:1:0:0:
75,184,84201,5,2,0:0:0:0:
75,184,84271,1,2,0:0:0:0:
75,184,84341,2,0,P|85:235|83:269,1,70,2|2,0:0|0:3,0:0:0:0:
27,332,84622,1,0,3:0:0:0:
113,359,84762,1,8,0:1:0:0:
192,313,84902,2,0,P|184:259|170:223,1,70,0|0,3:0|0:0,0:0:0:0:
268,202,85182,5,0,0:0:0:0:
268,369,85323,2,0,P|345:334|430:339,1,140,2|0,1:2|3:0,0:0:0:0:
489,180,85743,2,0,P|435:217|350:224,1,140,10|0,0:1|3:0,0:0:0:0:
497,89,86164,2,0,P|483:61|429:37,1,70,8|0,0:1|0:0,0:0:0:0:
356,53,86444,1,2,1:2:0:0:
404,125,86584,1,0,3:0:0:0:
271,23,86725,6,0,L|188:39,1,70,0|8,0:0|0:1,0:0:0:0:
35,281,87145,5,0,3:0:0:0:
112,311,87285,2,0,P|117:277|100:232,1,70,8|0,0:1|0:0,0:0:0:0:
0,163,87566,2,0,P|68:161|122:86,1,140,2|0,1:2|3:0,0:0:0:0:
185,51,87986,6,0,P|197:108|197:144,1,70,10|0,0:1|0:0,0:0:0:0:
227,229,88267,1,0,3:0:0:0:
297,170,88407,2,0,P|289:95|291:27,1,140,8|0,0:1|1:0,0:0:0:0:
126,143,88827,1,0,3:0:0:0:
441,259,89108,6,0,P|438:293|422:333,1,70,8|0,0:1|0:0,0:0:0:0:
340,358,89388,1,2,3:2:0:0:
262,305,89528,2,0,P|195:314|122:342,1,140,8|2,0:1|1:2,0:0:0:0:
11,286,89949,5,0,0:0:0:0:
85,257,90089,1,0,3:0:0:0:
161,242,90229,1,10,0:1:0:0:
459,179,90510,5,0,3:0:0:0:
385,155,90650,1,8,0:1:0:0:
183,28,90930,6,0,P|195:62|203:96,1,70,2|0,1:2|3:2,0:0:0:0:
280,134,91210,1,0,0:0:0:0:
319,65,91351,2,0,P|343:61|396:16,1,70,8|2,0:1|0:0,0:0:0:0:
195,115,91631,5,0,3:0:0:0:
127,164,91771,2,0,P|62:164|9:125,1,105,8|0,0:1|0:0,0:0:0:0:
13,147,92052,6,0,P|18:108|36:80,1,70,2|0,1:2|0:0,0:0:0:0:
114,32,92332,1,0,3:0:0:0:
218,80,92472,2,0,P|248:136|254:230,1,140,10|0,0:1|3:0,0:0:0:0:
311,87,92893,2,0,L|329:4,1,70,8|2,0:1|0:0,0:0:0:0:
468,93,93173,5,0,1:0:0:0:
383,133,93313,1,0,3:0:0:0:
355,219,93453,2,0,P|370:256|395:298,1,70,2|8,0:0|0:1,0:0:0:0:
23,305,93874,5,0,3:0:0:0:
128,352,94014,2,0,P|171:330|215:314,1,70,8|0,0:1|0:0,0:0:0:0:
23,305,94295,6,0,P|37:248|41:156,1,140,10|0,0:1|0:0,0:0:0:0:
121,271,94715,1,0,0:0:0:0:
410,186,94855,6,0,P|384:93|382:36,1,140,10|0,0:1|0:0,0:0:0:0:
307,204,95276,1,0,0:0:0:0:
469,252,95416,5,8,0:1:0:0:
303,333,95556,1,8,0:1:0:0:
423,322,95696,5,0,1:0:0:0:
357,275,95837,1,8,0:1:0:0:
500,151,96117,5,8,0:1:0:0:
500,151,96257,1,8,0:1:0:0:
117,209,96538,6,0,P|64:216|23:228,1,83.9999974365235,4|0,1:0|0:0,0:0:0:0:
174,54,96818,2,0,P|192:101|198:162,1,83.9999974365235,2|0,0:0|3:0,0:0:0:0:
333,21,97098,6,0,P|320:68|316:112,1,83.9999974365235,8|0,0:0|0:0,0:0:0:0:
395,209,97379,2,0,P|443:215|486:226,1,83.9999974365235,2|0,0:0|3:0,0:0:0:0:
311,251,97659,5,4,0:3:0:0:
250,185,97799,1,0,0:0:0:0:
192,290,97939,2,0,P|193:340|218:370,1,83.9999974365235,0|0,1:0|3:0,0:0:0:0:
360,334,98220,5,8,0:0:0:0:
360,334,98290,1,0,3:0:0:0:
360,334,98360,2,0,L|472:348,1,83.9999974365235,0|2,3:0|2:0,0:0:0:0:
348,176,98640,1,8,0:0:0:0:
140,216,98781,2,0,P|111:246|103:298,1,83.9999974365235,4|0,3:2|0:0,0:0:0:0:
277,369,99061,2,0,P|269:277|259:218,1,125.999996154785,2|0,0:0|0:0,0:0:0:0:
248,210,99341,6,0,P|247:178|257:122,1,83.9999974365235,8|2,0:0|0:0,0:0:0:0:
275,32,99622,1,2,0:0:0:0:
181,82,99762,1,0,3:0:0:0:
354,166,99902,6,0,P|352:252|303:286,1,125.999996154785,2|0,0:1|0:0,0:0:0:0:
305,288,100182,2,0,P|269:291|195:303,1,83.9999974365235,0|0,1:0|3:0,0:0:0:0:
45,229,100463,6,0,P|99:213|187:204,1,125.999996154785,8|0,0:0|0:0,0:0:0:0:
206,196,100743,2,0,P|208:159|174:113,1,83.9999974365235,2|8,0:1|0:0,0:0:0:0:
28,322,101024,6,0,P|107:334|188:266,1,167.999994873047,2|2,3:2|0:0,0:0:0:0:
296,177,101444,1,0,3:0:0:0:
353,268,101584,2,0,L|342:380,1,83.9999974365235,8|0,0:0|0:0,0:0:0:0:
263,268,101865,5,2,0:0:0:0:
393,184,102005,2,0,P|446:170|490:164,1,83.9999974365235,0|4,3:0|0:3,0:0:0:0:
348,44,102285,2,0,B|293:35|293:35|175:95,1,167.999994873047,2|0,0:0|3:2,0:0:0:0:
78,119,102706,5,8,0:0:0:0:
78,119,102846,1,2,0:0:0:0:
8,36,102986,6,0,L|99:13,2,83.9999974365235,0|2|2,1:0|0:2|3:0,0:0:0:0:
4,194,103407,2,0,P|69:160|185:151,1,167.999994873047,2|0,0:0|3:0,0:0:0:0:
268,137,103827,6,0,P|251:184|245:232,1,83.9999974365235,8|0,0:0|0:0,0:0:0:0:
379,277,104108,2,0,P|311:287|190:336,1,167.999994873047,2|12,3:3|0:0,0:0:0:0:
452,368,104528,6,0,P|477:322|474:279,1,83.9999974365235,0|2,3:0|0:0,0:0:0:0:
379,101,104809,1,12,0:0:0:0:
148,271,105089,5,0,3:0:0:0:
260,243,105229,1,8,0:0:0:0:
230,346,105369,1,2,0:0:0:0:
148,271,105510,6,0,P|126:200|174:114,1,167.999994873047,4|2,1:0|0:0,0:0:0:0:
202,46,105930,1,0,3:0:0:0:
120,16,106070,2,0,P|81:39|58:84,1,83.9999974365235,8|0,0:0|0:0,0:0:0:0:
59,231,106351,5,2,0:0:0:0:
0,150,106491,2,0,P|49:125|169:115,1,167.999994873047,0|2,3:0|0:0,0:0:0:0:
318,180,106911,1,2,1:2:0:0:
252,114,107052,1,0,3:0:0:0:
252,114,107192,1,8,0:0:0:0:
343,31,107332,2,0,P|365:59|369:132,1,83.9999974365235,0|2,3:0|0:0,0:0:0:0:
228,207,107612,5,8,0:0:0:0:
358,292,107753,2,0,P|433:240|426:148,1,167.999994873047,4|2,3:2|0:0,0:0:0:0:
351,173,108173,1,0,3:0:0:0:
268,135,108313,2,0,P|228:126|166:128,1,83.9999974365235,8|2,0:0|0:0,0:0:0:0:
103,169,108594,5,2,0:0:0:0:
79,75,108734,1,0,3:0:0:0:
37,242,108874,2,0,P|107:263|177:235,1,125.999996154785,2|0,0:1|0:0,0:0:0:0:
174,253,109154,2,0,P|174:287|162:338,1,83.9999974365235,0|0,1:0|3:0,0:0:0:0:
477,238,109435,6,0,P|407:259|337:231,1,125.999996154785,8|0,0:0|0:0,0:0:0:0:
338,253,109715,2,0,P|338:287|350:338,1,83.9999974365235,2|8,0:1|0:0,0:0:0:0:
251,363,109996,1,0,3:2:0:0:
258,269,110136,1,0,0:0:0:0:
245,152,110276,5,2,0:0:0:0:
270,49,110416,1,0,3:0:0:0:
331,120,110556,1,10,0:0:0:0:
331,120,110626,1,2,0:0:0:0:
331,120,110696,6,0,L|439:145,1,83.9999974365235,2|2,0:0|1:2,0:0:0:0:
187,80,110977,2,0,P|103:82|15:145,1,167.999994873047,0|2,3:0|0:0,0:0:0:0:
0,302,111397,2,0,P|84:312|120:271,1,125.999996154785,0|0,3:0|0:0,0:0:0:0:
135,271,111678,2,0,L|144:175,1,83.9999974365235,8|0,0:0|3:0,0:0:0:0:
253,170,111958,1,4,0:3:0:0:
233,273,112098,1,2,0:0:0:0:
351,242,112239,5,0,1:0:0:0:
351,242,112309,1,0,3:0:0:0:
351,242,112379,1,0,3:0:0:0:
371,139,112519,2,0,P|333:100|294:96,1,83.9999974365235,2|0,0:0|0:0,0:0:0:0:
317,331,112799,6,0,P|393:328|436:264,1,125.999996154785,10|0,0:0|0:0,0:0:0:0:
448,278,113080,2,0,L|431:190,1,83.9999974365235,0|0,1:0|0:0,0:0:0:0:
470,112,113360,5,12,0:0:0:0:
317,7,113500,2,0,P|301:46|301:122,1,83.9999974365235,0|2,3:0|0:0,0:0:0:0:
489,199,113781,1,12,0:0:0:0:
144,247,114061,5,0,0:0:0:0:
223,254,114201,2,0,P|241:263|256:278,3,41.9999987182618,0|0|0|0,3:0|3:0|3:0|3:0,0:0:0:0:
223,254,114482,6,0,P|153:251|91:296,1,140,4|8,1:2|0:1,0:0:0:0:
0,209,114902,2,0,P|29:171|124:149,1,140,8|2,0:1|3:2,0:0:0:0:
190,93,115323,2,0,P|197:136|201:165,1,70,8|0,0:1|0:0,0:0:0:0:
313,202,115603,5,2,3:2:0:0:
313,202,115743,1,0,0:0:0:0:
340,84,115883,2,0,P|306:66|262:68,1,70,0|8,3:0|0:1,0:0:0:0:
413,165,116164,2,0,P|445:108|423:25,1,140,2|2,0:0|0:0,0:0:0:0:
234,155,116584,5,8,0:1:0:0:
143,152,116725,2,0,P|84:158|-21:191,1,140,2|8,3:2|0:1,0:0:0:0:
0,308,117145,2,0,P|41:319|70:314,1,70,8|2,0:1|0:0,0:0:0:0:
145,341,117425,2,0,P|150:296|140:263,1,70,0|8,3:0|0:1,0:0:0:0:
367,230,117846,5,8,0:1:0:0:
234,310,117986,1,8,0:1:0:0:
344,335,118126,1,8,0:1:0:0:
266,208,118267,1,8,0:1:0:0:
266,208,118547,5,0,3:0:0:0:
273,116,118687,2,0,P|277:79|269:32,1,70,2|8,0:0|0:1,0:0:0:0:
354,96,118968,2,0,P|421:95|508:49,1,140,2|8,3:2|0:1,0:0:0:0:
463,206,119388,5,8,0:1:0:0:
367,197,119528,2,0,P|323:208|265:304,1,140,2|8,0:0|0:1,0:0:0:0:
239,166,119949,1,2,0:0:0:0:
141,159,120089,2,0,P|80:182|32:237,1,140,2|0,3:2|3:0,0:0:0:0:
0,336,120510,1,8,0:1:0:0:
91,358,120650,6,0,P|163:354|237:358,1,140,2|2,0:0|0:0,0:0:0:0:
321,314,121070,1,8,0:1:0:0:
321,314,121210,2,0,P|316:282|318:225,1,70,2|0,3:2|0:0,0:0:0:0:
413,285,121491,1,8,0:1:0:0:
465,360,121631,1,8,0:1:0:0:
182,250,121911,5,0,3:0:0:0:
321,228,122052,2,0,P|328:189|327:149,1,70,8|0,0:1|0:0,0:0:0:0:
300,45,122332,1,8,0:1:0:0:
379,54,122472,1,8,0:1:0:0:
251,117,122612,1,8,0:1:0:0:
415,132,122753,2,0,P|445:147|474:262,1,140,8|0,0:1|3:0,0:0:0:0:
426,323,123173,6,0,L|341:341,1,70,2|8,0:0|0:1,0:0:0:0:
259,289,123453,2,0,L|121:329,1,140,4|8,3:2|0:1,0:0:0:0:
0,362,123874,2,0,P|-5:306|65:238,1,140,8|0,0:1|3:0,0:0:0:0:
139,238,124295,2,0,P|130:200|104:178,1,70,8|0,0:1|0:0,0:0:0:0:
29,160,124575,1,2,3:2:0:0:
217,44,124855,5,2,3:2:0:0:
139,5,124996,2,0,P|133:42|143:72,1,70,8|0,0:1|0:0,0:0:0:0:
175,170,125276,1,0,3:0:0:0:
259,210,125416,2,0,P|328:234|414:220,1,140,2|2,0:0|3:2,0:0:0:0:
509,365,125977,5,8,0:1:0:0:
480,290,126117,2,0,P|444:307|422:355,1,70,8|2,0:1|0:0,0:0:0:0:
336,376,126397,1,0,3:0:0:0:
233,340,126538,2,0,P|221:304|222:263,1,70,8|0,0:1|0:0,0:0:0:0:
335,197,126818,5,8,0:1:0:0:
306,280,126958,1,8,0:1:0:0:
236,185,127098,1,8,0:1:0:0:
236,185,127239,1,8,0:1:0:0:
81,229,127519,5,0,3:0:0:0:
9,251,127659,2,0,P|49:234|96:232,1,70,2|8,0:0|0:1,0:0:0:0:
146,280,127939,2,0,P|167:227|125:160,1,140,2|8,3:2|0:1,0:0:0:0:
47,96,128360,1,8,0:1:0:0:
329,357,128640,5,0,3:0:0:0:
403,335,128781,1,8,0:1:0:0:
478,311,128921,2,0,P|409:299|314:262,1,140,2|0,0:0|0:0,0:0:0:0:
426,217,129341,2,0,P|437:168|445:131,1,70,0|8,3:0|0:1,0:0:0:0:
471,58,129622,2,0,P|436:56|357:137,1,140,2|2,0:0|0:0,0:0:0:0:
295,198,130042,1,8,0:1:0:0:
255,111,130182,1,2,3:2:0:0:
133,280,130463,5,8,0:1:0:0:
252,274,130603,2,0,P|280:276|334:291,1,70,8|2,0:1|0:0,0:0:0:0:
178,210,130883,1,0,3:0:0:0:
58,239,131024,6,0,P|42:279|50:325,1,70,10|0,0:1|0:0,0:0:0:0:
193,339,131304,1,8,0:1:0:0:
252,274,131444,1,8,0:1:0:0:
178,210,131584,1,8,0:1:0:0:
236,142,131725,1,8,0:1:0:0:
49,38,132005,5,8,0:1:0:0:
128,17,132145,2,0,P|180:21|218:29,1,70,8|0,0:1|0:0,0:0:0:0:
317,13,132425,6,0,P|310:42|304:100,1,70,4|0,3:2|0:0,0:0:0:0:
387,119,132706,1,0,3:0:0:0:
387,119,132846,1,0,3:0:0:0:
387,119,132986,2,0,P|394:90|400:32,1,70,8|0,0:0|0:0,0:0:0:0:
480,182,133267,5,0,3:0:0:0:
426,196,133407,1,0,3:0:0:0:
378,212,133547,2,0,P|300:198|230:192,1,140,0|0,3:0|3:0,0:0:0:0:
128,236,133968,1,0,3:0:0:0:
128,236,134108,2,0,P|94:287|151:347,1,140,8|0,0:0|3:0,0:0:0:0:
224,366,134528,5,0,3:0:0:0:
224,366,134668,2,0,P|223:320|214:267,1,70,0|0,3:0|0:0,0:0:0:0:
261,213,134949,2,0,P|263:168|294:69,1,140,0|8,3:0|0:0,0:0:0:0:
396,218,135510,2,0,P|451:233|498:315,1,140,0|0,3:0|0:0,0:0:0:0:
359,334,135930,1,0,0:0:0:0:
310,267,136070,2,0,P|301:242|340:140,1,140,0|8,3:0|0:0,0:0:0:0:
157,131,136631,6,0,L|-11:166,1,140,0|0,3:0|0:0,0:0:0:0:
6,358,137192,2,0,L|91:375,1,70,0|0,3:0|3:0,0:0:0:0:
133,308,137472,2,0,P|186:297|235:387,1,140,8|0,0:0|3:0,0:0:0:0:
342,367,137893,1,0,3:0:0:0:
342,367,138033,2,0,P|365:320|331:239,1,140,0|0,3:0|3:0,0:0:0:0:
232,214,138453,1,0,3:0:0:0:
183,158,138594,2,0,P|180:128|257:58,1,140,8|0,0:0|3:0,0:0:0:0:
337,109,139014,5,0,3:0:0:0:
342,113,139154,2,0,P|382:121|416:123,1,70,0|0,3:0|0:0,0:0:0:0:
437,95,139435,2,0,P|471:92|506:85,1,70,0|0,3:0|3:0,0:0:0:0:
264,136,139715,2,0,P|218:149|50:115,1,210,8|0,0:0|0:0,0:0:0:0:
17,234,140276,6,0,P|42:237|91:244,1,70,0|0,3:0|0:0,0:0:0:0:
98,235,140556,2,0,P|131:240|165:252,1,70,0|0,3:0|3:0,0:0:0:0:
382,294,140837,2,0,P|333:300|167:378,1,210,8|0,0:0|0:0,0:0:0:0:
248,244,141397,6,0,P|269:172|249:85,1,140,4|0,3:2|3:0,0:0:0:0:
290,26,141818,1,0,3:0:0:0:
294,30,141958,2,0,L|384:56,1,70,8|0,0:0|0:0,0:0:0:0:
453,26,142239,1,0,3:0:0:0:
453,26,142379,1,0,3:0:0:0:
453,26,142519,2,0,P|443:64|437:122,1,70,0|0,3:0|0:0,0:0:0:0:
476,187,142799,6,0,P|478:208|494:255,2,70,0|0|8,3:0|3:0|0:0,0:0:0:0:
490,363,143220,1,0,3:0:0:0:
490,363,143360,2,0,P|446:353|407:352,1,70,0|0,3:0|3:0,0:0:0:0:
315,356,143640,2,0,B|298:290|298:290|364:216,1,140,0|0,3:0|0:0,0:0:0:0:
242,7,144201,2,0,B|262:72|262:72|209:156,1,140,8|0,0:0|3:0,0:0:0:0:
182,62,144622,5,0,3:0:0:0:
182,62,144762,2,0,P|114:40|45:94,1,140,0|0,3:0|3:0,0:0:0:0:
0,222,145323,2,0,P|90:236|223:241,1,210,8|0,0:0|0:0,0:0:0:0:
361,294,145883,6,0,P|421:310|454:326,1,70,0|0,3:0|0:0,0:0:0:0:
440,217,146164,1,0,3:0:0:0:
454,204,146304,1,0,3:0:0:0:
439,196,146444,2,0,B|453:105|416:138|435:33,1,140,8|0,0:0|3:0,0:0:0:0:
354,161,146865,5,0,3:0:0:0:
354,161,147005,2,0,P|294:177|261:193,1,70,0|0,3:0|0:0,0:0:0:0:
197,252,147285,1,0,3:0:0:0:
151,237,147425,1,0,3:0:0:0:
135,196,147566,2,0,P|150:132|235:108,1,140,8|0,0:0|3:0,0:0:0:0:
276,14,147986,5,0,3:0:0:0:
276,14,148126,2,0,P|308:33|367:42,1,70,0|0,3:0|0:0,0:0:0:0:
433,25,148407,2,0,P|429:61|418:103,1,70,0|0,3:0|0:0,0:0:0:0:
485,168,148687,6,0,P|437:172|403:181,1,70,8|0,0:0|0:0,0:0:0:0:
307,194,148968,2,0,P|328:163|339:125,1,70,2|0,3:2|0:0,0:0:0:0:
485,168,149248,6,0,P|491:231|442:281,1,105,0|0,1:0|0:0,0:0:0:0:
460,275,149528,2,0,B|430:274|430:274|366:299,1,70,10|0,0:1|0:0,0:0:0:0:
268,364,149809,2,0,B|238:371|238:371|189:348,1,70,2|0,0:0|0:0,0:0:0:0:
96,274,150089,2,0,B|66:267|66:267|17:290,1,70,8|8,0:1|0:1,0:0:0:0:
257,275,150369,6,0,P|244:225|235:176,3,70,4|2|10|10,1:2|0:0|0:0|0:0,0:0:0:0:
495,24,151070,5,0,3:0:0:0:
408,40,151210,2,0,P|386:60|360:129,1,83.9999974365235,8|0,0:0|0:0,0:0:0:0:
287,175,151491,2,0,P|265:96|297:20,1,167.999994873047,0|8,1:0|0:0,0:0:0:0:
186,53,151911,1,8,0:0:0:0:
99,36,152052,2,0,B|53:39|53:39|15:62,1,83.9999974365235,0|0,3:0|0:0,0:0:0:0:
68,195,152332,2,0,P|136:191|166:131,1,125.999996154785,8|0,0:0|0:0,0:0:0:0:
173,135,152612,6,0,L|190:35,3,83.9999974365235,2|2|10|10,1:2|0:2|0:2|0:2,0:0:0:0:
120,330,153313,5,0,0:0:0:0:
94,218,153453,2,0,P|163:234|271:246,1,167.999994873047,8|0,0:0|1:0,0:0:0:0:
394,365,154014,2,0,P|356:357|292:371,1,83.9999974365235,8|8,0:0|0:0,0:0:0:0:
257,232,154295,2,0,P|288:177|400:176,1,167.999994873047,0|8,3:0|0:0,0:0:0:0:
31,42,154855,6,0,L|133:59,3,83.9999974365235,2|2|10|10,1:2|0:2|0:2|0:2,0:0:0:0:
338,15,155556,5,0,3:0:0:0:
258,56,155696,2,0,P|268:97|283:140,1,83.9999974365235,8|0,0:0|0:0,0:0:0:0:
320,210,155977,2,0,B|359:185|359:185|455:191,1,125.999996154785,0|0,1:0|0:0,0:0:0:0:
451,208,156257,1,8,0:0:0:0:
512,161,156397,1,8,0:0:0:0:
381,153,156538,6,0,P|333:166|301:188,1,83.9999974365235,0|0,3:0|0:0,0:0:0:0:
203,271,156818,2,0,P|161:290|50:298,1,125.999996154785,8|0,0:0|0:0,0:0:0:0:
63,301,157098,6,0,P|52:258|86:196,3,83.9999974365235,2|2|10|10,1:2|0:0|0:0|0:0,0:0:0:0:
300,205,157799,5,0,3:0:0:0:
294,315,157939,2,0,P|243:351|131:357,1,167.999994873047,8|0,0:0|1:0,0:0:0:0:
111,71,158500,1,8,0:0:0:0:
181,52,158640,1,8,0:0:0:0:
256,60,158781,2,0,P|284:65|337:84,1,83.9999974365235,0|0,3:0|0:0,0:0:0:0:
427,101,159061,2,0,P|413:60|407:16,1,83.9999974365235,8|0,0:0|0:0,0:0:0:0:
313,159,159341,6,0,B|415:164|380:110|492:135,1,167.999994873047,2|10,1:2|0:0,0:0:0:0:
427,220,159762,1,2,0:0:0:0:
343,72,159902,1,0,3:0:0:0:
85,289,160182,2,0,P|81:330|76:372,1,83.9999974365235,8|0,0:0|0:0,0:0:0:0:
123,216,160463,1,0,1:0:0:0:
123,216,160603,1,2,0:0:0:0:
54,131,160743,6,0,P|30:147|16:221,1,83.9999974365235,8|8,0:0|0:0,0:0:0:0:
198,249,161024,2,0,P|208:196|155:126,1,125.999996154785,0|0,3:0|0:0,0:0:0:0:
160,126,161304,2,0,L|147:39,1,83.9999974365235,8|0,0:0|0:0,0:0:0:0:
34,305,161584,6,0,L|131:332,3,83.9999974365235,2|2|10|10,1:2|0:0|0:0|0:0,0:0:0:0:
400,320,162285,5,0,3:0:0:0:
488,252,162425,2,0,P|495:293|511:332,1,83.9999974365235,8|0,0:0|0:0,0:0:0:0:
486,157,162706,2,0,P|427:161|366:267,1,167.999994873047,0|8,1:0|0:0,0:0:0:0:
280,298,163126,1,8,0:0:0:0:
242,210,163267,2,0,P|246:167|265:129,1,83.9999974365235,0|0,3:0|0:0,0:0:0:0:
158,166,163547,2,0,P|107:167|56:187,1,83.9999974365235,8|0,0:0|0:0,0:0:0:0:
167,356,163827,6,0,P|201:321|207:277,3,83.9999974365235,2|2|10|10,1:2|0:0|0:0|0:0,0:0:0:0:
75,168,164388,2,0,P|82:125|116:96,1,83.9999974365235,0|0,3:0|0:0,0:0:0:0:
164,6,164668,2,0,P|235:23|296:123,1,167.999994873047,8|0,0:0|1:0,0:0:0:0:
388,47,165229,6,0,P|376:87|369:128,1,83.9999974365235,8|8,0:0|0:0,0:0:0:0:
501,185,165510,2,0,P|444:191|344:218,1,125.999996154785,0|0,3:0|0:0,0:0:0:0:
363,222,165790,2,0,P|331:210|276:208,1,83.9999974365235,8|0,0:0|0:0,0:0:0:0:
186,166,166070,5,12,0:0:0:0:
193,290,166210,1,0,3:0:0:0:
75,183,166351,1,0,0:0:0:0:
82,302,166491,1,12,0:0:0:0:
344,251,166771,5,0,3:0:0:0:
259,109,166911,1,12,0:0:0:0:
331,341,167192,5,0,1:0:0:0:
428,229,167332,1,0,3:0:0:0:
272,199,167472,1,10,0:0:0:0:
487,24,167753,5,0,3:0:0:0:
387,44,167893,2,0,P|353:103|361:227,1,167.999994873047,10|0,0:0|0:0,0:0:0:0:
258,117,168313,6,0,L|234:21,1,83.9999974365235,4|0,1:3|3:0,0:0:0:0:
235,209,168594,1,8,0:3:0:0:
143,226,168734,2,0,P|100:238|66:285,1,83.9999974365235,8|0,0:3|0:0,0:0:0:0:
336,270,169014,2,0,P|379:282|417:329,1,83.9999974365235,12|0,0:0|0:0,0:0:0:0:
245,314,169295,2,0,B|187:184|309:234|248:91,1,210.000008010865,10|2,0:0|0:0,0:0:0:0:
254,104,169645,1,2,0:0:0:0:
250,81,169715,1,2,0:1:0:0:
184,157,169855,5,0,3:0:0:0:
337,85,169996,1,0,1:0:0:0:
360,239,170136,6,2,B|319:232|319:232|300:225|300:225|280:221|263:243|263:243|232:237|232:237|219:246|219:246|195:241|195:241|163:242|163:242|162:245,1,210,12|0,0:1|0:0,1:0:0:0:
256,192,172309,12,0,175042,0:0:0:0:
241,204,179248,6,0,L|246:219,2,14,2|2|4,0:0|0:0|0:0,0:0:0:0:
256,192,179598,12,0,184014,0:0:0:0:
356,291,186257,6,0,P|373:329|374:364,1,56,2|0,0:0|0:0,0:0:0:0:
124,234,186818,2,0,P|122:211|133:181,1,56,2|0,0:0|0:0,0:0:0:0:
258,31,187239,5,0,0:0:0:0:
258,31,187309,1,0,0:0:0:0:
258,31,187379,2,0,L|266:90,1,56,2|0,0:0|0:0,0:0:0:0:
292,169,187659,6,0,L|282:231,1,56,2|0,0:0|0:0,0:0:0:0:
241,314,187939,6,0,P|248:343|250:369,1,56,2|0,0:0|0:0,0:0:0:0:
151,299,189061,6,0,B|283:249|230:349|369:293,1,210.000008010865,4|0,1:0|0:0,0:0:0:0:
66,374,189622,6,0,B|22:272|71:192|71:192|42:108,1,251.999992309571,12|0,0:0|3:0,0:0:0:0:
171,22,190182,2,0,B|148:119,1,83.9999974365235,8|0,0:0|3:0,0:0:0:0:
170,184,190463,1,2,0:1:0:0:
243,125,190603,1,8,0:0:0:0:
325,129,190743,2,0,P|362:109|374:13,1,125.999996154785,4|0,3:2|0:0,0:0:0:0:
491,35,191024,6,0,P|489:79|476:144,1,83.9999974365235,2|0,0:0|3:0,0:0:0:0:
418,184,191304,1,8,0:0:0:0:
504,222,191444,1,2,0:0:0:0:
406,342,191584,2,0,P|397:291|400:243,1,83.9999974365235,2|0,0:0|3:0,0:0:0:0:
313,213,191865,6,0,P|245:206|179:257,1,125.999996154785,2|0,0:1|0:0,0:0:0:0:
195,255,192145,2,0,P|203:287|204:340,1,83.9999974365235,0|0,1:0|3:0,0:0:0:0:
0,164,192425,6,0,P|68:157|129:213,1,125.999996154785,8|0,0:0|0:0,0:0:0:0:
122,205,192706,2,0,P|105:250|100:303,1,83.9999974365235,2|8,0:1|0:0,0:0:0:0:
328,120,192986,6,0,P|260:106|138:140,1,167.999994873047,2|2,3:2|0:0,0:0:0:0:
49,157,193407,1,0,3:0:0:0:
0,25,193547,2,0,P|49:45|73:98,1,83.9999974365235,8|0,0:0|0:0,0:0:0:0:
105,213,193827,5,2,0:0:0:0:
52,294,193968,2,0,P|132:304|180:208,1,167.999994873047,0|2,3:0|0:0,0:0:0:0:
299,335,194388,1,0,0:0:0:0:
299,335,194528,1,0,3:2:0:0:
359,253,194668,2,0,P|295:243|243:246,1,83.9999974365235,8|2,0:0|0:0,0:0:0:0:
468,325,194949,2,0,P|373:327|298:366,1,167.999994873047,2|2,1:0|3:0,0:0:0:0:
211,314,195369,5,2,0:0:0:0:
185,225,195510,1,0,0:0:0:0:
256,160,195650,1,0,3:0:0:0:
235,70,195790,2,0,P|279:79|332:84,1,83.9999974365235,8|0,0:0|0:0,0:0:0:0:
397,171,196070,2,0,P|469:174|526:115,1,125.999996154785,2|0,3:3|0:0,0:0:0:0:
512,124,196351,5,12,0:0:0:0:
364,284,196491,6,0,P|322:247|324:196,1,83.9999974365235,0|2,3:0|0:0,0:0:0:0:
239,32,196771,1,12,0:0:0:0:
35,282,197052,5,0,3:0:0:0:
153,204,197192,1,8,0:0:0:0:
23,167,197332,1,2,0:0:0:0:
153,204,197472,6,0,P|199:193|344:176,1,167.999994873047,4|2,1:0|0:0,0:0:0:0:
337,267,197893,1,0,3:0:0:0:
275,312,198033,2,0,L|172:300,1,83.9999974365235,8|0,0:0|0:0,0:0:0:0:
182,122,198313,5,2,0:0:0:0:
240,66,198453,2,0,P|284:38|405:69,1,167.999994873047,0|2,3:0|0:0,0:0:0:0:
477,105,198874,2,0,P|487:65|510:5,1,83.9999974365235,2|0,1:2|3:0,0:0:0:0:
372,165,199154,5,8,0:0:0:0:
495,193,199295,1,0,3:0:0:0:
372,165,199435,2,0,P|327:179|264:198,1,83.9999974365235,2|8,0:0|0:0,0:0:0:0:
172,284,199715,6,0,P|112:269|-24:300,1,167.999994873047,4|2,3:2|0:0,0:0:0:0:
27,172,200136,1,0,3:0:0:0:
99,113,200276,2,0,L|118:209,1,83.9999974365235,8|2,0:0|0:0,0:0:0:0:
172,284,200556,6,0,P|207:283|256:257,1,83.9999974365235,2|0,0:0|3:0,0:0:0:0:
266,161,200837,6,0,P|260:112|164:81,1,125.999996154785,2|0,0:1|0:0,0:0:0:0:
175,64,201117,2,0,L|77:92,1,83.9999974365235,0|0,1:0|3:0,0:0:0:0:
8,286,201397,6,0,P|13:241|102:200,1,125.999996154785,8|0,0:0|0:0,0:0:0:0:
104,194,201678,2,0,L|193:214,1,83.9999974365235,2|8,0:1|0:0,0:0:0:0:
312,293,201958,6,0,L|275:108,1,167.999994873047,0|2,3:2|0:0,0:0:0:0:
314,48,202379,1,0,3:0:0:0:
432,58,202519,1,10,0:0:0:0:
432,58,202589,1,2,0:0:0:0:
432,58,202659,1,2,0:0:0:0:
269,126,202799,1,2,1:2:0:0:
462,144,202939,6,0,P|452:176|443:315,1,167.999994873047,0|2,3:0|0:0,0:0:0:0:
363,360,203360,2,0,L|271:335,1,83.9999974365235,0|0,3:0|0:0,0:0:0:0:
260,246,203640,1,10,0:0:0:0:
260,246,203710,1,0,3:0:0:0:
260,246,203781,1,0,3:0:0:0:
360,182,203921,1,4,0:3:0:0:
207,319,204061,1,2,0:0:0:0:
174,182,204201,6,0,P|172:128|188:76,1,83.9999974365235,0|0,1:0|3:0,0:0:0:0:
281,152,204482,2,0,P|264:103|269:7,1,125.999996154785,2|0,0:0|0:0,0:0:0:0:
278,33,204762,2,0,L|160:11,1,83.9999974365235,10|2,0:0|0:0,0:0:0:0:
18,131,205042,2,0,P|65:114|152:108,1,125.999996154785,0|0,1:0|0:0,0:0:0:0:
150,96,205323,5,12,0:0:0:0:
360,136,205463,2,0,P|355:192|336:225,1,83.9999974365235,0|2,3:0|0:0,0:0:0:0:
195,17,205743,1,12,0:0:0:0:
107,205,206024,5,0,3:0:0:0:
343,58,206164,2,0,P|373:97|376:158,1,83.9999974365235,12|0,0:0|0:0,0:0:0:0:
402,257,206444,6,0,P|332:263|277:171,1,167.999994873047,4|2,1:0|0:0,0:0:0:0:
187,228,206865,1,0,3:0:0:0:
107,205,207005,2,0,P|56:207|11:216,1,83.9999974365235,8|0,0:0|0:0,0:0:0:0:
79,36,207285,2,0,P|143:57|186:145,1,167.999994873047,2|4,0:0|0:3,0:0:0:0:
131,313,207706,5,2,0:0:0:0:
272,351,207846,2,0,P|285:289|288:262,1,83.9999974365235,0|0,1:0|3:0,0:0:0:0:
254,159,208126,2,0,P|302:165|354:183,1,83.9999974365235,8|0,0:0|0:0,0:0:0:0:
473,263,208407,1,2,0:1:0:0:
413,132,208547,1,8,0:0:0:0:
353,326,208687,6,0,P|425:339|479:244,1,167.999994873047,2|0,3:2|0:0,0:0:0:0:
490,181,209108,1,0,3:0:0:0:
355,218,209248,2,0,P|309:203|246:196,1,83.9999974365235,8|0,0:0|0:0,0:0:0:0:
476,20,209528,2,0,P|495:60|493:105,1,83.9999974365235,2|0,0:1|3:0,0:0:0:0:
321,125,209809,2,0,P|302:85|304:40,1,83.9999974365235,4|2,0:3|0:0,0:0:0:0:
273,218,210089,6,0,P|223:234|176:253,1,83.9999974365235,0|0,1:0|3:0,0:0:0:0:
271,358,210369,2,0,P|219:333|86:320,1,167.999994873047,8|2,0:0|0:1,0:0:0:0:
34,287,210790,1,8,0:0:0:0:
41,198,210930,2,0,P|79:211|142:205,1,83.9999974365235,2|0,3:2|0:0,0:0:0:0:
189,158,211210,1,2,0:1:0:0:
207,243,211351,1,0,3:0:0:0:
254,110,211491,6,0,P|256:71|237:2,1,83.9999974365235,12|0,0:0|0:0,0:0:0:0:
110,107,211771,5,0,1:0:0:0:
110,107,211911,1,0,3:0:0:0:
301,180,212052,2,0,P|298:254|272:315,1,125.999996154785,2|0,0:0|0:0,0:0:0:0:
276,324,212332,2,0,L|367:347,1,83.9999974365235,2|0,0:1|3:0,0:0:0:0:
476,199,212612,6,0,L|391:217,1,83.9999974365235,8|0,0:0|0:0,0:0:0:0:
202,243,212893,2,0,B|117:281|139:195|27:246,1,167.999994873047,4|0,0:3|1:0,0:0:0:0:
98,315,213313,5,0,3:0:0:0:
170,172,213453,1,2,0:1:0:0:
237,319,213594,1,0,3:0:0:0:
305,177,213734,2,0,L|287:94,1,83.9999974365235,8|0,0:0|0:0,0:0:0:0:
356,31,214014,6,0,P|402:31|440:48,1,83.9999974365235,4|2,1:3|0:0,0:0:0:0:
373,249,214295,2,0,P|315:259|212:212,1,167.999994873047,8|0,0:0|3:0,0:0:0:0:
92,69,214715,1,8,0:0:0:0:
86,248,214855,6,0,P|80:194|103:158,1,83.9999974365235,4|0,0:3|3:0,0:0:0:0:
196,180,215136,5,8,0:0:0:0:
142,350,215276,1,8,0:0:0:0:
30,322,215416,2,0,P|99:275|188:261,1,167.999994873047,4|2,1:0|0:1,0:0:0:0:
259,314,215837,1,0,3:0:0:0:
347,271,215977,2,0,P|314:240|262:231,1,83.9999974365235,8|0,0:0|0:0,0:0:0:0:
371,349,216257,6,0,L|404:155,1,167.999994873047,4|2,0:2|0:0,0:0:0:0:
512,91,216678,1,0,3:0:0:0:
512,91,216818,2,0,P|499:135|494:180,1,83.9999974365235,2|0,0:1|3:0,0:0:0:0:
316,116,217098,2,0,P|308:68|297:19,1,83.9999974365235,8|0,0:0|3:0,0:0:0:0:
415,177,217379,2,0,P|372:190|323:212,1,83.9999974365235,4|0,0:3|0:0,0:0:0:0:
150,287,217659,6,0,B|135:245|135:245|151:204,1,83.9999974365235,2|0,3:2|0:0,0:0:0:0:
108,125,217939,2,0,P|161:184|268:169,1,167.999994873047,4|8,0:2|0:0,0:0:0:0:
295,99,218360,1,2,0:0:0:0:
196,16,218500,2,0,P|205:62|203:118,1,83.9999974365235,2|0,0:1|3:0,0:0:0:0:
219,216,218781,5,0,3:0:0:0:
120,245,218921,1,2,0:0:0:0:
284,295,219061,1,0,1:0:0:0:
257,127,219201,1,0,3:0:0:0:
189,323,219341,5,8,0:0:0:0:
189,323,219411,1,2,0:0:0:0:
189,323,219482,1,0,3:0:0:0:
66,321,219622,2,0,P|32:269|46:218,1,83.9999974365235,2|0,0:1|0:0,0:0:0:0:
28,154,219902,2,0,L|196:196,1,167.999994873047,0|2,1:3|0:0,0:0:0:0:
340,138,220323,5,0,3:0:0:0:
335,231,220463,2,0,P|302:255|236:257,1,83.9999974365235,8|0,0:0|0:0,0:0:0:0:
426,321,220743,2,0,P|485:322|525:347,1,83.9999974365235,2|0,1:0|0:0,0:0:0:0:
494,78,221024,6,0,B|478:141|478:141|432:161|432:161|412:248,1,195.999994018555,4|0,1:3|0:0,0:0:0:0:
245,54,222145,6,0,P|203:51|157:76,1,77.0000023498536,4|0,3:2|0:0,0:0:0:0:
124,149,222425,1,2,0:0:0:0:
31,146,222566,2,0,P|17:82|92:23,1,154.000004699707,0|0,3:0|0:0,0:0:0:0:
211,139,222986,5,2,0:0:0:0:
211,139,223056,1,2,0:0:0:0:
211,139,223126,2,0,P|214:191|214:239,1,77.0000023498536,0|0,3:0|0:0,0:0:0:0:
130,277,223407,1,2,0:1:0:0:
212,342,223547,2,0,P|249:351|284:366,1,77.0000023498536,0|0,3:0|3:0,0:0:0:0:
266,274,223827,5,8,0:1:0:0:
111,372,223968,2,0,P|62:352|48:252,1,154.000004699707,0|8,3:0|0:1,0:0:0:0:
0,179,224388,6,0,B|96:162|56:201|168:178,1,154.000004699707,0|0,3:0|0:0,0:0:0:0:
245,137,224809,1,2,0:0:0:0:
243,219,224949,2,0,P|228:251|226:302,1,77.0000023498536,8|0,0:1|0:0,0:0:0:0:
312,263,225229,2,0,P|371:261|461:341,1,154.000004699707,2|2,0:1|0:0,0:0:0:0:
161,86,225790,2,0,L|73:106,1,77.0000023498536,0|0,3:0|3:0,0:0:0:0:
253,23,226070,6,0,L|275:106,1,77.0000023498536,8|0,0:1|3:0,0:0:0:0:
212,183,226351,1,2,0:1:0:0:
329,197,226491,1,8,0:1:0:0:
212,183,226631,6,0,P|173:183|30:224,1,154.000004699707,0|2,3:0|0:0,0:0:0:0:
49,304,227052,1,0,3:0:0:0:
117,364,227192,2,0,P|173:345|204:317,1,77.0000023498536,8|0,0:1|0:0,0:0:0:0:
342,283,227472,2,0,P|388:273|493:297,1,154.000004699707,2|2,0:0|0:1,0:0:0:0:
236,59,228033,6,0,L|247:147,1,77.0000023498536,0|0,3:0|3:0,0:0:0:0:
262,309,228313,2,0,L|242:229,1,77.0000023498536,8|0,0:1|3:0,0:0:0:0:
225,384,228874,6,0,L|243:231,1,154.000004699707,0|2,3:0|0:0,0:0:0:0:
153,160,229295,2,0,P|89:157|12:232,1,154.000004699707,0|0,3:0|0:0,0:0:0:0:
9,63,229715,2,0,P|73:60|115:16,1,115.50000352478,2|0,3:0|0:0,0:0:0:0:
123,25,229996,5,8,0:1:0:0:
252,15,230136,2,0,L|230:151,1,115.50000352478,0|0,3:0|0:0,0:0:0:0:
260,128,230416,2,0,P|315:112|351:111,1,77.0000023498536,10|0,0:1|0:0,0:0:0:0:
429,108,230696,5,0,3:0:0:0:
504,217,230837,2,0,P|467:240|399:231,1,115.50000352478,8|0,0:1|0:0,0:0:0:0:
282,201,231117,6,0,L|302:301,1,77.0000023498536,4|0,3:2|0:0,0:0:0:0:
368,343,231397,1,2,0:1:0:0:
237,367,231538,2,0,P|172:363|65:375,1,154.000004699707,0|0,3:0|0:0,0:0:0:0:
16,276,231958,2,0,P|10:315|-3:360,1,77.0000023498536,2|0,0:0|3:0,0:0:0:0:
101,287,232239,6,0,P|162:265|218:173,1,154.000004699707,2|0,0:1|0:0,0:0:0:0:
143,116,232659,1,0,3:0:0:0:
56,139,232799,2,0,P|20:161|8:212,1,77.0000023498536,8|0,0:1|3:0,0:0:0:0:
178,270,233080,2,0,P|208:265|296:264,1,115.50000352478,2|0,0:0|0:0,0:0:0:0:
262,343,233360,6,0,B|218:357|218:357|96:329,1,154.000004699707,0|2,3:0|0:0,0:0:0:0:
206,189,233781,2,0,B|250:175|250:175|372:203,1,154.000004699707,0|0,3:0|0:0,0:0:0:0:
438,263,234201,1,2,0:1:0:0:
410,143,234341,6,0,P|393:96|399:62,1,77.0000023498536,0|4,0:0|0:3,0:0:0:0:
462,30,234622,1,2,0:0:0:0:
308,12,234762,2,0,P|311:66|304:114,1,77.0000023498536,0|0,3:0|3:0,0:0:0:0:
207,50,235042,5,8,0:1:0:0:
231,149,235182,1,0,3:0:0:0:
152,109,235323,2,0,B|56:92|96:131|-16:108,1,154.000004699707,2|0,0:0|3:0,0:0:0:0:
115,198,235743,5,2,0:0:0:0:
115,198,235813,1,2,0:0:0:0:
115,198,235883,2,0,P|160:204|196:226,1,77.0000023498536,2|0,0:0|3:0,0:0:0:0:
250,289,236164,2,0,P|295:269|316:168,1,154.000004699707,10|0,0:1|3:0,0:0:0:0:
382,120,236584,1,0,3:0:0:0:
446,175,236725,2,0,P|444:211|422:253,1,77.0000023498536,2|0,0:0|0:0,0:0:0:0:
374,365,237005,6,0,L|352:279,1,77.0000023498536,0|0,3:0|3:0,0:0:0:0:
233,205,237285,2,0,P|187:215|137:324,1,154.000004699707,10|4,0:1|3:3,0:0:0:0:
228,333,237706,5,2,0:0:0:0:
69,373,237846,2,0,P|54:336|32:211,1,154.000004699707,0|2,3:0|0:0,0:0:0:0:
69,144,238267,1,0,3:0:0:0:
78,146,238407,2,0,P|119:134|169:133,1,77.0000023498536,8|0,0:1|0:0,0:0:0:0:
109,37,238687,2,0,P|78:50|21:69,1,77.0000023498536,2|0,3:0|0:0,0:0:0:0:
200,21,238968,5,8,0:1:0:0:
224,109,239108,1,0,3:0:0:0:
288,19,239248,1,2,0:0:0:0:
316,121,239388,6,0,P|304:184|266:272,1,154.000004699707,12|0,0:1|3:0,0:0:0:0:
315,339,239809,1,10,0:1:0:0:
445,38,240089,6,0,B|456:88|456:88|435:151|435:151|449:222,1,167.999994873047,4|0,1:0|1:0,0:0:0:0:
361,258,240510,2,0,L|253:233,1,83.9999974365235,8|0,0:0|3:0,0:0:0:0:
202,290,240790,5,0,1:0:0:0:
126,208,240930,2,0,P|77:185|13:221,1,125.999996154785,8|0,0:0|0:0,0:0:0:0:
1,228,241210,2,0,L|30:322,1,83.9999974365235,0|0,1:0|0:0,0:0:0:0:
47,125,241491,1,0,1:0:0:0:
47,125,241631,1,8,0:0:0:0:
161,144,241771,2,0,P|185:125|210:76,1,83.9999974365235,2|0,0:1|1:0,0:0:0:0:
119,57,242052,5,0,3:0:0:0:
103,218,242192,1,8,0:0:0:0:
253,176,242332,2,0,P|290:123|282:23,1,167.999994873047,4|0,1:3|1:0,0:0:0:0:
403,80,242753,2,0,L|513:100,1,83.9999974365235,8|2,0:0|3:0,0:0:0:0:
491,188,243033,5,0,1:0:0:0:
412,192,243173,2,0,P|334:211|312:251,1,125.999996154785,8|0,0:0|0:0,0:0:0:0:
315,265,243453,6,0,P|320:319|339:355,2,83.9999974365235,8|8|8,0:0|0:0|0:0,0:0:0:0:
197,119,243874,6,0,P|192:65|173:29,2,83.9999974365235,8|8|0,0:0|0:0|1:0,0:0:0:0:
109,128,244295,2,0,P|165:136|238:170,1,125.999996154785,12|0,0:0|0:0,0:0:0:0:
238,178,244575,6,0,P|307:199|393:136,1,167.999994873047,4|0,1:0|1:0,0:0:0:0:
421,42,244996,2,0,P|372:41|324:90,1,83.9999974365235,8|2,0:0|3:0,0:0:0:0:
283,113,245276,1,0,1:0:0:0:
148,18,245416,2,0,P|85:31|-9:68,1,125.999996154785,8|0,0:0|0:0,0:0:0:0:
15,62,245696,6,0,P|27:102|37:146,1,83.9999974365235,0|0,1:0|0:0,0:0:0:0:
129,209,245977,1,0,1:0:0:0:
149,112,246117,1,8,0:0:0:0:
129,209,246257,2,0,P|121:247|111:310,1,83.9999974365235,2|0,1:0|3:0,0:0:0:0:
19,249,246538,5,0,1:0:0:0:
95,364,246678,1,8,0:0:0:0:
199,268,246818,2,0,P|294:267|369:335,1,167.999994873047,4|0,1:3|1:0,0:0:0:0:
426,362,247239,6,0,P|431:321|447:267,1,83.9999974365235,8|2,0:0|3:0,0:0:0:0:
491,217,247519,1,0,1:0:0:0:
397,107,247659,2,0,P|410:155|416:196,1,83.9999974365235,8|0,0:0|0:0,0:0:0:0:
341,247,247939,5,8,0:0:0:0:
244,264,248080,1,8,0:0:0:0:
148,280,248220,1,8,0:0:0:0:
56,295,248360,1,8,0:0:0:0:
211,370,248500,5,4,1:3:0:0:
398,173,248781,6,0,P|407:137|396:106,1,70,8|4,0:0|1:0,0:0:0:0:
256,192,250253,12,4,252986,0:3:0:0:
48,113,253126,5,8,0:0:0:0:
125,212,253267,1,8,0:0:0:0:
172,95,253407,1,8,0:0:0:0:
