osu file format v14

[General]
AudioFilename: heaven.mp3
AudioLeadIn: 0
PreviewTime: 96536
Countdown: 0
SampleSet: Soft
StackLeniency: 0.7
Mode: 0
LetterboxInBreaks: 0
WidescreenStoryboard: 0

[Editor]
Bookmarks: 20275,38218,58405,78592,96536,114480,132424,150368,170555,188499,206443,222144,240088
DistanceSpacing: 1.4
BeatDivisor: 8
GridSize: 32
TimelineZoom: 3.239999

[Metadata]
Title:Heaven
TitleUnicode:Heaven
Artist:Soushi Sakiyama
ArtistUnicode:崎山蒼志
Creator:Gillstar
Version:Ascent
Source:
Tags:fixxis black man xenon- xehn xen deca japanese pop j-pop male vocal
BeatmapID:3095680
BeatmapSetID:1511868

[Difficulty]
HPDrainRate:5
CircleSize:4
OverallDifficulty:9
ApproachRate:9.3
SliderMultiplier:2.8
SliderTickRate:1

[Events]
//Background and Video events
0,0,"9533939b-44f8-48b5-8b4d-cc5152ee3f1e.jpg",0,0
//Break Periods
2,20476,35703
2,175242,178694
2,184214,185703
//Storyboard Layer 0 (Background)
//Storyboard Layer 1 (Fail)
//Storyboard Layer 2 (Pass)
//Storyboard Layer 3 (Foreground)
//Storyboard Layer 4 (Overlay)
//Storyboard Sound Samples

[TimingPoints]
-1032,560.747663551402,4,2,3,40,1,0
650,-153.846153846154,4,2,3,40,0,0
9622,-117.647058823529,4,2,1,50,0,0
10042,-58.8235294117647,4,2,3,40,0,0
10182,-153.846153846154,4,2,3,40,0,0
19154,-285.714285714286,4,2,1,60,0,0
19295,-142.857142857143,4,2,1,40,0,0
20276,560.747663551402,4,2,1,40,1,0
38218,-83.3333333333333,4,2,1,50,0,0
56303,-100,4,2,1,50,0,0
56723,-83.3333333333333,4,2,1,80,0,0
57564,-333.333333333333,4,2,2,80,0,0
58335,-333.333333333333,4,2,1,5,0,0
58405,-71.4285714285714,4,2,1,75,0,0
77751,-1000,4,2,1,75,0,0
78592,-83.3333333333333,4,2,1,50,0,0
94293,-100,4,2,1,80,0,0
96536,-71.4285714285714,4,2,1,75,0,0
114480,-90.9090909090909,4,2,1,50,0,0
132424,-100,4,2,2,60,0,0
148125,-100,4,2,1,70,0,0
151209,-83.3333333333333,4,2,1,60,0,0
168312,-83.3333333333333,4,2,1,80,0,0
169293,-66.6666666666667,4,2,1,80,0,0
170134,-500,4,2,1,80,0,0
175041,-500,4,2,1,40,0,0
186256,-125,4,2,1,70,0,0
187938,-500,4,2,1,70,0,0
189060,-66.6666666666667,4,2,1,80,0,0
189620,-71.4285714285714,4,2,1,80,0,0
190742,-71.4285714285714,4,2,1,75,0,0
221022,-142.857142857143,4,2,1,75,0,0
222144,-90.9090909090909,4,2,1,60,0,0
240088,-71.4285714285714,4,2,1,70,0,0
248779,-1000,4,2,1,70,0,0

[Colours]
Combo1 : 185,208,176
Combo2 : 104,147,79

[HitObjects]
56,193,369,5,0,0:0:0:0:
45,197,510,1,0,0:0:0:0:
49,192,650,2,0,P|95:193|187:201,1,136.499993751526,2|0,0:0|0:0,0:0:0:0:
385,210,1210,6,0,P|419:245|435:290,1,90.9999958343508
438,360,1631,1,0,0:0:0:0:
422,365,1771,2,0,B|327:320|350:385|235:346,1,181.999991668702,2|0,0:0|0:0,0:0:0:0:
0,250,2472,5,0,0:0:0:0:
0,239,2612,1,0,0:0:0:0:
6,239,2753,2,0,P|14:266|18:292,1,45.4999979171754,2|0,0:0|0:0,0:0:0:0:
81,198,3033,2,0,P|94:249|101:324,1,90.9999958343508
110,299,3453,6,0,P|167:279|225:274,1,90.9999958343508
465,191,4014,2,0,B|424:139|424:139|337:162,1,136.499993751526,2|0,0:0|0:0,0:0:0:0:
353,168,4575,2,0,P|344:192|336:224,1,45.4999979171754
246,169,4855,5,0,0:0:0:0:
246,169,4996,1,0,0:0:0:0:
246,169,5136,2,0,P|254:111|262:31,1,136.499993751526,2|0,0:0|0:0,0:0:0:0:
266,24,5696,6,0,P|215:32|158:41,1,90.9999958343508
17,159,6117,1,0,0:0:0:0:
7,153,6257,2,0,P|42:142|98:133,1,90.9999958343508,2|0,0:0|0:0,0:0:0:0:
173,146,6678,1,0,0:0:0:0:
218,146,6818,1,0,0:0:0:0:
256,156,6958,1,0,0:0:0:0:
291,140,7098,2,0,P|298:192|300:243,1,90.9999958343508,0|2,0:0|0:0,0:0:0:0:
305,255,7659,5,0,0:0:0:0:
305,255,7799,1,0,0:0:0:0:
305,255,7939,2,0,P|351:247|402:242,1,90.9999958343508
508,148,8500,2,0,P|462:152|417:160,1,90.9999958343508,2|0,0:0|0:0,0:0:0:0:
341,165,8921,1,0,0:0:0:0:
341,120,9061,1,0,0:0:0:0:
331,82,9201,1,0,0:0:0:0:
343,47,9341,1,0,0:0:0:0:
353,33,9622,6,0,B|258:-12|281:53|166:14,1,178.500003404617,8|0,0:1|0:0,0:0:0:0:
169,19,10182,6,0,P|157:62|139:108,1,90.9999958343508
19,186,10603,1,0,0:0:0:0:
16,198,10743,2,0,P|59:186|108:179,1,90.9999958343508,2|0,0:0|0:0,0:0:0:0:
163,232,11164,1,0,0:0:0:0:
172,241,11304,2,0,P|216:247|261:259,1,90.9999958343508
322,370,11725,6,0,P|344:362|380:353,1,45.4999979171754,2|0,0:0|0:0,0:0:0:0:
438,375,12005,2,0,L|475:235,1,136.499993751526,2|0,0:0|0:0,0:0:0:0:
511,93,12706,5,0,0:0:0:0:
511,93,12846,1,0,0:0:0:0:
511,93,12986,2,0,P|470:116|418:123,1,90.9999958343508,2|0,0:0|0:0,0:0:0:0:
374,183,13407,1,0,0:0:0:0:
374,183,13547,2,0,P|313:167|315:55,1,181.999991668702,0|2,0:0|0:0,0:0:0:0:
312,42,14668,6,0,P|218:27|110:16,1,181.999991668702,2|0,0:0|0:0,0:0:0:0:
131,17,15650,2,0,L|117:75,1,45.4999979171754
47,88,15930,2,0,P|66:127|71:179,1,90.9999958343508
20,235,16351,6,0,P|63:263|149:253,1,136.499993751526,2|0,0:0|0:0,0:0:0:0:
185,324,16911,2,0,P|233:312|277:319,1,90.9999958343508,2|0,0:0|0:0,0:0:0:0:
338,358,17332,1,0,0:0:0:0:
347,365,17472,2,0,P|373:328|371:275,1,90.9999958343508
264,201,17893,6,0,L|251:142,1,45.4999979171754
184,125,18173,2,0,B|225:73|225:73|292:90,1,136.499993751526,0|2,0:0|0:0,0:0:0:0:
512,156,18874,5,0,0:0:0:0:
512,156,19014,1,0,0:0:0:0:
512,156,19154,2,0,L|505:182,4,24.4999992523194,8|0|0|0|0,0:0|0:0|0:0|0:0|0:0,0:0:0:0:
428,239,19855,5,2,0:0:0:0:
428,239,19996,1,2,0:0:0:0:
510,379,20276,1,4,1:2:0:0:
315,49,36257,5,2,0:3:0:0:
323,55,36818,5,2,0:0:0:0:
323,55,36958,1,2,0:0:0:0:
9,371,37239,5,8,0:1:0:0:
137,319,37379,1,8,0:1:0:0:
23,252,37519,1,0,0:0:0:0:
146,220,37659,1,8,0:1:0:0:
245,279,37799,5,0,3:0:0:0:
245,279,37869,1,0,3:0:0:0:
245,279,37939,1,0,1:0:0:0:
145,141,38080,1,8,0:1:0:0:
205,364,38220,6,0,P|286:360|340:279,1,167.999994873047,4|2,3:1|0:0,0:0:0:0:
368,136,38640,1,0,3:0:0:0:
437,96,38781,2,0,P|475:122|485:177,1,83.9999974365235,2|8,0:3|0:1,0:0:0:0:
419,260,39061,1,8,0:1:0:0:
305,208,39201,2,0,P|277:170|307:61,1,167.999994873047,2|0,0:0|0:0,0:0:0:0:
410,16,39622,5,2,0:3:0:0:
410,16,39762,1,0,3:0:0:0:
365,138,39902,1,8,0:1:0:0:
243,14,40042,1,0,3:0:0:0:
237,3,40323,5,2,0:0:0:0:
102,41,40463,1,0,1:0:0:0:
130,115,40603,1,0,0:0:0:0:
10,76,40743,1,0,3:0:0:0:
123,200,40883,6,0,P|164:194|196:160,1,83.9999974365235,10|0,0:1|0:3,0:0:0:0:
233,98,41164,1,0,3:0:0:0:
290,280,41304,1,8,0:1:0:0:
290,280,41584,5,2,1:2:0:0:
184,341,41725,1,0,3:0:0:0:
296,383,41865,1,0,0:0:0:0:
192,263,42005,2,0,P|150:268|117:304,1,83.9999974365235,8|2,0:1|0:0,0:0:0:0:
90,381,42285,5,0,3:0:0:0:
9,287,42425,2,0,P|26:222|22:131,1,125.999996154785,8|0,0:1|0:0,0:0:0:0:
25,149,42706,6,0,P|93:85|166:104,1,167.999994873047,4|2,1:2|0:0,0:0:0:0:
216,155,43126,2,0,P|248:140|298:132,1,83.9999974365235,0|2,3:0|0:3,0:0:0:0:
364,172,43407,1,8,0:1:0:0:
495,48,43547,1,8,0:1:0:0:
495,48,43827,6,0,P|506:88|495:139,1,83.9999974365235,2|0,0:0|0:0,0:0:0:0:
484,229,44108,1,2,0:3:0:0:
423,98,44248,1,0,3:0:0:0:
332,159,44388,5,8,0:1:0:0:
383,25,44528,1,0,3:0:0:0:
383,25,44668,2,0,B|283:-7|324:56|191:16,1,167.999994873047,2|2,0:0|1:2,0:0:0:0:
197,31,45089,1,0,0:0:0:0:
126,88,45229,1,0,3:0:0:0:
60,21,45369,2,0,P|46:68|28:110,1,83.9999974365235,10|0,0:1|0:0,0:0:0:0:
131,179,45650,5,0,3:0:0:0:
201,142,45790,2,0,P|232:186|166:266,1,167.999994873047,8|2,0:1|1:2,0:0:0:0:
82,287,46210,1,0,3:0:0:0:
120,189,46351,5,0,0:0:0:0:
23,227,46491,1,8,0:1:0:0:
145,364,46631,1,2,0:0:0:0:
4,331,46771,1,0,3:0:0:0:
172,265,46911,6,0,P|205:240|247:240,1,83.9999974365235,8|0,0:1|0:0,0:0:0:0:
495,338,47192,2,0,P|404:359|328:299,1,167.999994873047,2|0,1:2|3:0,0:0:0:0:
328,245,47612,2,0,P|344:190|319:79,1,167.999994873047,10|0,0:1|3:0,0:0:0:0:
268,31,48033,1,8,0:1:0:0:
268,31,48313,5,0,1:0:0:0:
250,128,48453,1,0,3:0:0:0:
359,14,48594,1,2,0:0:0:0:
418,105,48734,1,8,0:1:0:0:
418,105,49014,5,0,3:0:0:0:
490,38,49154,2,0,P|500:81|514:128,1,83.9999974365235,8|0,0:1|0:0,0:0:0:0:
511,199,49435,2,0,P|453:212|393:310,1,167.999994873047,2|0,1:2|3:0,0:0:0:0:
363,371,49855,2,0,P|316:373|269:334,1,83.9999974365235,10|0,0:1|0:0,0:0:0:0:
63,245,50136,5,0,3:0:0:0:
102,309,50276,2,0,P|152:308|194:272,1,83.9999974365235,8|0,0:1|0:0,0:0:0:0:
254,254,50556,5,2,1:2:0:0:
196,380,50696,1,0,3:2:0:0:
335,288,50837,1,0,0:0:0:0:
160,194,50977,2,0,P|169:149|173:105,1,83.9999974365235,8|2,0:1|0:0,0:0:0:0:
141,42,51257,1,0,3:0:0:0:
349,105,51397,2,0,P|340:60|336:16,1,83.9999974365235,8|0,0:1|0:0,0:0:0:0:
261,175,51678,6,0,P|339:195|430:148,1,167.999994873047,2|0,1:2|3:0,0:0:0:0:
479,118,52098,2,0,P|499:156|501:203,1,83.9999974365235,10|0,0:1|0:0,0:0:0:0:
512,332,52379,1,0,3:0:0:0:
435,241,52519,1,8,0:1:0:0:
366,384,52659,2,0,P|369:342|389:305,1,83.9999974365235,2|0,0:0|1:0,0:0:0:0:
242,150,52939,5,0,3:0:0:0:
339,204,53080,1,2,0:0:0:0:
208,239,53220,2,0,B|108:207|149:270|16:230,1,167.999994873047,8|0,0:1|3:0,0:0:0:0:
17,165,53640,2,0,P|8:117|21:73,1,83.9999974365235,8|0,0:1|0:0,0:0:0:0:
88,28,53921,5,0,1:0:0:0:
204,86,54061,1,2,0:0:0:0:
99,131,54201,1,0,3:0:0:0:
188,6,54341,2,0,P|230:10|269:34,1,83.9999974365235,10|0,0:1|0:0,0:0:0:0:
289,192,54622,1,0,3:0:0:0:
341,117,54762,2,0,P|377:96|418:92,1,83.9999974365235,10|0,0:1|0:0,0:0:0:0:
500,136,55042,5,8,0:1:0:0:
356,18,55182,1,8,0:1:0:0:
398,214,55323,1,8,0:1:0:0:
195,120,55463,6,0,P|175:153|176:214,1,83.9999974365235,8|0,0:1|0:0,0:0:0:0:
255,369,55743,1,8,0:1:0:0:
339,327,55883,2,0,P|336:285|315:249,1,83.9999974365235,8|0,0:1|0:0,0:0:0:0:
78,226,56164,1,10,0:1:0:0:
78,226,56304,2,0,P|124:283|225:277,1,175,0|0,1:0|0:0,0:0:0:0:
225,287,56725,2,0,P|191:318|175:367,1,83.9999974365235,4|0,1:0|0:0,0:0:0:0:
410,297,57005,5,8,1:0:0:0:
298,146,57145,2,0,P|349:69|472:89,1,209.999993591309,4|0,1:2|0:0,0:0:0:0:
469,88,57566,6,2,B|481:131|481:131|480:160|480:160|493:205,1,115.49999647522,0|0,1:0|0:0,0:1:0:0:
492,234,58407,6,0,P|432:235|399:196,1,97.9999970092774,4|0,1:0|0:0,0:0:0:0:
180,106,58687,2,0,P|196:48|200:2,1,97.9999970092774,2|0,0:0|3:0,0:0:0:0:
20,234,58968,6,0,P|80:235|113:196,1,97.9999970092774,8|0,0:0|0:0,0:0:0:0:
330,148,59248,2,0,P|314:90|310:44,1,97.9999970092774,2|0,0:0|3:0,0:0:0:0:
203,208,59528,5,4,0:3:0:0:
323,249,59668,1,0,0:0:0:0:
190,362,59809,1,0,1:0:0:0:
331,338,59949,1,0,3:0:0:0:
256,300,60089,5,8,0:0:0:0:
256,300,60159,1,0,3:0:0:0:
256,300,60229,1,0,3:0:0:0:
103,251,60369,1,2,2:0:0:0:
38,383,60510,1,8,0:0:0:0:
23,199,60650,6,0,P|43:122|52:28,1,146.999995513916,4|0,3:2|0:0,0:0:0:0:
54,43,60930,2,0,P|90:8|135:15,1,97.9999970092774,2|0,0:0|3:0,0:0:0:0:
347,118,61210,1,8,0:0:0:0:
247,5,61351,5,2,0:0:0:0:
175,115,61491,2,0,P|213:151|258:144,1,97.9999970092774,2|0,0:0|3:0,0:0:0:0:
469,112,61771,6,0,P|472:26|394:3,1,146.999995513916,2|0,0:1|0:0,0:0:0:0:
427,0,62052,2,0,L|334:28,1,97.9999970092774,0|0,1:0|3:0,0:0:0:0:
326,298,62332,6,0,P|323:212|401:189,1,146.999995513916,8|0,0:0|0:0,0:0:0:0:
368,186,62612,2,0,L|461:214,1,97.9999970092774,2|8,0:1|0:0,0:0:0:0:
407,339,62893,6,0,P|353:379|217:348,1,195.999994018555,2|2,3:2|0:0,0:0:0:0:
150,297,63313,1,0,3:0:0:0:
218,216,63453,2,0,P|234:170|209:115,1,97.9999970092774,8|0,0:0|0:0,0:0:0:0:
94,8,63734,1,2,0:0:0:0:
26,46,63874,2,0,P|10:91|26:136,1,97.9999970092774,0|4,3:0|0:3,0:0:0:0:
107,170,64154,6,0,P|71:233|70:359,1,195.999994018555,2|0,0:0|3:2,0:0:0:0:
160,310,64575,1,8,0:0:0:0:
160,310,64715,1,2,0:0:0:0:
229,384,64855,1,0,1:0:0:0:
306,275,64996,1,2,0:2:0:0:
459,363,65136,5,2,3:0:0:0:
371,225,65276,2,0,P|355:169|470:114,1,195.999994018555,2|0,0:0|3:0,0:0:0:0:
456,107,65696,2,0,P|468:149|490:201,1,97.9999970092774,8|0,0:0|0:0,0:0:0:0:
313,5,65977,2,0,P|298:62|262:148,1,146.999995513916,2|0,3:3|0:0,0:0:0:0:
256,157,66257,5,12,0:0:0:0:
188,5,66397,1,0,3:0:0:0:
371,136,66538,1,2,0:0:0:0:
198,276,66678,1,12,0:0:0:0:
198,276,66958,5,0,3:0:0:0:
327,377,67098,1,8,0:0:0:0:
308,279,67239,1,2,0:0:0:0:
165,353,67379,2,0,P|79:353|4:263,1,195.999994018555,4|2,1:0|0:0,0:0:0:0:
124,113,67799,1,0,3:0:0:0:
44,50,67939,2,0,P|32:102|18:149,1,97.9999970092774,8|0,0:0|0:0,0:0:0:0:
157,270,68220,5,2,0:0:0:0:
86,213,68360,2,0,P|130:160|262:167,1,195.999994018555,0|2,3:0|0:0,0:0:0:0:
364,210,68781,5,2,1:2:0:0:
501,167,68921,1,0,3:0:0:0:
350,79,69061,1,8,0:0:0:0:
435,19,69201,2,0,B|454:63|454:63|436:119,1,97.9999970092774,0|2,3:0|0:0,0:0:0:0:
225,287,69482,5,8,0:0:0:0:
225,287,69622,2,0,B|287:271|287:271|355:294|355:294|416:282,1,195.999994018555,4|2,3:2|0:0,0:0:0:0:
471,332,70042,1,0,3:0:0:0:
351,210,70182,2,0,B|335:162|335:162|354:118,1,97.9999970092774,8|2,0:0|0:0,0:0:0:0:
512,14,70463,5,2,0:0:0:0:
445,115,70603,1,0,3:0:0:0:
307,42,70743,2,0,P|240:9|168:20,1,146.999995513916,2|0,0:1|0:0,0:0:0:0:
163,24,71024,2,0,P|168:68|183:122,1,97.9999970092774,0|0,1:0|3:0,0:0:0:0:
25,323,71304,6,0,P|92:356|164:345,1,146.999995513916,8|0,0:0|0:0,0:0:0:0:
169,341,71584,2,0,P|164:297|149:243,1,97.9999970092774,2|8,0:1|0:0,0:0:0:0:
99,105,71865,5,0,3:2:0:0:
222,207,72005,1,0,0:0:0:0:
182,119,72145,1,2,0:0:0:0:
65,224,72285,1,0,3:0:0:0:
99,15,72425,5,10,0:0:0:0:
99,15,72496,1,2,0:0:0:0:
99,15,72566,1,2,0:0:0:0:
182,119,72706,1,2,1:2:0:0:
320,62,72846,2,0,P|379:68|408:101,1,97.9999970092774,0|0,3:0|0:0,0:0:0:0:
420,167,73126,1,2,0:0:0:0:
262,0,73267,6,0,P|197:69|210:163,1,195.999994018555,0|8,3:0|0:0,0:0:0:0:
320,280,73687,1,0,3:0:0:0:
212,364,73827,1,4,0:3:0:0:
301,179,73968,5,2,0:0:0:0:
179,254,74108,1,0,1:0:0:0:
179,254,74178,1,0,3:0:0:0:
179,254,74248,1,0,3:0:0:0:
356,360,74388,2,0,P|435:349|469:283,1,146.999995513916,2|0,0:0|0:0,0:0:0:0:
467,295,74668,6,0,P|448:247|431:186,1,97.9999970092774,10|2,0:0|0:0,0:0:0:0:
197,184,74949,2,0,P|216:136|233:75,1,97.9999970092774,0|0,1:0|0:0,0:0:0:0:
195,8,75229,5,12,0:0:0:0:
357,139,75369,1,0,3:0:0:0:
128,242,75510,1,2,0:0:0:0:
303,56,75650,6,0,P|381:44|458:151,1,195.999994018555,12|0,0:0|3:0,0:0:0:0:
221,382,76070,2,0,P|202:327|219:290,1,97.9999970092774,8|0,0:0|0:0,0:0:0:0:
505,361,76351,5,4,1:0:0:0:
442,294,76631,5,0,3:0:0:0:
354,240,76911,5,10,0:0:0:0:
249,199,77192,5,2,3:2:0:0:
128,188,77472,5,2,3:2:0:0:
8,209,77753,6,0,P|3:225|-1:248,1,38.5,2|0,1:0|0:0,0:0:0:0:
6,262,78594,6,0,P|69:248|184:244,1,167.999994873047,4|2,3:1|0:0,0:0:0:0:
151,318,79014,2,0,P|192:321|233:331,1,83.9999974365235,0|2,3:0|0:3,0:0:0:0:
297,384,79295,5,8,0:1:0:0:
257,231,79435,2,0,P|222:170|102:186,1,167.999994873047,8|0,0:1|0:0,0:0:0:0:
87,228,79855,1,0,0:0:0:0:
38,88,79996,1,2,0:3:0:0:
38,88,80136,1,0,3:0:0:0:
0,174,80276,5,8,0:1:0:0:
140,68,80416,1,2,3:2:0:0:
140,68,80696,5,2,0:0:0:0:
63,3,80837,2,0,P|51:44|34:91,1,83.9999974365235,0|0,1:0|0:0,0:0:0:0:
149,174,81117,5,0,3:0:0:0:
226,109,81257,2,0,P|238:150|255:197,1,83.9999974365235,10|0,0:1|0:3,0:0:0:0:
320,384,81538,1,0,3:0:0:0:
281,292,81678,6,0,P|331:234|450:245,1,167.999994873047,8|2,0:1|1:2,0:0:0:0:
509,283,82098,1,0,3:0:0:0:
388,312,82239,1,0,0:0:0:0:
499,198,82379,1,8,0:1:0:0:
383,144,82519,1,2,0:0:0:0:
464,49,82659,5,0,3:0:0:0:
370,152,82799,2,0,P|320:100|338:26,1,125.999996154785,8|0,0:1|0:0,0:0:0:0:
324,34,83080,6,0,P|246:68|126:80,1,167.999994873047,4|2,1:2|0:0,0:0:0:0:
10,19,83500,2,0,P|44:57|69:112,1,83.9999974365235,0|2,3:0|0:3,0:0:0:0:
100,155,83781,1,8,0:1:0:0:
140,4,83921,1,8,0:1:0:0:
140,4,84201,5,2,0:0:0:0:
140,4,84271,1,2,0:0:0:0:
140,4,84341,1,2,0:0:0:0:
307,37,84482,1,2,0:3:0:0:
162,92,84622,1,0,3:0:0:0:
304,177,84762,1,8,0:1:0:0:
248,103,84902,1,0,3:0:0:0:
248,103,85182,5,0,0:0:0:0:
179,180,85323,2,0,P|114:227|0:211,1,167.999994873047,2|0,1:2|3:0,0:0:0:0:
249,269,85743,2,0,P|314:316|428:300,1,167.999994873047,10|0,0:1|3:0,0:0:0:0:
480,261,86164,2,0,P|494:218|485:168,1,83.9999974365235,8|0,0:1|0:0,0:0:0:0:
388,137,86444,1,2,1:2:0:0:
471,30,86584,1,0,3:0:0:0:
370,23,86725,1,0,0:0:0:0:
512,104,86865,1,8,0:1:0:0:
512,104,87145,5,0,3:0:0:0:
402,219,87285,2,0,P|355:213|312:175,1,83.9999974365235,8|0,0:1|0:0,0:0:0:0:
261,122,87566,2,0,P|193:124|123:218,1,167.999994873047,2|0,1:2|3:0,0:0:0:0:
171,258,87986,6,0,P|183:315|193:377,1,83.9999974365235,10|0,0:1|0:0,0:0:0:0:
123,384,88267,1,0,3:0:0:0:
11,319,88407,2,0,P|23:243|36:122,1,167.999994873047,8|0,0:1|1:0,0:0:0:0:
11,81,88827,1,0,3:0:0:0:
11,81,89108,6,0,P|46:59|88:57,1,83.9999974365235,8|0,0:1|0:0,0:0:0:0:
154,12,89388,1,2,3:2:0:0:
231,149,89528,2,0,P|258:109|225:-7,1,167.999994873047,8|2,0:1|1:2,0:0:0:0:
127,132,89949,5,0,0:0:0:0:
205,245,90089,1,0,3:0:0:0:
330,181,90229,1,10,0:1:0:0:
330,181,90510,5,0,3:0:0:0:
251,80,90650,1,8,0:1:0:0:
251,80,90930,5,2,1:2:0:0:
224,169,91070,1,0,3:2:0:0:
332,55,91210,1,0,0:0:0:0:
401,129,91351,2,0,P|442:129|495:84,1,83.9999974365235,8|2,0:1|0:0,0:0:0:0:
497,33,91631,5,0,3:0:0:0:
456,216,91771,2,0,P|391:216|326:165,1,125.999996154785,8|0,0:1|0:0,0:0:0:0:
328,183,92052,6,0,P|306:224|304:270,1,83.9999974365235,2|0,1:2|0:0,0:0:0:0:
372,337,92332,1,0,3:0:0:0:
242,384,92472,2,0,P|212:328|209:208,1,167.999994873047,10|0,0:1|3:0,0:0:0:0:
21,384,92893,2,0,P|41:344|50:296,1,83.9999974365235,8|2,0:1|0:0,0:0:0:0:
35,95,93173,5,0,1:0:0:0:
119,241,93313,1,0,3:0:0:0:
118,111,93453,1,2,0:0:0:0:
31,213,93594,1,8,0:1:0:0:
31,213,93874,5,0,3:0:0:0:
232,311,94014,2,0,P|215:266|206:219,1,83.9999974365235,8|0,0:1|0:0,0:0:0:0:
21,104,94295,6,0,P|85:33|207:61,1,210,10|0,0:1|0:0,0:0:0:0:
484,198,94855,6,0,P|420:127|298:155,1,210,10|0,0:1|0:0,0:0:0:0:
180,383,95416,5,8,0:1:0:0:
297,231,95556,1,8,0:1:0:0:
336,344,95696,5,0,1:0:0:0:
198,191,95837,1,8,0:1:0:0:
187,203,96117,5,8,0:1:0:0:
319,13,96257,1,8,0:1:0:0:
312,10,96538,6,0,P|318:59|332:105,1,97.9999970092774,4|0,1:0|0:0,0:0:0:0:
106,211,96818,2,0,P|67:239|20:234,1,97.9999970092774,2|0,0:0|3:0,0:0:0:0:
202,44,97098,6,0,P|196:93|183:140,1,97.9999970092774,8|0,0:0|0:0,0:0:0:0:
391,222,97379,2,0,P|429:250|477:244,1,97.9999970092774,2|0,0:0|3:0,0:0:0:0:
478,161,97659,5,4,0:3:0:0:
415,36,97799,1,0,0:0:0:0:
286,216,97939,1,0,1:0:0:0:
335,93,98080,1,0,3:0:0:0:
187,2,98220,5,8,0:0:0:0:
187,2,98290,1,0,3:0:0:0:
187,2,98360,1,0,3:0:0:0:
13,78,98500,1,2,2:0:0:0:
196,132,98640,1,8,0:0:0:0:
18,195,98781,2,0,P|2:241|40:297,1,97.9999970092774,4|0,3:2|0:0,0:0:0:0:
83,366,99061,2,0,P|135:359|172:250,1,146.999995513916,2|0,0:0|0:0,0:0:0:0:
183,269,99341,6,0,P|219:285|296:295,1,97.9999970092774,8|2,0:0|0:0,0:0:0:0:
352,190,99622,1,2,0:0:0:0:
416,370,99762,1,0,3:0:0:0:
512,159,99902,6,0,P|510:245|435:291,1,146.999995513916,2|0,0:1|0:0,0:0:0:0:
463,296,100182,2,0,P|427:280|350:270,1,97.9999970092774,0|0,1:0|3:0,0:0:0:0:
120,39,100463,6,0,P|122:125|197:171,1,146.999995513916,8|0,0:0|0:0,0:0:0:0:
169,176,100743,2,0,P|205:160|282:150,1,97.9999970092774,2|8,0:1|0:0,0:0:0:0:
500,18,101024,6,0,P|421:30|309:60,1,195.999994018555,2|2,3:2|0:0,0:0:0:0:
433,169,101444,1,0,3:0:0:0:
332,287,101584,2,0,P|279:273|248:214,1,97.9999970092774,8|0,0:0|0:0,0:0:0:0:
339,146,101865,5,2,0:0:0:0:
434,253,102005,2,0,P|487:239|518:180,1,97.9999970092774,0|4,3:0|0:3,0:0:0:0:
413,334,102285,2,0,P|342:377|228:365,1,195.999994018555,2|0,0:0|3:2,0:0:0:0:
22,223,102706,5,8,0:0:0:0:
22,223,102846,1,2,0:0:0:0:
143,265,102986,1,0,1:0:0:0:
0,324,103126,1,2,0:2:0:0:
119,380,103267,1,2,3:0:0:0:
254,283,103407,2,0,P|277:214|181:146,1,195.999994018555,2|0,0:0|3:0,0:0:0:0:
191,144,103827,6,0,P|138:155|86:170,1,97.9999970092774,8|0,0:0|0:0,0:0:0:0:
0,73,104108,2,0,P|73:54|146:39,1,146.999995513916,2|0,3:3|0:0,0:0:0:0:
152,47,104388,1,12,0:0:0:0:
0,229,104528,1,0,3:0:0:0:
200,358,104668,1,2,0:0:0:0:
88,160,104809,1,12,0:0:0:0:
88,160,105089,5,0,3:0:0:0:
7,341,105229,1,8,0:0:0:0:
159,230,105369,1,2,0:0:0:0:
212,367,105510,2,0,P|316:367|398:309,1,195.999994018555,4|2,1:0|0:0,0:0:0:0:
407,174,105930,1,0,3:0:0:0:
480,283,106070,2,0,P|489:335|466:380,1,97.9999970092774,8|0,0:0|0:0,0:0:0:0:
343,245,106351,5,2,0:0:0:0:
500,174,106491,2,0,P|471:109|341:108,1,195.999994018555,0|2,3:0|0:0,0:0:0:0:
259,179,106911,1,2,1:2:0:0:
216,20,107052,1,0,3:0:0:0:
273,97,107192,1,8,0:0:0:0:
131,20,107332,2,0,P|79:15|23:52,1,97.9999970092774,0|2,3:0|0:0,0:0:0:0:
0,138,107612,5,8,0:0:0:0:
0,138,107753,2,0,P|92:105|189:104,1,195.999994018555,4|2,3:2|0:0,0:0:0:0:
351,202,108173,1,0,3:0:0:0:
248,378,108313,2,0,P|236:328|248:274,1,97.9999970092774,8|2,0:0|0:0,0:0:0:0:
313,124,108594,5,2,0:0:0:0:
159,189,108734,1,0,3:0:0:0:
342,285,108874,2,0,P|412:306|485:311,1,146.999995513916,2|0,0:1|0:0,0:0:0:0:
494,320,109154,2,0,P|444:328|393:349,1,97.9999970092774,0|0,1:0|3:0,0:0:0:0:
159,270,109435,6,0,P|88:291|16:296,1,146.999995513916,8|0,0:0|0:0,0:0:0:0:
7,305,109715,2,0,P|57:313|108:334,1,97.9999970092774,2|8,0:1|0:0,0:0:0:0:
156,382,109996,1,0,3:2:0:0:
300,186,110136,1,0,0:0:0:0:
320,322,110276,5,2,0:0:0:0:
166,212,110416,1,0,3:0:0:0:
271,83,110556,1,10,0:0:0:0:
271,83,110626,1,2,0:0:0:0:
271,83,110696,1,2,0:0:0:0:
207,1,110837,5,2,1:2:0:0:
312,171,110977,2,0,P|357:94|298:-18,1,195.999994018555,0|2,3:0|0:0,0:0:0:0:
177,79,111397,2,0,P|93:89|38:39,1,146.999995513916,0|0,3:0|0:0,0:0:0:0:
39,46,111678,2,0,P|27:73|20:140,1,97.9999970092774,8|0,0:0|3:0,0:0:0:0:
141,261,111958,1,4,0:3:0:0:
0,367,112098,1,2,0:0:0:0:
13,229,112239,5,0,1:0:0:0:
13,229,112309,1,0,3:0:0:0:
13,229,112379,1,0,3:0:0:0:
131,357,112519,2,0,P|178:351|220:312,1,97.9999970092774,2|0,0:0|0:0,0:0:0:0:
98,176,112799,6,0,P|174:173|236:247,1,146.999995513916,10|0,0:0|0:0,0:0:0:0:
227,233,113080,2,0,L|328:252,1,97.9999970092774,0|0,1:0|0:0,0:0:0:0:
498,277,113360,5,12,0:0:0:0:
302,384,113500,1,0,3:0:0:0:
509,272,113640,1,2,0:0:0:0:
297,132,113781,1,12,0:0:0:0:
294,118,114201,6,0,P|286:82|278:60,3,48.9999985046387,0|0|0|0,3:0|3:0|3:0|3:0,0:0:0:0:
322,0,114482,6,0,P|392:-3|464:56,1,154.000004699707,4|8,1:2|0:1,0:0:0:0:
497,110,114902,2,0,P|468:129|427:257,1,154.000004699707,8|2,0:1|3:2,0:0:0:0:
428,311,115323,2,0,P|464:323|499:340,1,77.0000023498536,8|0,0:1|0:0,0:0:0:0:
370,371,115603,5,2,3:2:0:0:
370,371,115743,1,0,0:0:0:0:
295,345,115883,2,0,P|258:357|223:374,1,77.0000023498536,0|8,3:0|0:1,0:0:0:0:
178,312,116164,2,0,P|131:336|19:346,1,154.000004699707,2|2,0:0|0:0,0:0:0:0:
251,268,116584,5,8,0:1:0:0:
251,268,116725,2,0,P|257:204|253:89,1,154.000004699707,2|8,3:2|0:1,0:0:0:0:
130,0,117145,2,0,P|135:38|138:76,1,77.0000023498536,8|2,0:1|0:0,0:0:0:0:
46,190,117425,1,0,3:0:0:0:
16,123,117566,1,8,0:1:0:0:
16,123,117846,5,8,0:1:0:0:
148,160,117986,1,8,0:1:0:0:
50,31,118126,1,8,0:1:0:0:
151,68,118267,1,8,0:1:0:0:
151,68,118547,5,0,3:0:0:0:
226,0,118687,2,0,P|268:4|306:24,1,77.0000023498536,2|8,0:0|0:1,0:0:0:0:
338,83,118968,2,0,P|405:82|489:19,1,154.000004699707,2|8,3:2|0:1,0:0:0:0:
404,0,119388,5,8,0:1:0:0:
404,0,119528,2,0,P|402:40|469:147,1,154.000004699707,2|8,0:0|0:1,0:0:0:0:
506,192,119949,1,2,0:0:0:0:
497,270,120089,2,0,P|438:263|365:323,1,154.000004699707,2|0,3:2|3:0,0:0:0:0:
414,378,120510,1,8,0:1:0:0:
358,326,120650,6,0,P|286:322|201:327,1,154.000004699707,2|2,0:0|0:0,0:0:0:0:
7,250,121070,1,8,0:1:0:0:
7,250,121210,2,0,P|46:245|104:239,1,77.0000023498536,2|0,3:2|0:0,0:0:0:0:
160,234,121491,1,8,0:1:0:0:
100,334,121631,1,8,0:1:0:0:
100,334,121911,5,0,3:0:0:0:
221,384,122052,2,0,P|210:345|204:305,1,77.0000023498536,8|0,0:1|0:0,0:0:0:0:
243,135,122332,1,8,0:1:0:0:
133,91,122472,1,8,0:1:0:0:
236,33,122612,1,8,0:1:0:0:
104,5,122753,2,0,P|92:59|57:160,1,154.000004699707,8|0,0:1|3:0,0:0:0:0:
1,322,123173,6,0,L|85:293,1,77.0000023498536,2|8,0:0|0:1,0:0:0:0:
113,227,123453,2,0,P|152:204|254:256,1,154.000004699707,4|8,3:2|0:1,0:0:0:0:
303,329,123874,2,0,P|342:352|444:300,1,154.000004699707,8|0,0:1|3:0,0:0:0:0:
507,277,124295,2,0,P|498:239|492:201,1,77.0000023498536,8|0,0:1|0:0,0:0:0:0:
467,18,124575,1,2,3:2:0:0:
467,18,124855,5,2,3:2:0:0:
381,78,124996,2,0,P|370:34|378:-1,1,77.0000023498536,8|0,0:1|0:0,0:0:0:0:
499,99,125276,1,0,3:0:0:0:
437,147,125416,2,0,P|368:171|274:158,1,154.000004699707,2|2,0:0|3:2,0:0:0:0:
286,162,125977,5,8,0:1:0:0:
250,42,126117,2,0,P|210:34|156:26,1,77.0000023498536,8|2,0:1|0:0,0:0:0:0:
30,102,126397,1,0,3:0:0:0:
30,102,126538,2,0,P|68:108|105:115,1,77.0000023498536,8|0,0:1|0:0,0:0:0:0:
184,134,126818,5,8,0:1:0:0:
77,203,126958,1,8,0:1:0:0:
167,242,127098,1,8,0:1:0:0:
53,300,127239,1,8,0:1:0:0:
53,300,127519,5,0,3:0:0:0:
116,364,127659,2,0,P|156:347|218:344,1,77.0000023498536,2|8,0:0|0:1,0:0:0:0:
265,363,127939,2,0,B|361:343|330:380|430:356,1,154.000004699707,2|8,3:2|0:1,0:0:0:0:
473,305,128360,1,8,0:1:0:0:
473,305,128640,5,0,3:0:0:0:
359,269,128781,1,8,0:1:0:0:
488,220,128921,2,0,P|512:175|440:104,1,154.000004699707,2|0,0:0|0:0,0:0:0:0:
378,85,129341,2,0,P|393:39|401:2,1,77.0000023498536,0|8,3:0|0:1,0:0:0:0:
308,179,129622,2,0,P|293:133|278:22,1,154.000004699707,2|2,0:0|0:0,0:0:0:0:
278,28,130042,1,8,0:1:0:0:
158,4,130182,1,2,3:2:0:0:
158,4,130463,5,8,0:1:0:0:
113,137,130603,2,0,P|67:120|42:79,1,77.0000023498536,8|2,0:1|0:0,0:0:0:0:
21,29,130883,1,0,3:0:0:0:
125,153,131024,6,0,P|171:136|196:95,1,77.0000023498536,10|0,0:1|0:0,0:0:0:0:
230,49,131304,1,8,0:1:0:0:
281,208,131444,1,8,0:1:0:0:
417,104,131584,1,8,0:1:0:0:
311,119,131725,1,8,0:1:0:0:
311,119,132005,5,8,0:1:0:0:
427,23,132145,2,0,P|473:40|498:81,1,77.0000023498536,8|0,0:1|0:0,0:0:0:0:
502,136,132425,6,0,P|495:165|489:223,1,70,4|0,3:2|0:0,0:0:0:0:
446,270,132706,1,0,3:0:0:0:
446,270,132846,1,0,3:0:0:0:
446,270,132986,2,0,P|439:299|433:357,1,70,8|0,0:0|0:0,0:0:0:0:
365,369,133267,5,0,3:0:0:0:
330,364,133407,1,0,3:0:0:0:
304,367,133547,2,0,P|226:353|156:347,1,140,0|0,3:0|3:0,0:0:0:0:
119,290,133968,1,0,3:0:0:0:
119,290,134108,2,0,P|52:296|-1:360,1,140,8|0,0:0|3:0,0:0:0:0:
200,275,134528,5,0,3:0:0:0:
200,275,134668,2,0,P|199:229|190:176,1,70,0|0,3:0|0:0,0:0:0:0:
120,202,134949,2,0,P|101:151|54:69,1,140,0|8,3:0|0:0,0:0:0:0:
180,131,135510,2,0,P|199:80|246:-2,1,140,0|0,3:0|0:0,0:0:0:0:
296,63,135930,1,0,0:0:0:0:
296,63,136070,2,0,P|328:45|435:32,1,140,0|8,3:0|0:0,0:0:0:0:
512,169,136631,6,0,L|480:340,1,140,0|0,3:0|0:0,0:0:0:0:
487,305,137192,2,0,L|402:322,1,70,0|0,3:0|3:0,0:0:0:0:
364,369,137472,2,0,P|311:380|262:290,1,140,8|0,0:0|3:0,0:0:0:0:
283,250,137893,1,0,3:0:0:0:
283,250,138033,2,0,P|348:238|358:165,1,140,0|0,3:0|3:0,0:0:0:0:
298,134,138453,1,0,3:0:0:0:
298,134,138594,2,0,P|243:121|267:53,1,140,8|0,0:0|3:0,0:0:0:0:
330,18,139014,5,0,3:0:0:0:
330,18,139154,2,0,P|370:26|404:28,1,70,0|0,3:0|0:0,0:0:0:0:
437,95,139435,2,0,P|471:92|506:85,1,70,0|0,3:0|3:0,0:0:0:0:
512,163,139715,2,0,P|466:176|298:142,1,210,8|0,0:0|0:0,0:0:0:0:
197,23,140276,6,0,P|157:31|123:33,1,70,0|0,3:0|0:0,0:0:0:0:
90,100,140556,2,0,P|55:97|20:90,1,70,0|0,3:0|3:0,0:0:0:0:
0,163,140837,2,0,P|46:176|214:142,1,210,8|0,0:0|0:0,0:0:0:0:
264,87,141397,6,0,P|293:156|284:240,1,140,4|0,3:2|3:0,0:0:0:0:
224,258,141818,1,0,3:0:0:0:
224,258,141958,2,0,P|234:296|240:354,1,70,8|0,0:0|0:0,0:0:0:0:
324,316,142239,1,0,3:0:0:0:
324,316,142379,1,0,3:0:0:0:
324,316,142519,2,0,P|314:354|308:412,1,70,0|0,3:0|0:0,0:0:0:0:
174,377,142799,5,0,3:0:0:0:
145,365,142939,1,0,3:0:0:0:
114,371,143080,1,8,0:0:0:0:
99,363,143220,1,0,3:0:0:0:
85,366,143360,2,0,P|41:356|2:355,1,70,0|0,3:0|3:0,0:0:0:0:
0,281,143640,2,0,P|25:220|43:131,1,140,0|0,3:0|0:0,0:0:0:0:
188,213,144201,2,0,P|163:152|145:63,1,140,8|0,0:0|3:0,0:0:0:0:
87,24,144622,5,0,3:0:0:0:
87,24,144762,2,0,P|155:2|224:56,1,140,0|0,3:0|3:0,0:0:0:0:
444,128,145323,2,0,P|354:114|221:109,1,210,8|0,0:0|0:0,0:0:0:0:
176,159,145883,6,0,P|116:175|83:191,1,70,0|0,3:0|0:0,0:0:0:0:
40,244,146164,1,0,3:0:0:0:
60,238,146304,1,0,3:0:0:0:
49,228,146444,2,0,B|63:319|26:286|45:391,1,140,8|0,0:0|3:0,0:0:0:0:
123,354,146865,5,0,3:0:0:0:
123,354,147005,2,0,P|183:370|216:386,1,70,0|0,3:0|0:0,0:0:0:0:
259,346,147285,1,0,3:0:0:0:
296,337,147425,1,0,3:0:0:0:
331,354,147566,2,0,P|408:344|486:306,1,140,8|0,0:0|3:0,0:0:0:0:
509,256,147986,5,0,3:0:0:0:
509,256,148126,2,0,P|477:237|418:228,1,70,0|0,3:0|0:0,0:0:0:0:
398,172,148407,2,0,P|364:181|334:199,1,70,0|0,3:0|0:0,0:0:0:0:
203,239,148687,6,0,P|173:257|139:266,1,70,8|0,0:0|0:0,0:0:0:0:
91,209,148968,2,0,P|57:199|27:181,1,70,2|0,3:2|0:0,0:0:0:0:
0,109,149248,6,0,P|38:82|110:78,1,105,0|0,1:0|0:0,0:0:0:0:
99,79,149528,2,0,L|131:9,1,70,10|0,0:1|0:0,0:0:0:0:
270,143,149809,2,0,L|245:73,1,70,2|0,0:0|0:0,0:0:0:0:
429,12,150089,5,8,0:1:0:0:
388,76,150229,1,8,0:1:0:0:
345,6,150369,5,4,1:2:0:0:
471,81,150510,1,2,0:0:0:0:
363,184,150650,1,10,0:0:0:0:
511,150,150790,1,10,0:0:0:0:
511,150,151070,5,0,3:0:0:0:
498,227,151210,2,0,P|476:247|389:247,1,83.9999974365235,8|0,0:0|0:0,0:0:0:0:
348,345,151491,2,0,P|326:266|358:190,1,167.999994873047,0|8,1:0|0:0,0:0:0:0:
422,123,151911,1,8,0:0:0:0:
287,0,152052,2,0,P|283:31|268:91,1,83.9999974365235,0|0,3:0|0:0,0:0:0:0:
152,153,152332,2,0,P|84:149|29:89,1,125.999996154785,8|0,0:0|0:0,0:0:0:0:
30,91,152612,5,2,1:2:0:0:
117,240,152753,1,2,0:2:0:0:
166,73,152893,1,10,0:2:0:0:
261,191,153033,1,10,0:2:0:0:
261,191,153453,6,0,P|270:260|293:358,1,167.999994873047,8|0,0:0|1:0,0:0:0:0:
297,358,154014,2,0,P|344:345|386:337,1,83.9999974365235,8|8,0:0|0:0,0:0:0:0:
508,184,154295,2,0,P|477:239|365:240,1,167.999994873047,0|8,3:0|0:0,0:0:0:0:
0,344,154855,5,2,1:2:0:0:
137,281,154996,1,2,0:2:0:0:
26,244,155136,1,10,0:2:0:0:
164,376,155276,1,10,0:2:0:0:
164,376,155556,5,0,3:0:0:0:
285,279,155696,2,0,P|295:320|310:363,1,83.9999974365235,8|0,0:0|0:0,0:0:0:0:
137,281,155977,2,0,P|169:219|189:135,1,125.999996154785,0|0,1:0|0:0,0:0:0:0:
190,142,156257,1,8,0:0:0:0:
44,15,156397,1,8,0:0:0:0:
6,86,156538,6,0,P|54:99|86:121,1,83.9999974365235,0|0,3:0|0:0,0:0:0:0:
164,58,156818,2,0,P|206:39|317:31,1,125.999996154785,8|0,0:0|0:0,0:0:0:0:
296,35,157098,1,2,1:2:0:0:
384,181,157239,1,2,0:0:0:0:
416,18,157379,1,10,0:0:0:0:
512,121,157519,1,10,0:0:0:0:
512,121,157799,5,0,3:0:0:0:
483,225,157939,2,0,P|432:261|320:267,1,167.999994873047,8|0,0:0|1:0,0:0:0:0:
333,268,158500,1,8,0:0:0:0:
269,379,158640,1,8,0:0:0:0:
188,244,158781,2,0,P|202:203|208:159,1,83.9999974365235,0|0,3:0|0:0,0:0:0:0:
327,111,159061,2,0,P|313:70|307:26,1,83.9999974365235,8|0,0:0|0:0,0:0:0:0:
204,2,159341,6,0,B|102:-3|137:51|25:26,2,167.999994873047,2|10|0,1:2|0:0|3:0,0:0:0:0:
204,2,160182,2,0,P|200:43|195:85,1,83.9999974365235,8|0,0:0|0:0,0:0:0:0:
105,229,160463,1,0,1:0:0:0:
63,145,160603,1,2,0:0:0:0:
151,150,160743,5,8,0:0:0:0:
18,242,160883,1,8,0:0:0:0:
176,294,161024,2,0,P|122:326|33:339,1,125.999996154785,0|0,3:0|0:0,0:0:0:0:
51,343,161304,2,0,P|99:351|148:379,1,83.9999974365235,8|0,0:0|0:0,0:0:0:0:
250,381,161584,5,2,1:2:0:0:
339,257,161725,1,2,0:0:0:0:
246,228,161865,5,10,0:0:0:0:
410,322,162005,1,10,0:0:0:0:
410,322,162285,5,0,3:0:0:0:
488,252,162425,2,0,P|495:293|511:332,1,83.9999974365235,8|0,0:0|0:0,0:0:0:0:
344,383,162706,2,0,P|308:339|191:359,1,167.999994873047,0|8,1:0|0:0,0:0:0:0:
108,384,163126,1,8,0:0:0:0:
52,302,163267,2,0,P|67:263|75:221,1,83.9999974365235,0|0,3:0|0:0,0:0:0:0:
152,218,163547,2,0,P|144:176|128:137,1,83.9999974365235,8|0,0:0|0:0,0:0:0:0:
56,87,163827,5,2,1:2:0:0:
56,87,163968,1,2,0:0:0:0:
171,3,164108,1,10,0:0:0:0:
171,3,164248,1,10,0:0:0:0:
242,118,164388,2,0,P|288:108|322:79,1,83.9999974365235,0|0,3:0|0:0,0:0:0:0:
313,8,164668,2,0,P|388:-2|466:84,1,167.999994873047,8|0,0:0|1:0,0:0:0:0:
456,52,165229,6,0,P|444:92|437:133,1,83.9999974365235,8|8,0:0|0:0,0:0:0:0:
512,251,165510,2,0,P|455:257|397:332,1,125.999996154785,0|0,3:0|0:0,0:0:0:0:
398,311,165790,2,0,P|391:269|379:229,1,83.9999974365235,8|0,0:0|0:0,0:0:0:0:
184,12,166070,5,12,0:0:0:0:
321,115,166210,1,0,3:0:0:0:
161,248,166351,1,0,0:0:0:0:
311,357,166491,1,12,0:0:0:0:
315,367,166771,5,0,3:0:0:0:
199,150,166911,1,12,0:0:0:0:
193,140,167192,5,0,1:0:0:0:
377,33,167332,1,0,3:0:0:0:
267,246,167472,1,10,0:0:0:0:
264,258,167753,5,0,3:0:0:0:
86,43,167893,2,0,P|52:102|60:226,1,167.999994873047,10|0,0:0|0:0,0:0:0:0:
0,384,168313,5,4,1:3:0:0:
153,209,168453,1,0,3:0:0:0:
234,384,168594,5,8,0:3:0:0:
97,276,168734,2,0,P|54:288|10:301,1,83.9999974365235,8|0,0:3|0:0,0:0:0:0:
382,127,169014,2,0,P|425:139|469:152,1,83.9999974365235,12|0,0:0|0:0,0:0:0:0:
242,0,169295,2,0,B|184:130|306:80|245:223,1,210.000008010865,10|2,0:0|0:0,0:0:0:0:
250,221,169645,1,2,0:0:0:0:
246,244,169715,1,2,0:1:0:0:
217,376,169855,1,0,3:0:0:0:
400,231,169996,1,0,1:0:0:0:
224,84,170136,6,2,B|172:66|195:84|153:67|153:67|112:93|130:65|91:92|91:92|47:79|69:92|23:74,1,210,12|0,0:1|0:0,1:0:0:0:
256,192,172309,12,0,175042,0:0:0:0:
244,196,179248,5,2,0:0:0:0:
254,204,179388,1,2,0:0:0:0:
253,190,179528,5,4,0:0:0:0:
256,192,179598,12,0,184014,0:0:0:0:
490,359,186257,6,0,P|460:354|424:351,1,56,2|0,0:0|0:0,0:0:0:0:
22,358,186818,2,0,P|49:354|77:351,1,56,2|0,0:0|0:0,0:0:0:0:
257,376,187239,5,0,0:0:0:0:
257,376,187309,1,0,0:0:0:0:
257,376,187379,2,0,P|264:324|268:307,1,56,2|0,0:0|0:0,0:0:0:0:
276,244,187659,2,0,P|269:192|265:175,1,56,2|0,0:0|0:0,0:0:0:0:
237,114,187939,6,0,P|242:75|247:54,1,56,2|0,0:0|0:0,0:0:0:0:
243,36,189061,6,0,B|375:-14|322:86|461:30,1,210.000008010865,4|0,1:0|0:0,0:0:0:0:
451,46,189622,6,0,P|510:160|427:312,1,293.999991027832,12|0,0:0|3:0,0:0:0:0:
285,384,190182,2,0,B|298:345|298:345|321:327|321:327|335:281,1,97.9999970092774,8|0,0:0|3:0,0:0:0:0:
242,150,190463,1,2,0:1:0:0:
389,226,190603,1,8,0:0:0:0:
169,308,190743,2,0,L|-4:339,1,146.999995513916,4|0,3:2|0:0,0:0:0:0:
15,337,191024,6,0,L|114:356,1,97.9999970092774,2|0,0:0|3:0,0:0:0:0:
0,235,191304,1,8,0:0:0:0:
155,179,191444,1,2,0:0:0:0:
51,14,191584,2,0,P|7:46|11:116,1,97.9999970092774,2|0,0:0|3:0,0:0:0:0:
82,86,191865,6,0,P|150:93|227:19,1,146.999995513916,2|0,0:1|0:0,0:0:0:0:
220,47,192145,2,0,P|244:94|242:145,1,97.9999970092774,0|0,1:0|3:0,0:0:0:0:
199,259,192425,6,0,P|131:266|54:192,1,146.999995513916,8|0,0:0|0:0,0:0:0:0:
61,215,192706,2,0,P|37:262|39:313,1,97.9999970092774,2|8,0:1|0:0,0:0:0:0:
76,375,192986,6,0,P|144:361|292:352,1,195.999994018555,2|2,3:2|0:0,0:0:0:0:
509,282,193407,1,0,3:0:0:0:
454,223,193547,2,0,P|405:243|381:304,1,97.9999970092774,8|0,0:0|0:0,0:0:0:0:
370,381,193827,5,2,0:0:0:0:
276,251,193968,2,0,P|246:193|299:81,1,195.999994018555,0|2,3:0|0:0,0:0:0:0:
412,3,194388,1,0,0:0:0:0:
412,3,194528,1,0,3:2:0:0:
511,130,194668,2,0,P|447:120|414:86,1,97.9999970092774,8|2,0:0|0:0,0:0:0:0:
300,0,194949,2,0,P|205:2|111:57,1,195.999994018555,2|2,1:0|3:0,0:0:0:0:
70,112,195369,5,2,0:0:0:0:
44,186,195510,1,0,0:0:0:0:
18,15,195650,1,0,3:0:0:0:
200,111,195790,2,0,P|210:158|226:205,1,97.9999970092774,8|0,0:0|0:0,0:0:0:0:
132,378,196070,2,0,P|60:381|-3:309,1,146.999995513916,2|0,3:3|0:0,0:0:0:0:
0,317,196351,5,12,0:0:0:0:
125,174,196491,1,0,3:0:0:0:
290,384,196631,5,2,0:0:0:0:
148,255,196771,1,12,0:0:0:0:
148,255,197052,5,0,3:0:0:0:
316,137,197192,1,8,0:0:0:0:
110,99,197332,1,2,0:0:0:0:
191,0,197472,6,0,L|228:206,1,195.999994018555,4|2,1:0|0:0,0:0:0:0:
309,24,197893,1,0,3:0:0:0:
401,109,198033,2,0,L|499:132,1,97.9999970092774,8|0,0:0|0:0,0:0:0:0:
444,5,198313,5,2,0:0:0:0:
320,161,198453,2,0,P|334:229|455:260,1,195.999994018555,0|2,3:0|0:0,0:0:0:0:
205,327,198874,2,0,L|93:356,1,97.9999970092774,2|0,1:2|3:0,0:0:0:0:
12,377,199154,5,8,0:0:0:0:
141,239,199295,1,0,3:0:0:0:
32,107,199435,2,0,P|16:159|-5:208,1,97.9999970092774,2|8,0:0|0:0,0:0:0:0:
46,270,199715,6,0,P|103:335|232:303,1,195.999994018555,4|2,3:2|0:0,0:0:0:0:
296,240,200136,1,0,3:0:0:0:
216,168,200276,2,0,P|199:117|218:74,1,97.9999970092774,8|2,0:0|0:0,0:0:0:0:
265,19,200556,1,2,0:0:0:0:
422,185,200696,1,0,3:0:0:0:
487,114,200837,6,0,P|511:62|422:21,1,146.999995513916,2|0,0:1|0:0,0:0:0:0:
445,13,201117,2,0,L|342:41,1,97.9999970092774,0|0,1:0|3:0,0:0:0:0:
255,349,201397,6,0,P|231:297|320:256,1,146.999995513916,8|0,0:0|0:0,0:0:0:0:
297,248,201678,2,0,L|400:276,1,97.9999970092774,2|8,0:1|0:0,0:0:0:0:
505,374,201958,6,0,L|454:174,1,195.999994018555,0|2,3:2|0:0,0:0:0:0:
336,20,202379,1,0,3:0:0:0:
481,96,202519,1,10,0:0:0:0:
481,96,202589,1,2,0:0:0:0:
481,96,202659,1,2,0:0:0:0:
336,175,202799,1,2,1:2:0:0:
382,96,202939,2,0,P|349:59|200:41,1,195.999994018555,0|2,3:0|0:0,0:0:0:0:
62,174,203360,5,0,3:0:0:0:
34,100,203500,1,0,0:0:0:0:
167,161,203640,1,10,0:0:0:0:
167,161,203710,1,0,3:0:0:0:
167,161,203781,1,0,3:0:0:0:
21,274,203921,1,4,0:3:0:0:
191,352,204061,1,2,0:0:0:0:
75,382,204201,6,0,P|96:333|112:281,1,97.9999970092774,0|0,1:0|3:0,0:0:0:0:
315,330,204482,2,0,P|293:281|264:171,1,146.999995513916,2|0,0:0|0:0,0:0:0:0:
267,191,204762,2,0,L|142:162,1,97.9999970092774,10|2,0:0|0:0,0:0:0:0:
19,19,205042,2,0,P|53:72|140:66,1,146.999995513916,0|0,1:0|0:0,0:0:0:0:
147,58,205323,5,12,0:0:0:0:
76,251,205463,1,0,3:0:0:0:
247,61,205603,5,2,0:0:0:0:
10,161,205743,1,12,0:0:0:0:
10,161,206024,5,0,3:0:0:0:
160,334,206164,2,0,P|220:317|274:311,1,97.9999970092774,12|0,0:0|0:0,0:0:0:0:
340,367,206444,6,0,P|410:373|469:244,1,195.999994018555,4|2,1:0|0:0,0:0:0:0:
351,179,206865,1,0,3:0:0:0:
512,205,207005,2,0,P|494:159|485:111,1,97.9999970092774,8|0,0:0|0:0,0:0:0:0:
340,271,207285,2,0,P|369:198|383:74,1,195.999994018555,2|4,0:0|0:3,0:0:0:0:
162,65,207706,5,2,0:0:0:0:
198,152,207846,1,0,1:0:0:0:
73,51,207986,1,0,3:0:0:0:
216,0,208126,2,0,L|316:24,1,97.9999970092774,8|0,0:0|0:0,0:0:0:0:
408,182,208407,1,2,0:1:0:0:
473,24,208547,1,8,0:0:0:0:
325,128,208687,6,0,P|307:195|415:280,1,195.999994018555,2|0,3:2|0:0,0:0:0:0:
512,250,209108,1,0,3:0:0:0:
432,384,209248,2,0,P|386:369|315:352,1,97.9999970092774,8|0,0:0|0:0,0:0:0:0:
26,188,209528,5,2,0:1:0:0:
154,243,209668,1,0,3:0:0:0:
24,379,209809,1,4,0:3:0:0:
180,337,209949,1,2,0:0:0:0:
97,311,210089,6,0,L|-10:283,1,97.9999970092774,0|0,1:0|3:0,0:0:0:0:
109,153,210369,2,0,P|147:202|280:215,1,195.999994018555,8|2,0:0|0:1,0:0:0:0:
367,103,210790,1,8,0:0:0:0:
299,12,210930,2,0,P|287:65|272:114,1,97.9999970092774,2|0,3:2|0:0,0:0:0:0:
444,194,211210,1,2,0:1:0:0:
356,292,211351,1,0,3:0:0:0:
485,383,211491,2,0,P|471:336|460:288,1,97.9999970092774,12|0,0:0|0:0,0:0:0:0:
352,207,211771,5,0,1:0:0:0:
352,207,211911,1,0,3:0:0:0:
492,125,212052,2,0,P|506:63|422:31,1,146.999995513916,2|0,0:0|0:0,0:0:0:0:
443,25,212332,2,0,L|337:59,1,97.9999970092774,2|0,0:1|3:0,0:0:0:0:
74,46,212612,2,0,L|180:80,1,97.9999970092774,8|0,0:0|0:0,0:0:0:0:
257,137,212893,2,0,B|293:235|207:213|260:343,1,195.999994018555,4|0,0:3|1:0,0:0:0:0:
313,384,213313,5,0,3:0:0:0:
169,317,213453,1,2,0:1:0:0:
321,255,213594,1,0,3:0:0:0:
165,220,213734,2,0,L|62:245,1,97.9999970092774,8|0,0:0|0:0,0:0:0:0:
0,345,214014,6,0,L|95:368,1,97.9999970092774,4|2,1:3|0:0,0:0:0:0:
253,326,214295,2,0,P|271:265|232:140,1,195.999994018555,8|0,0:0|3:0,0:0:0:0:
63,0,214715,1,8,0:0:0:0:
105,145,214855,1,4,0:3:0:0:
225,20,214996,1,0,3:0:0:0:
135,59,215136,5,8,0:0:0:0:
322,186,215276,1,8,0:0:0:0:
168,324,215416,2,0,P|240:365|368:340,1,195.999994018555,4|2,1:0|0:1,0:0:0:0:
512,250,215837,1,0,3:0:0:0:
412,161,215977,2,0,P|359:163|313:194,1,97.9999970092774,8|0,0:0|0:0,0:0:0:0:
252,250,216257,6,0,P|302:193|250:100,1,195.999994018555,4|2,0:2|0:0,0:0:0:0:
47,23,216678,1,0,3:0:0:0:
47,23,216818,2,0,P|38:73|22:122,1,97.9999970092774,2|0,0:1|3:0,0:0:0:0:
142,189,217098,1,8,0:0:0:0:
30,268,217239,1,0,3:0:0:0:
166,384,217379,2,0,P|151:337|142:289,1,97.9999970092774,4|0,0:3|0:0,0:0:0:0:
23,117,217659,6,0,L|151:81,1,97.9999970092774,2|0,3:2|0:0,0:0:0:0:
215,0,217939,2,0,P|268:59|400:33,1,195.999994018555,4|8,0:2|0:0,0:0:0:0:
471,0,218360,1,2,0:0:0:0:
434,154,218500,2,0,P|443:200|467:259,1,97.9999970092774,2|0,0:1|3:0,0:0:0:0:
323,384,218781,5,0,3:0:0:0:
180,329,218921,1,2,0:0:0:0:
351,228,219061,1,0,1:0:0:0:
206,219,219201,1,0,3:0:0:0:
274,302,219341,5,8,0:0:0:0:
274,302,219411,1,2,0:0:0:0:
274,302,219482,1,0,3:0:0:0:
234,137,219622,2,0,P|221:79|214:34,1,97.9999970092774,2|0,0:1|0:0,0:0:0:0:
124,0,219902,2,0,P|76:5|30:141,1,195.999994018555,0|2,1:3|0:0,0:0:0:0:
124,172,220323,5,0,3:0:0:0:
97,273,220463,2,0,L|-2:299,1,97.9999970092774,8|0,0:0|0:0,0:0:0:0:
381,343,220743,2,0,L|480:369,1,97.9999970092774,2|0,1:0|0:0,0:0:0:0:
199,384,221024,6,0,B|215:321|215:321|261:301|261:301|281:214,1,195.999994018555,4|0,1:3|0:0,0:0:0:0:
279,222,222145,6,0,P|321:219|367:244,1,77.0000023498536,4|0,3:2|0:0,0:0:0:0:
405,289,222425,1,2,0:0:0:0:
492,200,222566,2,0,P|507:118|432:55,1,154.000004699707,0|0,3:0|0:0,0:0:0:0:
289,18,222986,5,2,0:0:0:0:
289,18,223056,1,2,0:0:0:0:
289,18,223126,2,0,P|238:37|206:44,1,77.0000023498536,0|0,3:0|0:0,0:0:0:0:
170,143,223407,1,2,0:1:0:0:
50,53,223547,2,0,P|87:62|122:77,1,77.0000023498536,0|0,3:0|3:0,0:0:0:0:
188,280,223827,5,8,0:1:0:0:
94,365,223968,2,0,P|37:351|23:259,1,154.000004699707,0|8,3:0|0:1,0:0:0:0:
89,183,224388,6,0,B|185:166|145:205|257:182,1,154.000004699707,0|0,3:0|0:0,0:0:0:0:
372,221,224809,1,2,0:0:0:0:
302,291,224949,2,0,L|285:374,1,77.0000023498536,8|0,0:1|0:0,0:0:0:0:
397,366,225229,2,0,P|454:352|468:260,1,154.000004699707,2|2,0:1|0:0,0:0:0:0:
471,266,225790,2,0,L|450:181,1,77.0000023498536,0|0,3:0|3:0,0:0:0:0:
226,32,226070,5,8,0:1:0:0:
306,79,226210,1,0,3:0:0:0:
300,8,226351,1,2,0:1:0:0:
222,105,226491,1,8,0:1:0:0:
282,191,226631,6,0,L|100:232,1,154.000004699707,0|2,3:0|0:0,0:0:0:0:
47,329,227052,1,0,3:0:0:0:
158,384,227192,2,0,P|138:330|133:295,1,77.0000023498536,8|0,0:1|0:0,0:0:0:0:
6,229,227472,2,0,P|26:175|40:71,1,154.000004699707,2|2,0:0|0:1,0:0:0:0:
39,79,228033,6,0,L|124:53,1,77.0000023498536,0|0,3:0|3:0,0:0:0:0:
368,26,228313,2,0,L|283:0,1,77.0000023498536,8|0,0:1|3:0,0:0:0:0:
294,3,228874,6,0,L|276:156,1,154.000004699707,0|2,3:0|0:0,0:0:0:0:
186,259,229295,2,0,P|122:256|86:168,1,154.000004699707,0|0,3:0|0:0,0:0:0:0:
298,361,229715,2,0,P|362:358|404:314,1,115.50000352478,2|0,3:0|0:0,0:0:0:0:
403,312,229996,5,8,0:1:0:0:
186,259,230136,2,0,L|56:283,1,115.50000352478,0|0,3:0|0:0,0:0:0:0:
68,291,230416,2,0,L|142:312,1,77.0000023498536,10|0,0:1|0:0,0:0:0:0:
198,379,230696,5,0,3:0:0:0:
281,228,230837,2,0,P|266:171|256:98,1,115.50000352478,8|0,0:1|0:0,0:0:0:0:
257,116,231117,6,0,L|166:93,1,77.0000023498536,4|0,3:2|0:0,0:0:0:0:
112,136,231397,1,2,0:1:0:0:
60,22,231538,2,0,P|7:56|31:156,1,154.000004699707,0|0,3:0|0:0,0:0:0:0:
86,249,231958,2,0,P|80:288|67:333,1,77.0000023498536,2|0,0:0|3:0,0:0:0:0:
163,371,232239,6,0,P|237:375|327:329,1,154.000004699707,2|0,0:1|0:0,0:0:0:0:
384,276,232659,1,0,3:0:0:0:
298,229,232799,2,0,P|287:191|299:154,1,77.0000023498536,8|0,0:1|3:0,0:0:0:0:
409,100,233080,2,0,P|464:101|481:45,1,115.50000352478,2|0,0:0|0:0,0:0:0:0:
482,41,233360,6,0,L|299:5,1,154.000004699707,0|2,3:0|0:0,0:0:0:0:
170,17,233781,1,0,3:0:0:0:
170,17,233921,2,0,L|81:41,1,77.0000023498536,8|0,0:1|0:0,0:0:0:0:
25,75,234201,6,0,P|54:119|64:229,1,154.000004699707,2|4,0:1|0:3,0:0:0:0:
156,113,234622,1,2,0:0:0:0:
221,154,234762,2,0,P|196:203|189:251,1,77.0000023498536,0|0,3:0|3:0,0:0:0:0:
24,378,235042,5,8,0:1:0:0:
120,296,235182,1,0,3:0:0:0:
201,347,235323,2,0,B|297:330|257:369|369:346,1,154.000004699707,2|0,0:0|3:0,0:0:0:0:
512,177,235743,5,2,0:0:0:0:
512,177,235813,1,2,0:0:0:0:
512,177,235883,2,0,P|467:183|431:205,1,77.0000023498536,2|0,0:0|3:0,0:0:0:0:
378,243,236164,2,0,P|347:194|368:93,1,154.000004699707,10|0,0:1|3:0,0:0:0:0:
439,38,236584,1,0,3:0:0:0:
281,7,236725,6,0,L|198:24,1,77.0000023498536,2|0,0:0|0:0,0:0:0:0:
71,122,237005,1,0,3:0:0:0:
39,12,237145,1,0,3:0:0:0:
160,109,237285,2,0,P|208:147|323:140,1,154.000004699707,10|4,0:1|3:3,0:0:0:0:
124,318,237706,5,2,0:0:0:0:
233,384,237846,2,0,P|218:347|196:222,1,154.000004699707,0|2,3:0|0:0,0:0:0:0:
12,384,238267,1,0,3:0:0:0:
12,384,238407,2,0,P|28:343|43:282,1,77.0000023498536,8|0,0:1|0:0,0:0:0:0:
221,307,238687,2,0,P|205:266|190:205,1,77.0000023498536,2|0,3:0|0:0,0:0:0:0:
16,22,238968,5,8,0:1:0:0:
152,80,239108,1,0,3:0:0:0:
100,18,239248,1,2,0:0:0:0:
28,126,239388,1,12,0:1:0:0:
28,126,239668,5,0,3:0:0:0:
195,234,239809,1,10,0:1:0:0:
195,234,240089,6,0,B|257:218|257:218|325:241|325:241|386:229,1,195.999994018555,4|0,1:0|1:0,0:0:0:0:
508,335,240510,2,0,L|394:311,1,97.9999970092774,8|0,0:0|3:0,0:0:0:0:
333,369,240790,5,0,1:0:0:0:
483,224,240930,2,0,P|510:167|436:103,1,146.999995513916,8|0,0:0|0:0,0:0:0:0:
464,106,241210,2,0,L|358:82,1,97.9999970092774,0|0,1:0|0:0,0:0:0:0:
198,125,241491,1,0,1:0:0:0:
301,6,241631,1,8,0:0:0:0:
48,58,241771,2,0,L|153:34,1,97.9999970092774,2|0,0:1|1:0,0:0:0:0:
297,198,242052,5,0,3:0:0:0:
227,48,242192,1,8,0:0:0:0:
192,250,242332,2,0,P|133:307|-1:297,1,195.999994018555,4|0,1:3|1:0,0:0:0:0:
253,356,242753,2,0,L|387:382,1,97.9999970092774,8|2,0:0|3:0,0:0:0:0:
494,303,243033,5,0,1:0:0:0:
379,188,243173,2,0,P|399:133|479:129,1,146.999995513916,8|0,0:0|0:0,0:0:0:0:
486,141,243453,1,8,0:0:0:0:
376,305,243594,1,8,0:0:0:0:
206,177,243734,1,8,0:0:0:0:
206,177,243874,1,8,0:0:0:0:
152,300,244014,5,8,0:0:0:0:
295,162,244154,1,0,1:0:0:0:
116,24,244295,2,0,P|86:90|118:169,1,146.999995513916,12|0,0:0|0:0,0:0:0:0:
108,158,244575,6,0,P|143:96|274:99,1,195.999994018555,4|0,1:0|1:0,0:0:0:0:
403,172,244996,2,0,P|452:169|500:120,1,97.9999970092774,8|2,0:0|3:0,0:0:0:0:
512,66,245276,1,0,1:0:0:0:
437,269,245416,2,0,P|361:264|305:190,1,146.999995513916,8|0,0:0|0:0,0:0:0:0:
312,204,245696,6,0,P|295:252|288:304,1,97.9999970092774,0|0,1:0|0:0,0:0:0:0:
94,384,245977,1,0,1:0:0:0:
179,282,246117,1,8,0:0:0:0:
43,165,246257,2,0,P|60:213|67:265,1,97.9999970092774,2|0,1:0|3:0,0:0:0:0:
1,318,246538,5,0,1:0:0:0:
185,195,246678,1,8,0:0:0:0:
244,373,246818,2,0,P|339:372|428:313,1,195.999994018555,4|0,1:3|1:0,0:0:0:0:
489,93,247239,6,0,P|497:141|510:188,1,97.9999970092774,8|2,0:0|3:0,0:0:0:0:
503,382,247519,1,0,1:0:0:0:
339,268,247659,2,0,P|352:220|360:172,1,97.9999970092774,8|0,0:0|0:0,0:0:0:0:
175,0,247939,5,8,0:0:0:0:
46,59,248080,1,8,0:0:0:0:
204,169,248220,1,8,0:0:0:0:
25,259,248360,1,8,0:0:0:0:
243,370,248500,5,4,1:3:0:0:
489,93,248781,6,0,P|498:57|505:25,1,70,8|4,0:0|1:0,0:0:0:0:
256,192,250253,12,4,252986,0:3:0:0:
317,50,253126,5,8,0:0:0:0:
131,143,253267,1,8,0:0:0:0:
299,356,253407,1,8,0:0:0:0:
