osu file format v14

[General]
AudioFilename: audio.mp3
AudioLeadIn: 0
PreviewTime: 61252
Countdown: 0
SampleSet: Soft
StackLeniency: 0.3
Mode: 0
LetterboxInBreaks: 0
EpilepsyWarning: 1
WidescreenStoryboard: 1

[Editor]
Bookmarks: 11162,36762,62362,87962,113562,139162,164762
DistanceSpacing: 1.7
BeatDivisor: 4
GridSize: 8
TimelineZoom: 4.249999

[Metadata]
Title:Over You
TitleUnicode:Over You
Artist:Soupandreas
ArtistUnicode:Soupandreas
Creator:FruityEnLoops
Version:alone in the rain
Source:
Tags:future bass trapstep monstercat
BeatmapID:1724167
BeatmapSetID:822647

[Difficulty]
HPDrainRate:5
CircleSize:4
OverallDifficulty:7
ApproachRate:9.2
SliderMultiplier:1.3
SliderTickRate:1

[Events]
//Background and Video events
0,0,"bg.jpg",0,0
//Break Periods
//Storyboard Layer 0 (Background)
//Storyboard Layer 1 (Fail)
//Storyboard Layer 2 (Pass)
//Storyboard Layer 3 (Foreground)
//Storyboard Sound Samples

[TimingPoints]
11157,400,4,2,0,100,1,0
11157,-200,4,2,0,100,0,0
15857,-200,4,2,0,5,0,0
15957,-200,4,2,0,100,0,0
16657,-200,4,2,0,5,0,0
16757,-200,4,2,0,100,0,0
17457,-200,4,2,0,5,0,0
17557,-200,4,2,0,100,0,0
23057,-200,4,2,0,5,0,0
23157,-200,4,2,0,100,0,0
28657,-200,4,2,0,5,0,0
28757,-200,4,2,0,100,0,0
29457,-200,4,2,0,5,0,0
29557,-200,4,2,0,100,0,0
30257,-200,4,2,0,5,0,0
30357,-200,4,2,0,100,0,0
36657,-200,4,2,0,5,0,0
36757,-200,4,2,0,100,0,0
49557,-166.666666666667,4,2,0,100,0,0
55957,-142.857142857143,4,2,0,100,0,0
57557,-125,4,2,0,100,0,0
57957,-117.647058823529,4,2,0,100,0,0
59157,-111.111111111111,4,2,0,100,0,0
61357,-100,4,2,0,100,0,0
61457,-100,4,2,0,5,0,0
61557,-100,4,2,0,100,0,0
61657,-100,4,2,0,5,0,0
61757,-100,4,2,0,100,0,0
61857,-100,4,2,0,5,0,0
61957,-100,4,2,0,100,0,0
62057,-100,4,2,0,5,0,0
62357,-40,4,2,0,100,0,1
62657,-40,4,2,0,5,0,1
62757,-40,4,2,0,100,0,1
63057,-40,4,2,0,5,0,1
63157,-40,4,2,0,100,0,1
65857,-40,4,2,0,5,0,1
65957,-200,4,2,0,100,0,1
66257,-200,4,2,0,5,0,1
66357,-40,4,2,0,100,0,1
66457,-40,4,2,0,5,0,1
66557,-200,4,2,0,100,0,1
66857,-200,4,2,0,5,0,1
66957,-40,4,2,0,100,0,1
67057,-40,4,2,0,5,0,1
67157,-200,4,2,0,100,0,1
67457,-200,4,2,0,5,0,1
67557,-40,4,2,0,100,0,1
67657,-40,4,2,0,5,0,1
67757,-200,4,2,0,100,0,1
68157,-40,4,2,0,100,0,1
68257,-40,4,2,0,5,0,1
68357,-40,4,2,0,100,0,1
68457,-40,4,2,0,5,0,1
68557,-40,4,2,0,100,0,1
68657,-40,4,2,0,5,0,1
68757,-40,4,2,0,100,0,1
69057,-40,4,2,0,5,0,1
69157,-40,4,2,0,100,0,1
69457,-40,4,2,0,5,0,1
69557,-40,4,2,0,100,0,1
72257,-40,4,2,0,5,0,1
72357,-200,4,2,0,100,0,1
72657,-200,4,2,0,5,0,1
72757,-40,4,2,0,100,0,1
72857,-40,4,2,0,5,0,1
72957,-200,4,2,0,100,0,1
73257,-200,4,2,0,5,0,1
73357,-40,4,2,0,100,0,1
73407,-40,4,2,0,5,0,1
73457,-40,4,2,0,100,0,1
73507,-40,4,2,0,5,0,1
73557,-200,4,2,0,100,0,1
73857,-200,4,2,0,5,0,1
73957,-40,4,2,0,100,0,1
74007,-40,4,2,0,5,0,1
74057,-40,4,2,0,100,0,1
74107,-40,4,2,0,5,0,1
74157,-200,4,2,0,100,0,1
74557,-40,4,2,0,100,0,1
74657,-40,4,2,0,5,0,1
74757,-40,4,2,0,100,0,1
74857,-40,4,2,0,5,0,1
74957,-40,4,2,0,100,0,1
75057,-40,4,2,0,5,0,1
75157,-40,4,2,0,100,0,1
75457,-40,4,2,0,5,0,1
75557,-40,4,2,0,100,0,1
75857,-40,4,2,0,5,0,1
75957,-40,4,2,0,100,0,1
78657,-40,4,2,0,5,0,1
78757,-200,4,2,0,100,0,1
79057,-200,4,2,0,5,0,1
79157,-40,4,2,0,100,0,1
79257,-40,4,2,0,5,0,1
79357,-200,4,2,0,100,0,1
79657,-200,4,2,0,5,0,1
79757,-40,4,2,0,100,0,1
79857,-40,4,2,0,5,0,1
79957,-200,4,2,0,100,0,1
80257,-200,4,2,0,5,0,1
80357,-40,4,2,0,100,0,1
80457,-40,4,2,0,5,0,1
80557,-200,4,2,0,100,0,1
80957,-40,4,2,0,100,0,1
81057,-40,4,2,0,5,0,1
81157,-40,4,2,0,100,0,1
81257,-40,4,2,0,5,0,1
81357,-40,4,2,0,100,0,1
81457,-40,4,2,0,5,0,1
81557,-40,4,2,0,100,0,1
81857,-40,4,2,0,5,0,1
81957,-40,4,2,0,100,0,1
82257,-40,4,2,0,5,0,1
82357,-40,4,2,0,100,0,1
85057,-40,4,2,0,5,0,1
85157,-200,4,2,0,100,0,1
85457,-200,4,2,0,5,0,1
85557,-40,4,2,0,100,0,1
85657,-40,4,2,0,5,0,1
85757,-200,4,2,0,100,0,1
86057,-200,4,2,0,5,0,1
86157,-40,4,2,0,100,0,1
86207,-40,4,2,0,5,0,1
86257,-40,4,2,0,100,0,1
86307,-40,4,2,0,5,0,1
86357,-200,4,2,0,100,0,1
86657,-200,4,2,0,5,0,1
86757,-40,4,2,0,100,0,1
86807,-40,4,2,0,5,0,1
86857,-40,4,2,0,100,0,1
86907,-40,4,2,0,5,0,1
86957,-200,4,2,0,100,0,1
87357,-40,4,2,0,100,0,1
87957,-100,4,2,0,100,0,0
113557,-200,4,2,0,100,0,0
126357,-166.666666666667,4,2,0,100,0,0
138157,-100,4,2,0,100,0,0
138257,-100,4,2,0,5,0,0
138357,-100,4,2,0,100,0,0
138457,-100,4,2,0,5,0,0
138557,-100,4,2,0,100,0,0
138657,-100,4,2,0,5,0,0
138757,-100,4,2,0,100,0,0
138857,-100,4,2,0,5,0,0
139157,-50,4,2,0,100,0,1
139857,-50,4,2,0,5,0,1
139957,-50,4,2,0,100,0,1
141957,-40,4,2,0,100,0,1
142057,-40,4,2,0,5,0,1
142157,-40,4,2,0,100,0,1
142257,-40,4,2,0,5,0,1
142357,-33.3333333333333,4,2,0,100,0,1
142457,-33.3333333333333,4,2,0,5,0,1
142557,-33.3333333333333,4,2,0,100,0,1
142657,-33.3333333333333,4,2,0,5,0,1
142757,-33.3333333333333,4,2,0,100,0,1
142857,-33.3333333333333,4,2,0,5,0,1
142957,-33.3333333333333,4,2,0,100,0,1
143057,-33.3333333333333,4,2,0,5,0,1
143157,-33.3333333333333,4,2,0,100,0,1
143257,-33.3333333333333,4,2,0,5,0,1
143357,-33.3333333333333,4,2,0,100,0,1
143457,-33.3333333333333,4,2,0,5,0,1
143557,-33.3333333333333,4,2,0,100,0,1
143657,-33.3333333333333,4,2,0,5,0,1
143757,-33.3333333333333,4,2,0,100,0,1
143857,-33.3333333333333,4,2,0,5,0,1
143957,-33.3333333333333,4,2,0,100,0,1
144057,-33.3333333333333,4,2,0,5,0,1
144157,-33.3333333333333,4,2,0,100,0,1
144257,-33.3333333333333,4,2,0,5,0,1
144357,-33.3333333333333,4,2,0,100,0,1
144457,-33.3333333333333,4,2,0,5,0,1
144557,-33.3333333333333,4,2,0,100,0,1
144657,-33.3333333333333,4,2,0,5,0,1
144757,-33.3333333333333,4,2,0,100,0,1
144857,-33.3333333333333,4,2,0,5,0,1
144957,-33.3333333333333,4,2,0,100,0,1
145057,-33.3333333333333,4,2,0,5,0,1
145157,-33.3333333333333,4,2,0,100,0,1
145257,-33.3333333333333,4,2,0,5,0,1
145357,-33.3333333333333,4,2,0,100,0,1
145457,-33.3333333333333,4,2,0,5,0,1
145557,-50,4,2,0,100,0,1
145857,-50,4,2,0,5,0,1
145957,-50,4,2,0,100,0,1
146257,-50,4,2,0,5,0,1
146357,-50,4,2,0,100,0,1
148357,-40,4,2,0,100,0,1
148457,-40,4,2,0,5,0,1
148557,-40,4,2,0,100,0,1
148657,-40,4,2,0,5,0,1
148757,-33.3333333333333,4,2,0,100,0,1
148857,-33.3333333333333,4,2,0,5,0,1
148957,-33.3333333333333,4,2,0,100,0,1
149057,-33.3333333333333,4,2,0,5,0,1
149157,-33.3333333333333,4,2,0,100,0,1
149257,-33.3333333333333,4,2,0,5,0,1
149357,-33.3333333333333,4,2,0,100,0,1
149457,-33.3333333333333,4,2,0,5,0,1
149557,-33.3333333333333,4,2,0,100,0,1
149657,-33.3333333333333,4,2,0,5,0,1
149757,-33.3333333333333,4,2,0,100,0,1
149857,-33.3333333333333,4,2,0,5,0,1
149957,-33.3333333333333,4,2,0,100,0,1
150057,-33.3333333333333,4,2,0,5,0,1
150157,-33.3333333333333,4,2,0,100,0,1
150257,-33.3333333333333,4,2,0,5,0,1
150357,-33.3333333333333,4,2,0,100,0,1
150457,-33.3333333333333,4,2,0,5,0,1
150557,-33.3333333333333,4,2,0,100,0,1
150657,-33.3333333333333,4,2,0,5,0,1
150757,-33.3333333333333,4,2,0,100,0,1
150857,-33.3333333333333,4,2,0,5,0,1
150957,-33.3333333333333,4,2,0,100,0,1
151057,-33.3333333333333,4,2,0,5,0,1
151157,-33.3333333333333,4,2,0,100,0,1
151257,-33.3333333333333,4,2,0,5,0,1
151357,-33.3333333333333,4,2,0,100,0,1
151457,-33.3333333333333,4,2,0,5,0,1
151557,-33.3333333333333,4,2,0,100,0,1
151657,-33.3333333333333,4,2,0,5,0,1
151757,-33.3333333333333,4,2,0,100,0,1
151857,-33.3333333333333,4,2,0,5,0,1
151957,-50,4,2,0,100,0,1
152257,-50,4,2,0,5,0,1
152357,-50,4,2,0,100,0,1
152657,-50,4,2,0,5,0,1
152757,-50,4,2,0,100,0,1
154757,-40,4,2,0,100,0,1
154857,-40,4,2,0,5,0,1
154957,-40,4,2,0,100,0,1
155057,-40,4,2,0,5,0,1
155157,-33.3333333333333,4,2,0,100,0,1
155257,-33.3333333333333,4,2,0,5,0,1
155357,-33.3333333333333,4,2,0,100,0,1
155457,-33.3333333333333,4,2,0,5,0,1
155557,-33.3333333333333,4,2,0,100,0,1
155657,-33.3333333333333,4,2,0,5,0,1
155757,-33.3333333333333,4,2,0,100,0,1
155857,-33.3333333333333,4,2,0,5,0,1
155957,-33.3333333333333,4,2,0,100,0,1
156057,-33.3333333333333,4,2,0,5,0,1
156157,-33.3333333333333,4,2,0,100,0,1
156257,-33.3333333333333,4,2,0,5,0,1
156357,-33.3333333333333,4,2,0,100,0,1
156457,-33.3333333333333,4,2,0,5,0,1
156557,-33.3333333333333,4,2,0,100,0,1
156657,-33.3333333333333,4,2,0,5,0,1
156757,-33.3333333333333,4,2,0,100,0,1
156857,-33.3333333333333,4,2,0,5,0,1
156957,-33.3333333333333,4,2,0,100,0,1
157057,-33.3333333333333,4,2,0,5,0,1
157157,-33.3333333333333,4,2,0,100,0,1
157257,-33.3333333333333,4,2,0,5,0,1
157357,-33.3333333333333,4,2,0,100,0,1
157457,-33.3333333333333,4,2,0,5,0,1
157557,-33.3333333333333,4,2,0,100,0,1
157657,-33.3333333333333,4,2,0,5,0,1
157757,-33.3333333333333,4,2,0,100,0,1
157857,-33.3333333333333,4,2,0,5,0,1
157957,-33.3333333333333,4,2,0,100,0,1
158057,-33.3333333333333,4,2,0,5,0,1
158157,-33.3333333333333,4,2,0,100,0,1
158257,-33.3333333333333,4,2,0,5,0,1
158357,-50,4,2,0,100,0,1
158657,-50,4,2,0,5,0,1
158757,-50,4,2,0,100,0,1
159057,-50,4,2,0,5,0,1
159157,-50,4,2,0,100,0,1
161157,-40,4,2,0,100,0,1
161257,-40,4,2,0,5,0,1
161357,-40,4,2,0,100,0,1
161457,-40,4,2,0,5,0,1
161557,-33.3333333333333,4,2,0,100,0,1
161657,-33.3333333333333,4,2,0,5,0,1
161757,-33.3333333333333,4,2,0,100,0,1
161857,-33.3333333333333,4,2,0,5,0,1
161957,-33.3333333333333,4,2,0,100,0,1
162057,-33.3333333333333,4,2,0,5,0,1
162157,-33.3333333333333,4,2,0,100,0,1
162257,-33.3333333333333,4,2,0,5,0,1
162357,-33.3333333333333,4,2,0,100,0,1
162457,-33.3333333333333,4,2,0,5,0,1
162557,-33.3333333333333,4,2,0,100,0,1
162657,-33.3333333333333,4,2,0,5,0,1
162757,-33.3333333333333,4,2,0,100,0,1
162857,-33.3333333333333,4,2,0,5,0,1
162957,-33.3333333333333,4,2,0,100,0,1
163057,-33.3333333333333,4,2,0,5,0,1
163157,-33.3333333333333,4,2,0,100,0,1
163257,-33.3333333333333,4,2,0,5,0,1
163357,-33.3333333333333,4,2,0,100,0,1
163457,-33.3333333333333,4,2,0,5,0,1
163557,-33.3333333333333,4,2,0,100,0,1
163657,-33.3333333333333,4,2,0,5,0,1
163757,-33.3333333333333,4,2,0,100,0,1
163857,-33.3333333333333,4,2,0,5,0,1
163957,-40,4,2,0,100,0,1
164757,-100,4,2,0,100,0,0

[Colours]
Combo1 : 65,50,105
Combo2 : 65,137,86
Combo3 : 92,107,180
Combo4 : 36,125,151

[HitObjects]
81,142,11157,6,0,L|152:146,1,65
286,86,11957,2,0,L|215:90,1,65
109,237,12757,1,0,0:0:0:0:
54,51,14357,5,0,0:0:0:0:
233,158,15157,2,0,P|287:164|348:153,1,113.75
390,253,15957,2,0,P|336:259|275:248,1,113.75
337,40,16757,2,0,L|345:156,1,113.75
277,248,17557,6,0,L|203:249,1,65
84,186,18357,2,0,L|158:187,1,65
252,332,19157,1,0,0:0:0:0:
344,153,20757,5,0,0:0:0:0:
344,153,22357,6,0,P|268:135|224:146,1,113.75
145,191,23157,2,0,L|145:111,1,65
91,266,23957,1,0,0:0:0:0:
278,213,24357,1,0,0:0:0:0:
57,167,24757,1,0,0:0:0:0:
215,281,25157,1,0,0:0:0:0:
212,53,25557,5,0,0:0:0:0:
145,191,27157,5,0,0:0:0:0:
215,281,27957,2,0,L|336:281,1,113.75
426,194,28757,2,0,L|305:194,1,113.75
484,265,29557,2,0,P|514:222|508:153,1,113.75
422,348,30357,6,0,P|390:359|357:369,1,65
266,260,31157,2,0,P|298:271|331:281,1,65
426,194,31957,1,0,0:0:0:0:
246,354,33557,5,0,0:0:0:0:
246,354,35157,6,0,B|181:333|118:349|118:349|129:292|102:237,1,243.75
288,154,36757,6,0,P|306:192|240:357,1,227.5
193,145,38357,2,0,L|201:104,1,32.5
102,237,38757,2,0,L|110:278,1,32.5
86,80,39157,5,0,0:0:0:0:
211,245,39357,1,0,0:0:0:0:
50,165,39557,1,0,0:0:0:0:
288,154,39757,1,0,0:0:0:0:
134,321,39957,6,0,L|85:378,1,65
287,313,40557,2,0,B|302:257|302:257|287:153,1,162.5
221,148,43157,6,0,B|232:123|255:107|282:105|282:105|309:102|335:114|351:135|351:135|334:153|309:160|286:152,1,227.5
195,48,44757,2,0,P|177:44|152:43,1,32.5
73,120,45157,2,0,P|91:116|116:115,1,32.5
183,188,45557,5,0,0:0:0:0:
56,36,45757,1,0,0:0:0:0:
88,214,45957,1,0,0:0:0:0:
258,114,46157,1,0,0:0:0:0:
232,307,46357,6,0,P|212:313|179:321,1,48.75
263,211,46857,2,0,B|323:242|333:305|333:305|387:336,1,178.75
382,333,48357,1,0,0:0:0:0:
382,333,48757,1,0,0:0:0:0:
382,333,49157,1,0,0:0:0:0:
382,333,49557,6,0,L|379:295,1,38.9999988098145
410,147,49957,2,0,L|407:185,1,38.9999988098145
377,293,50357,1,0,0:0:0:0:
257,327,50757,1,0,0:0:0:0:
166,300,50957,1,0,0:0:0:0:
78,336,51157,2,0,L|27:335,1,38.9999988098145
138,217,51557,2,0,L|189:216,1,38.9999988098145
166,300,51957,5,0,0:0:0:0:
21,199,52157,1,0,0:0:0:0:
39,335,52357,1,0,0:0:0:0:
176,216,52557,1,0,0:0:0:0:
57,99,52757,2,0,L|-16:95,1,58.4999982147217
72,13,53157,2,0,P|108:27|141:60,1,77.999997619629
137,68,53957,5,0,0:0:0:0:
139,92,54357,1,0,0:0:0:0:
142,117,54757,1,0,0:0:0:0:
293,67,55157,1,0,0:0:0:0:
278,87,55557,1,0,0:0:0:0:
278,87,55757,1,0,0:0:0:0:
293,237,55957,6,0,L|290:289,1,45.4999986114502
355,168,56357,2,0,L|352:116,1,45.4999986114502
379,259,56757,1,0,0:0:0:0:
225,174,57157,1,0,0:0:0:0:
175,310,57557,6,0,L|111:312,1,52
23,224,57957,2,0,L|89:232,1,55.2500010538101
175,310,58357,1,0,0:0:0:0:
163,169,58557,1,0,0:0:0:0:
36,322,58757,1,0,0:0:0:0:
260,304,58957,1,0,0:0:0:0:
111,101,59157,6,0,L|46:88,1,58.4999982147217
169,206,59557,1,0,0:0:0:0:
134,22,59757,1,0,0:0:0:0:
50,228,59957,1,0,0:0:0:0:
297,98,60357,1,0,0:0:0:0:
307,196,60557,1,0,0:0:0:0:
268,366,60757,5,0,0:0:0:0:
268,366,61357,6,0,L|309:366,1,32.5
395,270,61557,2,0,L|354:270,1,32.5
187,255,61757,2,0,L|219:257,1,32.5
449,372,61957,2,0,L|408:372,1,32.5
21,384,62357,6,0,P|-18:257|12:143,1,243.75
89,28,62757,2,0,P|128:154|97:268,1,243.75
219,257,63157,5,0,0:0:0:0:
347,372,63357,1,0,0:0:0:0:
276,182,63557,1,0,0:0:0:0:
191,384,63757,1,0,0:0:0:0:
359,221,63957,1,0,0:0:0:0:
102,259,64157,1,0,0:0:0:0:
282,343,64357,1,0,0:0:0:0:
243,97,64557,1,0,0:0:0:0:
423,302,64757,1,0,0:0:0:0:
163,170,64957,5,0,0:0:0:0:
109,157,65057,1,0,0:0:0:0:
57,171,65157,1,0,0:0:0:0:
18,208,65257,1,0,0:0:0:0:
0,259,65357,1,0,0:0:0:0:
8,312,65457,1,0,0:0:0:0:
39,355,65557,1,0,0:0:0:0:
163,170,65757,6,0,L|157:77,1,81.25
243,229,65957,2,0,L|246:170,1,48.75
337,80,66357,6,0,P|372:71|435:75,1,81.25
259,36,66557,2,0,P|274:21|306:4,1,48.75
410,195,66957,6,0,B|430:237|430:237|454:267,1,81.25
332,169,67157,2,0,B|330:196|330:196|333:217,1,48.75
218,316,67557,6,0,L|126:314,1,81.25
243,229,67757,2,0,L|204:229,1,32.5
300,303,68157,6,0,L|404:300,1,81.25
491,197,68357,2,0,L|387:194,1,81.25
284,94,68557,2,0,L|388:91,1,81.25
228,12,68757,6,0,B|139:14|139:14|-4:83,1,243.75
284,94,69157,2,0,B|143:160|143:160|55:163,1,243.75
245,251,69557,5,0,0:0:0:0:
55,163,69757,1,0,0:0:0:0:
124,350,69957,1,0,0:0:0:0:
0,243,70157,1,0,0:0:0:0:
245,310,70357,1,0,0:0:0:0:
26,336,70557,1,0,0:0:0:0:
216,128,70757,1,0,0:0:0:0:
213,384,70957,1,0,0:0:0:0:
407,204,71157,1,0,0:0:0:0:
159,201,71357,5,0,0:0:0:0:
126,154,71457,1,0,0:0:0:0:
126,100,71557,1,0,0:0:0:0:
153,56,71657,1,0,0:0:0:0:
200,33,71757,1,0,0:0:0:0:
253,40,71857,1,0,0:0:0:0:
296,73,71957,1,0,0:0:0:0:
262,230,72157,6,0,L|240:329,1,81.25
356,209,72357,2,0,L|343:266,1,48.75
155,323,72757,6,0,P|118:329|67:327,1,81.25
173,234,72957,2,0,P|151:237|121:236,1,48.75
160,112,73357,6,0,L|168:54,1,40.625
160,112,73457,2,0,L|158:61,1,40.625
160,112,73557,2,0,L|152:61,1,48.75
344,118,73957,6,0,L|352:60,1,40.625
344,118,74057,2,0,L|369:83,1,40.625
344,118,74157,2,0,L|376:112,1,32.5
467,184,74557,6,0,L|471:296,1,81.25
370,358,74757,2,0,L|374:246,1,81.25
260,194,74957,2,0,L|264:306,1,81.25
160,353,75157,6,0,B|140:180|140:180|120:247,1,243.75
4,98,75557,2,0,B|24:271|24:271|44:204,1,243.75
99,31,75957,5,0,0:0:0:0:
234,139,76157,1,0,0:0:0:0:
43,204,76357,1,0,0:0:0:0:
201,38,76557,1,0,0:0:0:0:
234,253,76757,1,0,0:0:0:0:
96,120,76957,1,0,0:0:0:0:
160,353,77157,1,0,0:0:0:0:
234,137,77357,1,0,0:0:0:0:
42,315,77557,1,0,0:0:0:0:
321,338,77757,5,0,0:0:0:0:
346,290,77857,1,0,0:0:0:0:
348,236,77957,1,0,0:0:0:0:
326,187,78057,1,0,0:0:0:0:
286,152,78157,1,0,0:0:0:0:
234,137,78257,1,0,0:0:0:0:
181,147,78357,1,0,0:0:0:0:
407,29,78557,6,0,L|400:126,1,81.25
488,3,78757,2,0,L|492:63,1,48.75
249,18,79157,6,0,B|203:15|203:15|161:28,1,81.25
308,100,79357,2,0,B|281:98|281:98|256:105,1,48.75
177,220,79757,6,0,P|163:273|136:307,1,81.25
277,199,79957,2,0,P|268:229|253:249,1,48.75
369,289,80357,6,0,B|400:289|400:289|419:282|419:282|450:282,1,81.25
321,369,80557,2,0,B|343:369|343:369|357:364|357:364,1,32.5
397,199,80957,6,0,L|419:103,1,81.25
331,22,81157,2,0,L|302:115,1,81.25
187,148,81357,2,0,L|209:52,1,81.25
147,247,81557,6,0,B|202:278|273:274|324:234|324:234|294:215|251:216,1,243.75
147,247,81957,2,0,B|91:215|20:219|-30:259|-30:259|-10:275|19:278,1,243.75
191,352,82357,5,0,0:0:0:0:
187,148,82557,1,0,0:0:0:0:
95,330,82757,1,0,0:0:0:0:
316,342,82957,1,0,0:0:0:0:
78,226,83157,1,0,0:0:0:0:
306,99,83357,1,0,0:0:0:0:
191,352,83557,1,0,0:0:0:0:
90,87,83757,1,0,0:0:0:0:
95,330,83957,1,0,0:0:0:0:
365,194,84157,5,0,0:0:0:0:
393,148,84257,1,0,0:0:0:0:
398,95,84357,1,0,0:0:0:0:
377,45,84457,1,0,0:0:0:0:
335,11,84557,1,0,0:0:0:0:
283,0,84657,1,0,0:0:0:0:
231,15,84757,1,0,0:0:0:0:
273,252,84957,6,0,B|268:296|268:296|274:335,1,81.25
194,251,85157,2,0,B|196:224|196:224|193:201,1,48.75
415,211,85557,6,0,P|455:209|502:188,1,81.25
399,291,85757,2,0,P|373:292|343:305,1,48.75
328,160,86157,6,0,L|312:96,1,40.625
328,160,86257,2,0,L|336:112,1,40.625
328,160,86357,2,0,L|360:120,1,48.75
152,112,86757,6,0,L|136:48,1,40.625
152,112,86857,2,0,L|128:64,1,40.625
152,112,86957,2,0,L|128:88,1,32.5
27,199,87357,5,0,0:0:0:0:
39,261,87457,1,0,0:0:0:0:
83,308,87557,1,0,0:0:0:0:
145,325,87657,1,0,0:0:0:0:
207,307,87757,1,0,0:0:0:0:
271,302,87857,1,0,0:0:0:0:
332,324,87957,6,0,P|365:334|421:333,1,65
449,323,88257,1,0,0:0:0:0:
449,323,88357,1,0,0:0:0:0:
472,215,88557,1,0,0:0:0:0:
396,134,88757,2,0,P|345:127|314:132,1,65
231,173,89157,1,0,0:0:0:0:
231,173,89357,1,0,0:0:0:0:
134,226,89557,6,0,P|93:233|47:229,1,65
16,217,89857,1,0,0:0:0:0:
16,217,89957,1,0,0:0:0:0:
87,133,90157,1,0,0:0:0:0:
213,270,90357,2,0,P|255:302|288:315,1,65
369,268,90757,1,0,0:0:0:0:
369,268,90857,1,0,0:0:0:0:
369,268,90957,1,0,0:0:0:0:
394,160,91157,6,0,L|392:84,1,65
373,42,91457,1,0,0:0:0:0:
373,42,91557,1,0,0:0:0:0:
294,120,91757,1,0,0:0:0:0:
369,268,91957,2,0,P|374:311|366:357,1,65
261,328,92357,1,0,0:0:0:0:
160,373,92557,1,0,0:0:0:0:
68,310,92757,6,0,P|61:275|66:230,1,65
90,197,93057,1,0,0:0:0:0:
90,197,93157,1,0,0:0:0:0:
199,184,93357,1,0,0:0:0:0:
68,310,93557,2,0,L|-22:326,1,65
90,197,93957,1,0,0:0:0:0:
199,301,94157,1,0,0:0:0:0:
199,301,94257,1,0,0:0:0:0:
199,301,94357,6,0,P|248:305|283:303,1,65
315,282,94657,1,0,0:0:0:0:
315,282,94757,1,0,0:0:0:0:
358,180,94957,1,0,0:0:0:0:
221,87,95157,2,0,L|139:95,1,65
266,5,95557,1,0,0:0:0:0:
256,175,95757,1,0,0:0:0:0:
383,85,95957,6,0,P|434:117|453:140,1,65
448,173,96257,1,0,0:0:0:0:
448,173,96357,1,0,0:0:0:0:
474,15,96557,1,0,0:0:0:0:
358,180,96757,1,0,0:0:0:0:
221,87,96957,2,0,P|181:90|142:99,1,65
104,117,97257,1,0,0:0:0:0:
104,117,97357,1,0,0:0:0:0:
74,223,97557,6,0,L|77:303,1,65
101,337,97857,1,0,0:0:0:0:
101,337,97957,1,0,0:0:0:0:
206,303,98157,1,0,0:0:0:0:
308,343,98357,2,0,L|385:344,1,65
447,261,98757,2,0,L|370:262,1,65
297,189,99157,6,0,P|288:137|291:95,1,65
303,71,99457,1,0,0:0:0:0:
303,71,99557,1,0,0:0:0:0:
192,155,99757,1,0,0:0:0:0:
375,153,99957,2,0,P|433:149|457:153,1,65
417,41,100357,2,0,L|352:44,1,65
303,71,100657,1,0,0:0:0:0:
303,71,100757,5,0,0:0:0:0:
195,45,100957,1,0,0:0:0:0:
90,82,101157,2,0,P|34:88|0:87,1,65
192,155,101557,2,0,L|276:155,1,65
125,236,101957,2,0,P|100:203|88:152,1,65
85,328,102357,6,0,P|118:330|171:325,1,65
203,314,102657,1,0,0:0:0:0:
203,314,102757,1,0,0:0:0:0:
313,316,102957,1,0,0:0:0:0:
188,223,103157,2,0,L|108:239,1,65
13,240,103557,1,0,0:0:0:0:
13,240,103657,1,0,0:0:0:0:
13,240,103757,1,0,0:0:0:0:
180,137,103957,6,0,P|227:144|259:164,1,65
270,199,104257,1,0,0:0:0:0:
270,199,104357,1,0,0:0:0:0:
360,261,104557,1,0,0:0:0:0:
351,102,104757,2,0,P|359:55|373:29,1,65
255,41,105157,1,0,0:0:0:0:
242,151,105357,1,0,0:0:0:0:
258,260,105557,6,0,P|271:313|279:331,1,65
321,352,105857,1,0,0:0:0:0:
321,352,105957,1,0,0:0:0:0:
180,324,106157,1,0,0:0:0:0:
356,269,106357,1,0,0:0:0:0:
172,213,106557,2,0,P|136:211|99:218,1,65
208,124,106957,1,0,0:0:0:0:
208,124,107057,1,0,0:0:0:0:
208,124,107157,6,0,L|286:130,1,65
319,159,107457,1,0,0:0:0:0:
319,159,107557,1,0,0:0:0:0:
421,118,107757,1,0,0:0:0:0:
219,22,107957,2,0,L|154:26,1,65
208,124,108357,2,0,P|199:167|179:201,1,65
123,274,108757,6,0,P|121:314|129:348,1,65
163,379,109057,1,0,0:0:0:0:
163,379,109157,1,0,0:0:0:0:
268,345,109357,1,0,0:0:0:0:
123,274,109557,2,0,P|86:269|37:270,1,65
190,185,109957,1,0,0:0:0:0:
190,185,110057,1,0,0:0:0:0:
190,185,110157,1,0,0:0:0:0:
52,97,110357,6,0,L|52:15,1,65
6,1,110657,1,0,0:0:0:0:
6,1,110757,1,0,0:0:0:0:
131,77,110957,1,0,0:0:0:0:
284,16,111157,2,0,P|332:17|364:22,1,65
459,37,111557,1,0,0:0:0:0:
471,146,111757,1,0,0:0:0:0:
371,193,111957,6,0,P|345:197|304:199,1,65
254,180,112257,1,0,0:0:0:0:
254,180,112357,1,0,0:0:0:0:
330,102,112557,1,0,0:0:0:0:
424,270,112757,2,0,L|414:357,1,65
492,210,113157,1,0,0:0:0:0:
327,286,113357,1,0,0:0:0:0:
327,286,113457,1,0,0:0:0:0:
327,286,113557,6,0,B|314:296|296:297|283:288|283:288|270:278|264:262|269:247|269:247|273:232|303:220|303:220|273:232|240:222|222:196,1,227.5
185,308,115157,6,0,L|189:354,1,32.5
96,263,115557,2,0,L|100:217,1,32.5
50,104,115957,1,0,0:0:0:0:
13,259,116157,1,0,0:0:0:0:
180,197,116357,1,0,0:0:0:0:
0,170,116557,1,0,0:0:0:0:
153,115,116757,6,0,P|201:117|216:122,1,65
328,187,117357,2,0,P|257:219|176:194,1,162.5
259,3,119957,6,0,B|267:13|271:26|269:40|269:40|266:53|258:64|246:71|246:71|264:69|280:83|282:101|282:101|284:119|271:135|253:138|253:138|235:141|218:128|215:110,1,227.5
356,51,121557,6,0,P|384:51|399:53,1,32.5
482,136,121957,2,0,P|454:136|439:138,1,32.5
342,213,122357,2,0,P|370:213|385:215,1,32.5
473,283,122757,1,0,0:0:0:0:
363,130,122957,1,0,0:0:0:0:
259,245,123157,6,0,L|196:252,1,48.75
342,213,123657,2,0,P|345:248|301:325,1,113.75
297,336,124757,5,0,0:0:0:0:
282,356,125157,1,0,0:0:0:0:
150,296,125557,1,0,0:0:0:0:
135,276,125957,1,0,0:0:0:0:
207,164,126357,6,0,L|251:161,1,38.9999988098145
317,88,126757,2,0,L|272:85,1,38.9999988098145
123,112,127157,1,0,0:0:0:0:
98,114,127557,1,0,0:0:0:0:
30,227,127957,6,0,P|27:256|30:275,1,38.9999988098145
115,323,128357,2,0,P|118:352|115:371,1,38.9999988098145
208,338,128757,1,0,0:0:0:0:
195,215,128957,1,0,0:0:0:0:
290,298,129157,1,0,0:0:0:0:
115,323,129357,1,0,0:0:0:0:
284,174,129557,6,0,P|312:153|336:140,1,58.4999982147217
192,145,130007,2,0,L|193:214,1,68.2499979171754
196,239,130757,5,0,0:0:0:0:
198,264,131157,1,0,0:0:0:0:
200,289,131557,1,0,0:0:0:0:
284,174,131957,1,0,0:0:0:0:
286,149,132357,1,0,0:0:0:0:
299,46,132757,6,0,L|342:43,1,38.9999988098145
480,99,133157,2,0,L|437:96,1,38.9999988098145
286,149,133557,1,0,0:0:0:0:
284,174,133957,1,0,0:0:0:0:
195,84,134357,5,0,0:0:0:0:
169,230,134557,1,0,0:0:0:0:
167,76,134757,1,0,0:0:0:0:
196,237,134957,1,0,0:0:0:0:
137,79,135157,1,0,0:0:0:0:
226,234,135357,1,0,0:0:0:0:
64,117,135557,6,0,L|48:71,1,38.9999988098145
16,199,135957,2,0,L|18:244,1,38.9999988098145
135,314,136357,1,0,0:0:0:0:
129,187,136557,1,0,0:0:0:0:
40,336,136757,5,0,0:0:0:0:
197,121,137157,1,0,0:0:0:0:
254,358,137557,1,0,0:0:0:0:
318,235,138157,6,0,L|318:190,1,32.5
423,97,138357,2,0,L|423:141,1,32.5
435,297,138557,2,0,L|432:262,1,32.5
312,38,138757,2,0,L|312:82,1,32.5
112,38,139157,6,0,L|65:37,1,32.5
48,226,139557,2,0,B|72:184|72:184|80:32,1,195
159,164,139957,5,0,0:0:0:0:
225,3,140157,1,0,0:0:0:0:
352,136,140357,1,0,0:0:0:0:
169,70,140557,1,0,0:0:0:0:
279,220,140757,1,0,0:0:0:0:
288,35,140957,1,0,0:0:0:0:
154,198,141157,1,0,0:0:0:0:
380,215,141357,1,0,0:0:0:0:
169,70,141557,5,0,0:0:0:0:
106,71,141657,1,0,0:0:0:0:
71,123,141757,1,0,0:0:0:0:
93,182,141857,1,0,0:0:0:0:
154,197,141957,6,0,P|210:215|229:231,1,81.25
375,327,142157,2,0,P|319:344|300:360,1,81.25
468,289,142357,6,0,L|462:186,1,97.50000371933
403,25,142557,2,0,L|397:128,1,97.50000371933
375,327,142757,2,0,L|369:224,1,97.50000371933
308,23,142957,2,0,L|302:126,1,97.50000371933
158,291,143157,6,0,B|120:296|120:296|45:292,1,97.50000371933
0,138,143357,2,0,B|38:143|38:143|113:139,1,97.50000371933
159,215,143557,2,0,B|121:220|121:220|46:216,1,97.50000371933
1,62,143757,2,0,B|39:67|39:67|114:63,1,97.50000371933
253,183,143957,6,0,P|239:232|250:306,1,97.50000371933
377,226,144157,2,0,P|391:177|380:103,1,97.50000371933
218,170,144357,2,0,P|205:216|215:286,1,97.50000371933
411,238,144557,2,0,P|424:192|414:122,1,97.50000371933
300,25,144757,6,0,B|254:11|254:11|203:10,1,97.50000371933
121,169,144957,2,0,B|168:163|168:163|219:171,1,97.50000371933
272,99,145157,2,0,B|226:85|226:85|175:84,1,97.50000371933
114,262,145357,2,0,B|160:248|160:248|211:247,1,97.50000371933
411,238,145557,6,0,B|467:199|543:205|543:205|533:232|503:257,1,195
309,234,145957,2,0,B|253:195|177:201|177:201|187:228|217:253,1,195
368,307,146357,5,0,0:0:0:0:
362,159,146557,1,0,0:0:0:0:
458,312,146757,1,0,0:0:0:0:
277,326,146957,1,0,0:0:0:0:
432,213,147157,1,0,0:0:0:0:
370,384,147357,1,0,0:0:0:0:
209,246,147557,1,0,0:0:0:0:
443,125,147757,1,0,0:0:0:0:
277,326,147957,5,0,0:0:0:0:
214,341,148057,1,0,0:0:0:0:
152,323,148157,1,0,0:0:0:0:
89,309,148257,1,0,0:0:0:0:
27,325,148357,6,0,L|22:242,1,81.25
84,69,148557,2,0,L|79:152,1,81.25
196,208,148757,6,0,L|322:202,1,97.50000371933
471,149,148957,2,0,L|345:143,1,97.50000371933
183,122,149157,2,0,L|309:116,1,97.50000371933
479,237,149357,2,0,L|353:231,1,97.50000371933
92,121,149557,6,0,P|86:61|101:21,1,97.50000371933
6,202,149757,2,0,P|11:261|-3:301,1,97.50000371933
183,122,149957,2,0,P|177:62|192:22,1,97.50000371933
100,211,150157,2,0,P|105:270|90:310,1,97.50000371933
221,308,150357,6,0,B|252:297|288:279|288:279|279:320,1,97.50000371933
437,266,150557,2,0,B|406:255|370:237|370:237|379:278,1,97.50000371933
203,220,150757,2,0,B|228:199|256:169|256:169|261:211,1,97.50000371933
457,181,150957,2,0,B|431:160|403:130|403:130|398:172,1,97.50000371933
207,18,151157,6,0,B|161:6|150:29|105:18,1,97.50000371933
4,117,151357,2,0,B|49:105|60:128|105:117,1,97.50000371933
203,220,151557,2,0,B|157:208|146:231|101:220,1,97.50000371933
0,319,151757,2,0,B|45:307|56:330|101:319,1,97.50000371933
256,328,151957,6,0,B|301:332|345:314|374:279|374:279|343:276|318:258,1,195
342,86,152357,2,0,B|379:111|401:154|401:199|401:199|375:181|344:179,1,195
224,66,152757,5,0,0:0:0:0:
203,220,152957,1,0,0:0:0:0:
100,118,153157,1,0,0:0:0:0:
344,179,153357,1,0,0:0:0:0:
110,207,153557,1,0,0:0:0:0:
342,86,153757,1,0,0:0:0:0:
257,294,153957,1,0,0:0:0:0:
224,66,154157,1,0,0:0:0:0:
371,283,154357,5,0,0:0:0:0:
373,345,154457,1,0,0:0:0:0:
322,380,154557,1,0,0:0:0:0:
264,355,154657,1,0,0:0:0:0:
256,293,154757,6,0,P|254:254|235:208,1,81.25
156,369,154957,2,0,P|158:329|177:283,1,81.25
280,140,155157,6,0,L|401:131,1,97.50000371933
172,42,155357,2,0,L|293:51,1,97.50000371933
302,160,155557,2,0,L|474:147,1,97.50000371933
149,21,155757,2,0,L|321:33,1,97.50000371933
138,220,155957,6,0,P|119:169|125:98,1,97.50000371933
21,322,156157,2,0,P|40:271|34:200,1,97.50000371933
157,201,156357,2,0,P|131:132|139:36,1,97.50000371933
0,339,156557,2,0,P|25:270|17:174,1,97.50000371933
280,140,156757,6,0,B|348:152|348:152|371:176,1,97.50000371933
456,37,156957,2,0,B|388:49|388:49|365:73,1,97.50000371933
243,161,157157,2,0,B|308:173|308:173|330:196,1,97.50000371933
492,15,157357,2,0,B|424:27|424:27|401:51,1,97.50000371933
402,280,157557,6,0,L|398:380,1,97.50000371933
243,161,157757,2,0,L|247:261,1,97.50000371933
329,195,157957,2,0,L|325:295,1,97.50000371933
159,93,158157,2,0,L|163:193,1,97.50000371933
63,60,158357,6,0,P|113:0|228:24,1,195
321,82,158757,2,0,P|253:42|153:104,1,195
167,283,159157,5,0,0:0:0:0:
85,146,159357,1,0,0:0:0:0:
243,161,159557,1,0,0:0:0:0:
80,248,159757,1,0,0:0:0:0:
235,42,159957,1,0,0:0:0:0:
301,246,160157,1,0,0:0:0:0:
85,146,160357,1,0,0:0:0:0:
321,82,160557,1,0,0:0:0:0:
167,283,160757,5,0,0:0:0:0:
175,346,160857,1,0,0:0:0:0:
223,387,160957,1,0,0:0:0:0:
287,388,161057,1,0,0:0:0:0:
335,346,161157,6,0,P|349:313|392:275,1,81.25
345,180,161357,2,0,P|331:213|288:251,1,81.25
323,0,161557,6,0,P|397:5|432:16,1,97.50000371933
201,0,161757,2,0,P|127:5|92:16,1,97.50000371933
360,84,161957,2,0,P|421:125|446:152,1,97.50000371933
165,91,162157,2,0,P|109:122|84:149,1,97.50000371933
204,252,162357,6,0,B|270:240|270:240|301:245,1,97.50000371933
109,253,162557,2,0,B|43:241|43:241|12:246,1,97.50000371933
254,369,162757,2,0,B|305:325|305:325|334:314,1,97.50000371933
79,374,162957,2,0,B|27:330|27:330|-1:319,1,97.50000371933
208,171,163157,6,0,P|258:160|323:164,1,97.50000371933
255,4,163357,2,0,P|289:41|318:100,1,97.50000371933
430,1,163557,2,0,P|414:49|378:104,1,97.50000371933
489,157,163757,2,0,P|439:168|374:164,1,97.50000371933
208,171,163957,5,0,0:0:0:0:
129,156,164057,1,0,0:0:0:0:
61,197,164157,1,0,0:0:0:0:
35,272,164257,1,0,0:0:0:0:
66,346,164357,1,0,0:0:0:0:
113,280,164457,1,0,0:0:0:0:
184,243,164557,1,0,0:0:0:0:
265,244,164657,1,0,0:0:0:0:
336,281,164757,5,0,0:0:0:0:
