osu file format v14

[General]
AudioFilename: audio.mp3
AudioLeadIn: 0
PreviewTime: 61252
Countdown: 0
SampleSet: Soft
StackLeniency: 0.3
Mode: 0
LetterboxInBreaks: 0
WidescreenStoryboard: 1

[Editor]
Bookmarks: 11162,36762,62362,87962,113562,139162,164762
DistanceSpacing: 1.5
BeatDivisor: 4
GridSize: 32
TimelineZoom: 2.450001

[Metadata]
Title:Over You
TitleUnicode:Over You
Artist:Soupandreas
ArtistUnicode:Soupandreas
Creator:FruityEnLoops
Version:Hard
Source:
Tags:future bass trapstep monstercat
BeatmapID:1728013
BeatmapSetID:822647

[Difficulty]
HPDrainRate:4
CircleSize:3.5
OverallDifficulty:6
ApproachRate:8
SliderMultiplier:1.1
SliderTickRate:1

[Events]
//Background and Video events
0,0,"bg.jpg",0,0
//Break Periods
//Storyboard Layer 0 (Background)
//Storyboard Layer 1 (Fail)
//Storyboard Layer 2 (Pass)
//Storyboard Layer 3 (Foreground)
//Storyboard Sound Samples

[TimingPoints]
11157,400,4,2,0,100,1,0
11157,-200,4,2,0,100,0,0
36557,-200,4,2,0,5,0,0
36757,-133.333333333333,4,2,0,100,0,0
62357,-66.6666666666667,4,2,0,100,0,1
62657,-66.6666666666667,4,2,0,5,0,1
62757,-66.6666666666667,4,2,0,100,0,1
63057,-66.6666666666667,4,2,0,5,0,1
63157,-66.6666666666667,4,2,0,100,0,1
69057,-66.6666666666667,4,2,0,5,0,1
69157,-66.6666666666667,4,2,0,100,0,1
69457,-66.6666666666667,4,2,0,5,0,1
69557,-66.6666666666667,4,2,0,100,0,1
75457,-66.6666666666667,4,2,0,5,0,1
75557,-66.6666666666667,4,2,0,100,0,1
75857,-66.6666666666667,4,2,0,5,0,1
75957,-66.6666666666667,4,2,0,100,0,1
81857,-66.6666666666667,4,2,0,5,0,1
81957,-66.6666666666667,4,2,0,100,0,1
82257,-66.6666666666667,4,2,0,5,0,1
82357,-66.6666666666667,4,2,0,100,0,1
87957,-100,4,2,0,100,0,0
113557,-133.333333333333,4,2,0,100,0,0
139157,-66.6666666666667,4,2,0,100,0,1
164757,-100,4,2,0,100,0,0

[Colours]
Combo1 : 65,50,105
Combo2 : 65,137,86
Combo3 : 92,107,180
Combo4 : 36,125,151

[HitObjects]
88,146,11157,6,0,L|85:88,2,55
155,218,12357,1,0,0:0:0:0:
239,166,12757,1,0,0:0:0:0:
239,166,14357,5,0,0:0:0:0:
239,166,15157,6,0,B|232:240|232:240|237:277,2,110
54,238,17557,6,0,L|-4:239,1,55
20,142,18357,1,0,0:0:0:0:
115,169,18757,2,0,P|137:204|144:220,1,55
142,216,20757,5,0,0:0:0:0:
142,216,22357,5,0,0:0:0:0:
309,109,23157,6,0,L|367:111,1,55
412,197,23957,2,0,L|354:199,1,55
258,190,24757,1,0,0:0:0:0:
173,242,25157,1,0,0:0:0:0:
78,210,25557,1,0,0:0:0:0:
78,210,27157,5,0,0:0:0:0:
216,68,27957,6,0,P|295:64|327:72,2,110
370,192,30357,5,0,0:0:0:0:
273,213,30757,1,0,0:0:0:0:
179,181,31157,2,0,L|120:190,1,55
27,209,31957,1,0,0:0:0:0:
27,209,33557,5,0,0:0:0:0:
27,209,35157,5,0,0:0:0:0:
256,192,35257,12,0,36557,0:0:0:0:
188,119,36757,6,0,P|142:103|118:273,1,288.750011014939
180,317,38357,2,0,L|181:372,1,41.2500015735627
267,331,38757,2,0,L|268:276,1,41.2500015735627
307,207,39157,1,0,0:0:0:0:
391,240,39357,1,0,0:0:0:0:
422,155,39557,1,0,0:0:0:0:
506,188,39757,1,0,0:0:0:0:
480,274,39957,6,0,P|454:306|402:327,1,82.5000031471254
327,333,40557,2,0,P|336:282|403:237,1,123.750004720688
325,36,43157,6,0,B|307:10|273:1|245:16|245:16|218:31|207:65|219:93|219:93|259:95|291:126|294:165|294:165,1,288.750011014939
313,252,44757,2,0,L|312:305,1,41.2500015735627
230,334,45157,2,0,L|229:281,1,41.2500015735627
144,326,45557,2,0,L|143:379,1,41.2500015735627
53,353,45957,1,0,0:0:0:0:
16,268,46157,1,0,0:0:0:0:
37,179,46357,6,0,P|45:148|46:129,1,41.2500015735627
62,49,46757,2,0,P|101:78|211:40,1,165.000006294251
204,48,47957,1,0,0:0:0:0:
220,63,48757,1,0,0:0:0:0:
398,205,49557,6,0,B|411:223|412:248|399:268|399:268|388:288|365:298|342:295|342:295|319:291|301:274|295:251|295:251|290:228|299:205|299:205|281:224|255:235,1,288.750011014939
186,268,51157,2,0,P|157:272|128:272,1,41.2500015735627
103,353,51557,2,0,P|132:357|161:357,1,41.2500015735627
234,346,51957,1,0,0:0:0:0:
319,377,52157,1,0,0:0:0:0:
404,347,52357,2,0,L|457:346,1,41.2500015735627
459,256,52757,6,0,B|443:220|443:220|439:187,1,61.875002360344
416,158,53157,2,0,B|396:155|396:155|326:161,1,82.5000031471254
318,175,53957,1,0,0:0:0:0:
303,190,54357,1,0,0:0:0:0:
288,205,54757,1,0,0:0:0:0:
273,220,55157,1,0,0:0:0:0:
258,235,55557,1,0,0:0:0:0:
80,196,55957,6,0,B|80:147|80:147|65:111,1,82.5000031471254
65,95,56757,1,0,0:0:0:0:
67,77,57157,1,0,0:0:0:0:
151,42,57557,6,0,L|211:37,1,41.2500015735627
225,123,57957,2,0,L|165:118,1,41.2500015735627
117,181,58357,1,0,0:0:0:0:
158,261,58557,1,0,0:0:0:0:
83,312,58757,2,0,L|25:312,1,41.2500015735627
50,222,59157,6,0,P|84:188|125:181,1,82.5000031471254
274,271,59957,1,0,0:0:0:0:
274,90,60357,1,0,0:0:0:0:
116,180,60757,1,0,0:0:0:0:
360,39,62357,6,0,L|498:38,1,123.750004720688
486,128,62757,2,0,L|348:127,1,123.750004720688
288,180,63157,2,0,L|197:188,1,82.5000031471254
189,268,63557,2,0,L|280:276,1,82.5000031471254
353,283,63957,5,0,0:0:0:0:
384,206,64157,1,0,0:0:0:0:
362,127,64357,2,0,P|343:82|307:40,1,82.5000031471254
390,7,64757,2,0,P|428:1|486:13,1,82.5000031471254
502,34,65057,1,0,0:0:0:0:
502,34,65157,1,0,0:0:0:0:
496,116,65357,1,0,0:0:0:0:
460,217,65557,5,0,0:0:0:0:
460,217,65757,2,0,L|457:284,1,41.2500015735627
433,291,65957,1,0,0:0:0:0:
272,330,66357,6,0,L|269:263,1,41.2500015735627
245,256,66557,1,0,0:0:0:0:
89,202,66957,6,0,L|22:205,1,41.2500015735627
15,229,67157,1,0,0:0:0:0:
112,95,67557,6,0,L|179:98,1,41.2500015735627
186,122,67757,1,0,0:0:0:0:
260,158,67957,2,0,P|295:128|339:111,1,82.5000031471254
388,171,68357,2,0,P|387:228|372:278,1,82.5000031471254
310,294,68757,6,0,P|387:289|443:308,1,123.750004720688
496,224,69157,2,0,P|431:181|373:169,1,123.750004720688
306,178,69557,2,0,P|256:186|210:179,1,82.5000031471254
150,146,69957,2,0,P|100:138|54:145,1,82.5000031471254
13,203,70357,5,0,0:0:0:0:
54,274,70557,1,0,0:0:0:0:
136,282,70757,2,0,P|191:289|220:306,1,82.5000031471254
292,328,71157,2,0,P|347:331|379:325,1,82.5000031471254
404,298,71457,1,0,0:0:0:0:
404,298,71557,1,0,0:0:0:0:
421,217,71757,1,0,0:0:0:0:
402,136,71957,5,0,0:0:0:0:
402,136,72157,2,0,P|377:131|349:129,1,41.2500015735627
335,97,72357,1,0,0:0:0:0:
170,90,72757,6,0,P|195:85|223:83,1,41.2500015735627
237,51,72957,1,0,0:0:0:0:
267,213,73357,5,0,0:0:0:0:
267,213,73457,1,0,0:0:0:0:
267,213,73557,1,0,0:0:0:0:
106,173,73957,5,0,0:0:0:0:
106,173,74057,1,0,0:0:0:0:
106,173,74157,1,0,0:0:0:0:
113,255,74357,2,0,L|115:338,1,82.5000031471254
197,344,74757,2,0,P|239:340|286:350,1,82.5000031471254
308,261,75157,6,0,B|301:199|301:199|308:137,1,123.750004720688
391,141,75557,2,0,B|384:202|384:202|391:264,1,123.750004720688
360,341,75957,2,0,P|316:347|274:346,1,82.5000031471254
199,322,76357,2,0,P|155:316|113:317,1,82.5000031471254
52,265,76757,5,0,0:0:0:0:
87,190,76957,1,0,0:0:0:0:
165,213,77157,2,0,P|222:218|256:213,1,82.5000031471254
276,138,77557,2,0,L|288:38,1,82.5000031471254
319,31,77857,1,0,0:0:0:0:
319,31,77957,1,0,0:0:0:0:
398,51,78157,1,0,0:0:0:0:
433,125,78357,5,0,0:0:0:0:
433,125,78557,2,0,P|423:154|421:178,1,41.2500015735627
424,205,78757,1,0,0:0:0:0:
339,346,79157,6,0,P|329:317|327:293,1,41.2500015735627
330,266,79357,1,0,0:0:0:0:
240,127,79757,6,0,P|230:156|228:180,1,41.2500015735627
231,207,79957,1,0,0:0:0:0:
146,348,80357,6,0,P|136:319|134:295,1,41.2500015735627
137,268,80557,1,0,0:0:0:0:
87,201,80757,2,0,P|59:190|-6:190,1,82.5000031471254
3,104,81157,2,0,L|95:108,1,82.5000031471254
168,80,81557,6,0,B|208:80|208:80|249:91|249:91|289:91,1,123.750004720688
284,174,81957,2,0,B|243:174|243:174|202:162|202:162|162:162,1,123.750004720688
87,201,82357,2,0,L|92:291,1,82.5000031471254
156,334,82757,2,0,P|210:337|248:331,1,82.5000031471254
317,312,83157,5,0,0:0:0:0:
397,328,83357,1,0,0:0:0:0:
477,311,83557,2,0,P|477:263|470:222,1,82.5000031471254
432,156,83957,2,0,P|430:107|448:60,1,82.5000031471254
461,40,84257,1,0,0:0:0:0:
461,40,84357,1,0,0:0:0:0:
382,15,84557,1,0,0:0:0:0:
306,48,84757,5,0,0:0:0:0:
306,48,84957,2,0,L|246:51,1,41.2500015735627
229,71,85157,1,0,0:0:0:0:
86,153,85557,6,0,L|146:150,1,41.2500015735627
163,130,85757,1,0,0:0:0:0:
32,29,86157,5,0,0:0:0:0:
32,29,86257,1,0,0:0:0:0:
32,29,86357,1,0,0:0:0:0:
6,191,86757,5,0,0:0:0:0:
6,191,86857,1,0,0:0:0:0:
6,191,86957,1,0,0:0:0:0:
59,253,87157,2,0,L|144:254,1,82.5000031471254
211,209,87557,2,0,L|296:208,1,82.5000031471254
330,227,87857,1,0,0:0:0:0:
330,227,87957,6,0,L|405:226,1,55
454,156,88357,2,0,P|420:143|382:139,1,55
315,90,88757,2,0,P|306:66|306:26,1,55
208,61,89157,2,0,L|214:136,1,55
131,172,89557,6,0,P|76:166|17:169,1,110
189,273,90357,2,0,P|229:240|245:216,1,55
313,184,90757,1,0,0:0:0:0:
404,222,90957,1,0,0:0:0:0:
417,320,91157,6,0,P|386:320|321:274,1,110
313,184,91757,1,0,0:0:0:0:
314,85,91957,2,0,P|311:53|303:22,1,55
215,73,92357,2,0,L|151:73,1,55
66,105,92757,6,0,P|86:135|98:169,1,55
165,220,93157,2,0,L|219:226,1,55
226,324,93557,2,0,L|172:330,1,55
76,309,93957,1,0,0:0:0:0:
11,234,94157,1,0,0:0:0:0:
11,234,94257,1,0,0:0:0:0:
11,234,94357,6,0,L|8:158,1,55
95,131,94757,2,0,L|92:207,1,55
170,246,95157,2,0,P|210:245|244:238,1,55
317,207,95557,2,0,P|357:208|391:215,1,55
421,124,95957,6,0,P|410:82|412:50,1,55
317,33,96357,1,0,0:0:0:0:
224,67,96557,1,0,0:0:0:0:
124,36,96757,2,0,L|55:44,1,55
19,127,97157,2,0,L|88:135,1,55
149,197,97557,6,0,P|141:255|156:313,1,110
243,343,98157,1,0,0:0:0:0:
324,286,98357,2,0,L|386:277,1,55
439,356,98757,2,0,L|493:363,1,55
479,265,99157,6,0,P|463:211|477:155,1,110
466,61,99757,1,0,0:0:0:0:
374,97,99957,2,0,L|303:100,1,55
233,47,100357,2,0,P|222:89|224:122,1,55
237,147,100657,1,0,0:0:0:0:
237,147,100757,6,0,L|171:162,1,55
89,191,101157,2,0,P|111:226|141:249,1,55
178,315,101557,2,0,L|106:324,1,55
29,354,101957,2,0,P|23:324|31:282,1,55
2,203,102357,6,0,P|7:152|-8:71,1,110
81,37,102957,1,0,0:0:0:0:
162,93,103157,2,0,P|199:93|235:86,1,55
311,62,103557,2,0,P|348:62|384:69,1,55
448,119,103957,6,0,P|439:190|451:253,1,110
487,316,104557,1,0,0:0:0:0:
393,348,104757,2,0,P|352:349|326:347,1,55
241,323,105157,2,0,P|200:322|174:324,1,55
148,230,105557,6,0,P|189:231|215:229,1,55
300,205,105957,2,0,P|341:204|367:206,1,55
320,111,106357,2,0,P|265:115|212:160,1,110
156,71,106957,1,0,0:0:0:0:
156,71,107057,1,0,0:0:0:0:
156,71,107157,6,0,L|203:15,1,55
96,0,107557,2,0,P|72:26|64:44,1,55
63,142,107957,2,0,L|66:209,1,55
75,295,108357,2,0,P|113:286|143:289,1,55
221,323,108757,6,0,P|259:322|334:275,1,110
332,190,109357,1,0,0:0:0:0:
404,256,109557,2,0,P|407:284|404:333,1,55
501,340,109957,2,0,P|504:312|501:263,1,55
477,189,110357,6,0,P|459:148|465:71,1,110
379,26,110957,1,0,0:0:0:0:
297,82,111157,2,0,P|261:86|230:85,1,55
144,65,111557,2,0,P|108:61|77:62,1,55
21,134,111957,6,0,L|23:196,1,55
112,230,112357,2,0,L|114:168,1,55
205,211,112757,2,0,L|201:283,2,55
297,174,113357,1,0,0:0:0:0:
297,174,113457,1,0,0:0:0:0:
297,174,113557,6,0,B|312:163|331:161|349:166|349:166|367:171|381:185|387:202|387:202|399:238|427:267|464:278|464:278|467:264|465:249|455:238|455:238|446:227|432:221|418:222,1,288.750011014939
447,134,115157,2,0,L|448:83,1,41.2500015735627
369,45,115557,2,0,L|370:96,1,41.2500015735627
279,70,115957,1,0,0:0:0:0:
196,108,116157,1,0,0:0:0:0:
113,71,116357,1,0,0:0:0:0:
30,109,116557,1,0,0:0:0:0:
78,186,116757,6,0,P|87:219|76:278,1,82.5000031471254
27,339,117357,2,0,P|68:351|151:324,1,123.750004720688
243,31,119957,6,0,B|216:17|183:19|157:34|157:34|142:45|123:48|105:43|105:43|87:37|73:24|67:6|67:6|55:34|31:56|1:66,1,288.750011014939
20,154,121557,2,0,P|22:190|20:212,1,41.2500015735627
107,226,121957,2,0,P|109:190|107:168,1,41.2500015735627
194,154,122357,2,0,P|196:190|194:212,1,41.2500015735627
281,226,122757,1,0,0:0:0:0:
369,207,122957,1,0,0:0:0:0:
439,264,123157,6,0,P|433:295|434:340,1,61.875002360344
395,352,123557,2,0,P|359:347|304:357,1,82.5000031471254
299,364,124757,1,0,0:0:0:0:
284,379,125557,1,0,0:0:0:0:
148,93,126357,6,0,B|172:97|196:96|220:89|220:89|208:123|215:161|237:188|237:188|255:187|274:177|285:162|285:162|296:146|298:127|293:108,1,288.750011014939
332,27,127957,2,0,L|378:29,1,41.2500015735627
425,103,128357,2,0,L|471:101,1,41.2500015735627
494,187,128757,1,0,0:0:0:0:
459,270,128957,1,0,0:0:0:0:
369,256,129157,1,0,0:0:0:0:
334,339,129357,1,0,0:0:0:0:
243,335,129557,6,0,P|205:337|154:323,1,82.5000031471254
125,300,130057,2,0,L|125:224,1,61.875002360344
119,218,130757,1,0,0:0:0:0:
113,198,131157,1,0,0:0:0:0:
107,178,131557,1,0,0:0:0:0:
101,158,131957,1,0,0:0:0:0:
95,138,132357,1,0,0:0:0:0:
95,138,132557,1,0,0:0:0:0:
95,138,132757,6,0,L|88:78,1,41.2500015735627
176,67,133157,2,0,L|183:7,1,41.2500015735627
266,54,133557,1,0,0:0:0:0:
266,54,133957,1,0,0:0:0:0:
266,54,134357,6,0,P|292:47|314:48,1,41.2500015735627
372,108,134757,2,0,P|398:115|420:114,1,41.2500015735627
494,75,135157,1,0,0:0:0:0:
494,75,135557,2,0,L|500:124,1,41.2500015735627
475,204,135957,5,0,0:0:0:0:
385,362,136357,1,0,0:0:0:0:
294,204,136757,1,0,0:0:0:0:
133,289,137157,2,0,P|100:288|74:283,1,41.2500015735627
21,229,137557,5,0,0:0:0:0:
385,66,139157,5,0,0:0:0:0:
385,66,139557,2,0,B|382:161|382:161|395:198,1,123.750004720688
406,278,139957,2,0,L|308:293,1,82.5000031471254
247,321,140357,2,0,L|149:306,1,82.5000031471254
101,255,140757,5,0,0:0:0:0:
26,291,140957,1,0,0:0:0:0:
6,210,141157,2,0,P|5:164|-5:118,1,82.5000031471254
19,48,141557,2,0,P|61:44|112:54,1,82.5000031471254
139,66,141857,1,0,0:0:0:0:
139,66,141957,1,0,0:0:0:0:
215,96,142157,1,0,0:0:0:0:
276,33,142357,5,0,0:0:0:0:
288,181,142557,1,0,0:0:0:0:
416,106,142757,1,0,0:0:0:0:
404,253,142957,1,0,0:0:0:0:
505,145,143157,2,0,P|515:92|503:50,1,82.5000031471254
364,28,143557,1,0,0:0:0:0:
373,176,143757,1,0,0:0:0:0:
268,281,143957,6,0,B|215:291|215:291|172:308,1,82.5000031471254
288,191,144357,1,0,0:0:0:0:
340,335,144557,1,0,0:0:0:0:
200,384,144757,2,0,L|107:383,1,82.5000031471254
126,234,145157,1,0,0:0:0:0:
268,281,145357,1,0,0:0:0:0:
392,200,145557,6,0,P|441:189|492:118,1,123.750004720688
443,65,145957,2,0,P|394:76|343:147,1,123.750004720688
271,163,146357,2,0,L|185:157,1,82.5000031471254
107,172,146757,1,0,0:0:0:0:
36,129,146957,1,0,0:0:0:0:
4,205,147157,6,0,B|6:248|6:248|15:286,1,82.5000031471254
95,305,147557,1,0,0:0:0:0:
169,270,147757,1,0,0:0:0:0:
246,297,147957,2,0,L|334:301,1,82.5000031471254
362,276,148257,1,0,0:0:0:0:
362,276,148357,1,0,0:0:0:0:
392,200,148557,1,0,0:0:0:0:
275,107,148757,5,0,0:0:0:0:
135,156,148957,1,0,0:0:0:0:
48,35,149157,1,0,0:0:0:0:
188,84,149357,1,0,0:0:0:0:
177,232,149557,2,0,P|175:268|183:333,1,82.5000031471254
276,200,149957,1,0,0:0:0:0:
135,156,150157,1,0,0:0:0:0:
84,295,150357,6,0,P|83:342|85:387,1,82.5000031471254
29,238,150757,1,0,0:0:0:0:
177,232,150957,1,0,0:0:0:0:
305,306,151157,2,0,P|339:309|393:306,1,82.5000031471254
261,213,151557,1,0,0:0:0:0:
215,348,151757,1,0,0:0:0:0:
354,219,151957,6,0,B|354:188|338:158|338:158|338:128|354:98,1,123.750004720688
260,93,152357,2,0,B|245:121|245:151|245:151|260:181|260:212,1,123.750004720688
177,232,152757,2,0,L|86:232,1,82.5000031471254
42,167,153157,1,0,0:0:0:0:
55,85,153357,1,0,0:0:0:0:
129,120,153557,6,0,P|162:120|223:107,1,82.5000031471254
267,50,153957,1,0,0:0:0:0:
349,46,154157,1,0,0:0:0:0:
375,124,154357,2,0,L|372:213,1,82.5000031471254
392,243,154657,1,0,0:0:0:0:
392,243,154757,1,0,0:0:0:0:
462,200,154957,1,0,0:0:0:0:
480,118,155157,5,0,0:0:0:0:
349,46,155357,1,0,0:0:0:0:
226,129,155557,1,0,0:0:0:0:
375,124,155757,1,0,0:0:0:0:
254,36,155957,2,0,L|150:41,1,82.5000031471254
78,156,156357,1,0,0:0:0:0:
225,137,156557,1,0,0:0:0:0:
91,71,156757,6,0,P|47:80|11:101,1,82.5000031471254
53,241,157157,1,0,0:0:0:0:
152,130,157357,1,0,0:0:0:0:
145,278,157557,2,0,L|144:382,1,82.5000031471254
53,241,157957,1,0,0:0:0:0:
198,209,158157,1,0,0:0:0:0:
330,275,158357,6,0,P|392:277|463:252,1,123.750004720688
440,176,158757,2,0,P|378:174|307:199,1,123.750004720688
272,123,159157,2,0,L|280:29,1,82.5000031471254
197,56,159557,2,0,L|190:138,1,82.5000031471254
108,154,159957,5,0,0:0:0:0:
53,216,160157,1,0,0:0:0:0:
93,288,160357,1,0,0:0:0:0:
175,271,160557,1,0,0:0:0:0:
237,218,160757,2,0,P|276:192|319:183,1,82.5000031471254
351,191,161057,1,0,0:0:0:0:
351,191,161157,1,0,0:0:0:0:
431,174,161357,1,0,0:0:0:0:
456,320,161557,5,0,0:0:0:0:
312,281,161757,1,0,0:0:0:0:
203,382,161957,1,0,0:0:0:0:
351,368,162157,1,0,0:0:0:0:
218,301,162357,2,0,L|119:291,1,82.5000031471254
226,173,162757,1,0,0:0:0:0:
312,281,162957,1,0,0:0:0:0:
357,139,163157,6,0,P|376:99|406:66,1,82.5000031471254
252,60,163557,1,0,0:0:0:0:
303,200,163757,1,0,0:0:0:0:
155,215,163957,2,0,L|54:215,1,82.5000031471254
36,193,164257,1,0,0:0:0:0:
36,193,164357,1,0,0:0:0:0:
183,119,164557,1,0,0:0:0:0:
217,280,164757,5,0,0:0:0:0:
