osu file format v14

[General]
AudioFilename: audio.ogg
AudioLeadIn: 0
PreviewTime: 52510
Countdown: 0
SampleSet: Drum
StackLeniency: 0.7
Mode: 2
LetterboxInBreaks: 0
WidescreenStoryboard: 0

[Editor]
DistanceSpacing: 1.5
BeatDivisor: 4
GridSize: 4
TimelineZoom: 1.5

[Metadata]
Title:Black Hole Sun
TitleUnicode:Black Hole Sun
Artist:Soundgarden
ArtistUnicode:Soundgarden
Creator:050
Version:Hang my head, drown my fear, till you all just disappear...
Source:
Tags:nudedragons english male vocal vocals vocalist grunge alternative psychedelic stoner hard rock superunknown michael beinhorn 1994 song song_7 track_7 7 7th chris cornell kim thayil hiro yamamoto ben shepherd matt cameron bighzonda bigh zonda
BeatmapID:4306424
BeatmapSetID:2060198

[Difficulty]
HPDrainRate:6
CircleSize:5
OverallDifficulty:8
ApproachRate:8
SliderMultiplier:2.3
SliderTickRate:0.5

[Events]
//Background and Video events
0,0,"black hole sun.jpg",0,0
//Break Periods
2,208055,216018
//Storyboard Layer 0 (Background)
//Storyboard Layer 1 (Fail)
//Storyboard Layer 2 (Pass)
//Storyboard Layer 3 (Foreground)
//Storyboard Layer 4 (Overlay)
//Storyboard Sound Samples

[TimingPoints]
60,584.795321637428,4,2,1,10,1,0
2410,547.945205479452,4,2,1,10,1,0
2957,618.556701030927,4,2,1,10,1,0
3266,594.059405940594,4,2,1,10,1,0
4780,564.705882352941,4,2,1,10,1,0
6474,540.540540540541,4,2,1,10,1,0
6744,576.923076923077,4,2,1,10,1,0
7032,555.555555555556,4,2,1,10,1,0
7879,592.592592592593,4,2,1,10,1,0
9360,576.923076923077,4,2,1,10,1,0
9936,599.101347978033,4,2,1,10,1,0
10834,576.923076923077,4,2,1,10,1,0
11699,540.540540540541,4,2,1,10,1,0
12550,589.101620029455,4,2,1,10,1,0
12550,-303.030303030303,4,2,1,10,0,0
15495,575.705238917674,4,3,1,10,1,0
15495,-303.030303030303,4,3,1,10,0,0
15781,571.428571428571,4,3,1,60,1,0
16209,-100,4,3,1,5,0,0
16352,585.365853658537,4,3,1,60,1,0
17522,570.071258907364,4,3,1,60,1,0
18662,570.071258907364,4,3,1,60,1,0
19802,566.037735849057,4,3,1,60,1,0
20368,550.45871559633,4,3,1,60,1,0
20928,582.52427184466,4,3,1,60,1,0
22095,570.071258907364,4,3,1,60,1,0
23235,571.428571428572,4,3,1,60,1,0
23806,594.059405940594,4,3,1,60,1,0
24399,555.555555555556,4,3,1,60,1,0
24954,540.540540540541,4,3,1,60,1,0
25527,555.555555555556,4,3,1,60,1,0
26082,582.241630276565,4,3,1,60,1,0
26373,600,4,3,1,60,1,0
26673,566.037735849057,4,3,1,60,1,0
27806,582.52427184466,4,3,1,60,1,0
28971,562.060889929742,4,3,1,60,1,0
30095,574.162679425837,4,3,1,60,1,0
32391,579.710144927536,4,3,1,60,1,0
33840,585.365853658536,4,3,1,60,1,0
34571,-100,4,3,1,5,0,0
34709,585.365853658536,4,3,1,60,1,0
35879,582.52427184466,4,3,1,60,1,0
37032,560.747663551401,4,3,1,60,1,0
38153,576.923076923077,4,3,1,60,1,0
39306,566.037735849056,4,3,1,60,1,0
40438,574.162679425837,4,3,1,60,1,0
41586,585.365853658536,4,3,1,60,1,0
42756,564.440263405456,4,3,1,60,1,0
43884,576.923076923077,4,3,1,60,1,0
47345,571.428571428572,4,3,1,60,1,0
48487,571.428571428572,4,3,1,60,1,0
50201,560.747663551402,4,3,1,60,1,0
50761,588.235294117648,4,3,1,60,1,0
51349,580.832526621491,4,3,1,60,1,0
53091,591.133004926108,4,3,1,60,1,0
53682,566.037735849057,4,3,1,60,1,0
54531,576.923076923077,4,3,1,60,1,0
55252,-100,4,3,1,5,0,0
55396,582.52427184466,4,3,1,80,1,0
56561,571.428571428571,4,3,1,80,1,0
57703,555.555555555555,4,3,1,80,1,0
58814,582.52427184466,4,3,1,80,1,0
59105,563.380281690141,4,3,1,80,1,0
59809,-100,4,3,1,5,0,0
59943,564.705882352941,4,3,1,80,1,0
61072,571.428571428571,4,3,1,80,1,0
62214,563.380281690141,4,3,1,80,1,0
62777,550.45871559633,4,3,1,80,1,0
63052,563.380281690141,4,3,1,80,1,0
64460,612.244897959183,4,3,1,80,1,0
65072,571.428571428571,4,3,1,80,1,0
65625,550.458715596331,4,3,1,80,1,0
66725,571.428571428572,4,3,1,80,1,0
67867,560.747663551403,4,3,1,80,1,0
68708,550.458715596331,4,3,1,80,1,0
68983,582.524271844661,4,3,1,80,1,0
69856,512.820512820513,4,3,1,80,1,0
70112,550.45871559633,4,3,1,80,1,0
70662,571.428571428572,4,3,1,80,1,0
71221,575.263662511985,4,3,1,80,1,0
71221,-303.030303030303,4,3,1,80,0,0
74960,550.45871559633,4,3,1,80,1,0
75648,-100,4,3,1,5,0,0
75785,574.162679425837,4,3,1,60,1,0
76646,582.52427184466,4,3,1,60,1,0
78081,574.162679425837,4,3,1,60,1,0
79229,582.52427184466,4,3,1,60,1,0
80377,574.162679425837,4,3,1,60,1,0
81526,563.38028169014,4,3,1,60,1,0
82652,574.162679425836,4,3,1,60,1,0
83800,563.38028169014,4,3,1,60,1,0
84926,571.428571428571,4,3,1,60,1,0
86068,566.037735849056,4,3,1,60,1,0
87200,581.395348837209,4,3,1,60,1,0
88362,566.037735849057,4,3,1,60,1,0
89494,574.162679425837,4,3,1,60,1,0
90642,563.380281690141,4,3,1,60,1,0
91768,587.659157688541,4,3,1,60,1,0
93237,566.037735849056,4,3,1,60,1,0
93944,-100,4,3,1,5,0,0
94086,574.162679425837,4,3,1,60,1,0
95234,594.059405940594,4,3,1,60,1,0
96390,582.52427184466,4,3,1,60,1,0
97555,571.428571428571,4,3,1,60,1,0
98697,571.428571428571,4,3,1,60,1,0
102125,562.32427366448,4,3,1,60,1,0
103249,588.235294117647,4,3,1,60,1,0
104425,571.428571428571,4,3,1,60,1,0
105567,571.428571428571,4,3,1,60,1,0
107853,582.52427184466,4,3,1,60,1,0
109600,550.45871559633,4,3,1,60,1,0
110150,566.037735849056,4,3,1,60,1,0
110716,571.428571428571,4,3,1,60,1,0
112430,559.701492537313,4,3,1,60,1,0
113549,566.304860783388,4,3,1,60,1,0
114681,585.365853658537,4,3,1,80,1,0
115838,571.428571428571,4,3,1,80,1,0
116980,571.428571428571,4,3,1,80,1,0
118122,566.037735849057,4,3,1,80,1,0
119254,566.037735849057,4,3,1,80,1,0
120386,571.428571428571,4,3,1,80,1,0
121528,582.52427184466,4,3,1,80,1,0
122693,560.747663551401,4,3,1,80,1,0
123814,574.162679425837,4,3,1,80,1,0
124962,560.747663551401,4,3,1,80,1,0
126644,576.923076923076,4,3,1,80,1,0
127220,566.037735849056,4,3,1,80,1,0
128352,588.235294117647,4,3,1,80,1,0
129234,550.45871559633,4,3,1,80,1,0
129509,560.747663551401,4,3,1,80,1,0
131471,530.973451327433,4,3,1,80,1,0
131736,550.45871559633,4,3,1,80,1,0
131873,576.923076923077,4,3,1,80,1,0
132305,576.923076923077,4,3,1,80,1,0
132862,576.923076923077,4,3,1,80,1,0
134015,566.037735849056,4,3,1,80,1,0
135147,571.428571428571,4,3,1,80,1,0
136289,560.747663551402,4,3,1,80,1,0
137410,576.923076923077,4,3,1,80,1,0
139717,566.037735849057,4,3,1,80,1,0
140283,594.059405940595,4,3,1,80,1,0
140728,571.428571428572,4,3,1,80,1,0
140870,550.458715596331,4,3,1,80,1,0
141394,560.747663551402,4,3,1,80,1,0
141954,570.342205323194,4,3,1,80,1,0
146516,560.747663551402,4,3,1,80,1,0
147917,540.540540540541,4,3,1,80,1,0
148758,567.10775047259,4,3,1,80,1,0
151026,560.224089635854,4,3,1,80,1,0
153266,562.851782363977,4,3,1,80,1,0
156643,558.91942244993,4,3,1,80,1,0
158878,563.380281690141,4,3,1,80,1,0
159429,571.428571428571,4,3,1,80,1,0
159714,588.235294117647,4,3,1,80,1,0
160008,571.428571428571,4,3,1,80,1,0
161142,560.747663551401,4,3,1,80,1,0
162263,576.923076923076,4,3,1,80,1,0
163416,552.486187845304,4,3,1,80,1,0
164520,552.486187845304,4,3,1,80,1,0
166729,571.428571428571,4,3,1,80,1,0
167871,545.454545454545,4,3,1,80,1,0
168961,555.555555555555,4,3,1,80,1,0
171183,560.747663551402,4,3,1,80,1,0
172304,550.45871559633,4,3,1,80,1,0
173267,-100,4,3,1,5,0,0
173404,571.428571428571,9,3,1,70,1,0
174546,535.714285714286,9,3,1,70,1,0
175885,550.45871559633,9,3,1,70,1,0
176160,550.45871559633,9,3,1,70,1,0
178361,556.586270871985,9,3,1,70,1,0
180587,540.540540540541,9,3,1,70,1,0
181668,557.620817843866,9,3,1,70,1,0
183340,545.454545454546,9,3,1,70,1,0
186612,560.747663551402,9,3,1,70,1,0
188294,542.986425339367,9,3,1,70,1,0
192094,571.428571428571,9,3,1,70,1,0
192665,540.54054054054,9,3,1,70,1,0
193205,566.037735849057,9,3,1,70,1,0
194030,550.45871559633,9,3,1,70,1,0
194580,495.867768595041,9,3,1,70,1,0
194703,638.297872340425,9,3,1,70,1,0
194862,550.45871559633,9,3,1,70,1,0
195412,560.747663551402,9,3,1,70,1,0
195692,535.714285714285,9,3,1,70,1,0
196227,550.45871559633,9,3,1,70,1,0
197603,571.428571428571,9,3,1,70,1,0
198031,-100,9,3,1,5,0,0
198174,526.315789473684,9,3,1,70,1,0
198174,-100,9,3,1,70,0,0
198437,560.747663551402,9,3,1,70,1,0
198717,576.923076923077,9,3,1,70,1,0
199005,566.037735849056,9,3,1,70,1,0
199830,540.54054054054,9,3,1,70,1,0
200640,555.555555555556,9,3,1,70,1,0
201473,552.995391705069,9,3,1,70,1,0
202993,-100,9,3,1,5,0,0
203131,576.923076923077,4,3,1,70,1,0
203419,600,4,3,1,70,1,0
203719,574.162679425838,4,3,1,70,1,0
204006,-100,4,3,1,40,0,0
207738,659.34065934066,4,3,1,50,1,0
208055,533.333333333334,4,3,1,50,1,0
208588,560.747663551402,4,3,1,50,1,0
209148,576.923076923078,4,3,1,50,1,0
210013,560.747663551402,4,3,1,50,1,0
212255,545.454545454546,4,3,1,50,1,0
213073,600,4,3,1,50,1,0
213673,571.428571428572,4,3,1,50,1,0
214530,530.973451327434,4,3,1,50,1,0
215326,576.923076923077,4,3,1,50,1,0
216768,740.740740740741,4,3,1,60,1,0
217138,370.37037037037,4,3,1,60,1,0
217323,508.474576271186,4,3,1,60,1,0
217577,545.454545454545,4,3,1,60,1,0
218122,571.428571428571,4,3,1,60,1,0
218834,-100,4,3,1,5,0,0
218979,576.923076923076,4,3,1,80,1,1
220132,558.13953488372,4,3,1,80,1,1
221248,576.923076923076,4,3,1,80,1,1
222401,545.454545454546,4,3,1,80,1,1
222673,582.52427184466,4,3,1,80,1,1
223546,574.162679425837,4,3,1,80,1,1
224120,560.747663551402,4,3,1,80,1,1
224680,568.720379146919,4,3,1,80,1,1
225811,552.995391705069,4,3,1,80,1,1
226916,571.428571428571,4,3,1,80,1,1
228058,571.428571428571,4,3,1,80,1,1
229200,560.747663551401,4,3,1,80,1,1
230321,568.720379146919,4,3,1,80,1,1
231458,545.454545454545,4,3,1,80,1,1
231730,571.428571428571,4,3,1,80,1,1
232587,566.037735849056,4,3,1,80,1,1
233436,582.52427184466,4,3,1,80,1,1
233711,555.555555555555,4,3,1,80,1,1
234266,560.747663551401,4,3,1,80,1,1
234826,576.923076923076,4,3,1,80,1,1
235933,545.454545454545,4,3,1,80,1,1
237023,574.162679425836,4,3,1,80,1,1
238171,550.458715596329,4,3,1,80,1,1
239271,574.162679425836,4,3,1,80,1,1
240419,558.139534883719,4,3,1,80,1,1
241535,555.041628122109,4,3,1,80,1,1
242645,560.747663551401,4,3,1,80,1,1
243766,540.54054054054,4,3,1,80,1,1
244326,560.747663551401,4,3,1,80,1,1
245161,552.995391705068,4,3,1,80,1,1
245990,571.428571428571,4,3,1,80,1,1
247132,555.555555555555,4,3,1,80,1,1
248243,566.037735849056,4,3,1,80,1,1
249375,545.454545454545,4,3,1,80,1,1
250193,599.999999999999,4,3,1,80,1,1
250493,571.428571428571,4,3,1,80,1,1
251635,555.555555555555,4,3,1,80,1,1
252746,563.38028169014,4,3,1,80,1,1
254999,526.315789473684,4,3,1,80,1,1
255525,574.162679425837,4,3,1,80,1,1
256099,550.45871559633,4,3,1,80,1,1
256924,606.060606060606,4,3,1,80,1,1
257227,566.037735849056,4,3,1,80,1,1
258359,555.555555555555,4,3,1,80,1,1
259470,566.037735849056,4,3,1,80,1,1
260602,550.45871559633,4,3,1,80,1,1
261702,560.747663551401,4,3,1,80,1,1
262262,552.995391705069,4,3,1,80,1,1
263367,594.059405940593,4,3,1,80,1,1
263961,566.037735849056,4,3,1,80,1,1
265093,550.45871559633,4,3,1,80,1,1
266193,566.037735849056,4,3,1,80,1,1
268457,535.714285714286,4,3,1,80,1,1
268992,517.241379310345,4,3,1,80,1,1
269509,540.54054054054,4,3,1,80,1,1
270049,535.714285714285,4,3,1,80,1,1
270570,550.964187327824,4,3,1,80,1,1
277181,558.139534883721,4,3,1,80,1,1
280529,549.954170485793,4,3,1,80,1,1
281628,549.954170485793,4,3,1,80,1,1
283828,566.037735849057,4,3,1,80,1,1
284960,547.945205479453,4,3,1,80,1,1
286055,547.945205479453,4,3,1,80,1,1
287150,538.116591928251,4,3,1,80,1,1
288226,544.21768707483,4,3,1,80,1,1
290402,571.428571428572,4,3,1,80,1,1
291544,545.454545454546,4,3,1,80,1,1
292634,550.458715596331,4,3,1,80,1,1
297037,560.747663551403,4,3,1,80,1,1
298158,550.458715596331,4,3,1,80,1,1
299258,550.458715596331,4,3,1,80,1,1
300358,594.059405940595,4,3,1,80,1,1
300655,545.454545454546,4,3,1,80,1,1
301459,545.454545454546,4,3,1,80,1,1
302004,566.037735849057,4,3,1,80,1,1
302549,545.454545454546,4,3,1,80,1,1
302821,582.524271844661,4,3,1,80,1,1
303112,560.747663551403,4,3,1,80,1,1
303392,588.235294117648,4,3,1,80,1,1
303686,558.139534883722,9,3,1,70,1,0
303965,550.458715596331,9,3,1,70,1,0
304240,535.714285714287,9,3,1,70,1,0
304507,550.458715596331,9,3,1,70,1,0
305607,540.540540540542,9,3,1,70,1,0
306166,574.162679425839,9,3,1,70,1,0
308175,560.747663551403,9,3,1,70,1,0
308735,560.747663551403,4,3,1,70,1,0
309295,491.803278688525,4,3,1,70,1,0
309540,-100,4,3,1,50,0,0
311016,-100,4,3,1,40,0,0
312737,-100,4,3,1,30,0,0
314458,-100,4,3,1,20,0,0
316180,-100,4,3,1,10,0,0
317163,-100,4,3,1,5,0,0

[Colours]
Combo1 : 98,158,78
Combo2 : 217,174,117

[HitObjects]
131,273,60,6,0,L|95:151,2,115
246,69,937,2,0,P|296:80|266:221,1,230,2|0,0:0|0:0,0:0:0:0:
163,233,1814,2,0,L|141:357,1,115
268,247,2410,6,0,L|398:228,2,115
143,248,3266,2,0,P|140:155|412:194,1,460,2|0,0:0|0:0,0:0:0:0:
279,249,4780,6,0,L|238:119,2,115
394,278,5627,2,0,L|143:285,1,230,2|0,0:0|0:0,0:0:0:0:
43,279,6474,2,0,L|28:152,1,115
148,72,7032,6,0,L|265:52,2,115
262,128,7879,2,0,B|305:130|347:127|386:102|406:77|406:77|423:102|424:136|421:176|409:201|409:201|348:197|304:276|228:240,1,460,2|0,0:0|0:0,0:0:0:0:
368,361,9360,6,0,P|405:333|381:262,1,115
272,188,9936,1,0,0:0:0:0:
388,165,10235,2,0,B|421:146|408:129|377:115|352:120|349:144|341:172|341:179|322:196|295:208|260:209|225:203,1,230,2|0,0:0|0:0,0:0:0:0:
120,174,11122,2,0,L|107:51,1,115
228,59,11699,6,0,L|353:65,2,115
103,288,12550,2,0,P|183:250|479:188,1,379.499998841858,2|0,0:0|1:0,0:0:0:0:
189,56,15781,6,0,L|138:246,1,172.5,8|0,0:0|0:0,0:0:0:0:
343,314,16352,6,0,P|428:298|461:75,1,345,4|0,0:0|0:0,0:0:0:0:
225,101,17522,1,8,0:0:0:0:
166,128,17807,2,0,L|367:156,1,172.5
34,242,18662,6,0,P|38:168|279:24,1,345,4|0,0:0|0:0,0:0:0:0:
496,124,19802,1,8,0:0:0:0:
303,207,20368,1,2,0:0:0:0:
419,210,20643,1,0,1:0:0:0:
162,290,20928,6,0,P|51:259|152:93,1,345,4|0,0:0|0:0,0:0:0:0:
374,151,22095,1,8,0:0:0:0:
489,208,22380,2,0,L|252:251,1,230,0|2,0:0|0:0,0:0:0:0:
16,282,23235,5,0,1:0:0:0:
496,282,23806,1,0,1:0:0:0:
16,282,24399,1,8,0:0:0:0:
131,280,24676,2,0,L|157:136,1,115,0|2,1:0|0:0,0:0:0:0:
36,160,25224,1,0,1:0:0:0:
408,106,25527,6,0,P|477:180|393:249,1,230,4|2,0:0|0:0,0:0:0:0:
285,269,26373,1,0,0:0:0:0:
16,193,26673,2,0,L|391:172,1,345,8|0,0:0|0:0,0:0:0:0:
120,293,27806,6,0,P|91:216|268:25,1,345,0|0,1:0|0:0,0:0:0:0:
479,90,28971,1,8,0:0:0:0:
362,90,29252,2,0,P|307:138|415:226,1,230,0|0,1:0|0:0,0:0:0:0:
135,255,30095,6,0,P|56:235|29:128,2,172.5,4|0|0,0:0|0:0|0:0,0:0:0:0:
396,241,31243,1,8,0:0:0:0:
387,338,31530,2,0,L|142:288,1,230,0|0,0:0|1:0,0:0:0:0:
500,323,32391,6,0,P|508:250|478:-30,1,345,4|0,0:0|0:0,0:0:0:0:
233,86,33840,1,0,1:0:0:0:
496,67,34132,2,0,L|484:285,1,172.5,8|0,0:0|0:0,0:0:0:0:
263,327,34709,6,0,P|158:278|266:116,1,345,4|0,0:0|0:0,0:0:0:0:
481,113,35879,1,8,0:0:0:0:
363,72,36170,2,0,L|172:75,1,172.5
496,288,37032,6,0,P|495:200|251:115,1,345,4|0,0:0|0:0,0:0:0:0:
47,163,38153,1,8,0:0:0:0:
247,240,38729,1,2,0:0:0:0:
132,235,39017,1,2,0:0:0:0:
371,371,39306,6,0,P|444:348|424:117,1,345,4|0,0:0|0:0,0:0:0:0:
188,86,40438,1,8,0:0:0:0:
310,54,40725,2,0,P|342:152|215:186,1,230
16,204,41586,5,0,1:0:0:0:
496,204,42171,1,0,1:0:0:0:
16,204,42756,1,8,0:0:0:0:
131,203,43038,2,0,L|249:198,1,115,0|2,1:0|0:0,0:0:0:0:
364,190,43602,1,0,1:0:0:0:
25,289,43884,6,0,P|27:238|260:71,1,345,4|0,0:0|0:0,0:0:0:0:
496,307,45037,2,0,P|406:288|528:155,1,345,8|0,0:0|1:0,0:0:0:0:
235,210,46191,6,0,B|121:184|121:184|389:164,1,345,4|0,0:0|0:0,0:0:0:0:
88,101,47345,1,8,0:0:0:0:
26,43,47630,2,0,B|83:79|122:28|122:28|281:77,1,230,0|0,1:0|1:0,0:0:0:0:
497,281,48487,6,0,L|289:268,2,172.5,4|0|0,0:0|0:0|1:0,0:0:0:0:
244,337,49629,2,0,P|158:306|235:183,1,230,8|0,0:0|0:0,0:0:0:0:
302,129,50481,2,0,L|350:73,1,57.5,2|2,0:0|0:0,0:0:0:0:
141,59,50761,6,0,L|8:48,1,115,4|0,0:0|1:0,0:0:0:0:
390,331,51349,2,0,B|490:338|497:180|396:178|396:178|294:175|300:39|389:43,1,460,12|0,0:0|0:0,0:0:0:0:
10,130,53091,5,8,0:0:0:0:
135,114,53386,1,0,1:0:0:0:
409,87,53682,1,8,0:0:0:0:
498,122,54248,1,0,1:0:0:0:
294,142,54531,2,0,P|291:220|457:317,1,287.5,0|0,1:0|0:0,0:0:0:0:
239,294,55396,6,0,P|101:237|144:59,1,345,4|0,0:0|1:0,0:0:0:0:
389,234,56561,2,0,L|105:198,1,230,8|0,0:0|0:0,0:0:0:0:
277,144,57418,1,0,1:0:0:0:
16,81,57703,5,0,1:0:0:0:
496,81,58258,1,0,1:0:0:0:
16,81,58814,1,8,0:0:0:0:
269,72,59105,2,0,P|328:93|277:270,1,287.5,4|0,0:0|0:0,0:0:0:0:
75,296,59943,6,0,P|14:243|103:116,1,230,4|0,0:0|0:0,0:0:0:0:
208,105,60790,1,0,1:0:0:0:
474,235,61072,2,0,P|329:190|293:90,1,230,12|0,0:0|0:0,0:0:0:0:
438,117,61929,1,0,0:0:0:0:
99,281,62214,6,0,P|44:216|133:123,1,230,4|0,0:0|1:0,0:0:0:0:
333,124,62914,1,8,0:0:0:0:
419,125,63051,1,8,0:0:0:0:
208,87,63333,1,0,0:0:0:0:
300,31,63615,1,0,1:0:0:0:
62,79,63897,1,8,0:0:0:0:
16,147,64178,1,0,1:0:0:0:
352,280,64460,6,0,P|425:268|392:139,1,230,4|0,0:0|0:0,0:0:0:0:
286,139,65357,1,0,1:0:0:0:
38,215,65625,2,0,P|144:245|303:231,1,230,8|0,0:0|1:0,0:0:0:0:
377,210,66450,1,0,0:0:0:0:
140,141,66725,5,4,0:0:0:0:
84,83,67010,2,0,P|152:64|322:77,1,230,0|0,1:0|0:0,0:0:0:0:
43,276,67867,2,0,L|23:29,1,230,8|0,0:0|0:0,0:0:0:0:
141,43,68708,1,0,1:0:0:0:
483,246,68983,6,0,L|99:214,1,345,4|0,0:0|1:0,0:0:0:0:
109,163,69984,1,0,1:0:0:0:
139,217,70112,1,8,0:0:0:0:
253,226,70387,1,0,1:0:0:0:
368,236,70662,1,0,0:0:0:0:
483,246,70947,1,0,0:0:0:0:
110,383,71221,6,0,B|70:326|67:253|74:195|105:166|105:166|63:149|63:149|93:108|118:60|122:5|75:-53,1,493.349998494415,4|0,0:0|1:0,0:0:0:0:
339,107,75235,6,0,L|382:315,1,172.5,8|0,0:0|0:0,0:0:0:0:
154,310,75785,6,0,P|92:298|128:72,1,345,4|0,0:0|0:0,0:0:0:0:
355,177,76937,1,8,0:0:0:0:
414,256,77228,2,0,B|290:253|290:253|223:137,1,230
478,333,78081,6,0,P|500:274|289:142,1,345,4|0,0:0|0:0,0:0:0:0:
79,217,79229,1,8,0:0:0:0:
311,255,79811,2,0,L|330:100,1,115
63,256,80378,6,0,B|57:171|91:92|91:92|200:109|200:109|235:79|222:-3,1,345,4|0,0:0|0:0,0:0:0:0:
465,281,81526,2,0,B|475:155|475:155|203:153,1,345,8|0,0:0|0:0,0:0:0:0:
495,320,82652,6,0,P|473:248|219:244,1,345,4|0,0:0|0:0,0:0:0:0:
474,347,83800,2,0,P|502:271|430:99,1,230,8|0,0:0|0:0,0:0:0:0:
351,98,84645,1,0,1:0:0:0:
17,356,84926,6,0,L|14:2,1,345,4|0,0:0|0:0,0:0:0:0:
78,13,85926,1,0,0:0:0:0:
237,42,86068,2,0,P|337:76|210:88,1,345,8|0,0:0|0:0,0:0:0:0:
458,249,87200,5,4,0:0:0:0:
491,253,87490,2,0,L|223:209,1,230
14,175,88362,1,8,0:0:0:0:
129,135,88645,2,0,L|405:97,1,230
71,332,89494,6,0,P|88:273|209:263,2,172.5,4|0|0,0:0|0:0|0:0,0:0:0:0:
319,330,90642,2,0,P|311:195|211:148,1,230,8|0,0:0|0:0,0:0:0:0:
356,103,91487,1,0,0:0:0:0:
19,337,91768,6,0,L|12:66,1,230,4|0,0:0|0:0,0:0:0:0:
368,107,93237,1,0,1:0:0:0:
139,95,93520,2,0,L|128:319,1,172.5,8|0,0:0|0:0,0:0:0:0:
357,192,94086,6,0,B|389:137|389:137|353:85|353:85|253:120|253:120|204:76|204:76|236:32,1,345,4|0,0:0|0:0,0:0:0:0:
476,104,95234,1,8,0:0:0:0:
361,312,95531,2,0,B|281:277|281:277|366:261,1,172.5
31,264,96390,6,0,P|2:163|76:69,1,230,4|0,0:0|0:0,0:0:0:0:
485,133,97555,1,8,0:0:0:0:
369,94,97840,2,0,L|159:87,1,191.666666666667
484,329,98697,6,0,B|510:104|417:143,1,230,4|0,0:0|0:0,0:0:0:0:
319,155,99554,1,0,0:0:0:0:
85,199,99839,2,0,L|356:228,1,230,8|0,0:0|0:0,0:0:0:0:
254,149,100697,1,0,0:0:0:0:
15,114,100982,5,4,0:0:0:0:
497,270,101554,1,0,1:0:0:0:
15,114,102125,1,8,0:0:0:0:
130,119,102406,2,0,P|141:188|21:271,1,230,0|0,1:0|0:0,0:0:0:0:
359,287,103249,6,0,P|438:270|382:70,1,345,4|0,0:0|0:0,0:0:0:0:
117,189,104425,2,0,B|121:205|142:216|142:216|148:199|165:189|165:189|190:198|212:188|212:188|230:177|239:163|239:163|260:183|260:183|284:174|311:183|311:183|316:199|332:207|332:207|346:196|359:196|359:196|386:201|392:225,1,345,8|0,0:0|0:0,0:0:0:0:
142,321,105567,6,0,P|75:293|121:66,1,345,4|0,0:0|0:0,0:0:0:0:
343,70,106709,1,8,0:0:0:0:
229,138,106995,2,0,L|491:188,1,230,0|0,1:0|1:0,0:0:0:0:
110,318,107853,6,0,P|48:281|22:165,2,172.5,4|0|0,0:0|0:0|1:0,0:0:0:0:
346,228,109018,1,8,0:0:0:0:
231,190,109309,2,0,L|208:71,1,115,0|2,0:0|0:0,0:0:0:0:
93,44,109875,1,0,0:0:0:0:
426,31,110150,6,0,L|448:191,1,115,4|0,0:0|1:0,0:0:0:0:
103,330,110716,2,0,B|3:337|-4:179|87:177|87:177|187:172|171:39|59:50,1,460,12|0,0:0|0:0,0:0:0:0:
495,115,112430,5,8,0:0:0:0:
229,103,112709,1,8,0:0:0:0:
287,101,112989,1,0,0:0:0:0:
479,210,113269,1,0,1:0:0:0:
425,203,113549,1,0,0:0:0:0:
226,181,113832,1,0,1:0:0:0:
25,155,114115,1,0,1:0:0:0:
80,127,114398,1,0,0:0:0:0:
416,305,114681,6,0,P|498:238|341:109,1,345,4|0,0:0|0:0,0:0:0:0:
136,212,115838,2,0,L|421:225,1,230,8|2,0:0|0:0,0:0:0:0:
251,154,116695,1,0,1:0:0:0:
15,119,116980,5,2,1:0:0:0:
497,265,117551,1,2,1:0:0:0:
15,119,118122,1,10,0:0:0:0:
370,78,118405,2,0,L|109:140,1,230,4|0,0:0|0:0,0:0:0:0:
495,326,119254,6,0,P|494:264|348:206,1,230,6|2,0:0|0:0,0:0:0:0:
476,146,120103,1,0,1:0:0:0:
212,247,120386,2,0,P|136:234|120:88,1,230,10|2,0:0|0:0,0:0:0:0:
356,85,121243,1,0,1:0:0:0:
11,241,121528,6,0,L|374:266,1,345,4|0,0:0|1:0,0:0:0:0:
133,162,122547,2,0,L|37:158,1,57.5,8|8,0:0|0:0,0:0:0:0:
160,82,122973,1,0,1:0:0:0:
420,86,123253,1,8,0:0:0:0:
463,161,123534,1,0,1:0:0:0:
115,293,123814,6,0,P|272:249|359:90,1,345,4|0,0:0|0:0,0:0:0:0:
121,44,124962,2,0,L|350:25,1,230,10|2,0:0|0:0,0:0:0:0:
232,109,125803,1,0,1:0:0:0:
496,156,126083,5,2,1:0:0:0:
16,228,126644,1,2,1:0:0:0:
496,156,127220,1,10,0:0:0:0:
146,74,127503,2,0,L|417:52,1,230,4|0,0:0|0:0,0:0:0:0:
34,306,128352,6,0,P|6:236|136:119,1,230,4|2,0:0|0:0,0:0:0:0:
345,103,129234,2,0,L|378:35,1,57.5,0|0,1:0|1:0,0:0:0:0:
345,103,129509,2,0,L|74:94,3,230,10|2|2|2,0:0|0:0|0:0|0:0,0:0:0:0:
474,269,131471,5,8,0:0:0:0:
466,222,131603,1,8,0:0:0:0:
337,197,131736,1,8,0:0:0:0:
222,180,131873,1,0,1:0:0:0:
230,130,132017,1,0,1:0:0:0:
473,301,132305,2,0,P|471:234|411:222,1,115,8|0,0:0|1:0,0:0:0:0:
68,163,132862,6,0,L|434:130,1,345,4|0,0:0|0:0,0:0:0:0:
151,310,134015,2,0,P|68:220|152:128,1,230,10|2,0:0|0:0,0:0:0:0:
230,122,134864,1,0,1:0:0:0:
497,102,135147,5,2,1:0:0:0:
15,102,135718,1,2,1:0:0:0:
497,102,136289,1,10,0:0:0:0:
145,196,136569,2,0,L|418:182,1,230,4|0,0:0|0:0,0:0:0:0:
26,303,137410,6,0,P|2:251|59:70,1,230,4|2,0:0|0:0,0:0:0:0:
152,72,138275,1,0,1:0:0:0:
403,164,138563,2,0,B|259:183|226:155|258:62,1,230,10|2,0:0|0:0,0:0:0:0:
367,64,139429,1,0,1:0:0:0:
16,177,139717,5,4,0:0:0:0:
512,178,140283,1,4,0:0:0:0:
16,177,140728,1,8,0:0:0:0:
16,177,140870,5,8,0:0:0:0:
136,174,141145,1,0,1:0:0:0:
402,165,141394,1,8,0:0:0:0:
473,134,141674,1,0,1:0:0:0:
112,305,141954,6,0,B|74:262|74:262|126:230|126:230|390:253,1,345,4|0,0:0|0:0,0:0:0:0:
112,350,143094,2,0,P|65:283|113:126,1,230,10|2,0:0|0:0,0:0:0:0:
208,126,143950,1,0,0:0:0:0:
468,336,144235,6,0,P|483:234|380:139,1,230,6|2,0:0|1:0,0:0:0:0:
285,133,145091,1,0,0:0:0:0:
16,229,145376,1,10,0:0:0:0:
361,270,145661,2,0,L|104:191,1,230,4|0,0:0|0:0,0:0:0:0:
495,328,146516,6,0,P|507:245|377:126,1,230,6|2,0:0|0:0,0:0:0:0:
140,148,147357,2,0,L|116:71,2,57.5,2|0|10,0:0|0:0|0:0,0:0:0:0:
378,335,147917,2,0,P|430:284|340:155,1,230
15,234,148758,6,0,L|407:252,1,345,6|0,0:0|1:0,0:0:0:0:
359,249,149892,1,10,0:0:0:0:
114,315,150175,2,0,P|70:253|150:117,1,230
489,124,151026,5,4,0:0:0:0:
218,243,151306,1,8,0:0:0:0:
288,239,151586,1,0,0:0:0:0:
79,79,151866,1,0,1:0:0:0:
26,122,152146,1,0,0:0:0:0:
256,322,152426,1,0,1:0:0:0:
22,219,152706,1,0,1:0:0:0:
142,202,152986,1,0,1:0:0:0:
495,328,153266,6,0,P|507:245|377:126,1,230,6|0,0:0|0:0,0:0:0:0:
140,148,154110,2,0,L|116:71,2,57.5,2|0|10,0:0|0:0|0:0,0:0:0:0:
378,335,154673,2,0,P|430:284|337:155,1,230
15,234,155517,6,0,L|407:252,1,345,6|0,0:0|1:0,1:0:0:0:
359,249,156643,1,10,0:0:0:0:
114,315,156922,2,0,P|70:253|150:117,1,230,4|0,0:0|0:0,0:0:0:0:
496,124,157760,5,4,0:0:0:0:
16,260,158319,1,0,1:0:0:0:
21,260,158599,1,0,0:0:0:0:
229,258,158738,2,0,L|322:249,1,57.5,8|8,0:0|0:0,0:0:0:0:
167,193,159159,1,0,1:0:0:0:
489,188,159429,1,8,0:0:0:0:
401,172,159571,1,8,0:0:0:0:
319,157,159714,1,0,1:0:0:0:
241,143,159861,1,0,1:0:0:0:
17,328,160008,6,0,P|8:246|114:150,1,230,6|2,0:0|0:0,0:0:0:0:
372,148,160865,2,0,L|393:75,1,57.5,2|0,0:0|0:0,0:0:0:0:
372,148,161142,1,10,0:0:0:0:
134,335,161422,2,0,P|82:284|175:155,1,230,4|0,0:0|0:0,0:0:0:0:
497,234,162263,6,0,L|105:252,1,345,4|0,0:0|1:0,0:0:0:0:
122,194,163272,1,0,0:0:0:0:
153,249,163416,1,10,0:0:0:0:
398,315,163692,2,0,P|442:253|362:117,1,230
23,124,164520,5,4,0:0:0:0:
270,241,164796,1,8,0:0:0:0:
26,129,165072,1,8,0:0:0:0:
101,117,165348,1,0,1:0:0:0:
368,121,165624,1,8,0:0:0:0:
302,247,165901,1,0,1:0:0:0:
229,134,166177,1,0,1:0:0:0:
347,58,166453,1,0,0:0:0:0:
17,328,166729,6,0,P|4:250|122:161,1,230,6|2,0:0|0:0,0:0:0:0:
372,148,167586,2,0,L|395:71,2,57.5,2|0|10,0:0|0:0|0:0,0:0:0:0:
134,335,168143,2,0,P|82:284|175:155,1,230
497,234,168961,6,0,L|105:252,1,345,6|0,0:0|1:0,0:0:0:0:
122,194,169933,1,0,0:0:0:0:
153,249,170072,1,10,0:0:0:0:
398,315,170349,2,0,P|442:253|362:117,1,230
20,115,171183,5,2,0:0:0:0:
135,88,171463,2,0,L|148:229,1,115,0|0,1:0|1:0,0:0:0:0:
495,246,172024,1,8,0:0:0:0:
296,212,172304,1,8,0:0:0:0:
369,169,172579,1,0,1:0:0:0:
20,139,172854,2,0,L|27:326,1,172.5,8|0,0:0|0:0,0:0:0:0:
256,192,173404,5,6,0:0:0:0:
53,105,173689,2,0,L|60:247,1,115,0|2,0:0|0:0,0:0:0:0:
459,105,174261,2,0,L|452:247,1,115,8|2,0:0|0:0,0:0:0:0:
256,192,174813,1,0,1:0:0:0:
256,192,174947,1,0,0:0:0:0:
256,192,175081,1,2,0:0:0:0:
16,287,175349,2,0,L|143:282,1,115,0|0,1:0|1:0,0:0:0:0:
496,287,175885,6,0,L|369:282,1,115,4|0,0:0|1:0,0:0:0:0:
256,192,176435,1,0,1:0:0:0:
496,97,176710,2,0,L|369:102,1,115,2|0,0:0|0:0,0:0:0:0:
16,97,177260,2,0,L|143:102,1,115,10|0,0:0|1:0,0:0:0:0:
496,97,177811,1,10,0:0:0:0:
384,192,178086,1,0,1:0:0:0:
428,192,178155,1,0,1:0:0:0:
472,192,178224,1,0,1:0:0:0:
256,192,178361,5,6,0:0:0:0:
53,105,178639,2,0,L|60:247,1,115,0|2,0:0|0:0,0:0:0:0:
459,105,179195,2,0,L|452:247,1,115,8|2,0:0|0:0,0:0:0:0:
256,192,179752,1,0,1:0:0:0:
256,192,179891,1,0,0:0:0:0:
256,192,180030,1,2,0:0:0:0:
16,287,180309,2,0,L|143:282,1,115,0|0,1:0|1:0,0:0:0:0:
496,287,180857,6,0,L|369:282,1,115,4|0,0:0|1:0,0:0:0:0:
381,282,181397,1,0,1:0:0:0:
16,97,181668,2,0,L|143:102,1,115,4|0,0:0|0:0,0:0:0:0:
382,101,182086,1,8,0:0:0:0:
496,97,182225,1,0,1:0:0:0:
439,99,182365,1,0,1:0:0:0:
382,101,182504,1,0,1:0:0:0:
130,101,182783,1,8,0:0:0:0:
256,120,182922,1,8,0:0:0:0:
382,101,183062,1,0,1:0:0:0:
459,105,183201,1,0,1:0:0:0:
256,192,183340,5,6,0:0:0:0:
459,279,183612,2,0,L|452:137,1,115,0|2,0:0|0:0,0:0:0:0:
53,279,184158,2,0,L|60:137,1,115,8|2,0:0|0:0,0:0:0:0:
256,192,184703,1,0,1:0:0:0:
256,192,184840,1,0,0:0:0:0:
256,192,184976,1,2,0:0:0:0:
496,97,185249,2,0,L|369:102,1,115,0|0,1:0|1:0,0:0:0:0:
16,97,185794,6,0,L|143:102,1,115,4|2,0:0|0:0,0:0:0:0:
256,120,186340,1,0,1:0:0:0:
16,287,186612,2,0,L|143:282,1,115,2|0,0:0|0:0,0:0:0:0:
496,287,187172,1,8,0:0:0:0:
439,285,187312,1,0,1:0:0:0:
382,283,187453,1,0,1:0:0:0:
130,282,187733,1,0,1:0:0:0:
60,285,187873,1,0,1:0:0:0:
15,287,188013,1,0,1:0:0:0:
60,285,188154,1,0,0:0:0:0:
256,192,188294,5,6,0:0:0:0:
459,279,188565,2,0,L|452:137,1,115,0|2,0:0|0:0,0:0:0:0:
53,279,189108,2,0,L|60:137,1,115,8|2,0:0|0:0,0:0:0:0:
256,192,189651,1,0,1:0:0:0:
256,192,189787,1,0,0:0:0:0:
256,192,189922,1,2,0:0:0:0:
496,97,190194,2,0,L|369:102,1,115,0|0,1:0|1:0,0:0:0:0:
16,97,190737,6,0,L|143:102,1,115,4|0,0:0|0:0,0:0:0:0:
496,97,191280,1,8,0:0:0:0:
130,282,191551,2,0,L|137:140,1,115,4|0,0:0|0:0,0:0:0:0:
481,171,192094,1,8,0:0:0:0:
130,101,192379,1,4,0:0:0:0:
256,120,192665,1,8,0:0:0:0:
381,101,192800,1,8,0:0:0:0:
439,99,192935,1,4,0:0:0:0:
16,97,193205,5,4,0:0:0:0:
256,192,193488,2,0,L|136:192,1,115,0|2,0:0|0:0,0:0:0:0:
496,97,194030,2,0,L|496:217,1,115,8|2,0:0|0:0,0:0:0:0:
256,192,194581,1,0,1:0:0:0:
196,192,194703,1,0,0:0:0:0:
256,192,194862,1,2,0:0:0:0:
53,105,195137,2,0,L|53:225,1,115,0|0,1:0|1:0,0:0:0:0:
496,287,195692,6,0,L|257:258,1,230,4|0,0:0|1:0,0:0:0:0:
16,97,196502,2,0,L|153:115,1,115,2|0,0:0|0:0,0:0:0:0:
326,267,196915,1,8,0:0:0:0:
384,274,197052,1,0,1:0:0:0:
441,281,197190,1,0,1:0:0:0:
498,288,197327,1,0,1:0:0:0:
256,192,197603,2,0,P|197:145|256:100,1,172.5,8|0,0:0|0:0,0:0:0:0:
16,97,198174,5,6,0:0:0:0:
256,192,198437,2,0,L|132:192,1,115,0|2,0:0|0:0,0:0:0:0:
496,97,199005,2,0,L|496:216,1,115,8|2,0:0|0:0,0:0:0:0:
256,192,199571,1,0,1:0:0:0:
196,192,199712,1,0,0:0:0:0:
256,192,199830,1,2,0:0:0:0:
53,105,200100,2,0,L|53:225,1,115,0|0,1:0|1:0,0:0:0:0:
496,287,200640,6,0,L|255:257,1,230,4|0,0:0|1:0,0:0:0:0:
16,97,201473,2,0,L|257:127,1,230,4|10,0:0|0:0,0:0:0:0:
496,212,202302,1,0,1:0:0:0:
256,192,202578,2,0,P|197:145|256:100,1,172.5,0|0,1:0|0:0,0:0:0:0:
496,104,203131,6,0,L|476:224,1,115,4|0,0:0|1:0,0:0:0:0:
16,104,203719,1,4,0:0:0:0:
256,192,204006,12,0,207738,0:0:0:0:
80,161,216768,5,8,0:0:0:0:
425,289,217138,2,0,L|397:257,3,38.3333333333333,8|0|0|0,0:0|0:0|1:0|1:0,0:0:0:0:
196,128,217577,1,8,0:0:0:0:
313,123,217849,1,0,1:0:0:0:
364,112,218122,1,0,0:0:0:0:
125,292,218407,2,0,P|70:252|145:159,1,172.5,12|0,0:0|0:0,0:0:0:0:
347,252,218979,6,0,P|455:236|443:102,1,230,6|2,0:0|0:0,0:0:0:0:
352,96,219844,1,0,0:0:0:0:
82,196,220132,2,0,L|335:181,1,230,10|2,0:0|0:0,0:0:0:0:
194,116,220969,1,0,1:0:0:0:
444,102,221248,6,0,L|463:254,1,115,2|0,1:0|0:0,0:0:0:0:
192,167,221824,2,0,L|173:319,1,115,2|0,1:0|0:0,0:0:0:0:
459,319,222401,1,10,0:0:0:0:
95,328,222673,2,0,P|40:273|18:108,1,230,4|0,0:0|0:0,0:0:0:0:
364,117,223546,6,0,P|378:202|259:237,1,230,4|2,0:0|0:0,0:0:0:0:
399,317,224400,1,0,1:0:0:0:
121,296,224680,2,0,P|120:243|291:162,1,230,12|0,0:0|0:0,0:0:0:0:
16,82,225533,1,0,1:0:0:0:
377,304,225811,6,0,P|461:280|496:145,1,230,4|0,0:0|1:0,0:0:0:0:
308,134,226502,1,8,0:0:0:0:
181,120,226640,1,8,0:0:0:0:
123,53,226778,1,8,0:0:0:0:
246,61,226916,1,8,0:0:0:0:
372,69,227058,1,8,0:0:0:0:
430,147,227201,1,0,1:0:0:0:
171,217,227487,2,0,L|48:230,1,115,8|0,0:0|1:0,0:0:0:0:
423,302,228058,6,0,P|320:270|434:120,1,345,6|0,0:0|0:0,0:0:0:0:
162,317,229200,2,0,P|80:290|66:126,1,230,10|2,0:0|0:0,0:0:0:0:
164,142,230041,1,0,0:0:0:0:
406,123,230321,5,2,1:0:0:0:
164,142,230605,2,0,P|78:231|182:278,1,230,0|0,1:0|0:0,0:0:0:0:
380,261,231458,1,8,0:0:0:0:
31,264,231730,2,0,P|76:128|12:96,1,230,4|0,0:0|1:0,0:0:0:0:
379,23,232587,6,0,P|441:57|352:174,1,230,6|2,0:0|0:0,0:0:0:0:
138,257,233436,2,0,L|44:241,1,57.5,0|0,1:0|1:0,0:0:0:0:
138,257,233711,2,0,P|226:270|249:134,1,230,8|2,0:0|0:0,0:0:0:0:
146,135,234546,1,0,0:0:0:0:
496,108,234826,5,4,0:0:0:0:
243,104,235114,1,8,0:0:0:0:
313,154,235402,1,2,0:0:0:0:
256,84,235691,1,0,1:0:0:0:
41,92,235933,2,0,L|25:221,1,115,0|0,1:0|1:0,0:0:0:0:
268,228,236478,1,8,0:0:0:0:
387,226,236751,1,0,0:0:0:0:
36,121,237023,6,0,L|396:97,1,345,6|0,0:0|0:0,0:0:0:0:
128,327,238171,2,0,L|116:60,1,230,10|2,0:0|0:0,0:0:0:0:
233,91,238996,1,0,1:0:0:0:
490,75,239271,6,0,L|509:227,1,115,2|0,1:0|0:0,0:0:0:0:
231,221,239845,2,0,L|212:373,1,115,2|0,1:0|0:0,0:0:0:0:
498,341,240419,1,10,0:0:0:0:
135,349,240698,2,0,L|413:325,1,230,4|0,0:0|1:0,0:0:0:0:
21,232,241535,6,0,L|10:0,1,230,4|2,0:0|0:0,0:0:0:0:
150,16,242367,1,0,1:0:0:0:
496,261,242645,2,0,L|225:241,1,230,14|2,0:0|0:0,0:0:0:0:
496,178,243486,1,0,0:0:0:0:
139,326,243766,5,4,0:0:0:0:
412,206,244216,1,8,0:0:0:0:
434,163,244326,1,0,1:0:0:0:
207,110,244606,1,8,0:0:0:0:
330,96,244746,1,8,0:0:0:0:
212,178,244886,1,8,0:0:0:0:
146,238,245161,1,0,0:0:0:0:
344,266,245437,1,0,1:0:0:0:
425,284,245713,1,0,0:0:0:0:
46,279,245990,6,0,L|410:255,1,345,6|0,0:0|0:0,0:0:0:0:
131,39,247132,2,0,B|6:31|6:31|47:137,1,230,10|2,0:0|0:0,0:0:0:0:
149,127,247965,1,0,0:0:0:0:
496,158,248243,5,2,1:0:0:0:
244,184,248526,2,0,B|142:198|142:198|165:279|283:279,1,230,0|0,1:0|0:0,0:0:0:0:
490,250,249375,1,8,0:0:0:0:
140,322,249647,2,0,L|376:311,1,230,4|0,0:0|0:0,0:0:0:0:
16,152,250493,6,0,L|374:118,1,345,4|0,0:0|1:0,0:0:0:0:
423,114,251493,1,0,0:0:0:0:
267,60,251635,2,0,L|104:53,1,115,10|0,0:0|1:0,0:0:0:0:
406,195,252190,2,0,L|426:325,1,115,2|0,0:0|0:0,0:0:0:0:
77,245,252746,6,0,P|169:237|62:75,1,345,6|0,0:0|1:0,0:0:0:0:
362,45,253872,1,10,0:0:0:0:
16,170,254154,2,0,P|89:157|12:75,1,230,4|0,0:0|0:0,0:0:0:0:
395,255,254999,5,4,0:0:0:0:
158,278,255262,1,8,0:0:0:0:
479,128,255525,1,4,0:0:0:0:
244,150,255812,1,8,0:0:0:0:
337,211,256099,1,0,0:0:0:0:
220,91,256374,1,0,1:0:0:0:
102,188,256649,1,0,1:0:0:0:
118,268,256924,1,0,0:0:0:0:
496,152,257227,6,0,L|138:118,1,345,6|0,0:0|1:0,0:0:0:0:
89,114,258217,1,0,0:0:0:0:
245,60,258359,2,0,L|408:53,1,115,10|0,0:0|0:0,0:0:0:0:
106,195,258914,2,0,L|86:325,1,115,2|0,0:0|0:0,0:0:0:0:
435,245,259470,6,0,P|343:237|450:75,1,345,6|0,0:0|1:0,0:0:0:0:
150,45,260602,1,10,0:0:0:0:
496,170,260877,2,0,P|423:157|500:75,1,230,2|0,0:0|0:0,0:0:0:0:
107,251,261702,5,4,0:0:0:0:
20,195,261982,1,0,1:0:0:0:
118,144,262262,1,0,1:0:0:0:
237,133,262538,1,0,1:0:0:0:
327,147,262676,1,8,0:0:0:0:
198,188,262814,1,8,0:0:0:0:
67,176,262953,1,8,0:0:0:0:
18,98,263091,1,0,1:0:0:0:
346,265,263367,1,8,0:0:0:0:
473,270,263515,1,0,1:0:0:0:
404,221,263664,1,0,1:0:0:0:
16,152,263961,6,0,L|374:118,1,345,6|0,0:0|1:0,0:0:0:0:
423,114,264951,1,0,0:0:0:0:
267,60,265093,2,0,L|104:53,1,115,10|0,0:0|1:0,0:0:0:0:
406,195,265643,2,0,L|426:325,1,115,2|0,0:0|0:0,0:0:0:0:
77,245,266193,6,0,P|169:237|62:75,1,345,4|0,0:0|0:0,0:0:0:0:
362,45,267325,1,10,0:0:0:0:
16,170,267608,2,0,P|89:157|12:75,1,230,8|0,0:0|0:0,0:0:0:0:
405,251,268457,5,4,0:0:0:0:
45,121,268903,1,8,0:0:0:0:
45,121,268992,1,2,1:0:0:0:
104,120,269078,1,8,0:0:0:0:
184,120,269164,1,8,0:0:0:0:
264,120,269250,1,8,0:0:0:0:
318,121,269336,1,8,0:0:0:0:
144,184,269509,2,0,B|97:228|97:228|143:285|143:285|196:264|248:303,1,230,2|0,1:0|1:0,0:0:0:0:
117,347,270316,1,0,1:0:0:0:
496,152,270570,6,0,L|138:118,1,345,6|0,0:0|1:0,0:0:0:0:
89,114,271534,1,0,0:0:0:0:
245,60,271671,2,0,L|408:53,1,115,10|4,0:0|0:0,0:0:0:0:
106,195,272222,2,0,L|86:325,1,115,2|0,0:0|0:0,0:0:0:0:
435,245,272773,6,0,P|343:237|450:75,1,345,4|0,0:0|0:0,0:0:0:0:
150,45,273875,1,10,0:0:0:0:
496,170,274151,2,0,P|423:157|500:75,1,230,0|0,1:0|0:0,0:0:0:0:
111,251,274977,5,4,0:0:0:0:
359,188,275253,1,8,0:0:0:0:
111,140,275528,1,8,0:0:0:0:
237,115,275804,1,4,0:0:0:0:
496,134,276079,1,8,0:0:0:0:
150,223,276355,1,4,0:0:0:0:
380,230,276630,1,8,0:0:0:0:
472,204,276768,1,8,0:0:0:0:
380,175,276906,1,0,1:0:0:0:
16,152,277181,6,0,L|374:118,1,345,6|0,0:0|1:0,0:0:0:0:
417,112,278157,1,0,0:0:0:0:
245,60,278297,2,0,L|408:53,1,115,10|4,0:0|0:0,0:0:0:0:
106,195,278855,2,0,L|86:325,1,115,2|0,0:0|0:0,0:0:0:0:
435,245,279413,6,0,P|343:237|450:75,1,345,4|0,0:0|0:0,0:0:0:0:
150,45,280529,1,10,0:0:0:0:
496,170,280803,2,0,P|423:157|500:75,1,230,0|0,1:0|0:0,0:0:0:0:
107,251,281628,5,4,0:0:0:0:
466,121,282040,1,8,0:0:0:0:
393,165,282177,1,8,0:0:0:0:
126,182,282452,1,0,1:0:0:0:
199,226,282589,1,0,1:0:0:0:
21,278,283002,1,0,1:0:0:0:
286,272,283277,1,8,0:0:0:0:
349,269,283415,1,0,1:0:0:0:
409,265,283552,1,0,1:0:0:0:
16,152,283828,6,0,L|374:118,1,345,6|0,0:0|1:0,0:0:0:0:
423,114,284818,1,0,0:0:0:0:
267,60,284960,2,0,L|104:53,1,115,10|4,0:0|0:0,0:0:0:0:
406,195,285507,2,0,L|426:325,1,115,2|0,0:0|0:0,0:0:0:0:
77,245,286055,5,6,0:0:0:0:
183,226,286328,2,0,P|212:165|110:59,1,230,8|0,0:0|0:0,0:0:0:0:
362,45,287150,1,10,0:0:0:0:
16,170,287419,2,0,P|89:157|12:75,1,230,12|0,0:0|1:0,0:0:0:0:
405,251,288226,5,12,0:0:0:0:
28,261,288498,1,4,0:0:0:0:
140,246,288770,1,0,0:0:0:0:
405,200,289042,1,8,0:0:0:0:
288,177,289314,1,0,0:0:0:0:
14,144,289586,1,12,0:0:0:0:
287,95,289858,1,12,0:0:0:0:
402,74,290130,1,0,0:0:0:0:
16,152,290402,6,0,L|374:118,1,345,6|0,0:0|1:0,0:0:0:0:
423,114,291402,1,0,0:0:0:0:
359,119,291544,1,10,0:0:0:0:
15,83,291816,2,0,P|22:248|19:336,1,230,4|0,0:0|0:0,0:0:0:0:
361,275,292634,6,0,L|513:273,1,115,6|8,0:0|0:0,0:0:0:0:
222,198,293184,2,0,L|213:63,1,115,6|0,0:0|0:0,0:0:0:0:
474,119,293734,1,10,0:0:0:0:
127,268,294010,2,0,P|34:228|110:124,1,230,4|0,0:0|0:0,0:0:0:0:
419,122,294835,5,4,0:0:0:0:
144,138,295248,1,8,0:0:0:0:
206,150,295386,1,0,1:0:0:0:
142,133,295523,1,0,1:0:0:0:
53,151,295661,1,8,0:0:0:0:
289,279,295936,1,0,1:0:0:0:
363,244,296073,1,0,1:0:0:0:
386,169,296211,1,0,1:0:0:0:
307,128,296348,1,0,1:0:0:0:
153,110,296486,1,8,0:0:0:0:
86,73,296762,1,0,1:0:0:0:
496,152,297037,6,0,L|138:118,1,345,6|0,0:0|1:0,0:0:0:0:
89,114,298018,1,0,0:0:0:0:
153,119,298158,1,10,0:0:0:0:
497,83,298433,2,0,L|472:338,1,230,4|0,0:0|0:0,0:0:0:0:
132,274,299258,6,0,L|-20:272,1,115,6|8,0:0|0:0,0:0:0:0:
271,197,299808,2,0,L|280:62,1,115,6|0,0:0|0:0,0:0:0:0:
19,118,300358,1,10,0:0:0:0:
385,268,300655,2,0,P|445:199|353:112,1,230,4|0,0:0|0:0,0:0:0:0:
16,90,301459,5,2,0:0:0:0:
496,90,302004,1,2,0:0:0:0:
256,192,302287,1,8,0:0:0:0:
376,192,302549,1,0,1:0:0:0:
320,192,302822,1,0,1:0:0:0:
91,76,303112,1,8,0:0:0:0:
16,124,303392,1,0,1:0:0:0:
459,279,303686,5,6,0:0:0:0:
284,270,303965,2,0,L|425:286,1,115,0|2,0:0|0:0,0:0:0:0:
53,279,304507,2,0,L|60:137,1,115,8|2,0:0|0:0,0:0:0:0:
256,192,305057,1,0,1:0:0:0:
256,192,305195,1,0,0:0:0:0:
256,192,305332,1,2,0:0:0:0:
496,97,305607,2,0,L|369:102,1,115,0|0,1:0|1:0,0:0:0:0:
16,97,306166,5,4,0:0:0:0:
431,289,307027,2,0,L|31:274,1,345,2|2,0:0|0:0,0:0:0:0:
440,192,308175,1,8,0:0:0:0:
16,104,308735,6,0,L|36:224,1,115,6|0,0:0|1:0,0:0:0:0:
496,192,309295,1,6,0:0:0:0:
256,192,309540,12,0,317655,2:0:0:0:
