osu file format v14

[General]
AudioFilename: Title.mp3
AudioLeadIn: 0
PreviewTime: 23700
Countdown: 1
SampleSet: Soft
StackLeniency: 0.9
Mode: 0
LetterboxInBreaks: 1
WidescreenStoryboard: 1

[Editor]
Bookmarks: 4205,23700,48249,70179
DistanceSpacing: 1.4
BeatDivisor: 4
GridSize: 32
TimelineZoom: 2.350008

[Metadata]
Title:Title
TitleUnicode:Title
Artist:SoundTeMP
ArtistUnicode:SoundTeMP
Creator:ErunamoJAZZ
Version:Connecting
Source:Ragnarok Online
Tags:라그나로크 온라인 ラグナロクオンライン gravity main theme intro mmorpg
BeatmapID:1601046
BeatmapSetID:260777

[Difficulty]
HPDrainRate:6
CircleSize:6
OverallDifficulty:7
ApproachRate:9
SliderMultiplier:2
SliderTickRate:1

[Events]
//Background and Video events
0,0,"ro_wall.jpg",0,0
//Break Periods
2,22059,23109
//Storyboard Layer 0 (Background)
//Storyboard Layer 1 (Fail)
//Storyboard Layer 2 (Pass)
//Storyboard Layer 3 (Foreground)
//Storyboard Sound Samples

[TimingPoints]
416,631.5789474,4,2,1,30,1,0
4205,-100,4,2,1,20,0,0
4521,-100,4,2,1,15,0,0
4837,-100,4,2,1,10,0,0
5468,-100,4,2,1,30,0,0
9258,-100,4,2,1,20,0,0
9731,-100,4,2,1,10,0,0
10521,-100,4,2,1,30,0,0
18100,727.2727273,4,2,1,30,1,0
18463,750,4,2,1,30,1,0
18838,888.8888889,4,2,1,30,1,0
19282,960,4,2,1,30,1,0
19762,1142.857143,4,2,1,30,1,0
20333,1371.428571,4,2,1,30,1,0
21018,1600,4,2,1,30,1,0
21418,1764.705882,4,2,1,30,1,0
23709,600,4,2,1,30,1,0
27909,714.285714243551,4,2,1,20,1,0
28605,600,4,2,1,30,1,0
31605,638.297872340426,4,2,1,30,1,0
32218,666.6666667,4,2,1,25,1,0
32551,681.818181853047,4,2,1,20,1,0
33222,631.578947368421,4,2,1,20,1,0
33538,600,4,2,1,30,1,0
37138,631.5789474,4,2,1,30,1,0
38401,600,4,2,1,30,1,0
39901,606.0606061,4,2,1,30,1,0
40810,594.0594059,4,2,1,30,1,0
41404,599.999999958588,4,2,1,30,1,0
42001,615.3846154,4,2,1,30,1,0
43231,600,4,2,1,30,1,0
44431,615.3846154,4,2,1,30,1,0
45664,638.297872370982,4,2,1,30,1,0
45983,625.000000029297,4,2,1,30,1,0
46920,666.6666667,4,2,1,30,1,0
47589,659.3406593,4,2,1,20,1,0
48249,600,4,2,1,30,1,0
52449,631.5789474,4,2,1,30,1,0
53080,600,4,2,1,30,1,0
54880,612.244898,4,2,1,30,1,0
55492,600,4,2,1,30,1,0
62692,631.5789474,4,2,1,30,1,0
63955,681.8181818,4,2,1,30,1,0
65318,769.2307692,4,2,1,30,1,0
66856,800,4,2,1,30,1,0
67256,857.1428571,4,2,1,30,1,0
67684,923.076923076923,4,2,1,30,1,0
68171,1200,4,2,1,30,1,0
68771,1290.322581,4,2,1,30,1,0
69416,1538.46153846154,4,2,1,15,1,0

[Colours]
Combo1 : 7,205,126
Combo2 : 21,138,255
Combo3 : 251,227,64
Combo4 : 241,33,22

[HitObjects]
185,321,416,6,0,P|164:339|137:351,1,50
110,290,731,2,0,P|82:290|60:280,1,50
33,220,1047,1,0,0:0:0:0:
45,192,1205,1,2,0:0:0:0:
83,174,1363,1,0,0:0:0:0:
137,183,1521,1,0,0:0:0:0:
187,223,1679,5,2,0:0:0:0:
95,232,1837,1,0,0:0:0:0:
150,126,1994,1,0,0:0:0:0:
212,282,2152,1,2,0:0:0:0:
110,290,2310,1,0,0:0:0:0:
237,199,2468,1,0,0:0:0:0:
185,365,2626,1,2,0:0:0:0:
236,335,2784,1,0,0:0:0:0:
288,361,2942,5,0,0:0:0:0:
291,231,3100,2,0,P|313:233|353:253,1,50,2|0,0:0|0:0,0:0:0:0:
389,276,3416,1,0,0:0:0:0:
325,176,3573,2,0,P|309:155|299:133,1,50,2|0,0:0|0:0,0:0:0:0:
304,66,3889,1,2,0:0:0:0:
358,30,4047,1,0,0:0:0:0:
455,2,4205,6,0,P|442:28|405:48,1,50,2|0,0:0|0:0,0:0:0:0:
512,88,4521,2,0,P|488:98|434:98,1,50,2|0,0:0|0:0,0:0:0:0:
469,193,4837,2,0,P|447:179|430:162,2,50,2|0|0,0:0|0:0|0:0,0:0:0:0:
369,322,5468,6,0,P|354:344|333:362,1,50
293,317,5784,2,0,P|272:324|244:321,1,50
194,280,6099,1,0,0:0:0:0:
184,260,6257,1,2,0:0:0:0:
188,227,6415,1,0,0:0:0:0:
222,181,6573,1,0,0:0:0:0:
288,161,6731,5,2,0:0:0:0:
166,125,6889,1,0,0:0:0:0:
172,64,7046,1,0,0:0:0:0:
330,114,7204,1,2,0:0:0:0:
381,149,7362,1,0,0:0:0:0:
438,124,7520,1,0,0:0:0:0:
280,75,7678,1,2,0:0:0:0:
222,100,7836,1,0,0:0:0:0:
166,125,7994,5,0,0:0:0:0:
0,100,8152,2,0,L|82:112,1,50,2|0,0:0|0:0,0:0:0:0:
108,116,8468,1,0,0:0:0:0:
119,174,8626,2,0,L|129:223,1,50,2|0,0:0|0:0,0:0:0:0:
140,282,8941,1,0,0:0:0:0:
151,341,9099,1,2,0:0:0:0:
223,319,9258,6,0,L|279:293,2,50,2|0|2,0:0|0:0|0:0,0:0:0:0:
253,330,9731,2,0,L|206:349,2,50
263,167,10521,6,0,P|266:197|284:223,1,50
330,95,10836,2,0,P|323:127|302:157,1,50
292,42,11152,1,0,0:0:0:0:
274,33,11310,1,2,0:0:0:0:
247,32,11468,1,0,0:0:0:0:
201,58,11626,1,0,0:0:0:0:
181,115,11784,6,0,P|163:131|139:138,1,50,2|0,0:0|0:0,0:0:0:0:
134,79,12099,1,0,0:0:0:0:
27,83,12257,1,2,0:0:0:0:
80,56,12415,1,0,0:0:0:0:
15,140,12573,1,0,0:0:0:0:
106,185,12731,1,2,0:0:0:0:
22,240,12889,1,0,0:0:0:0:
125,290,13047,6,0,P|132:319|123:344,1,50
75,314,13363,1,0,0:0:0:0:
77,259,13521,1,0,0:0:0:0:
174,263,13679,1,0,0:0:0:0:
126,234,13837,1,2,0:0:0:0:
229,256,13994,1,0,0:0:0:0:
255,207,14152,1,0,0:0:0:0:
255,149,14310,6,0,L|226:109,1,50,2|0,0:0|0:0,0:0:0:0:
293,34,14626,2,0,L|279:99,1,50,0|2,0:0|0:0,0:0:0:0:
307,178,14942,1,0,0:0:0:0:
359,196,15100,1,0,0:0:0:0:
434,266,15258,1,2,0:0:0:0:
343,249,15416,1,0,0:0:0:0:
384,144,15573,6,0,P|398:123|426:107,1,50
488,180,15889,2,0,P|460:177|429:154,1,50
481,117,16205,1,0,0:0:0:0:
474,59,16363,1,2,0:0:0:0:
467,0,16521,1,0,0:0:0:0:
420,36,16679,1,0,0:0:0:0:
488,180,16837,5,2,0:0:0:0:
496,239,16994,1,0,0:0:0:0:
450,276,17152,1,0,0:0:0:0:
505,295,17310,1,2,0:0:0:0:
512,351,17468,1,0,0:0:0:0:
394,261,17626,1,0,0:0:0:0:
321,345,17784,1,2,0:0:0:0:
294,230,17942,1,0,0:0:0:0:
253,99,18100,6,0,L|270:159,1,50
147,117,18463,2,0,L|205:140,1,50
102,214,18838,2,0,L|145:182,1,50,0|2,0:0|0:0,0:0:0:0:
175,296,19282,2,0,L|163:234,1,50
281,269,19762,6,0,L|234:255,1,50,2|0,0:0|0:0,0:0:0:0:
345,240,20333,2,0,L|394:252,1,50,0|2,0:0|0:0,0:0:0:0:
334,360,21018,2,0,L|336:295,1,50
288,203,21859,1,2,0:0:0:0:
127,92,23709,6,0,B|152:108|182:108|203:89|203:89|167:78,1,100,4|0,0:3|0:0,0:0:0:0:
87,54,24309,1,0,0:0:0:0:
107,149,24609,1,0,0:0:0:0:
256,64,24909,1,2,0:0:0:0:
362,181,25209,1,2,0:0:0:0:
256,229,25509,1,0,0:0:0:0:
336,257,25809,1,0,0:0:0:0:
385,92,26109,6,0,B|360:108|330:108|309:89|309:89|345:78,1,100,4|0,0:3|0:0,0:0:0:0:
425,54,26709,1,0,0:0:0:0:
405,149,27009,1,0,0:0:0:0:
256,64,27309,1,2,0:0:0:0:
150,181,27609,1,2,0:0:0:0:
256,229,27909,2,0,L|216:275,1,50,2|0,0:0|0:0,0:0:0:0:
223,266,28266,2,0,L|180:313,1,50,2|0,0:0|0:0,0:0:0:0:
125,226,28605,6,0,B|115:203|116:175|133:147|167:158|161:195|148:179,2,100,4|0|0,0:3|0:0|0:0,0:0:0:0:
223,266,29505,1,0,0:0:0:0:
316,225,29805,2,0,P|356:226|400:277,1,100,2|2,0:0|0:0,0:0:0:0:
400,365,30405,2,0,P|457:346|488:295,1,100
332,300,31005,6,0,B|302:278|302:278|226:316,1,100,4|0,0:3|0:0,0:0:0:0:
220,183,31605,2,0,B|211:254|211:254|173:277,1,100,2|0,0:0|0:0,0:0:0:0:
71,337,32218,1,2,0:0:0:0:
180,332,32384,1,2,0:0:0:0:
109,321,32551,2,0,L|148:358,1,50,2|2,0:0|0:0,0:0:0:0:
121,254,32891,1,0,0:0:0:0:
114,243,33062,1,0,0:0:0:0:
100,236,33222,1,2,0:0:0:0:
86,240,33379,1,2,0:0:0:0:
76,252,33538,6,0,P|37:227|37:152,1,100,4|0,0:3|0:0,0:0:0:0:
83,82,34138,2,0,P|120:55|179:52,1,100
277,85,34738,2,0,P|298:126|260:191,1,100,2|2,0:0|0:0,0:0:0:0:
89,149,35338,1,0,0:0:0:0:
192,139,35638,1,0,0:0:0:0:
282,175,35938,6,0,B|369:127|369:127|277:85,1,200,4|2,0:3|0:0,0:0:0:0:
192,139,36838,1,0,0:0:0:0:
171,231,37138,1,0,0:0:0:0:
282,175,37453,2,0,P|298:125|278:85,1,100,2|0,0:0|0:0,0:0:0:0:
228,206,37927,1,2,0:0:0:0:
237,275,38085,1,2,0:0:0:0:
299,305,38243,1,2,0:0:0:0:
364,272,38401,6,0,P|382:227|368:170,1,100,4|0,0:3|0:0,0:0:0:0:
238,118,39001,2,0,P|267:156|324:172,1,100
434,86,39601,2,0,P|386:92|343:133,1,100,2|2,0:0|0:0,0:0:0:0:
364,272,40204,1,0,0:0:0:0:
434,86,40507,1,0,0:0:0:0:
238,118,40810,6,0,P|203:151|192:209,1,100,4|0,0:3|0:0,0:0:0:0:
290,309,41404,2,0,P|278:262|233:224,1,100
98,259,42001,2,0,P|144:272|199:252,1,100,2|2,0:0|0:0,0:0:0:0:
238,118,42616,1,0,0:0:0:0:
238,118,42924,1,2,0:0:0:0:
238,118,43231,6,0,P|217:67|161:41,1,100,4|0,0:3|0:0,0:0:0:0:
111,202,43831,2,0,P|125:154|162:122,1,100
246,276,44431,2,0,P|227:230|189:198,1,100,2|2,0:0|0:0,0:0:0:0:
189,198,45046,1,0,0:0:0:0:
156,287,45200,1,2,0:0:0:0:
152,313,45354,1,2,0:0:0:0:
166,339,45507,1,2,0:0:0:0:
187,353,45664,6,0,B|239:369|238:328|295:353,1,100,4|0,0:3|0:0,0:0:0:0:
417,330,46295,2,0,P|375:317|340:255,1,100
422,247,46920,1,0,0:0:0:0:
434,170,47253,1,2,0:0:0:0:
434,170,47589,2,0,P|454:155|471:127,1,50,2|2,0:0|0:0,0:0:0:0:
357,101,47919,2,0,P|380:105|411:118,1,50,2|2,0:0|0:0,0:0:0:0:
307,152,48249,5,8,0:3:0:0:
278,82,48399,1,0,0:0:0:0:
184,20,48549,2,0,L|212:77,1,50,0|0,3:0|0:0,0:0:0:0:
133,156,48849,2,0,L|161:75,1,50,0|0,3:0|0:0,0:0:0:0:
91,66,49149,2,0,L|69:22,1,50,0|0,3:0|0:0,0:0:0:0:
14,124,49449,2,0,B|30:100|30:100|68:171,1,100,2|0,0:0|0:0,0:0:0:0:
120,284,49899,1,2,0:0:0:0:
91,223,50049,1,0,3:0:0:0:
16,332,50199,1,0,0:0:0:0:
54,277,50349,1,2,0:0:0:0:
147,343,50499,1,0,0:0:0:0:
130,167,50649,5,4,0:3:0:0:
187,289,50799,1,0,0:0:0:0:
197,173,50949,1,2,0:0:0:0:
224,233,51099,1,0,0:0:0:0:
246,128,51249,1,2,3:2:0:0:
291,225,51399,1,0,0:0:0:0:
304,159,51549,2,0,L|353:138,1,50,0|0,3:0|0:0,0:0:0:0:
304,164,51849,2,0,L|418:116,1,100,2|0,0:0|3:0,0:0:0:0:
160,228,52449,1,2,0:0:0:0:
291,225,52606,2,0,L|379:223,1,50,2|2,0:0|0:0,0:0:0:0:
225,227,52922,1,2,0:0:0:0:
108,107,53080,5,4,0:3:0:0:
146,46,53230,1,0,0:0:0:0:
215,72,53380,2,0,L|277:49,1,50,0|0,3:0|0:0,0:0:0:0:
363,77,53680,2,0,L|305:98,1,50,0|0,3:0|0:0,0:0:0:0:
419,107,53980,2,0,L|482:86,1,50,0|0,3:0|0:0,0:0:0:0:
341,188,54280,2,0,B|403:165|403:165|397:210,1,100,2|0,0:0|0:0,0:0:0:0:
379,321,54730,1,2,0:0:0:0:
387,262,54880,1,0,3:0:0:0:
435,298,55033,1,0,0:0:0:0:
326,346,55186,1,2,0:0:0:0:
339,229,55339,1,0,0:0:0:0:
209,276,55492,5,4,0:3:0:0:
269,284,55642,1,0,0:0:0:0:
149,269,55792,1,2,0:0:0:0:
124,207,55942,1,0,0:0:0:0:
98,311,56092,2,0,L|53:360,1,50,2|0,3:2|0:0,0:0:0:0:
42,276,56392,1,0,3:0:0:0:
58,212,56542,1,0,0:0:0:0:
86,156,56692,2,0,L|75:51,1,100,2|0,0:0|3:0,0:0:0:0:
23,163,57292,1,0,0:0:0:0:
75,56,57442,1,0,0:0:0:0:
139,89,57592,1,0,3:0:0:0:
189,40,57742,1,0,0:0:0:0:
255,64,57892,5,8,0:3:0:0:
209,276,58192,1,2,0:0:0:0:
314,17,58492,2,0,L|372:32,1,50,2|0,0:0|0:0,0:0:0:0:
483,9,58792,2,0,L|436:27,1,50
501,169,59092,1,2,3:2:0:0:
425,160,59242,1,0,0:0:0:0:
397,90,59392,1,0,0:0:0:0:
436,27,59542,1,0,0:0:0:0:
501,169,59692,2,0,L|495:241,1,50,2|0,3:2|0:0,0:0:0:0:
409,364,59992,2,0,L|416:294,1,50,2|0,0:0|0:0,0:0:0:0:
421,239,60292,5,8,0:3:0:0:
209,276,60592,1,2,0:0:0:0:
415,159,60892,2,0,L|350:148,1,50,2|0,0:0|0:0,0:0:0:0:
296,139,61192,1,0,0:0:0:0:
223,126,61342,1,0,0:0:0:0:
319,211,61492,2,0,L|339:269,1,50,2|0,3:2|0:0,0:0:0:0:
342,86,61792,1,0,0:0:0:0:
296,139,61942,1,0,0:0:0:0:
244,194,62092,1,2,3:2:0:0:
207,66,62242,1,0,0:0:0:0:
342,86,62392,1,2,0:0:0:0:
244,194,62542,1,0,0:0:0:0:
112,156,62692,6,0,L|47:137,1,50,8|0,0:3|0:0,0:0:0:0:
171,273,63007,2,0,L|97:293,1,50,2|0,0:0|0:0,0:0:0:0:
323,281,63323,2,0,L|303:346,1,50,2|0,0:0|0:0,0:0:0:0:
440,185,63639,2,0,L|487:246,1,50,2|0,0:0|0:0,0:0:0:0:
369,76,63955,1,2,3:2:0:0:
418,40,64125,1,0,0:0:0:0:
261,51,64295,2,0,L|313:64,1,50
203,77,64636,2,0,L|143:62,1,50,2|0,3:2|0:0,0:0:0:0:
50,74,64977,2,0,L|98:86,1,50,2|2,0:0|0:0,0:0:0:0:
161,129,65318,5,2,0:0:0:0:
183,190,65510,1,0,0:0:0:0:
224,140,65702,1,0,0:0:0:0:
351,129,65894,1,0,0:0:0:0:
329,190,66086,1,2,0:0:0:0:
288,140,66278,1,0,0:0:0:0:
256,87,66471,1,0,0:0:0:0:
256,192,66664,1,0,0:0:0:0:
311,284,66856,2,0,P|332:288|374:274,1,50,2|0,0:0|0:0,0:0:0:0:
201,284,67256,2,0,P|180:288|138:274,1,50,2|0,0:0|0:0,0:0:0:0:
256,192,67684,2,0,L|256:128,1,50,2|0,0:0|0:0,0:0:0:0:
113,69,68171,6,0,P|138:65|179:79,1,50,2|0,0:0|0:0,0:0:0:0:
399,69,68771,2,0,P|374:65|333:79,1,50,2|0,0:0|0:0,0:0:0:0:
255,122,69416,1,2,0:0:0:0:
256,134,69800,1,0,0:0:0:0:
256,142,70185,1,2,0:0:0:0:
256,192,70281,12,0,72492,0:0:0:0:
