osu file format v14

[General]
AudioFilename: Purity.mp3
AudioLeadIn: 180
PreviewTime: 59774
Countdown: 0
SampleSet: Soft
StackLeniency: 0.7
Mode: 0
LetterboxInBreaks: 0
WidescreenStoryboard: 0

[Editor]
DistanceSpacing: 1
BeatDivisor: 4
GridSize: 8
TimelineZoom: 1.1

[Metadata]
Title:Purity of Your Smile
TitleUnicode:Purity of Your Smile
Artist:SoundTeMP
ArtistUnicode:SoundTeMP
Creator:iYiyo
Version:Novice
Source:Ragnarok Online
Tags:ラグナロクオンライン theme of amatsu bgm ost ro mmorpg 76 Gravity
BeatmapID:910450
BeatmapSetID:420532

[Difficulty]
HPDrainRate:3
CircleSize:3
OverallDifficulty:2
ApproachRate:3
SliderMultiplier:1
SliderTickRate:1

[Events]
//Background and Video events
0,0,"3j0HaXK.jpg",0,0
//Break Periods
//Storyboard Layer 0 (Background)
//Storyboard Layer 1 (Fail)
//Storyboard Layer 2 (Pass)
//Storyboard Layer 3 (Foreground)
//Storyboard Sound Samples

[TimingPoints]
1820,454.545454545455,4,2,1,40,1,0
16365,-100,4,2,1,40,0,0
30910,-100,4,2,2,50,0,0
60001,-100,4,2,2,70,0,1
89092,-100,4,2,2,40,0,0
118183,-100,4,2,2,50,0,0
132729,-100,4,2,2,70,0,0
146820,500,4,2,1,40,1,0
147320,461.538461538462,4,2,1,40,1,0
147781,480,4,2,1,40,1,0
148261,521.739130434783,4,2,1,40,1,0
148521,631.578947368421,4,2,1,40,1,0
149152,800,4,2,1,40,1,0
149552,857.142857142857,4,2,1,40,1,0
149980,923.076923076923,4,2,1,40,1,0
150441,1000,4,2,1,40,1,0
150941,1250,4,2,1,40,1,0
151566,1250,4,2,1,40,1,0
154691,-100,4,2,1,5,0,0

[Colours]
Combo1 : 128,64,0
Combo2 : 0,202,0
Combo3 : 147,0,0
Combo4 : 0,128,0

[HitObjects]
128,312,1820,6,0,B|192:328|192:328|248:272|248:272|339:293|383:197,1,300,2|0,0:0|0:0,0:0:0:0:
279,175,3638,2,0,P|169:95|79:197,1,300
181,198,5456,6,0,B|240:288|240:288|432:288,1,300,2|0,0:0|0:0,0:0:0:0:
446,188,7274,2,0,B|310:188,1,100
269,124,8183,2,0,B|212:41,1,100,2|0,0:0|0:0,0:0:0:0:
123,86,9092,6,0,P|75:174|91:286,1,200,2|0,0:0|0:0,0:0:0:0:
280,312,10910,2,0,P|328:224|312:112,1,200,2|0,0:0|0:0,0:0:0:0:
248,64,12274,1,0,0:0:0:0:
152,48,12729,6,0,P|56:72|8:168,1,200,2|0,0:0|0:0,0:0:0:0:
80,344,14547,2,0,P|176:320|224:224,1,200,2|0,0:0|0:0,0:0:0:0:
264,40,16365,6,0,B|296:88|344:88|344:88|408:88|408:88|472:136|432:216,1,300,2|0,0:0|0:0,0:0:0:0:
368,288,18183,2,0,B|322:305|270:281|270:281|196:344|196:344|136:352|96:304,1,300
96,216,20001,6,0,P|146:116|282:203,1,300,2|0,0:0|0:0,0:0:0:0:
252,285,21820,2,0,P|212:314|162:316,1,100
63,309,22729,2,0,P|25:277|10:230,1,100,2|0,0:0|0:0,0:0:0:0:
75,154,23638,6,0,B|155:90|155:90|251:90|251:90|329:154,1,300,2|0,0:0|0:0,0:0:0:0:
335,254,25456,2,0,B|240:206|196:250|192:254|188:258|139:306|50:252,1,300,2|0,0:0|0:0,0:0:0:0:
25,155,27274,6,0,P|71:78|176:71,1,200,2|0,0:0|0:0,0:0:0:0:
272,96,28638,1,0,0:0:0:0:
368,72,29092,1,2,0:0:0:0:
440,288,30910,6,0,L|320:296,1,100,2|0,0:0|0:0,0:0:0:0:
240,304,31820,1,12,0:0:0:0:
144,280,32274,1,0,0:0:0:0:
88,200,32729,2,0,P|88:144|128:104,1,100,2|0,0:0|0:0,0:0:0:0:
208,72,33638,6,0,B|288:72|288:72|369:160,1,200,8|2,0:0|0:0,0:0:0:0:
248,328,35456,1,8,0:0:0:0:
152,328,35910,1,0,0:0:0:0:
48,328,36365,2,0,L|40:208,1,100,2|0,0:0|0:0,0:0:0:0:
64,128,37274,1,8,0:0:0:0:
152,80,37729,1,8,0:0:0:0:
248,56,38183,6,0,L|368:72,1,100,2|0,0:0|0:0,0:0:0:0:
448,96,39092,1,12,0:0:0:0:
464,296,40001,2,0,L|344:280,1,100,2|0,0:0|0:0,0:0:0:0:
264,256,40910,1,8,0:0:0:0:
168,280,41365,1,0,0:0:0:0:
72,248,41820,6,0,P|79:194|110:159,1,100,2|0,0:0|0:0,0:0:0:0:
208,176,42729,2,0,P|239:137|245:88,1,100,8|0,0:0|0:0,0:0:0:0:
184,8,43638,1,2,0:0:0:0:
336,144,44547,1,0,0:0:0:0:
224,304,45456,6,0,L|104:288,1,100,2|0,0:0|0:0,0:0:0:0:
64,208,46365,1,12,0:0:0:0:
88,112,46820,1,0,0:0:0:0:
184,88,47274,2,0,L|304:72,1,100,2|0,0:0|0:0,0:0:0:0:
384,64,48183,6,0,B|376:168|376:168|392:272,1,200,8|2,0:0|0:0,0:0:0:0:
192,288,50001,1,8,0:0:0:0:
192,184,50456,1,0,0:0:0:0:
190,84,50910,2,0,P|219:45|278:29,1,100,2|0,0:0|0:0,0:0:0:0:
360,72,51820,1,8,0:0:0:0:
360,171,52274,1,0,0:0:0:0:
360,271,52729,6,0,L|260:257,1,100,2|0,0:0|0:0,0:0:0:0:
160,240,53638,1,12,0:0:0:0:
104,48,54547,2,0,L|203:34,1,100,2|0,0:0|0:0,0:0:0:0:
304,24,55456,1,8,0:0:0:0:
376,96,55910,1,0,0:0:0:0:
393,194,56365,6,0,L|409:306,1,100,2|0,0:0|0:0,0:0:0:0:
312,288,57274,2,0,L|296:176,1,100,8|0,0:0|0:0,0:0:0:0:
280,91,58183,1,2,0:0:0:0:
208,277,59092,1,0,0:0:0:0:
77,123,60001,6,0,B|53:155|53:155|61:235,1,100,6|8,0:0|0:0,0:0:0:0:
101,307,60910,2,0,L|208:286,1,100,0|8,0:0|0:0,0:0:0:0:
296,264,61820,2,0,B|384:224|384:224|384:120|384:120|296:72,1,300,2|8,0:0|0:0,0:0:0:0:
200,96,63638,6,0,L|248:184,1,100,2|8,0:0|0:0,0:0:0:0:
208,280,64547,2,0,L|160:368,1,100,0|8,0:0|0:0,0:0:0:0:
72,328,65456,2,0,L|48:120,1,200,2|0,0:0|0:0,0:0:0:0:
120,56,66820,1,8,0:0:0:0:
216,32,67274,6,0,P|264:24|336:40,1,100,2|8,0:0|0:0,0:0:0:0:
344,128,68183,2,0,P|336:176|352:248,1,100,0|8,0:0|0:0,0:0:0:0:
440,224,69092,2,0,P|448:176|432:104,1,100,2|8,0:0|0:0,0:0:0:0:
392,40,70001,2,0,P|344:32|272:48,1,100,0|8,0:0|0:0,0:0:0:0:
208,96,70910,6,0,L|176:192,1,100,2|8,0:0|0:0,0:0:0:0:
264,232,71820,2,0,L|296:136,1,100,0|8,0:0|0:0,0:0:0:0:
392,104,72729,2,0,B|408:140|408:140|382:216,1,100,2|8,0:0|0:0,0:0:0:0:
374,296,73638,1,0,0:0:0:0:
176,312,74547,6,0,P|160:264|176:208,1,100,6|8,0:0|0:0,0:0:0:0:
240,144,75456,2,0,P|288:128|344:144,1,100,0|8,0:0|0:0,0:0:0:0:
416,192,76365,2,0,P|416:328|264:344,1,300,2|8,0:0|0:0,0:0:0:0:
216,272,78183,6,0,L|192:168,1,100,2|8,0:0|0:0,0:0:0:0:
104,216,79092,2,0,L|128:320,1,100,0|8,0:0|0:0,0:0:0:0:
216,360,80001,2,0,L|432:368,1,200,2|0,0:0|0:0,0:0:0:0:
480,288,81365,1,8,0:0:0:0:
456,192,81820,6,0,P|424:144|368:128,1,100,2|8,0:0|0:0,0:0:0:0:
296,176,82729,2,0,P|251:155|226:112,1,100,0|8,0:0|0:0,0:0:0:0:
184,24,83638,2,0,L|80:48,1,100,2|8,0:0|0:0,0:0:0:0:
24,128,84547,2,0,L|48:232,1,100,0|8,0:0|0:0,0:0:0:0:
136,280,85456,5,2,0:0:0:0:
232,256,85910,1,8,0:0:0:0:
328,280,86365,1,2,0:0:0:0:
424,256,86819,1,8,0:0:0:0:
352,184,87274,1,2,0:0:0:0:
352,184,89092,6,0,L|136:160,1,200,6|8,0:0|0:0,0:0:0:0:
24,312,90910,2,0,L|240:336,1,200,2|8,0:0|0:0,0:0:0:0:
408,264,92729,6,0,P|384:168|288:120,1,200,2|8,0:0|0:0,0:0:0:0:
200,104,94092,1,0,0:0:0:0:
120,168,94547,2,0,P|144:264|240:312,1,200,2|8,0:0|0:0,0:0:0:0:
416,232,96365,6,0,L|384:16,1,200,2|12,0:0|0:0,0:0:0:0:
186,34,98183,2,0,L|156:231,1,200,2|12,0:0|0:0,0:0:0:0:
224,304,99547,1,0,0:0:0:0:
320,312,100001,6,0,L|424:312,1,100,2|0,0:0|0:0,0:0:0:0:
488,240,100910,2,0,P|488:192|456:144,1,100,8|0,0:0|0:0,0:0:0:0:
376,104,101820,2,0,L|272:104,1,100,2|0,0:0|0:0,0:0:0:0:
192,160,102729,2,0,P|192:208|224:256,1,100,8|0,0:0|0:0,0:0:0:0:
304,304,103638,6,0,B|360:272|360:272|360:192|360:192|446:152|415:44,1,300,6|0,0:0|0:0,0:0:0:0:
320,96,105456,2,0,B|271:94|230:135|230:135|139:101|139:101|80:114|52:174,1,300,2|0,0:0|0:0,0:0:0:0:
88,264,107274,6,0,P|240:240|392:264,1,300,2|0,0:0|0:0,0:0:0:0:
432,176,109092,2,0,B|384:88|384:88|288:88|288:88|184:40,1,300,2|0,0:0|0:0,0:0:0:0:
96,64,110910,6,0,L|80:184,1,100,2|0,0:0|0:0,0:0:0:0:
80,264,111820,1,12,0:0:0:0:
280,288,112729,2,0,L|264:168,1,100,2|0,0:0|0:0,0:0:0:0:
264,88,113639,1,12,0:0:0:0:
360,48,114092,1,0,0:0:0:0:
456,64,114547,6,0,P|472:112|464:176,1,100,2|0,0:0|0:0,0:0:0:0:
424,248,115456,2,0,P|376:264|312:256,1,100,8|0,0:0|0:0,0:0:0:0:
232,224,116365,2,0,P|182:221|135:236,1,100,2|0,0:0|0:0,0:0:0:0:
64,312,117274,1,8,0:0:0:0:
160,336,117729,1,0,0:0:0:0:
256,320,118183,6,0,P|344:280|384:176,1,200,6|8,0:0|0:0,0:0:0:0:
376,88,119547,1,0,0:0:0:0:
296,24,120001,2,0,L|88:48,1,200,2|8,0:0|0:0,0:0:0:0:
32,120,121365,1,0,0:0:0:0:
16,216,121820,6,0,P|55:305|144:346,1,200,2|8,0:0|0:0,0:0:0:0:
240,328,123183,1,0,0:0:0:0:
336,304,123638,2,0,L|312:96,1,200,2|8,0:0|0:0,0:0:0:0:
232,48,125001,1,0,0:0:0:0:
152,104,125456,6,0,B|114:197|114:197|160:296,1,200,2|8,0:0|0:0,0:0:0:0:
256,304,126820,1,0,0:0:0:0:
352,280,127274,2,0,B|390:187|390:187|344:88,1,200,2|8,0:0|0:0,0:0:0:0:
248,80,128638,1,0,0:0:0:0:
207,171,129092,6,0,P|127:219|47:147,1,200,2|8,0:0|0:0,0:0:0:0:
88,64,130456,1,0,0:0:0:0:
184,56,130910,2,0,L|288:48,1,100,2|0,0:0|0:0,0:0:0:0:
384,64,131820,1,8,0:0:0:0:
408,160,132274,1,8,0:0:0:0:
424,264,132729,6,0,P|328:248|216:272,1,200,6|8,0:0|0:0,0:0:0:0:
144,320,134092,1,0,0:0:0:0:
48,304,134547,2,0,L|24:96,1,200,2|8,0:0|0:0,0:0:0:0:
96,32,135910,1,0,0:0:0:0:
192,8,136365,6,0,P|304:8|392:64,1,200,2|8,0:0|0:0,0:0:0:0:
416,144,137729,1,0,0:0:0:0:
400,240,138183,2,0,P|288:240|200:184,1,200,2|8,0:0|0:0,0:0:0:0:
157,114,139547,1,0,0:0:0:0:
232,48,140001,6,0,P|320:48|312:152,1,200,6|8,0:0|0:0,0:0:0:0:
264,216,141365,1,0,0:0:0:0:
176,264,141820,2,0,B|76:276|76:276|-8:200,1,200,2|8,0:0|0:0,0:0:0:0:
8,112,143183,1,0,0:0:0:0:
80,40,143638,6,0,P|177:21|275:37,1,200,2|8,0:0|0:0,0:0:0:0:
352,104,145001,1,0,0:0:0:0:
384,200,145456,2,0,L|376:304,1,100,2|0,0:0|0:0,0:0:0:0:
304,368,146365,1,8,0:0:0:0:
219,334,146820,1,0,0:0:0:0:
256,192,147320,12,0,154691,0:0:0:0:
