osu file format v14

[General]
AudioFilename: Be Nice 'n Easy.mp3
AudioLeadIn: 0
PreviewTime: 38774
Countdown: 0
SampleSet: Soft
StackLeniency: 0.7
Mode: 0
LetterboxInBreaks: 0
WidescreenStoryboard: 0

[Editor]
DistanceSpacing: 1
BeatDivisor: 4
GridSize: 4
TimelineZoom: 2.2

[Metadata]
Title:Be Nice 'n Easy
TitleUnicode:Be Nice 'n Easy
Artist:SoundTeMP
ArtistUnicode:SoundTeMP
Creator:ErunamoJAZZ
Version:Side's Normal
Source:Ragnarok Online
Tags:라그나로크 온라인 ラグナロクオンライン gravity mmorpg Izlude dungeon and HappyRocket88 Side OnosakiHito
BeatmapID:867138
BeatmapSetID:366807

[Difficulty]
HPDrainRate:4
CircleSize:3.5
OverallDifficulty:4
ApproachRate:5
SliderMultiplier:1.1
SliderTickRate:1

[Events]
//Background and Video events
0,0,"bg.jpg",0,0
//Break Periods
2,64574,69574
2,80774,82374
2,121974,125374
//Storyboard Layer 0 (Background)
//Storyboard Layer 1 (Fail)
//Storyboard Layer 2 (Pass)
//Storyboard Layer 3 (Foreground)
//Storyboard Sound Samples

[TimingPoints]
374,400,4,2,0,45,1,0
12374,-100,4,2,0,25,0,0
13174,-100,4,2,0,45,0,0
38774,-100,4,2,0,45,0,1
62774,-100,4,2,0,45,0,0
63574,-100,4,2,0,45,0,0
63974,-100,4,2,0,45,0,0
64374,-100,4,2,0,45,0,0
88374,-100,4,2,0,19,0,0
89974,-100,4,2,0,45,0,0
134774,-100,4,2,0,45,0,0

[Colours]
Combo1 : 209,12,41
Combo2 : 206,176,6
Combo3 : 13,145,172
Combo4 : 210,183,255

[HitObjects]
289,307,374,6,0,P|349:299|385:263,1,110,2|8,0:0|0:0,0:0:0:0:
402,214,974,2,0,P|377:168|375:103,1,110,0|2,0:0|0:0,0:0:0:0:
390,59,1574,1,8,0:0:0:0:
475,128,1974,2,0,P|500:174|502:239,1,110,2|8,0:0|0:0,0:0:0:0:
490,284,2574,2,0,P|436:290|390:327,1,110,0|2,0:0|0:0,0:0:0:0:
367,371,3174,2,0,P|340:369|310:350,1,55,8|0,0:0|0:0,0:0:0:0:
290,307,3574,6,0,P|244:265|196:255,1,110,2|8,0:0|0:0,0:0:0:0:
144,259,4174,2,0,P|105:231|81:170,1,110,0|2,0:0|0:0,0:0:0:0:
88,120,4774,1,8,0:0:0:0:
179,58,5174,2,0,L|200:-3,2,55,2|2|8,0:0|0:1|0:0,0:0:0:0:
181,112,5774,2,0,P|226:142|279:132,1,110,2|2,0:1|0:0,0:0:0:0:
323,101,6374,2,0,P|347:94|380:99,1,55,8|0,0:0|0:0,0:0:0:0:
425,125,6774,6,0,P|441:183|404:219,1,110,2|8,0:0|0:0,0:0:0:0:
356,227,7374,2,0,B|306:246|299:209|248:228,1,110,0|2,0:0|0:0,0:0:0:0:
203,258,7974,1,8,0:0:0:0:
129,338,8374,2,0,P|86:301|73:245,1,110,2|8,0:0|0:0,0:0:0:0:
110,210,8974,2,0,P|163:220|203:258,1,110,0|2,0:0|0:0,0:0:0:0:
222,310,9574,1,8,0:0:0:0:
329,331,9974,6,0,P|376:320|407:288,2,82.5,2|2|2,0:0|0:0|0:0,0:0:0:0:
239,266,10974,2,0,P|209:264|186:274,2,55,2|8|0,0:0|0:0|0:0,0:0:0:0:
293,256,11574,2,0,B|304:220|304:220|304:148,1,110,2|8,0:0|0:0,0:0:0:0:
217,81,12374,2,0,B|187:81|187:81|158:98,2,55,0|0|8,0:0|0:0|0:0,0:0:0:0:
304,148,13174,6,0,P|355:134|382:83,1,110,4|8,0:0|0:0,0:0:0:0:
399,33,13774,2,0,P|454:28|499:59,2,110,2|2|2,0:0|0:0|0:0,0:0:0:0:
347,52,14774,2,0,P|289:62|246:40,1,110,0|8,0:0|0:0,0:0:0:0:
135,41,15574,1,0,0:0:0:0:
71,130,15974,1,8,0:0:0:0:
89,241,16374,6,0,P|125:272|190:279,1,110,0|8,0:0|0:0,0:0:0:0:
236,264,16974,2,0,P|267:229|275:165,2,110,2|2|2,0:0|0:0|0:0,0:0:0:0:
185,279,17974,2,0,P|202:334|246:360,1,110,0|8,0:0|0:0,0:0:0:0:
299,364,18574,1,2,0:0:0:0:
353,354,18774,2,0,P|379:358|406:375,2,55,2|2|8,0:3|0:0|0:0,0:0:0:0:
287,265,19574,6,0,B|314:219|314:219|318:162,1,110,0|8,0:0|0:0,0:0:0:0:
283,120,20174,2,0,P|221:103|180:69,1,110,2|2,0:0|0:0,0:0:0:0:
159,26,20774,1,8,0:0:0:0:
68,90,21174,2,0,L|6:78,2,55,0|2|8,0:0|0:0|0:0,0:0:0:0:
95,138,21774,2,0,B|144:159|144:159|209:159,1,110,2|2,0:0|0:0,0:0:0:0:
254,155,22374,2,0,P|276:173|289:197,1,55,8|2,0:0|0:0,0:0:0:0:
279,251,22774,6,0,P|235:279|178:276,1,110,0|8,0:0|0:0,0:0:0:0:
137,240,23374,1,2,0:0:0:0:
34,199,23774,1,2,0:0:0:0:
39,309,24174,2,0,P|105:357|186:351,1,165,2|8,0:0|0:2,0:0:0:0:
256,266,25174,2,0,L|321:283,1,55,0|2,0:0|0:0,0:0:0:0:
352,246,25574,2,0,L|346:182,1,55,8|2,0:0|0:0,0:0:0:0:
363,138,25974,6,0,P|416:125|458:90,1,110,0|8,0:0|0:0,0:0:0:0:
458,35,26574,2,0,P|408:7|352:5,2,110,2|2|2,0:0|0:0|0:0,0:0:0:0:
490,79,27574,2,0,P|498:131|473:195,1,110,0|10,0:0|0:0,0:0:0:0:
427,201,28174,2,0,B|348:207|348:207|313:225,2,110,2|2|2,0:0|0:0|0:0,0:0:0:0:
484,296,29374,6,0,L|366:310,1,110,2|2,0:0|0:0,0:0:0:0:
268,304,30174,2,0,B|209:296|209:296|163:259,1,110,2|2,0:0|0:0,0:0:0:0:
153,211,30774,1,0,0:0:0:0:
237,140,31174,1,8,0:0:0:0:
321,209,31574,2,0,P|347:202|371:187,1,55
397,140,31974,2,0,P|400:112|411:87,1,55,10|0,0:0|0:0,0:0:0:0:
425,34,32374,6,0,P|373:10|318:16,1,110,2|8,0:0|0:0,0:0:0:0:
272,40,32974,2,0,B|268:96|268:96|237:140,1,110,2|2,0:0|0:0,0:0:0:0:
145,201,33774,2,0,P|73:165|54:87,1,165,2|10,0:0|0:0,0:0:0:0:
83,34,34574,2,0,P|136:10|187:14,1,110,2|2,0:0|0:0,0:0:0:0:
261,92,35374,2,0,P|309:117|364:114,1,110,2|2,0:0|0:0,0:0:0:0:
440,35,36174,1,2,0:0:0:0:
333,8,36574,1,2,0:0:0:0:
364,114,36974,2,0,B|347:191|347:191|279:193|279:193|242:242|242:242|177:218|106:252|93:319,1,385,2|8,0:0|0:0,0:0:0:0:
198,345,38774,6,0,P|243:350|285:337,2,82.5,6|2|2,0:0|0:0|0:0,0:0:0:0:
162,302,39574,2,0,P|140:269|101:247,1,82.5,2|2,0:0|0:0,0:0:0:0:
21,253,40174,2,0,B|14:209|48:168|55:188|93:158|90:107,1,165,2|8,0:0|0:0,0:0:0:0:
176,40,41174,2,0,P|231:41|284:28,1,110,2|8,0:0|0:0,0:0:0:0:
392,48,41974,6,0,P|427:27|468:23,2,82.5,2|2|2,0:0|0:0|0:0,0:0:0:0:
372,99,42774,2,0,P|336:119|295:123,1,82.5,2|2,0:0|0:0,0:0:0:0:
226,78,43374,2,0,P|152:110|122:185,1,165,2|8,0:0|0:0,0:0:0:0:
186,275,44374,2,0,P|238:262|273:221,1,110,2|10,0:0|0:0,0:0:0:0:
321,122,45174,6,0,L|300:41,2,82.5,2|2|2,0:0|0:0|0:0,0:0:0:0:
270,144,45974,2,0,P|216:125|185:80,1,110,2|10,0:0|0:0,0:0:0:0:
145,45,46574,2,0,B|90:30|50:65|50:65|71:94|67:132,1,165,2|8,0:0|0:0,0:0:0:0:
25,227,47574,2,0,L|8:280,2,55,0|0|8,0:0|0:0|0:0,0:0:0:0:
122,175,48374,6,0,P|175:188|198:218,2,82.5,2|2|2,0:0|0:0|0:0,0:0:0:0:
78,208,49174,2,0,P|91:265|131:304,1,110,2|10,0:0|0:0,0:0:0:0:
179,315,49774,2,0,B|256:272|256:336|342:276,1,165,2|8,0:0|0:0,0:0:0:0:
360,231,50574,1,0,0:0:0:0:
371,177,50774,2,0,P|389:150|422:136,1,55
461,126,51174,1,8,0:0:0:0:
430,18,51574,6,0,P|395:40|354:43,1,82.5,6|2,0:0|0:0,0:0:0:0:
274,22,52174,1,2,0:0:0:0:
235,60,52374,2,0,L|249:175,1,110,2|8,0:0|0:0,0:0:0:0:
224,217,52974,2,0,P|150:182|69:186,1,165,2|8,0:0|0:0,0:0:0:0:
74,296,53974,2,0,P|122:319|177:317,1,110,0|8,0:0|0:0,0:0:0:0:
272,264,54774,6,0,P|264:228|280:172,2,82.5,2|2|2,0:0|0:0|0:0,0:0:0:0:
310,304,55574,2,0,P|360:313|411:285,1,110,2|10,0:0|0:0,0:0:0:0:
431,235,56174,2,0,B|420:199|394:178|394:178|392:157|392:157|360:137|347:93,1,165,2|8,0:0|0:0,0:0:0:0:
248,52,57174,2,0,P|221:60|199:75,2,55,0|0|8,0:0|0:0|0:0,0:0:0:0:
293,153,57974,6,0,P|329:133|348:97,2,82.5,2|2|2,0:0|0:0|0:0,0:0:0:0:
240,140,58774,2,0,B|177:167|177:167|157:203,1,110,2|10,0:0|0:0,0:0:0:0:
159,253,59374,2,0,P|210:273|243:316,1,110,2|2,0:0|0:0,0:0:0:0:
285,352,59975,1,10,0:0:0:0:
339,354,60174,1,2,0:0:0:0:
383,321,60374,2,0,B|384:277|384:277|432:231,1,110,2|10,0:0|0:0,0:0:0:0:
483,134,61174,6,0,P|469:95|438:68,2,82.5,2|2|2,0:0|0:0|0:0,0:0:0:0:
453,180,61974,2,0,P|398:178|355:147,1,110,2|10,0:0|0:0,0:0:0:0:
339,93,62574,1,2,0:0:0:0:
256,192,62774,12,4,64374,0:0:0:0:
256,192,70774,12,2,76374,0:0:0:0:
364,148,77574,6,0,L|364:88,2,55,2|2|2,0:0|0:0|0:0,0:0:0:0:
329,191,78174,1,2,0:0:0:0:
294,234,78374,2,0,L|294:298,2,55,2|2|2,0:0|0:0|0:0,0:0:0:0:
259,191,78974,1,2,0:0:0:0:
224,148,79174,2,0,L|224:88,2,55,2|2|2,0:0|0:0|0:0,0:0:0:0:
189,191,79774,1,2,0:0:0:0:
154,234,79974,2,0,L|154:293,2,55,2|2|2,0:0|0:0|0:0,0:0:0:0:
119,191,80574,1,2,0:0:0:0:
256,192,83574,12,0,88374,0:0:0:0:
276,256,89974,6,0,P|303:206|300:148,1,110,4|8,0:0|0:0,0:0:0:0:
280,103,90574,2,0,P|310:68|375:49,2,110,2|2|2,0:0|0:0|0:0,0:0:0:0:
254,152,91574,2,0,P|204:174|141:160,1,110,0|8,0:0|0:0,0:0:0:0:
106,132,92174,2,0,P|45:148|28:210,1,110,2|2,0:0|0:0,0:0:0:0:
39,240,92774,2,0,L|34:309,1,55,8|0,0:0|0:0,0:0:0:0:
66,340,93174,6,0,P|120:344|185:320,1,110,2|8,0:0|0:0,0:0:0:0:
213,290,93774,1,2,0:0:0:0:
304,228,94174,1,2,0:0:0:0:
408,263,94574,2,0,P|445:181|445:106,1,165,2|8,0:0|0:0,0:0:0:0:
351,53,95574,2,0,L|229:69,1,110,2|8,0:0|0:0,0:0:0:0:
187,76,96174,1,0,0:0:0:0:
134,59,96374,6,0,P|100:35|59:28,2,82.5,2|2|2,0:0|0:0|0:0,0:0:0:0:
148,112,97174,2,0,L|156:227,1,110,2|8,0:0|0:0,0:0:0:0:
172,274,97774,1,2,0:0:0:0:
269,224,98174,2,0,P|270:196|262:164,2,55,2|10|2,0:0|0:0|0:0,0:0:0:0:
257,278,98774,2,0,P|286:325|347:344,1,110,2|10,0:0|0:0,0:0:0:0:
385,323,99374,6,0,B|412:267|377:217|377:217|385:179|385:179|340:129|363:62,1,275,2|0,0:0|0:0,0:0:0:0:
465,102,100774,1,10,0:0:0:0:
499,145,100974,2,0,B|512:188|490:226|490:226|468:260|479:304,1,165,2|8,0:0|0:0,0:0:0:0:
380,349,101974,2,0,P|353:343|330:328,1,55,2|2,0:0|0:0,0:0:0:0:
314,274,102374,2,0,P|301:249|280:231,1,55,10|2,0:0|0:0,0:0:0:0:
233,203,102774,6,0,P|211:153|221:100,1,110,2|8,0:0|0:0,0:0:0:0:
272,79,103374,2,0,P|317:108|338:158,2,110,2|2|2,0:0|0:0|0:0,0:0:0:0:
226,47,104374,2,0,B|195:37|170:47|170:47|148:28|122:27,1,110,0|8,0:0|0:0,0:0:0:0:
58,117,105174,2,0,L|45:231,1,110,0|8,0:0|0:0,0:0:0:0:
82,267,105774,1,0,0:0:0:0:
136,272,105974,6,0,P|194:245|218:199,1,110,0|8,0:0|0:0,0:0:0:0:
225,152,106574,1,2,0:0:0:0:
156,66,106974,1,2,0:0:0:0:
58,117,107374,2,0,P|69:171|69:226,1,110,2|0,0:0|0:0,0:0:0:0:
57,279,107974,1,8,0:0:0:0:
142,348,108374,2,0,P|165:334|184:314,1,55,0|2,0:0|0:0,0:0:0:0:
205,263,108774,2,0,P|203:235|211:209,1,55,8|0,0:0|0:0,0:0:0:0:
238,161,109174,6,0,P|265:151|298:145,2,55,2|2|8,0:2|0:2|0:2,0:0:0:0:
182,162,109774,2,0,P|161:117|173:60,1,110,0|2,0:2|0:2,0:0:0:0:
273,13,110574,2,0,B|331:16|331:16|378:44,1,110,2|2,0:2|0:2,0:0:0:0:
412,83,111174,1,8,0:2:0:0:
463,180,111574,2,0,L|510:146,2,55,2|2|10,0:2|0:2|0:2,0:0:0:0:
413,203,112174,1,2,0:2:0:0:
381,247,112374,6,0,P|326:272|265:267,1,110,0|8,0:2|0:2,0:0:0:0:
229,245,112974,2,0,P|178:222|115:225,2,110,2|2|2,0:2|0:0|0:0,0:0:0:0:
232,300,113974,2,0,B|280:331|280:331|347:331,1,110,0|8,0:0|0:0,0:0:0:0:
385,315,114574,1,0,0:0:0:0:
426,279,114774,2,0,L|443:222,1,55
419,176,115174,2,0,L|402:119,1,55,4|0,0:0|0:0,0:0:0:0:
421,71,115574,6,0,P|374:31|305:38,1,110,4|10,0:0|0:0,0:0:0:0:
278,52,116174,1,2,0:0:0:0:
245,96,116374,2,0,B|250:149|250:149|226:200,1,110,2|10,0:0|0:0,0:0:0:0:
189,241,116974,1,2,0:0:0:0:
87,196,117374,1,2,0:0:0:0:
116,149,117574,2,0,P|111:114|89:95,1,55,10|2,0:0|0:0,0:0:0:0:
47,78,117974,2,0,P|16:118|13:182,1,110,2|10,0:0|0:0,0:0:0:0:
37,223,118574,1,0,0:0:0:0:
102,311,118974,6,0,P|82:338|53:350,2,55,2|10|2,0:0|0:0|0:0,0:0:0:0:
123,260,119574,2,0,P|157:218|217:199,1,110,2|10,0:0|0:0,0:0:0:0:
263,200,120174,1,2,0:0:0:0:
312,297,120574,1,2,0:0:0:0:
364,281,120774,2,0,L|413:256,1,55,10|2,0:0|0:0,0:0:0:0:
446,212,121174,2,0,P|450:152|411:101,1,110,2|10,0:0|0:0,0:0:0:0:
376,84,121774,1,2,0:0:0:0:
243,144,126574,6,0,P|270:191|282:244,1,110,2|2,0:0|0:0,0:0:0:0:
363,170,127374,2,0,P|335:122|323:69,1,110,2|2,0:0|0:0,0:0:0:0:
282,31,127974,1,8,0:0:0:0:
227,23,128174,1,2,0:0:0:0:
138,87,128574,6,0,P|155:110|161:136,1,55,2|10,0:0|0:0,0:0:0:0:
149,190,128974,1,2,0:0:0:0:
130,241,129174,2,0,P|140:293|186:324,1,110,2|10,0:0|0:0,0:0:0:0:
239,317,129774,1,2,0:0:0:0:
319,242,130174,2,0,P|340:273|346:305,2,55,2|10|2,0:0|0:0|0:0,0:0:0:0:
276,207,130774,2,0,P|248:164|250:104,1,110,2|10,0:0|0:0,0:0:0:0:
275,58,131374,1,0,0:0:0:0:
385,58,131774,6,0,L|390:113,1,55,2|10,0:0|0:0,0:0:0:0:
393,167,132174,1,2,0:0:0:0:
415,217,132374,1,2,0:0:0:0:
395,324,132774,1,10,0:0:0:0:
345,348,132974,2,0,P|292:350|242:326,1,110,2|2,0:0|0:0,0:0:0:0:
204,284,133574,2,0,P|187:259|161:237,1,55,10|2,0:0|0:0,0:0:0:0:
122,212,133974,2,0,B|110:135|110:135|139:107,1,110,2|10,0:0|0:0,0:0:0:0:
173,74,134574,1,2,0:0:0:0:
227,79,134774,6,0,P|279:114|378:90,1,165,0|2,0:0|0:0,0:0:0:0:
446,10,135774,2,0,P|467:31|479:58,1,55,0|8,0:0|0:0,0:0:0:0:
486,110,136174,2,0,P|467:163|426:199,1,110,2|2,0:0|0:0,0:0:0:0:
375,216,136774,2,0,L|327:184,2,55,10|2|2,0:0|0:0|0:0,0:0:0:0:
441,304,137574,1,10,0:0:0:0:
391,327,137774,1,2,0:0:0:0:
336,332,137974,6,0,P|282:297|175:283,1,165,0|2,0:0|0:0,0:0:0:0:
74,293,138974,1,2,0:0:0:0:
47,244,139174,1,10,0:0:0:0:
47,189,139374,1,2,0:0:0:0:
256,192,139574,12,4,141174,0:0:0:0:
