osu file format v14

[General]
AudioFilename: Be Nice 'n Easy.mp3
AudioLeadIn: 0
PreviewTime: 38774
Countdown: 0
SampleSet: Normal
StackLeniency: 0.3
Mode: 1
LetterboxInBreaks: 0
WidescreenStoryboard: 1

[Editor]
Bookmarks: 374,13174,19574,25974,32374,38774,64374,77174,89974,115574,141174
DistanceSpacing: 1
BeatDivisor: 4
GridSize: 32
TimelineZoom: 1.4

[Metadata]
Title:Be Nice 'n Easy
TitleUnicode:Be Nice 'n Easy
Artist:SoundTeMP
ArtistUnicode:SoundTeMP
Creator:ErunamoJAZZ
Version:Ono's Muzukashii
Source:Ragnarok Online
Tags:라그나로크 온라인 ラグナロクオンライン gravity mmorpg Izlude dungeon and HappyRocket88 Side OnosakiHito
BeatmapID:1076980
BeatmapSetID:366807

[Difficulty]
HPDrainRate:5
CircleSize:4
OverallDifficulty:5
ApproachRate:4
SliderMultiplier:1.4
SliderTickRate:1

[Events]
//Background and Video events
0,0,"Taiko_BG.png",0,88
//Break Periods
//Storyboard Layer 0 (Background)
//Storyboard Layer 1 (Fail)
//Storyboard Layer 2 (Pass)
//Storyboard Layer 3 (Foreground)
//Storyboard Sound Samples

[TimingPoints]
374,400,4,1,0,80,1,0
38774,-100,4,1,0,80,0,1
64374,-100,4,1,0,80,0,0
115574,-100,4,1,0,80,0,1
141174,-100,4,1,0,80,0,0

[HitObjects]
256,192,374,5,0,0:0:0:0:
256,192,774,5,8,0:0:0:0:
256,192,974,5,0,0:0:0:0:
256,192,1574,5,8,0:0:0:0:
256,192,1674,1,8,0:0:0:0:
256,192,1774,1,8,0:0:0:0:
256,192,1974,5,0,0:0:0:0:
256,192,2374,5,8,0:0:0:0:
256,192,2574,5,0,0:0:0:0:
256,192,2974,5,8,0:0:0:0:
256,192,3174,1,8,0:0:0:0:
256,192,3574,5,0,0:0:0:0:
256,192,3974,5,8,0:0:0:0:
256,192,4174,5,0,0:0:0:0:
256,192,4574,5,8,0:0:0:0:
256,192,4674,1,8,0:0:0:0:
256,192,4974,1,8,0:0:0:0:
256,192,5074,1,8,0:0:0:0:
256,192,5374,5,8,0:0:0:0:
256,192,5774,1,8,0:0:0:0:
256,192,6174,1,8,0:0:0:0:
256,192,6374,1,8,0:0:0:0:
256,192,6774,5,0,0:0:0:0:
256,192,7174,5,8,0:0:0:0:
256,192,7374,5,0,0:0:0:0:
256,192,7974,5,8,0:0:0:0:
256,192,8074,1,8,0:0:0:0:
256,192,8174,1,8,0:0:0:0:
256,192,8374,5,0,0:0:0:0:
256,192,8774,5,8,0:0:0:0:
256,192,8974,5,0,0:0:0:0:
256,192,9374,5,8,0:0:0:0:
256,192,9574,1,8,0:0:0:0:
256,192,9974,5,0,0:0:0:0:
256,192,10374,5,8,0:0:0:0:
256,192,10574,5,0,0:0:0:0:
256,192,10974,5,8,0:0:0:0:
256,192,11074,1,8,0:0:0:0:
256,192,11374,1,8,0:0:0:0:
256,192,11474,1,8,0:0:0:0:
256,192,11774,1,8,0:0:0:0:
256,192,11874,1,8,0:0:0:0:
256,192,11974,1,8,0:0:0:0:
256,192,12174,5,0,0:0:0:0:
256,192,12574,1,0,0:0:0:0:
256,192,12674,1,0,0:0:0:0:
256,192,12774,5,8,0:0:0:0:
256,192,13174,5,4,0:0:0:0:
256,192,13574,5,8,0:0:0:0:
256,192,13774,5,0,0:0:0:0:
256,192,14374,5,8,0:0:0:0:
256,192,14774,5,0,0:0:0:0:
256,192,15174,5,8,0:0:0:0:
256,192,15374,5,0,0:0:0:0:
256,192,15774,1,0,0:0:0:0:
256,192,15974,5,8,0:0:0:0:
256,192,16174,1,8,0:0:0:0:
256,192,16374,5,0,0:0:0:0:
256,192,16774,5,8,0:0:0:0:
256,192,16974,5,0,0:0:0:0:
256,192,17574,5,8,0:0:0:0:
256,192,17974,5,0,0:0:0:0:
256,192,18174,1,0,0:0:0:0:
256,192,18374,5,8,0:0:0:0:
256,192,18574,5,0,0:0:0:0:
256,192,18674,1,0,0:0:0:0:
256,192,18774,1,0,0:0:0:0:
256,192,18974,1,0,0:0:0:0:
256,192,19174,5,8,0:0:0:0:
256,192,19274,1,8,0:0:0:0:
256,192,19374,1,8,0:0:0:0:
256,192,19574,5,0,0:0:0:0:
256,192,19974,5,8,0:0:0:0:
256,192,20174,5,0,0:0:0:0:
256,192,20774,5,8,0:0:0:0:
256,192,21174,5,0,0:0:0:0:
256,192,21574,5,8,0:0:0:0:
256,192,21774,5,0,0:0:0:0:
256,192,22174,1,0,0:0:0:0:
256,192,22374,5,8,0:0:0:0:
256,192,22574,5,0,0:0:0:0:
256,192,22774,1,0,0:0:0:0:
256,192,23174,5,8,0:0:0:0:
256,192,23374,5,0,0:0:0:0:
256,192,23974,5,8,0:0:0:0:
256,192,24374,5,0,0:0:0:0:
256,192,24474,1,0,0:0:0:0:
256,192,24574,1,0,0:0:0:0:
256,192,24774,5,8,0:0:0:0:
256,192,24974,1,8,0:0:0:0:
256,192,25074,1,8,0:0:0:0:
256,192,25174,5,0,0:0:0:0:
256,192,25374,1,0,0:0:0:0:
256,192,25574,5,8,0:0:0:0:
256,192,25974,5,0,0:0:0:0:
256,192,26374,5,8,0:0:0:0:
256,192,26574,5,0,0:0:0:0:
256,192,26974,1,0,0:0:0:0:
256,192,27174,5,8,0:0:0:0:
256,192,27574,5,0,0:0:0:0:
256,192,27974,5,8,0:0:0:0:
256,192,28174,5,0,0:0:0:0:
256,192,28574,5,8,0:0:0:0:
256,192,28774,1,8,0:0:0:0:
256,192,28974,5,0,0:0:0:0:
256,192,29374,5,8,0:0:0:0:
256,192,29774,5,0,0:0:0:0:
256,192,30174,1,0,0:0:0:0:
256,192,30374,5,8,0:0:0:0:
256,192,30574,5,0,0:0:0:0:
256,192,30974,1,0,0:0:0:0:
256,192,31174,5,8,0:0:0:0:
256,192,31374,5,0,0:0:0:0:
256,192,31574,1,0,0:0:0:0:
256,192,31774,5,8,0:0:0:0:
256,192,31974,1,8,0:0:0:0:
256,192,32374,5,0,0:0:0:0:
256,192,32774,5,8,0:0:0:0:
256,192,32974,5,0,0:0:0:0:
256,192,33374,1,0,0:0:0:0:
256,192,33574,5,8,0:0:0:0:
256,192,33974,5,0,0:0:0:0:
256,192,34374,5,8,0:0:0:0:
256,192,34574,5,0,0:0:0:0:
256,192,34974,5,8,0:0:0:0:
256,192,35174,1,8,0:0:0:0:
256,192,35374,5,0,0:0:0:0:
256,192,35774,5,8,0:0:0:0:
256,192,36174,5,0,0:0:0:0:
256,192,36574,5,8,0:0:0:0:
256,192,36774,1,8,0:0:0:0:
256,192,36974,6,0,L|160:192,5,70
256,192,38574,5,8,0:0:0:0:
256,192,38674,1,8,0:0:0:0:
256,192,38774,1,8,0:0:0:0:
256,192,39074,1,8,0:0:0:0:
256,192,39374,1,8,0:0:0:0:
256,192,39574,1,8,0:0:0:0:
256,192,39874,1,8,0:0:0:0:
256,192,40174,1,8,0:0:0:0:
256,192,40374,5,0,0:0:0:0:
256,192,40674,1,0,0:0:0:0:
256,192,40974,1,0,0:0:0:0:
256,192,41374,1,0,0:0:0:0:
256,192,41474,1,0,0:0:0:0:
256,192,41574,1,0,0:0:0:0:
256,192,41774,5,8,0:0:0:0:
256,192,41874,1,8,0:0:0:0:
256,192,41974,1,8,0:0:0:0:
256,192,42274,1,8,0:0:0:0:
256,192,42574,1,8,0:0:0:0:
256,192,42774,1,8,0:0:0:0:
256,192,43074,1,8,0:0:0:0:
256,192,43374,1,8,0:0:0:0:
256,192,43574,5,0,0:0:0:0:
256,192,43874,1,0,0:0:0:0:
256,192,44174,1,0,0:0:0:0:
256,192,44374,1,0,0:0:0:0:
256,192,44474,1,0,0:0:0:0:
256,192,44574,1,0,0:0:0:0:
256,192,44774,1,0,0:0:0:0:
256,192,44974,5,8,0:0:0:0:
256,192,45074,1,8,0:0:0:0:
256,192,45174,1,8,0:0:0:0:
256,192,45474,1,8,0:0:0:0:
256,192,45774,1,8,0:0:0:0:
256,192,45974,1,8,0:0:0:0:
256,192,46274,1,8,0:0:0:0:
256,192,46374,1,8,0:0:0:0:
256,192,46574,1,8,0:0:0:0:
256,192,46774,5,0,0:0:0:0:
256,192,47074,1,0,0:0:0:0:
256,192,47374,1,0,0:0:0:0:
256,192,47774,1,0,0:0:0:0:
256,192,47874,1,0,0:0:0:0:
256,192,47974,1,0,0:0:0:0:
256,192,48174,5,8,0:0:0:0:
256,192,48274,1,8,0:0:0:0:
256,192,48374,1,8,0:0:0:0:
256,192,48674,1,8,0:0:0:0:
256,192,48974,1,8,0:0:0:0:
256,192,49174,1,8,0:0:0:0:
256,192,49474,1,8,0:0:0:0:
256,192,49574,1,8,0:0:0:0:
256,192,49774,1,8,0:0:0:0:
256,192,49974,5,0,0:0:0:0:
256,192,50074,1,0,0:0:0:0:
256,192,50374,5,8,0:0:0:0:
256,192,50574,5,0,0:0:0:0:
256,192,50674,1,0,0:0:0:0:
256,192,50774,1,0,0:0:0:0:
256,192,50974,1,0,0:0:0:0:
256,192,51174,5,8,0:0:0:0:
256,192,51274,1,8,0:0:0:0:
256,192,51374,1,8,0:0:0:0:
256,192,51574,1,8,0:0:0:0:
256,192,51874,1,8,0:0:0:0:
256,192,51974,1,8,0:0:0:0:
256,192,52174,1,8,0:0:0:0:
256,192,52374,1,8,0:0:0:0:
256,192,52674,1,8,0:0:0:0:
256,192,52974,1,12,0:0:0:0:
256,192,53574,5,0,0:0:0:0:
256,192,53874,1,0,0:0:0:0:
256,192,54174,1,0,0:0:0:0:
256,192,54374,1,0,0:0:0:0:
256,192,54574,5,8,0:0:0:0:
256,192,54674,1,8,0:0:0:0:
256,192,54774,1,8,0:0:0:0:
256,192,55074,1,8,0:0:0:0:
256,192,55174,1,8,0:0:0:0:
256,192,55374,1,8,0:0:0:0:
256,192,55574,1,8,0:0:0:0:
256,192,55974,1,8,0:0:0:0:
256,192,56174,1,8,0:0:0:0:
256,192,56774,1,0,0:0:0:0:
256,192,57074,1,0,0:0:0:0:
256,192,57374,1,0,0:0:0:0:
256,192,57474,1,0,0:0:0:0:
256,192,57574,1,0,0:0:0:0:
256,192,57774,5,8,0:0:0:0:
256,192,57874,1,8,0:0:0:0:
256,192,57974,1,8,0:0:0:0:
256,192,58274,1,8,0:0:0:0:
256,192,58374,1,8,0:0:0:0:
256,192,58574,1,8,0:0:0:0:
256,192,58774,1,8,0:0:0:0:
256,192,59174,1,12,0:0:0:0:
256,192,59374,1,12,0:0:0:0:
256,192,59774,5,8,0:0:0:0:
256,192,59974,1,8,0:0:0:0:
256,192,60174,1,8,0:0:0:0:
256,192,60374,1,8,0:0:0:0:
256,192,60774,1,12,0:0:0:0:
256,192,61174,5,0,0:0:0:0:
256,192,61474,5,8,0:0:0:0:
256,192,61774,1,8,0:0:0:0:
256,192,61974,5,0,0:0:0:0:
256,192,62374,5,12,0:0:0:0:
256,192,62574,1,12,0:0:0:0:
256,192,63974,5,12,0:0:0:0:
256,192,64174,1,12,0:0:0:0:
256,192,64374,5,4,0:0:0:0:
256,192,67174,5,8,0:0:0:0:
256,192,67374,5,0,0:0:0:0:
256,192,69174,1,0,0:0:0:0:
256,192,70774,12,0,76774,0:0:0:0:
256,192,77174,5,0,0:0:0:0:
256,192,80174,5,8,0:0:0:0:
256,192,80374,5,0,0:0:0:0:
256,192,83574,12,8,89574,0:0:0:0:
256,192,89974,5,4,0:0:0:0:
256,192,90374,5,8,0:0:0:0:
256,192,90574,5,0,0:0:0:0:
256,192,90974,1,0,0:0:0:0:
256,192,91074,1,0,0:0:0:0:
256,192,91174,5,8,0:0:0:0:
256,192,91574,5,0,0:0:0:0:
256,192,91974,5,8,0:0:0:0:
256,192,92174,5,0,0:0:0:0:
256,192,92574,1,0,0:0:0:0:
256,192,92674,1,0,0:0:0:0:
256,192,92774,5,8,0:0:0:0:
256,192,92974,5,0,0:0:0:0:
256,192,93174,1,0,0:0:0:0:
256,192,93574,5,8,0:0:0:0:
256,192,93774,5,0,0:0:0:0:
256,192,94174,1,0,0:0:0:0:
256,192,94274,1,0,0:0:0:0:
256,192,94374,5,8,0:0:0:0:
256,192,94774,5,0,0:0:0:0:
256,192,95174,5,8,0:0:0:0:
256,192,95374,1,8,0:0:0:0:
256,192,95574,5,0,0:0:0:0:
256,192,95774,1,0,0:0:0:0:
256,192,95974,5,8,0:0:0:0:
256,192,96374,5,0,0:0:0:0:
256,192,96674,5,8,0:0:0:0:
256,192,96974,1,8,0:0:0:0:
256,192,97174,1,8,0:0:0:0:
256,192,97574,1,8,0:0:0:0:
256,192,97774,1,8,0:0:0:0:
256,192,98174,1,8,0:0:0:0:
256,192,98374,1,8,0:0:0:0:
256,192,98574,1,8,0:0:0:0:
256,192,98774,1,8,0:0:0:0:
256,192,99074,1,8,0:0:0:0:
256,192,99374,1,8,0:0:0:0:
256,192,99574,5,0,0:0:0:0:
256,192,99974,5,8,0:0:0:0:
256,192,100174,1,8,0:0:0:0:
256,192,100774,5,8,0:0:0:0:
256,192,100974,1,8,0:0:0:0:
256,192,101174,5,0,0:0:0:0:
256,192,101574,5,8,0:0:0:0:
256,192,101774,5,0,0:0:0:0:
256,192,101974,1,0,0:0:0:0:
256,192,102174,1,0,0:0:0:0:
256,192,102374,5,8,0:0:0:0:
256,192,102774,5,0,0:0:0:0:
256,192,103174,5,8,0:0:0:0:
256,192,103374,5,0,0:0:0:0:
256,192,103774,1,0,0:0:0:0:
256,192,103874,1,0,0:0:0:0:
256,192,103974,5,8,0:0:0:0:
256,192,104174,1,8,0:0:0:0:
256,192,104374,5,0,0:0:0:0:
256,192,104774,5,8,0:0:0:0:
256,192,104974,5,0,0:0:0:0:
256,192,105374,1,0,0:0:0:0:
256,192,105474,1,0,0:0:0:0:
256,192,105574,5,8,0:0:0:0:
256,192,105774,5,0,0:0:0:0:
256,192,105974,1,0,0:0:0:0:
256,192,106374,5,8,0:0:0:0:
256,192,106574,5,0,0:0:0:0:
256,192,106974,1,0,0:0:0:0:
256,192,107074,1,0,0:0:0:0:
256,192,107174,5,8,0:0:0:0:
256,192,107374,1,8,0:0:0:0:
256,192,107574,5,0,0:0:0:0:
256,192,107974,5,8,0:0:0:0:
256,192,108374,5,0,0:0:0:0:
256,192,108574,5,8,0:0:0:0:
256,192,108774,1,8,0:0:0:0:
256,192,108974,1,8,0:0:0:0:
256,192,109174,5,0,0:0:0:0:
256,192,109374,5,8,0:0:0:0:
256,192,109774,5,0,0:0:0:0:
256,192,109974,1,0,0:0:0:0:
256,192,110174,5,8,0:0:0:0:
256,192,110574,1,8,0:0:0:0:
256,192,110774,5,0,0:0:0:0:
256,192,110974,5,8,0:0:0:0:
256,192,111374,5,0,0:0:0:0:
256,192,111574,5,8,0:0:0:0:
256,192,111774,5,0,0:0:0:0:
256,192,111974,5,8,0:0:0:0:
256,192,112174,1,8,0:0:0:0:
256,192,112774,1,8,0:0:0:0:
256,192,113574,1,8,0:0:0:0:
256,192,113974,5,0,0:0:0:0:
256,192,114374,5,8,0:0:0:0:
256,192,114774,5,0,0:0:0:0:
256,192,114974,1,0,0:0:0:0:
256,192,115174,5,8,0:0:0:0:
256,192,115374,1,8,0:0:0:0:
256,192,115774,1,8,0:0:0:0:
256,192,115974,5,0,0:0:0:0:
256,192,116174,5,8,0:0:0:0:
256,192,116374,5,0,0:0:0:0:
256,192,116774,5,8,0:0:0:0:
256,192,116974,5,0,0:0:0:0:
256,192,117374,5,8,0:0:0:0:
256,192,117574,5,0,0:0:0:0:
256,192,117774,5,8,0:0:0:0:
256,192,117974,5,0,0:0:0:0:
256,192,118374,5,8,0:0:0:0:
256,192,118774,5,0,0:0:0:0:
256,192,118974,5,8,0:0:0:0:
256,192,119174,5,0,0:0:0:0:
256,192,119374,5,8,0:0:0:0:
256,192,119574,5,0,0:0:0:0:
256,192,119974,5,8,0:0:0:0:
256,192,120174,5,0,0:0:0:0:
256,192,120574,5,8,0:0:0:0:
256,192,120774,5,0,0:0:0:0:
256,192,120974,5,8,0:0:0:0:
256,192,121174,5,0,0:0:0:0:
256,192,121374,1,0,0:0:0:0:
256,192,121574,5,8,0:0:0:0:
256,192,121774,5,0,0:0:0:0:
256,192,122374,5,8,0:0:0:0:
256,192,122574,5,0,0:0:0:0:
256,192,123174,5,8,0:0:0:0:
256,192,123374,5,0,0:0:0:0:
256,192,123774,1,0,0:0:0:0:
256,192,123974,5,8,0:0:0:0:
256,192,124074,1,8,0:0:0:0:
256,192,124174,1,8,0:0:0:0:
256,192,124374,5,0,0:0:0:0:
256,192,124574,1,0,0:0:0:0:
256,192,124774,5,8,0:0:0:0:
256,192,124974,5,0,0:0:0:0:
256,192,125574,5,8,0:0:0:0:
256,192,125774,5,0,0:0:0:0:
256,192,126374,5,8,0:0:0:0:
256,192,126574,5,4,0:0:0:0:
256,192,126974,5,12,0:0:0:0:
256,192,127374,5,4,0:0:0:0:
256,192,127774,5,12,0:0:0:0:
256,192,127974,1,12,0:0:0:0:
256,192,128174,1,12,0:0:0:0:
256,192,128574,1,8,0:0:0:0:
256,192,128774,5,0,0:0:0:0:
256,192,128974,5,8,0:0:0:0:
256,192,129174,5,0,0:0:0:0:
256,192,129574,5,8,0:0:0:0:
256,192,129774,5,4,0:0:0:0:
256,192,130174,5,8,0:0:0:0:
256,192,130374,5,0,0:0:0:0:
256,192,130574,5,8,0:0:0:0:
256,192,130774,5,0,0:0:0:0:
256,192,131174,5,8,0:0:0:0:
256,192,131574,5,0,0:0:0:0:
256,192,131774,5,8,0:0:0:0:
256,192,131974,5,0,0:0:0:0:
256,192,132174,5,8,0:0:0:0:
256,192,132374,5,0,0:0:0:0:
256,192,132774,5,8,0:0:0:0:
256,192,132974,5,4,0:0:0:0:
256,192,133374,5,8,0:0:0:0:
256,192,133574,5,0,0:0:0:0:
256,192,133774,5,8,0:0:0:0:
256,192,133974,5,0,0:0:0:0:
256,192,134174,1,0,0:0:0:0:
256,192,134374,5,8,0:0:0:0:
256,192,134574,5,0,0:0:0:0:
256,192,135174,5,8,0:0:0:0:
256,192,135374,5,0,0:0:0:0:
256,192,135974,5,8,0:0:0:0:
256,192,136174,5,0,0:0:0:0:
256,192,136274,1,0,0:0:0:0:
256,192,136374,1,0,0:0:0:0:
256,192,136574,5,8,0:0:0:0:
256,192,136774,1,8,0:0:0:0:
256,192,136974,5,0,0:0:0:0:
256,192,137174,5,8,0:0:0:0:
256,192,137574,5,8,0:0:0:0:
256,192,137774,5,0,0:0:0:0:
256,192,138374,5,8,0:0:0:0:
256,192,138574,5,0,0:0:0:0:
256,192,138974,5,8,0:0:0:0:
256,192,139174,1,8,0:0:0:0:
256,192,139374,5,0,0:0:0:0:
256,192,139774,5,8,0:0:0:0:
256,192,139974,1,8,0:0:0:0:
256,192,140174,5,0,0:0:0:0:
256,192,140374,5,8,0:0:0:0:
256,192,140574,5,0,0:0:0:0:
256,192,140774,5,8,0:0:0:0:
256,192,140974,1,8,0:0:0:0:
256,192,141174,5,4,0:0:0:0:
