osu file format v14

[General]
AudioFilename: Be Nice 'n Easy.mp3
AudioLeadIn: 0
PreviewTime: 38774
Countdown: 0
SampleSet: Soft
StackLeniency: 0.3
Mode: 0
LetterboxInBreaks: 0
WidescreenStoryboard: 0

[Editor]
Bookmarks: 13174,25974,38774,64374,76874,77174,89974,107574,115574,141174
DistanceSpacing: 1
BeatDivisor: 4
GridSize: 32
TimelineZoom: 2.5

[Metadata]
Title:Be Nice 'n Easy
TitleUnicode:Be Nice 'n Easy
Artist:SoundTeMP
ArtistUnicode:SoundTeMP
Creator:ErunamoJAZZ
Version:NotEasy
Source:Ragnarok Online
Tags:라그나로크 온라인 ラグナロクオンライン gravity mmorpg Izlude dungeon and HappyRocket88 Side OnosakiHito
BeatmapID:804801
BeatmapSetID:366807

[Difficulty]
HPDrainRate:5
CircleSize:4
OverallDifficulty:7.5
ApproachRate:8.5
SliderMultiplier:2
SliderTickRate:1

[Events]
//Background and Video events
0,0,"bg.jpg",0,0
//Break Periods
//Storyboard Layer 0 (Background)
//Storyboard Layer 1 (Fail)
//Storyboard Layer 2 (Pass)
//Storyboard Layer 3 (Foreground)
//Storyboard Sound Samples

[TimingPoints]
374,400,4,2,0,45,1,0
38774,-100,4,2,0,45,0,1
62774,-100,4,2,0,45,0,0
63574,-111.111111111111,4,2,0,45,0,0
63974,-125,4,2,0,45,0,0
64374,-125,4,2,0,45,0,0
69174,-125,4,2,0,30,0,0
89174,-111.111111111111,4,2,0,45,0,0
89974,-100,4,2,0,45,0,0
134774,-111.111111111111,4,2,0,45,0,0

[Colours]
Combo1 : 209,12,41
Combo2 : 206,176,6
Combo3 : 13,145,172
Combo4 : 210,183,255

[HitObjects]
140,148,374,5,0,0:0:0:0:
207,75,574,1,0,0:0:0:0:
207,75,674,1,0,0:0:0:0:
207,75,774,2,0,P|255:86|307:75,1,100,8|0,0:0|0:0,0:0:0:0:
496,24,1374,1,0,0:0:0:0:
468,120,1574,1,8,0:0:0:0:
400,48,1774,1,0,0:0:0:0:
372,228,1974,6,0,P|360:284|336:320,1,100
292,336,2274,1,0,0:0:0:0:
292,336,2374,2,0,P|252:316|184:316,1,100,8|0,0:0|0:0,0:0:0:0:
0,344,2974,1,0,0:0:0:0:
35,253,3174,1,8,0:0:0:0:
98,329,3374,1,0,0:0:0:0:
78,150,3574,5,0,0:0:0:0:
29,61,3774,1,0,0:0:0:0:
29,61,3874,1,0,0:0:0:0:
29,61,3974,2,0,P|76:46|124:60,1,100,8|0,0:0|0:0,0:0:0:0:
256,208,4574,5,2,0:1:0:0:
448,152,4974,1,2,0:1:0:0:
396,344,5374,1,2,0:1:0:0:
396,344,5474,1,0,0:0:0:0:
396,344,5574,2,0,P|452:360|504:340,1,100,8|2,0:0|0:1,0:0:0:0:
448,152,6174,1,0,0:0:0:0:
424,56,6374,2,0,P|372:56|320:52,1,100,8|0,0:0|0:0,0:0:0:0:
148,44,6774,5,0,0:0:0:0:
52,20,6974,1,0,0:0:0:0:
52,20,7074,1,0,0:0:0:0:
52,20,7174,2,0,P|52:68|88:124,1,100,8|0,0:0|0:0,0:0:0:0:
256,204,7774,1,0,0:0:0:0:
327,274,7974,1,8,0:0:0:0:
255,344,8174,1,0,0:0:0:0:
80,308,8374,6,0,P|88:256|60:208,1,100
44,168,8674,1,0,0:0:0:0:
44,168,8774,2,0,B|64:124|128:116,1,100,8|0,0:0|0:0,0:0:0:0:
324,132,9374,1,2,0:0:0:0:
255,62,9574,1,10,0:0:0:0:
256,204,9774,1,2,0:0:0:0:
185,133,9974,1,2,0:0:0:0:
164,232,10174,5,0,0:0:0:0:
148,252,10274,1,0,0:0:0:0:
140,276,10374,2,0,P|165:318|209:342,1,100,8|0,0:0|0:0,0:0:0:0:
409,341,10974,2,0,B|461:325|478:274,2,100,2|8|2,0:0|0:0|0:0,0:0:0:0:
384,244,11574,5,0,0:0:0:0:
256,116,11774,2,0,B|248:148|248:148|256:180,1,66.6666666666667,2|2,0:3|0:3,0:0:0:0:
256,108,11974,2,0,B|260:76|260:76|252:40|252:40|256:8,1,100,8|0,0:0|0:0,0:0:0:0:
359,209,12474,1,0,0:0:0:0:
363,233,12574,1,0,0:0:0:0:
362,258,12674,1,0,0:0:0:0:
356,282,12774,1,8,0:0:0:0:
345,304,12874,1,0,0:0:0:0:
329,324,12974,2,0,L|312:304,2,25,0|2|0,0:0|0:0|0:0,0:0:0:0:
276,352,13174,6,0,P|191:352|131:303,1,150,4|0,0:0|0:0,0:0:0:0:
130,266,13574,1,8,0:0:0:0:
228,252,13774,1,2,0:0:0:0:
28,236,14174,2,0,P|21:283|57:343,1,100,2|8,0:0|0:0,0:0:0:0:
80,184,14574,1,2,0:0:0:0:
80,184,14674,6,0,P|99:116|56:54,1,150,8|2,0:0|0:0,0:0:0:0:
57,54,15074,1,0,0:0:0:0:
57,54,15174,1,8,0:0:0:0:
156,32,15374,1,2,0:0:0:0:
344,104,15774,2,0,P|362:58|353:9,2,100,2|8|2,0:0|0:0|0:0,0:0:0:0:
296,280,16374,6,0,P|248:276|195:305,1,100,0|2,0:0|0:0,0:0:0:0:
296,280,16674,1,0,0:0:0:0:
296,280,16774,1,8,0:0:0:0:
378,336,16974,2,0,P|418:252|434:144,1,200,2|2,0:0|0:0,0:0:0:0:
344,104,17574,1,8,0:0:0:0:
252,144,17774,1,2,0:0:0:0:
252,144,17874,1,8,0:0:0:0:
252,144,17974,6,0,P|200:136|136:108,1,100,0|2,0:0|0:0,0:0:0:0:
116,88,18274,1,0,0:0:0:0:
116,88,18374,2,0,B|114:65|114:65|101:38,2,50,8|0|2,0:0|0:0|0:0,0:0:0:0:
128,240,18774,2,0,P|84:268|38:282,1,100,2|2,0:3|0:0,0:0:0:0:
259,182,19174,2,0,P|296:152|345:133,1,100,8|2,0:0|0:0,0:0:0:0:
415,203,19574,5,0,0:0:0:0:
372,292,19774,1,2,0:0:0:0:
372,292,19874,1,0,0:0:0:0:
372,292,19974,2,0,P|324:316|260:304,1,100,8|2,0:0|0:0,0:0:0:0:
256,112,20574,1,2,0:0:0:0:
204,28,20774,1,8,0:0:0:0:
304,28,20974,1,2,0:0:0:0:
304,28,21074,1,8,0:0:0:0:
304,28,21174,6,0,P|328:76|384:104,1,100,0|2,0:0|0:0,0:0:0:0:
458,139,21574,1,8,0:0:0:0:
502,323,21774,1,2,0:0:0:0:
308,273,22174,1,2,0:0:0:0:
404,298,22374,1,8,0:0:0:0:
379,201,22574,1,2,0:0:0:0:
216,124,22774,6,0,P|170:97|120:43,1,100,0|2,0:0|0:0,0:0:0:0:
216,124,23074,1,0,0:0:0:0:
216,124,23174,1,8,0:0:0:0:
300,68,23374,1,2,0:0:0:0:
300,168,23574,2,0,P|288:224|264:268,1,100,0|2,0:2|0:2,0:2:0:0:
184,316,23974,2,0,P|220:352|287:360,1,100,8|10,0:2|0:2,0:2:0:0:
180,300,24274,6,0,P|144:256|100:240,1,100,8|8,0:2|0:2,0:2:0:0:
20,188,24674,2,0,L|8:128,1,50,8|8,0:2|0:2,0:2:0:0:
68,56,24974,1,2,0:0:0:0:
89,42,25074,1,0,0:0:0:0:
112,35,25174,1,0,0:0:0:0:
137,33,25274,1,0,0:0:0:0:
162,39,25374,1,2,0:0:0:0:
256,192,25574,2,0,P|272:232|320:264,1,100,8|2,0:0|0:0,0:0:0:0:
340,272,25874,1,0,0:0:0:0:
364,272,25974,1,0,0:0:0:0:
444,212,26174,5,2,0:0:0:0:
444,188,26274,1,0,0:0:0:0:
437,165,26375,2,0,P|412:122|367:100,1,100,8|2,0:0|0:0,0:0:0:0:
172,136,26974,1,2,0:0:0:0:
116,220,27174,2,0,P|68:248|4:260,1,100,8|2,0:0|0:0,0:0:0:0:
24,304,27474,1,8,0:0:0:0:
24,304,27574,6,0,P|55:338|105:352,1,100,0|2,0:0|0:0,0:0:0:0:
128,348,27874,1,0,0:0:0:0:
148,340,27974,1,10,0:0:0:0:
256,236,28174,2,0,P|332:224|440:236,1,150,2|0,0:0|0:0,0:0:0:0:
316,272,28574,1,2,0:0:0:0:
335,123,28774,1,8,0:0:0:0:
208,44,28974,1,2,0:0:0:0:
208,44,29174,5,0,0:0:0:0:
182,141,29374,1,2,0:0:0:0:
182,141,29474,1,0,0:0:0:0:
182,141,29574,1,8,0:0:0:0:
173,286,29774,1,2,0:0:0:0:
230,215,29974,1,0,0:0:0:0:
94,163,30174,1,2,0:0:0:0:
90,253,30374,1,8,0:0:0:0:
118,77,30574,1,2,0:0:0:0:
118,77,30674,1,8,0:0:0:0:
118,77,30774,1,0,0:0:0:0:
207,43,30974,6,0,P|256:56|304:44,1,100,0|8,0:0|0:0,0:0:0:0:
396,84,31374,1,0,0:0:0:0:
414,100,31474,1,0,0:0:0:0:
429,118,31574,2,0,P|450:174|438:229,1,100
408,304,31974,1,10,0:0:0:0:
383,303,32074,1,2,0:0:0:0:
359,296,32174,1,2,0:0:0:0:
337,284,32274,1,2,0:0:0:0:
319,267,32374,1,2,0:0:0:0:
320,120,32574,6,0,L|360:80,2,50,0|0|8,0:0|0:0|0:0,0:0:0:0:
256,192,32974,1,2,0:0:0:0:
112,332,33374,2,0,P|74:298|59:237,1,100,2|8,0:0|0:0,0:0:0:0:
119,176,33774,1,2,0:0:0:0:
119,176,33874,6,0,P|176:157|265:205,1,150,8|2,0:0|0:0,0:0:0:0:
304,336,34374,2,0,P|256:348|208:336,1,100,10|2,0:0|0:0,0:0:0:0:
208,36,34974,2,0,P|256:24|304:36,1,100,2|8,0:0|0:0,0:0:0:0:
364,172,35374,1,2,0:0:0:0:
256,276,35574,5,0,0:0:0:0:
148,172,35774,2,0,L|88:172,2,50,2|0|8,0:0|0:0|0:0,0:0:0:0:
256,68,36174,1,2,0:0:0:0:
332,360,36574,1,2,0:0:0:0:
182,360,36774,1,8,0:0:0:0:
256,228,36974,1,2,0:0:0:0:
256,192,37174,12,8,38374,0:0:0:0:
256,140,38574,5,2,0:2:0:0:
256,140,38674,1,2,0:2:0:0:
256,140,38774,2,0,P|336:128|400:92,1,150,6|2,0:0|0:0,0:0:0:0:
395,95,39174,1,8,0:0:0:0:
468,28,39374,1,2,0:0:0:0:
428,172,39574,2,0,P|430:208|456:273,1,100,2|0,0:0|0:0,0:0:0:0:
404,256,39874,1,2,0:0:0:0:
404,256,39974,2,0,P|355:266|311:291,1,100,8|2,0:0|0:0,0:0:0:0:
248,315,40274,1,0,0:0:0:0:
248,315,40374,6,0,L|190:296,1,50
148,256,40574,1,0,0:0:0:0:
148,256,40674,1,0,0:0:0:0:
148,256,40774,2,0,P|112:288|40:292,1,100,8|0,0:0|0:0,0:0:0:0:
68,196,41174,1,0,0:0:0:0:
128,116,41374,1,0,0:0:0:0:
212,172,41574,1,8,0:0:0:0:
272,92,41774,1,2,0:0:0:0:
288,72,41874,1,2,0:0:0:0:
308,56,41974,6,0,B|373:36|431:64|431:64|408:107,1,150,2|2,0:0|0:0,0:0:0:0:
408,107,42374,1,8,0:0:0:0:
356,192,42574,2,0,P|395:206|460:191,2,100,2|2|0,0:0|0:0|0:0,0:0:0:0:
332,184,43074,1,2,0:0:0:0:
312,168,43174,1,8,0:0:0:0:
212,172,43374,1,2,0:0:0:0:
208,196,43474,1,8,0:0:0:0:
196,216,43574,6,0,P|152:239|104:234,1,100
56,288,43874,1,0,0:0:0:0:
56,288,43974,2,0,P|85:326|146:348,1,100,8|0,0:0|0:0,0:0:0:0:
380,347,44374,2,0,P|425:327|456:288,1,100,2|0,0:0|0:0,0:0:0:0:
408,234,44674,1,0,0:0:0:0:
408,234,44775,2,0,P|360:239|317:216,1,100,10|2,0:0|0:0,0:0:0:0:
256,176,45074,1,2,0:0:0:0:
256,176,45174,6,0,B|224:104|284:104|256:32,1,150,2|0,0:0|0:0,0:0:0:0:
255,31,45574,1,8,0:0:0:0:
255,31,45774,1,2,0:0:0:0:
256,276,45974,2,0,B|276:324|232:324|256:376,2,100,2|0|10,0:0|0:0|0:0,0:0:0:0:
180,208,46574,1,2,0:0:0:0:
180,208,46674,1,0,0:0:0:0:
180,208,46774,6,0,P|160:184|148:152,1,50,2|0,0:0|0:0,0:0:0:0:
150,98,46974,2,0,P|174:78|190:50,1,50
248,36,47174,2,0,P|292:68|360:60,1,100,8|0,0:0|0:0,0:0:0:0:
432,40,47574,1,0,0:0:0:0:
388,132,47774,1,0,0:0:0:0:
460,200,47974,1,8,0:0:0:0:
416,292,48174,1,2,0:0:0:0:
404,316,48274,1,2,0:0:0:0:
392,340,48374,6,0,B|364:380|304:376|304:376|280:360|272:328,1,150,2|2,0:0|0:0,0:0:0:0:
264,312,48774,1,8,0:0:0:0:
336,244,48974,1,2,0:0:0:0:
188,248,49174,2,0,P|136:240|84:220,1,100,2|0,0:0|0:0,0:0:0:0:
52,164,49474,1,2,0:0:0:0:
52,164,49574,2,0,P|48:108|68:48,1,100,10|2,0:0|0:0,0:0:0:0:
124,36,49874,1,8,0:0:0:0:
124,36,49974,6,0,L|169:15,2,50,0|8|0,0:0|0:0|0:0,0:0:0:0:
272,52,50374,1,10,0:0:0:0:
160,148,50574,1,2,0:0:0:0:
308,127,50774,1,0,0:0:0:0:
308,127,50874,1,8,0:0:0:0:
308,127,50974,2,0,L|373:90,1,50,2|0,0:0|0:0,0:0:0:0:
319,200,51175,2,0,L|277:226,1,50,8|0,0:0|0:0,0:0:0:0:
214,259,51374,1,2,0:0:0:0:
214,259,51474,1,2,0:0:0:0:
214,259,51574,6,0,B|190:276|180:294|180:294|180:315|197:341,1,100,10|0,0:0|0:0,0:0:0:0:
222,358,51874,1,2,0:0:0:0:
250,368,51974,1,8,0:0:0:0:
399,353,52174,1,2,0:0:0:0:
468,220,52374,2,0,P|480:168|460:104,1,100,2|0,0:0|0:0,0:0:0:0:
452,104,52674,1,2,0:0:0:0:
428,88,52774,1,10,0:0:0:0:
148,101,52974,6,2,P|229:158|328:172,1,200
352,164,53474,1,0,0:0:0:0:
372,148,53574,1,8,0:0:0:0:
304,72,53774,1,0,0:0:0:0:
208,40,53974,2,0,P|208:100|232:144,1,100
340,274,54374,2,0,P|299:245|252:232,1,100,8|2,0:0|0:0,0:0:0:0:
228,240,54674,1,2,0:0:0:0:
204,248,54774,6,0,P|120:250|50:209,1,150,2|2,0:0|0:0,0:0:0:0:
63,221,55174,1,8,0:0:0:0:
64,120,55374,1,2,0:0:0:0:
160,92,55574,2,0,P|136:48|72:20,1,100,2|0,0:0|0:0,0:0:0:0:
160,92,55874,1,0,0:0:0:0:
160,92,55974,1,10,0:0:0:0:
232,160,56174,1,2,0:0:0:0:
264,256,56374,6,0,P|283:296|351:319,1,100
356,309,56674,1,0,0:0:0:0:
381,294,56774,2,0,P|392:312|416:336,2,50,8|0|0,0:0|0:0|0:0,0:0:0:0:
372,224,57074,1,0,0:0:0:0:
372,224,57174,2,0,P|340:188|312:128,1,100
388,8,57574,2,0,P|420:44|448:104,1,100,8|2,0:0|0:0,0:0:0:0:
368,92,57874,1,2,0:0:0:0:
368,92,57974,6,0,P|295:74|228:40,2,150,2|2|2,0:0|0:0|0:0,0:0:0:0:
128,36,58774,2,0,P|100:128|16:220,1,200,2|10,0:0|0:0,0:0:0:0:
204,144,59374,1,2,0:0:0:0:
300,172,59574,6,0,P|352:192|424:188,1,100,0|2,0:0|0:0,0:0:0:0:
456,272,59974,2,0,L|432:336,1,50,10|0,0:0|0:0,0:0:0:0:
372,340,60174,1,2,0:0:0:0:
372,340,60274,1,0,0:0:0:0:
372,340,60374,2,0,L|236:324,1,100,2|0,0:0|0:0,0:0:0:0:
199,196,60774,2,0,L|187:295,1,100,10|0,0:0|0:0,0:0:0:0:
366,54,61174,6,2,P|314:35|251:58,1,100
125,180,61474,2,0,L|117:241,1,50,2|10,0:0|0:0,0:0:0:0:
39,168,61774,1,2,0:0:0:0:
268,308,61974,2,0,P|320:212|304:108,1,200,2|10,0:0|0:0,0:0:0:0:
216,90,62574,2,0,L|159:140,1,50,2|0,0:0|0:0,0:0:0:0:
103,123,62774,6,0,L|35:91,2,50
155,209,63174,2,0,L|209:235,2,50,8|0|0,0:0|0:0|0:0,0:0:0:0:
95,277,63574,6,0,L|183:321,1,89.9999972534181
248,351,63974,6,0,L|320:316,1,80,2|2,0:0|0:0,0:0:0:0:
306,238,64374,6,0,B|289:187|293:120|293:120|373:204|373:120|440:187|440:187|440:19|255:2|70:19|70:187|70:187|137:120|137:204|217:120|217:120|221:187|205:238,1,1120,0|2,0:0|0:0,0:0:0:0:
256,300,67374,1,2,0:0:0:0:
296,368,67574,1,0,0:0:0:0:
216,368,67774,1,0,0:0:0:0:
256,300,67974,6,0,L|256:244,3,40
296,368,68374,2,0,L|344:340,3,40
216,368,68774,2,0,L|167:340,3,40
256,300,69174,6,0,L|256:196,1,80,0|0,0:3|0:3,0:3:0:0:
256,60,69574,2,0,L|256:140,1,80,2|0,0:3|0:3,0:3:0:0:
335,139,69874,2,0,L|335:219,2,80,0|0|0,0:3|0:3|0:3,0:3:0:0:
176,138,70374,2,0,L|176:218,1,80,2|0,0:3|0:3,0:3:0:0:
176,298,70774,5,0,0:0:0:0:
139,313,70874,1,0,0:0:0:0:
102,329,70974,2,2,L|32:288,1,80,0|2,0:0|0:3,0:0:0:0:
32,208,71374,1,0,0:0:0:0:
32,208,71474,2,0,P|24:144|60:72,1,120
71,64,71874,1,0,0:0:0:0:
99,35,71974,1,2,0:3:0:0:
176,56,72174,1,0,0:0:0:0:
176,138,72374,6,0,L|131:173,2,40
244,96,72774,2,0,L|324:38,1,80,2|0,0:3|0:0,0:0:0:0:
368,92,73074,2,0,L|264:167,1,120
240,188,73474,1,0,0:0:0:0:
212,216,73574,2,0,L|224:320,1,80,2|0,0:3|0:0,0:0:0:0:
292,332,73974,5,0,0:0:0:0:
328,348,74074,1,0,0:0:0:0:
364,360,74174,2,0,L|436:320,1,80,0|2,0:0|0:3,0:0:0:0:
468,248,74574,1,0,0:0:0:0:
468,248,74674,2,0,P|404:224|380:160,1,120
392,144,75074,1,0,0:0:0:0:
424,120,75174,2,0,P|424:80|380:36,1,80,2|0,0:3|0:0,0:0:0:0:
324,40,75574,5,0,0:0:0:0:
284,28,75674,1,8,0:0:0:0:
244,16,75774,2,0,L|164:96,1,80,0|10,0:0|0:0,0:0:0:0:
244,136,76174,1,8,0:0:0:0:
244,136,76274,1,0,0:0:0:0:
244,136,76374,2,0,L|208:174,1,40,2|0,0:0|0:0,0:0:0:0:
256,224,76574,2,0,L|288:192,1,40,2|0,0:0|0:0,0:0:0:0:
184,228,76774,2,0,L|108:172,1,80,2|0,0:0|0:0,0:0:0:0:
100,260,77174,6,2,P|160:316|244:288,1,160,0|2,0:0|0:0,0:0:0:0:
309,286,77774,1,2,0:0:0:0:
334,210,77974,1,2,0:0:0:0:
281,149,78174,1,2,0:0:0:0:
204,164,78374,1,2,0:0:0:0:
178,240,78574,1,2,0:0:0:0:
230,301,78774,5,2,0:0:0:0:
309,286,78974,1,2,0:0:0:0:
334,210,79174,1,2,0:0:0:0:
414,195,79374,1,2,0:0:0:0:
465,256,79574,1,2,0:0:0:0:
438,331,79774,1,2,0:0:0:0:
359,346,79974,1,2,0:0:0:0:
309,286,80174,1,2,0:0:0:0:
334,210,80374,5,2,0:0:0:0:
360,136,80574,2,0,P|336:92|280:76,1,80,2|2,0:0|0:0,0:0:0:0:
272,72,80874,1,2,0:0:0:0:
240,92,80974,1,2,0:0:0:0:
204,164,81174,1,2,0:0:0:0:
194,202,81274,1,0,0:0:0:0:
169,233,81374,1,0,0:0:0:0:
134,253,81474,1,2,0:0:0:0:
95,257,81574,1,2,0:0:0:0:
48,192,81774,1,2,0:0:0:0:
32,156,81874,1,0,0:0:0:0:
16,120,81974,6,0,L|57:51,2,80,2|0|2,0:0|0:0|0:0,0:0:0:0:
133,17,82574,1,0,0:0:0:0:
208,44,82774,2,0,L|264:32,1,40,2|0,0:0|0:0,0:0:0:0:
296,96,82974,2,0,L|257:105,1,40,2|0,0:0|0:0,0:0:0:0:
320,24,83174,2,0,P|356:48|368:100,1,80,2|0,0:0|0:0,0:0:0:0:
384,120,83474,2,0,L|408:160,1,40
356,264,83774,6,0,P|316:276|296:324,1,80,0|2,0:0|0:0,0:0:0:0:
216,308,84174,1,0,0:0:0:0:
216,308,84274,1,0,0:0:0:0:
216,308,84374,2,0,P|194:275|156:264,1,80,2|2,0:0|0:0,0:0:0:0:
256,200,84774,5,2,0:0:0:0:
292,88,84974,1,2,0:0:0:0:
196,156,85174,1,2,0:0:0:0:
316,156,85374,1,2,0:0:0:0:
216,88,85574,1,2,0:0:0:0:
256,200,85774,5,2,0:0:0:0:
216,308,85974,1,2,0:0:0:0:
316,240,86174,1,2,0:0:0:0:
196,240,86374,1,2,0:0:0:0:
296,307,86574,1,2,0:0:0:0:
256,200,86774,5,2,0:0:0:0:
312,96,86974,1,2,0:0:0:0:
192,96,87174,1,2,0:0:0:0:
256,200,87374,1,2,0:0:0:0:
256,320,87574,1,0,0:0:0:0:
256,320,87674,1,0,0:0:0:0:
256,320,87774,2,0,L|172:356,1,80,0|2,0:0|0:0,0:0:0:0:
108,320,88174,5,0,0:0:0:0:
88,284,88274,1,0,0:0:0:0:
72,248,88374,2,0,L|112:160,1,80
184,160,88774,1,2,0:0:0:0:
200,124,88874,1,0,0:0:0:0:
218,86,88974,1,0,0:0:0:0:
308,104,89174,6,2,P|356:116|420:112,1,89.9999972534181,0|0,0:0|0:0,0:0:0:0:
436,96,89474,1,2,0:0:0:0:
432,140,89574,2,2,P|428:184|444:240,1,89.9999972534181,0|0,0:0|0:0,0:0:0:0:
256,280,89974,5,4,0:0:0:0:
74,228,90374,2,0,L|28:192,1,50,8|0,0:0|0:0,0:0:0:0:
24,148,90574,1,2,0:0:0:0:
33,99,90674,1,2,0:0:0:0:
68,65,90774,1,2,0:0:0:0:
116,49,90874,1,2,0:0:0:0:
165,44,90974,1,2,0:0:0:0:
215,45,91074,1,2,0:0:0:0:
265,52,91174,1,10,0:0:0:0:
310,72,91274,1,2,0:0:0:0:
352,100,91374,6,0,B|368:144|336:180|336:180|264:180,1,150,2|2,0:0|0:0,0:0:0:0:
224,176,91774,1,2,0:0:0:0:
174,176,91874,1,2,0:0:0:0:
124,176,91974,1,10,0:0:0:0:
93,213,92074,1,2,0:0:0:0:
93,263,92174,1,2,0:0:0:0:
116,307,92274,1,2,0:0:0:0:
154,339,92374,5,2,0:0:0:0:
201,355,92474,1,2,0:0:0:0:
250,355,92574,1,2,0:0:0:0:
297,339,92674,1,2,0:0:0:0:
335,307,92774,1,10,0:0:0:0:
358,263,92874,1,2,0:0:0:0:
367,214,92974,1,2,0:0:0:0:
364,164,93074,1,2,0:0:0:0:
366,116,93174,6,0,L|378:51,2,50,2|0|2,0:0|0:0|0:0,0:0:0:0:
256,28,93574,1,8,0:0:0:0:
146,116,93774,2,0,L|137:66,1,50,2|0,0:0|0:0,0:0:0:0:
156,192,93974,2,0,L|106:200,1,50,2|0,0:0|0:0,0:0:0:0:
232,184,94174,2,0,L|240:233,1,50,2|0,0:0|0:0,0:0:0:0:
224,108,94374,2,0,L|280:98,2,50,10|0|2,0:0|0:0|0:0,0:0:0:0:
372,212,94774,6,0,B|421:204,1,50,2|0,0:0|0:0,0:0:0:0:
436,216,94974,1,0,0:0:0:0:
452,228,95074,1,0,0:0:0:0:
468,240,95174,2,0,B|440:280|440:280|440:348,1,100,8|0,0:0|0:0,0:0:0:0:
344,364,95574,1,0,0:0:0:0:
300,276,95774,1,0,0:0:0:0:
256,188,95974,1,2,0:0:0:0:
256,172,96074,1,2,0:0:0:0:
256,152,96174,1,2,0:0:0:0:
328,56,96374,6,0,P|256:36|184:56,1,150,2|2,0:0|0:0,0:0:0:0:
120,92,96774,1,8,0:0:0:0:
69,233,96974,1,2,0:0:0:0:
157,352,97174,2,0,P|262:331|312:250,1,200,2|8,0:0|0:0,0:0:0:0:
299,109,97774,6,0,P|212:62|119:92,1,200,2|2,0:0|0:0,0:0:0:0:
69,233,98374,1,10,0:0:0:0:
216,200,98574,1,2,0:0:0:0:
362,174,98774,1,2,0:0:0:0:
387,167,98874,1,2,0:0:0:0:
411,162,98974,1,2,0:0:0:0:
436,158,99074,1,2,0:0:0:0:
460,153,99174,1,10,0:0:0:0:
484,149,99274,1,2,0:0:0:0:
510,145,99374,1,2,0:0:0:0:
362,174,99574,6,0,L|263:191,1,100,2|0,0:0|0:0,0:0:0:0:
216,200,99874,1,0,0:0:0:0:
216,200,99974,1,8,0:0:0:0:
131,149,100174,1,0,0:0:0:0:
305,254,100574,1,0,0:0:0:0:
362,174,100774,2,0,L|417:69,1,100,10|2,0:0|0:0,0:0:0:0:
256,192,101174,12,0,102774,0:0:0:0:
256,48,103174,5,8,0:0:0:0:
256,148,103374,2,0,L|162:188,1,100,2|2,0:0|0:0,0:0:0:0:
256,232,103774,2,0,L|357:189,1,100,2|10,0:0|0:0,0:0:0:0:
324,96,104174,1,2,0:0:0:0:
188,96,104374,6,0,L|96:136,1,100,2|2,0:0|0:0,0:0:0:0:
12,192,104774,1,10,0:0:0:0:
96,244,104974,2,0,L|188:284,1,100,2|0,0:0|0:0,0:0:0:0:
220,248,105274,1,0,0:0:0:0:
255,213,105374,1,0,0:0:0:0:
290,178,105474,1,0,0:0:0:0:
324,143,105574,2,0,L|424:211,1,100,8|0,0:0|0:0,0:0:0:0:
458,284,105974,5,0,0:0:0:0:
256,284,106374,1,8,0:0:0:0:
154,299,106574,2,0,P|105:290|65:260,1,100,2|0,0:0|0:0,0:0:0:0:
43,215,106874,1,2,0:0:0:0:
51,167,106974,1,2,0:0:0:0:
85,133,107074,1,2,0:0:0:0:
133,132,107174,2,0,L|151:179,1,50,10|0,0:0|0:0,0:0:0:0:
201,101,107374,2,0,L|182:53,1,50,2|0,0:0|0:0,0:0:0:0:
256,36,107574,6,0,P|304:28|356:72,1,100,2|0,0:0|0:0,0:0:0:0:
366,98,107874,1,2,0:0:0:0:
396,136,107974,2,0,P|439:107|467:44,2,100,8|0|0,0:0|0:0|0:0,0:0:0:0:
256,188,108574,1,2,0:2:0:0:
180,320,108774,1,10,0:2:0:0:
332,320,108974,1,2,0:2:0:0:
407,188,109174,6,0,P|394:139|367:98,1,100,2|2,0:2|0:2,0:2:0:0:
146,98,109574,2,0,P|119:139|106:188,1,100,8|2,0:2|0:2,0:2:0:0:
407,188,110174,1,2,0:2:0:0:
106,188,110574,1,2,0:2:0:0:
256,56,110974,5,2,0:2:0:0:
256,156,111174,2,0,L|256:256,1,100,8|0,0:2|0:2,0:2:0:0:
256,356,111574,2,0,P|308:344|348:288,1,100,2|2,0:2|0:2,0:2:0:0:
256,56,111974,2,0,P|204:68|164:124,1,100,10|2,0:2|0:2,0:2:0:0:
256,156,112374,5,0,0:2:0:0:
180,220,112574,1,0,0:2:0:0:
180,220,112674,1,0,0:2:0:0:
180,220,112774,2,0,P|132:220|84:180,1,100,8|0,0:2|0:2,0:2:0:0:
280,260,113374,1,2,0:0:0:0:
368,80,113774,1,2,0:0:0:0:
476,248,114174,5,2,0:0:0:0:
368,80,114374,2,0,B|352:128|352:128|320:176,1,100,8|0,0:0|0:0,0:0:0:0:
144,80,114774,2,0,B|160:128|160:128|192:176,1,100
255,338,115174,2,0,B|252:308|252:308|260:272|260:272|256:240,1,100,4|0,0:0|0:0,0:0:0:0:
256,64,115574,5,4,0:0:0:0:
76,56,115774,2,0,P|40:84|12:132,1,100,2|10,0:0|0:0,0:0:0:0:
152,184,116174,1,2,0:0:0:0:
287,241,116374,2,0,P|262:284|224:316,1,100,2|0,0:0|0:0,0:0:0:0:
76,316,116774,1,10,0:0:0:0:
152,183,116974,6,0,P|199:168|240:139,1,100,2|0,0:0|0:0,0:0:0:0:
52,172,117374,1,2,0:0:0:0:
200,264,117574,2,0,P|232:301|244:349,1,100,10|2,0:0|0:0,0:0:0:0:
304,212,117974,1,2,0:0:0:0:
178,130,118174,1,0,0:0:0:0:
259,4,118374,1,10,0:0:0:0:
385,86,118574,1,0,0:0:0:0:
392,235,118774,6,0,P|366:278|322:301,1,100,0|2,0:0|0:0,0:0:0:0:
428,144,119174,1,10,0:0:0:0:
308,56,119374,1,2,0:0:0:0:
177,130,119574,2,0,P|129:140|82:124,1,100,2|0,0:0|0:0,0:0:0:0:
276,136,119974,1,10,0:0:0:0:
167,239,120174,6,0,P|206:271|254:283,1,100,2|0,0:0|0:0,0:0:0:0:
76,124,120574,1,2,0:0:0:0:
76,124,120674,1,2,0:0:0:0:
76,124,120774,2,0,P|50:172|12:216,1,100,10|0,0:0|0:0,0:0:0:0:
490,207,121174,2,0,P|458:168|436:124,1,100,2|0,0:0|0:0,0:0:0:0:
256,36,121574,1,10,0:0:0:0:
256,184,121774,1,2,0:0:0:0:
256,336,121974,6,0,L|156:304,1,100
256,184,122374,1,8,0:0:0:0:
124,108,122574,1,0,0:0:0:0:
256,36,122774,2,0,L|356:68,1,100,2|0,0:0|0:0,0:0:0:0:
256,184,123174,1,8,0:0:0:0:
388,260,123374,1,2,0:0:0:0:
256,184,123574,6,0,P|217:210|155:212,1,100
113,192,123840,2,0,L|74:222,4,33.3333333333333,0|0|8|0|0,0:0|0:0|0:0|0:0|0:0,0:0:0:0:
114,140,124174,2,0,P|133:94|173:65,1,100,2|0,0:0|0:0,0:0:0:0:
328,52,124574,2,0,P|340:104|376:152,1,100,2|10,0:0|0:0,0:0:0:0:
476,40,124974,1,2,0:0:0:0:
432,225,125174,6,0,P|413:271|376:304,1,100
365,142,125574,1,8,0:0:0:0:
191,144,125774,2,0,P|227:177|275:184,1,100,2|0,0:0|0:0,0:0:0:0:
112,88,126174,1,2,0:0:0:0:
4,192,126374,1,10,0:0:0:0:
148,236,126574,5,2,0:0:0:0:
182,270,126674,1,0,0:0:0:0:
230,260,126774,1,0,0:0:0:0:
278,251,126874,1,0,0:0:0:0:
312,285,126974,1,2,0:0:0:0:
436,372,127174,1,10,0:0:0:0:
476,228,127374,2,0,P|492:184|480:116,1,100,2|2,0:0|0:0,0:0:0:0:
460,88,127674,1,0,0:0:0:0:
416,60,127774,1,2,0:0:0:0:
268,32,127974,2,0,L|224:64,2,50,10|0|2,0:0|0:0|0:0,0:0:0:0:
336,164,128374,5,0,0:0:0:0:
336,164,128474,1,0,0:0:0:0:
336,164,128574,2,0,P|356:216|356:268,1,100,2|10,0:0|0:0,0:0:0:0:
256,152,128974,1,2,0:0:0:0:
154,259,129174,2,0,P|157:210|176:164,1,100,2|0,0:0|0:0,0:0:0:0:
256,292,129574,1,10,0:0:0:0:
256,44,129774,6,0,P|312:32|364:48,1,100,2|0,0:0|0:0,0:0:0:0:
456,152,130174,1,2,0:0:0:0:
308,184,130374,1,10,0:0:0:0:
412,292,130574,1,2,0:0:0:0:
267,341,130774,2,0,P|220:328|185:293,2,100,2|0|10,0:0|0:0|0:0,0:0:0:0:
148,200,131374,1,0,0:0:0:0:
243,87,131574,6,0,P|216:46|172:23,1,100,0|2,0:0|0:0,0:0:0:0:
256,188,131974,1,10,0:0:0:0:
316,268,132174,1,2,0:0:0:0:
495,247,132374,2,0,P|460:282|412:292,1,100,2|0,0:0|0:0,0:0:0:0:
484,160,132774,1,10,0:0:0:0:
243,87,132974,6,0,P|195:97|160:132,1,100,2|0,0:0|0:0,0:0:0:0:
312,140,133374,1,2,0:0:0:0:
312,140,133474,1,2,0:0:0:0:
312,140,133574,2,0,P|308:200|272:248,1,100,10|0,0:0|0:0,0:0:0:0:
188,224,133974,1,2,0:0:0:0:
316,68,134174,1,2,0:0:0:0:
352,264,134374,1,10,0:0:0:0:
244,160,134574,1,2,0:0:0:0:
136,304,134774,6,0,P|172:332|224:340,1,89.9999972534181,2|0,0:0|0:0,0:0:0:0:
376,304,135174,2,0,P|340:332|288:340,1,89.9999972534181,10|0,0:0|0:0,0:0:0:0:
212,200,135574,2,0,P|256:212|300:200,1,89.9999972534181,2|0,0:0|0:0,0:0:0:0:
256,44,135974,1,8,0:0:0:0:
256,52,136074,1,2,0:0:0:0:
256,60,136174,1,2,0:0:0:0:
256,68,136274,1,2,0:0:0:0:
256,76,136374,6,0,L|256:192,1,89.9999972534181,2|2,0:0|0:0,0:0:0:0:
256,166,136774,1,10,0:0:0:0:
292,248,136974,2,0,L|328:221,1,44.999998626709,2|0,0:0|0:0,0:0:0:0:
220,248,137174,2,0,L|172:212,2,44.999998626709,2|0|2,0:0|0:0|0:0,0:0:0:0:
256,120,137574,1,10,0:0:0:0:
256,308,137774,1,2,0:0:0:0:
124,280,137974,5,0,0:0:0:0:
188,160,138174,1,0,0:0:0:0:
323,160,138374,1,8,0:0:0:0:
388,280,138574,1,2,0:0:0:0:
256,44,138974,1,2,0:0:0:0:
212,124,139174,1,10,0:0:0:0:
302,124,139374,1,2,0:0:0:0:
256,200,139574,6,0,L|256:272,2,44.999998626709
344,204,139974,2,0,B|372:200|372:200|404:208|404:208|432:204,1,89.9999972534181,8|0,0:0|0:0,0:0:0:0:
168,204,140374,2,0,B|140:200|140:200|108:208|108:208|80:204,1,89.9999972534181
256,368,140774,2,0,B|259:337|259:337|251:305|251:305|255:273,1,89.9999972534181,8|0,0:0|0:0,0:0:0:0:
256,120,141174,1,4,0:0:0:0:
