osu file format v14

[General]
AudioFilename: Be Nice 'n Easy.mp3
AudioLeadIn: 0
PreviewTime: 38774
Countdown: 0
SampleSet: Soft
StackLeniency: 0.3
Mode: 0
LetterboxInBreaks: 0
WidescreenStoryboard: 1

[Editor]
Bookmarks: -26,13174,25974,38774,64374,76874,77174,89974,107574,115574,141174
DistanceSpacing: 1.2
BeatDivisor: 4
GridSize: 32
TimelineZoom: 1.8

[Metadata]
Title:Be Nice 'n Easy
TitleUnicode:Be Nice 'n Easy
Artist:SoundTeMP
ArtistUnicode:SoundTeMP
Creator:ErunamoJAZZ
Version:Hard
Source:Ragnarok Online
Tags:라그나로크 온라인 ラグナロクオンライン gravity mmorpg Izlude dungeon and HappyRocket88 Side OnosakiHito
BeatmapID:804800
BeatmapSetID:366807

[Difficulty]
HPDrainRate:5
CircleSize:4
OverallDifficulty:6
ApproachRate:7.5
SliderMultiplier:1.6
SliderTickRate:1

[Events]
//Background and Video events
0,0,"bg.jpg",0,0
//Break Periods
//Storyboard Layer 0 (Background)
//Storyboard Layer 1 (Fail)
//Storyboard Layer 2 (Pass)
//Storyboard Layer 3 (Foreground)
//Storyboard Sound Samples

[TimingPoints]
374,400,4,2,0,45,1,0
38774,-100,4,2,0,45,0,1
62774,-100,4,2,0,45,0,0
63574,-111.111111111111,4,2,0,45,0,0
63974,-125,4,2,0,45,0,0
89174,-111.111111111111,4,2,0,45,0,0
89974,-100,4,2,0,45,0,0
134774,-111.111111111111,4,2,0,45,0,0

[Colours]
Combo1 : 209,12,41
Combo2 : 206,176,6
Combo3 : 13,145,172
Combo4 : 210,183,255

[HitObjects]
491,115,374,6,0,P|465:86|428:73,1,80
412,168,774,1,8,0:0:0:0:
427,262,974,2,0,P|355:244|320:147,1,160
333,76,1574,1,8,0:0:0:0:
251,24,1774,1,0,0:0:0:0:
144,120,1974,6,0,P|104:136|40:124,1,80
89,40,2374,1,8,0:0:0:0:
184,60,2574,2,0,P|216:112|168:188,1,160,0|0,0:0|0:0,0:0:0:0:
86,137,3174,1,8,0:0:0:0:
86,233,3374,1,0,0:0:0:0:
193,322,3574,6,0,P|263:358|342:356,1,160,0|8,0:0|0:0,0:0:0:0:
428,312,4174,1,0,0:0:0:0:
292,176,4574,1,2,0:1:0:0:
111,241,4974,1,2,0:1:0:0:
144,52,5374,1,2,0:1:0:0:
218,114,5574,6,0,L|202:204,1,80,8|2,0:0|0:1,0:0:0:0:
388,136,6174,2,0,L|400:57,1,80,0|8,0:0|0:0,0:0:0:0:
304,48,6574,1,0,0:0:0:0:
296,192,6774,6,0,P|288:233|253:269,1,80
203,192,7174,1,8,0:0:0:0:
61,219,7374,2,0,P|88:289|169:335,1,160
248,366,7974,2,0,B|274:336|274:336|316:333,1,80,8|0,0:0|0:0,0:0:0:0:
408,352,8374,6,0,B|380:276|380:276|400:200,1,160,0|8,0:0|0:0,0:0:0:0:
492,176,8974,2,0,P|472:136|424:108,1,80,0|0,0:0|0:0,0:0:0:0:
348,119,9374,1,2,0:0:0:0:
304,204,9574,1,10,0:0:0:0:
400,199,9774,1,2,0:0:0:0:
272,131,9974,6,0,P|236:111|205:70,1,80,2|0,0:0|0:0,0:0:0:0:
181,43,10274,2,0,P|117:58|75:119,1,120
136,284,10974,1,2,0:0:0:0:
280,156,11374,1,2,0:0:0:0:
464,212,11774,5,2,0:3:0:0:
455,259,11874,1,2,0:3:0:0:
447,306,11974,1,8,0:0:0:0:
360,348,12174,2,0,P|308:316|232:328,1,120,0|0,0:0|0:0,0:0:0:0:
212,344,12574,1,0,0:0:0:0:
120,320,12774,2,0,L|85:353,2,40,8|0|0,0:0|0:0|0:0,0:0:0:0:
112,224,13174,5,4,0:0:0:0:
128,128,13374,1,0,0:0:0:0:
41,168,13574,1,8,0:0:0:0:
44,72,13774,2,0,P|109:29|185:44,1,160,2|2,0:0|0:0,0:0:0:0:
232,128,14374,2,0,P|253:163|292:184,1,80,8|2,0:0|0:0,0:0:0:0:
334,178,14674,6,0,P|371:137|455:133,1,120,8|2,0:0|0:0,0:0:0:0:
418,221,15174,1,8,0:0:0:0:
428,316,15374,2,0,P|467:303|501:265,2,80,2|0|2,0:0|0:0|0:0,0:0:0:0:
341,274,15974,1,8,0:0:0:0:
249,302,16174,1,2,0:0:0:0:
267,159,16374,6,0,P|188:163|118:201,1,160,0|8,0:0|0:0,0:0:0:0:
118,201,16974,1,2,0:0:0:0:
236,352,17374,1,2,0:0:0:0:
156,296,17574,2,0,P|125:323|84:341,1,80,8|2,0:0|0:0,0:0:0:0:
43,325,17874,2,0,P|22:272|27:205,1,120,8|2,0:0|0:0,0:0:0:0:
68,124,18374,2,0,B|90:91|90:91|140:76,1,80,8|2,0:0|0:0,0:0:0:0:
224,72,18774,6,0,B|264:68|264:68|308:36,1,80,2|2,0:3|0:0,0:0:0:0:
340,132,19174,2,0,B|372:108|372:108|388:72,1,80,8|2,0:0|0:0,0:0:0:0:
252,168,19574,5,0,0:0:0:0:
280,260,19774,1,2,0:0:0:0:
368,224,19974,1,8,0:0:0:0:
493,148,20174,2,0,L|432:296,1,160,2|2,0:0|0:0,0:0:0:0:
340,328,20774,2,0,P|304:352|248:348,1,80,8|2,0:0|0:0,0:0:0:0:
224,340,21074,2,0,P|164:280|112:276,1,120,8|2,0:0|0:0,0:0:0:0:
132,372,21574,1,8,0:0:0:0:
28,253,21774,6,0,L|12:331,2,80,2|0|2,0:0|0:0|0:0,0:0:0:0:
108,196,22374,1,8,0:0:0:0:
60,112,22574,1,2,0:0:0:0:
192,168,22774,6,0,L|342:237,1,160,0|8,0:0|0:0,0:0:0:0:
337,234,23374,1,2,0:0:0:0:
388,48,23774,1,2,0:2:0:0:
436,132,23974,2,0,P|408:176|408:216,1,80,8|10,0:2|0:2,0:0:0:0:
428,248,24274,2,0,P|480:250|514:230,2,80,8|8|8,0:2|0:2|0:2,0:0:0:0:
380,240,24774,2,0,P|333:264|313:298,1,80,8|2,0:2|0:0,0:0:0:0:
240,340,25174,2,0,P|200:348|147:329,1,80,0|2,0:0|0:0,0:0:0:0:
204,248,25574,5,8,0:0:0:0:
118,205,25774,1,2,0:0:0:0:
123,109,25974,2,0,P|178:47|261:33,1,160,0|8,0:0|0:0,0:0:0:0:
250,31,26574,1,2,0:0:0:0:
440,53,26974,2,0,B|479:49|479:49|510:15,2,80,2|8|2,0:0|0:0|0:0,0:0:0:0:
398,29,27474,2,0,B|365:75|365:75|376:146,1,120,8|2,0:0|0:0,0:0:0:0:
389,232,27974,5,10,0:0:0:0:
253,181,28174,2,0,B|244:121|244:121|190:86,1,120,2|0,0:0|0:0,0:0:0:0:
148,76,28574,2,0,B|128:40|128:40|72:20,2,80,2|8|2,0:0|0:0|0:0,0:0:0:0:
168,168,29174,2,0,L|133:240,1,80,0|2,0:0|0:0,0:0:0:0:
44,276,29574,1,8,0:0:0:0:
180,324,29774,6,0,P|264:332|348:300,1,160,2|2,0:0|0:0,0:0:0:0:
408,248,30374,1,8,0:0:0:0:
420,152,30574,2,0,P|384:75|315:18,2,160,2|0|0,0:0|0:0|0:0,0:0:0:0:
408,248,31574,6,0,L|320:200,1,80,0|0,0:0|0:0,0:0:0:0:
241,209,31974,2,0,L|186:240,3,40,10|2|2|2,0:0|0:0|0:0|0:0,0:0:0:0:
160,220,32374,2,0,P|152:144|212:92,1,160,2|8,0:0|0:0,0:0:0:0:
210,92,32974,1,2,0:0:0:0:
400,124,33374,1,2,0:0:0:0:
493,102,33574,1,8,0:0:0:0:
464,193,33774,2,0,P|440:281|404:345,1,160,2|2,0:0|0:0,0:0:0:0:
316,305,34374,5,10,0:0:0:0:
256,377,34574,2,0,P|168:353|104:317,1,160,2|2,0:0|0:0,0:0:0:0:
152,237,35174,1,8,0:0:0:0:
248,229,35374,2,0,P|206:147|157:92,1,160,2|2,0:0|0:0,0:0:0:0:
256,85,35974,2,0,P|296:81|344:65,1,80,8|2,0:0|0:0,0:0:0:0:
472,201,36574,1,2,0:0:0:0:
376,365,36974,1,2,0:0:0:0:
256,192,37074,12,8,38374,0:0:0:0:
256,256,38574,6,0,L|256:216,1,40,2|2,0:2|0:2,0:0:0:0:
256,168,38774,2,0,B|200:148|200:148|168:80,1,120,6|2,0:0|0:0,0:0:0:0:
132,72,39174,2,0,L|49:110,1,80,8|2,0:0|0:0,0:0:0:0:
16,192,39574,2,0,L|53:277,1,80,2|0,0:0|0:0,0:0:0:0:
140,236,39974,1,8,0:0:0:0:
160,332,40174,2,0,L|204:344,1,40,2|0,0:0|0:0,0:0:0:0:
249,350,40374,6,0,B|276:324|276:324|316:328|316:328|330:282|377:269,1,160,0|8,0:0|0:0,0:0:0:0:
440,337,40974,1,0,0:0:0:0:
493,257,41174,1,0,0:0:0:0:
449,171,41374,1,0,0:0:0:0:
497,88,41574,1,8,0:0:0:0:
360,132,41774,2,0,L|324:172,1,40,2|2,0:0|0:0,0:0:0:0:
296,192,41974,6,0,P|240:200|172:172,1,120,2|2,0:0|0:0,0:0:0:0:
196,132,42374,2,0,P|208:83|201:39,1,80,8|2,0:0|0:0,0:0:0:0:
116,24,42774,2,0,P|85:64|74:107,1,80,2|0,0:0|0:0,0:0:0:0:
96,184,43174,1,8,0:0:0:0:
132,272,43374,2,0,L|96:304,1,40,2|8,0:0|0:0,0:0:0:0:
64,324,43574,6,0,P|24:312|-16:264,2,80,0|0|8,0:0|0:0|0:0,0:0:0:0:
156,348,44174,1,0,0:0:0:0:
300,340,44374,2,0,L|364:264,1,80,2|0,0:0|0:0,0:0:0:0:
320,188,44774,1,10,0:0:0:0:
224,192,44974,2,0,L|176:156,1,40,2|2,0:0|0:0,0:0:0:0:
152,140,45174,6,0,P|164:80|216:44,1,120,2|0,0:0|0:0,0:0:0:0:
256,44,45574,2,0,P|292:64|348:60,1,80,8|2,0:0|0:0,0:0:0:0:
424,48,45974,2,0,P|452:80|464:132,1,80,2|0,0:0|0:0,0:0:0:0:
472,212,46374,1,10,0:0:0:0:
432,300,46574,2,0,L|404:332,1,40,2|0,0:0|0:0,0:0:0:0:
356,332,46774,6,0,P|320:320|272:328,1,80,0|0,0:0|0:0,0:0:0:0:
192,368,47174,1,8,0:0:0:0:
204,272,47374,1,0,0:0:0:0:
132,208,47574,1,0,0:0:0:0:
42,243,47774,1,0,0:0:0:0:
116,304,47974,1,8,0:0:0:0:
208,196,48174,2,0,L|232:132,1,40,2|2,0:0|0:0,0:0:0:0:
252,120,48374,6,0,P|296:144|380:144,1,120,2|2,0:0|0:0,0:0:0:0:
408,124,48774,2,0,P|432:104|460:48,1,80,8|2,0:0|0:0,0:0:0:0:
360,48,49174,2,0,P|320:48|276:20,1,80,2|0,0:0|0:0,0:0:0:0:
192,40,49574,1,10,0:0:0:0:
120,104,49774,2,0,L|88:156,1,40,2|8,0:0|0:0,0:0:0:0:
112,184,49974,6,0,L|136:228,1,40,0|8,0:0|0:0,0:0:0:0:
144,268,50174,2,0,L|80:340,2,80,0|8|0,0:0|0:0|0:0,0:0:0:0:
232,232,50774,2,0,B|278:216|306:253|303:256|299:259|332:302|378:286,1,160,0|8,0:0|0:0,0:0:0:0:
456,244,51374,2,0,L|492:180,1,40,2|2,0:0|0:0,0:0:0:0:
496,164,51574,6,0,P|480:112|408:76,1,120,10|2,0:0|0:0,0:0:0:0:
384,104,51974,2,0,P|344:128|288:136,1,80,8|2,0:0|0:0,0:0:0:0:
220,108,52374,2,0,P|177:67|111:46,1,120,2|2,0:0|0:0,0:0:0:0:
76,68,52774,1,10,0:0:0:0:
0,192,52974,1,2,0:0:0:0:
45,276,53174,6,0,P|58:313|85:343,1,80
180,341,53574,2,0,P|205:310|218:272,1,80,8|0,0:0|0:0,0:0:0:0:
166,189,53975,2,0,P|126:182|87:190,1,80
130,275,54374,1,8,0:0:0:0:
276,320,54574,2,0,L|318:359,1,40,2|2,0:0|0:0,0:0:0:0:
352,336,54774,6,0,P|408:340|464:300,2,120,2|2|2,0:0|0:0|0:0,0:0:0:0:
384,244,55574,2,0,L|372:76,1,160,2|10,0:0|0:0,0:0:0:0:
304,20,56174,1,2,0:0:0:0:
216,136,56374,38,0,L|128:144,1,80
180,56,56774,2,0,L|92:64,1,80,8|0,0:0|0:0,0:0:0:0:
44,144,57174,1,0,0:0:0:0:
92,228,57374,1,0,0:0:0:0:
44,312,57574,1,8,0:0:0:0:
188,320,57774,6,0,L|225:333,1,40,2|2,0:0|0:0,0:0:0:0:
184,276,57974,2,0,L|232:144,2,120,2|2|2,0:0|0:0|0:0,0:0:0:0:
304,196,58774,2,0,L|364:32,1,160,2|10,0:0|0:0,0:0:0:0:
424,116,59374,2,0,L|366:283,1,160,2|2,0:0|0:0,0:0:0:0:
284,308,59974,1,10,0:0:0:0:
242,221,60174,1,2,0:0:0:0:
152,188,60374,1,2,0:0:0:0:
16,324,60774,1,10,0:0:0:0:
208,328,61174,6,0,P|252:328|344:272,1,120,2|2,0:0|0:0,0:0:0:0:
348,256,61574,2,0,P|348:224|376:164,1,80,10|2,0:0|0:0,0:0:0:0:
316,96,61974,2,0,P|376:84|456:152,1,160,2|10,0:0|0:0,0:0:0:0:
448,236,62574,1,2,0:0:0:0:
392,312,62774,6,0,L|316:348,1,80
288,256,63174,2,0,L|224:200,2,80,8|0|0,0:0|0:0|0:0,0:0:0:0:
208,284,63774,1,0,0:0:0:0:
140,316,63974,2,0,L|88:272,1,64,2|2,0:0|0:0,0:0:0:0:
112,200,64374,6,0,B|197:166|39:118|39:118|92:12|255:12|255:12|418:12|470:118|470:118|312:166|407:203,1,832
421,274,67174,2,0,L|364:324,1,64,2|2,0:0|0:0,0:0:0:0:
196,171,67974,6,0,P|255:151|315:171,2,128,0|0|0,3:0|2:0|3:0,0:0:0:0:
256,308,69174,1,0,0:3:0:0:
315,166,69574,2,0,P|255:146|195:166,2,128,2|0|2,0:3|0:0|0:3,0:0:0:0:
256,308,70774,6,0,L|256:376,1,64
181,354,71174,1,2,0:3:0:0:
122,304,71374,2,0,P|122:244|66:196,1,128,0|0,0:0|0:0,0:0:0:0:
38,200,71874,2,0,L|10:216,1,32,0|2,0:0|0:3,0:0:0:0:
68,72,72374,6,0,L|49:36,2,32,0|0|0,0:0|0:0|0:0,0:0:0:0:
128,24,72774,1,2,0:3:0:0:
184,76,72974,1,0,0:0:0:0:
208,228,73374,2,0,L|192:268,2,32,0|0|2,0:0|0:0|0:3,0:0:0:0:
316,120,73974,6,0,L|329:90,2,32,0|0|0,0:0|0:0|0:0,0:0:0:0:
344,192,74374,1,2,0:3:0:0:
416,168,74574,2,0,L|488:300,1,128,0|0,0:0|0:0,0:0:0:0:
484,316,75074,2,0,L|464:364,1,32,0|2,0:0|0:3,0:0:0:0:
320,316,75574,6,0,L|336:360,2,32,0|8|0,0:0|0:0|0:0,0:0:0:0:
336,240,75974,2,0,B|304:232|304:232|268:200,1,64,10|8,0:0|0:0,0:0:0:0:
212,248,76374,2,0,B|216:280|216:280|200:308,1,64,2|2,0:0|0:0,0:0:0:0:
136,264,76774,1,2,0:0:0:0:
120,188,76974,1,0,0:0:0:0:
176,136,77174,5,0,0:0:0:0:
176,136,77574,2,0,P|208:140|240:124,1,64,2|2,0:0|0:0,0:0:0:0:
196,60,77974,2,0,P|224:47|256:51,1,64,2|2,0:0|0:0,0:0:0:0:
312,104,78374,1,2,0:0:0:0:
300,180,78574,1,2,0:0:0:0:
244,236,78774,6,0,P|272:256|320:256,1,64,2|2,0:0|0:0,0:0:0:0:
364,220,79174,2,0,P|395:206|442:217,1,64,2|2,0:0|0:0,0:0:0:0:
472,268,79574,2,0,P|492:243|499:213,1,64,2|2,0:0|0:0,0:0:0:0:
464,144,79974,2,0,P|443:119|436:89,1,64,2|2,0:0|0:0,0:0:0:0:
512,84,80374,5,2,0:0:0:0:
472,20,80574,1,2,0:0:0:0:
396,24,80774,1,2,0:0:0:0:
360,92,80974,1,2,0:0:0:0:
392,160,81174,2,0,P|384:196|356:220,2,64,2|0|2,0:0|0:0|0:0,0:0:0:0:
316,156,81774,1,2,0:0:0:0:
278,88,81974,6,0,P|226:92|162:142,1,128,2|2,0:0|0:0,0:0:0:0:
85,6,82774,2,0,P|59:63|65:126,1,128,2|2,0:0|0:0,0:0:0:0:
168,239,83574,6,0,P|242:226|297:176,1,128,0|2,0:0|0:0,0:0:0:0:
242,48,84374,2,0,P|271:37|302:44,1,64,2|2,0:0|0:0,0:0:0:0:
329,117,84774,2,0,P|356:132|387:135,1,64,2|2,0:0|0:0,0:0:0:0:
457,96,85174,6,0,P|485:108|504:133,1,64,2|2,0:0|0:0,0:0:0:0:
507,210,85574,1,2,0:0:0:0:
471,278,85774,1,2,0:0:0:0:
413,326,85974,1,2,0:0:0:0:
339,346,86174,1,2,0:0:0:0:
264,335,86374,1,2,0:0:0:0:
199,294,86574,1,2,0:0:0:0:
145,243,86774,6,0,L|91:276,1,64,2|2,0:0|0:0,0:0:0:0:
25,234,87174,2,0,L|77:199,1,64,2|2,0:0|0:0,0:0:0:0:
68,122,87574,2,0,L|14:155,2,64,0|0|2,0:0|0:0|0:0,0:0:0:0:
184,20,88374,1,0,0:0:0:0:
160,172,88774,1,2,0:0:0:0:
332,172,89174,1,0,0:0:0:0:
304,88,89374,2,0,L|332:56,1,35.9999989013672,0|2,0:0|0:0,0:0:0:0:
360,32,89574,2,0,P|392:40|436:76,1,71.9999978027344,0|0,0:0|0:0,0:0:0:0:
488,172,89974,6,0,P|468:260|392:324,1,160,4|8,0:0|0:0,0:0:0:0:
336,353,90574,2,0,L|300:333,1,40,2|2,0:0|0:0,0:0:0:0:
256,317,90774,2,0,L|208:341,1,40,2|2,0:0|0:0,0:0:0:0:
176,349,90974,2,0,L|136:329,1,40,2|2,0:0|0:0,0:0:0:0:
97,308,91174,2,0,P|90:276|105:230,1,80,10|2,0:0|0:0,0:0:0:0:
206,69,91774,6,0,L|247:100,3,40,2|2|10|2,0:0|0:0|0:0|0:0,0:0:0:0:
286,93,92174,2,0,L|326:64,3,40,2|2|2|2,0:0|0:0|0:0|0:0,0:0:0:0:
358,97,92574,2,0,L|394:123,3,40,2|2|10|2,0:0|0:0|0:0|0:0,0:0:0:0:
400,167,92974,1,2,0:0:0:0:
387,262,93174,6,0,P|398:308|380:356,2,80,2|2|8,0:0|0:0|0:0,0:0:0:0:
300,304,93774,2,0,P|232:308|152:264,1,160,2|2,0:0|0:0,0:0:0:0:
128,172,94374,1,10,0:0:0:0:
216,208,94574,2,0,P|152:264|64:244,1,160,2|0,0:0|0:0,0:0:0:0:
24,180,95174,5,10,0:0:0:0:
20,84,95374,1,0,0:0:0:0:
102,37,95574,1,0,0:0:0:0:
184,86,95774,1,0,0:0:0:0:
266,39,95974,1,10,0:0:0:0:
344,95,96174,1,2,0:0:0:0:
256,208,96374,6,0,P|320:232|352:300,2,120,2|2|2,0:0|0:0|0:0,0:0:0:0:
256,304,97174,2,0,P|324:364|404:348,1,160,2|8,0:0|0:0,0:0:0:0:
440,276,97774,1,2,0:0:0:0:
352,104,98174,5,2,0:0:0:0:
440,144,98374,1,10,0:0:0:0:
436,48,98574,1,2,0:0:0:0:
348,16,98774,2,0,L|229:37,2,120,2|2|2,0:0|0:0|0:0,0:0:0:0:
256,127,99574,6,0,P|252:166|219:214,1,80,2|0,0:0|0:0,0:0:0:0:
144,241,99974,1,8,0:0:0:0:
56,199,100174,2,0,P|33:124|77:44,1,160
155,14,100774,2,0,P|197:18|243:49,1,80,10|2,0:0|0:0,0:0:0:0:
256,192,101174,12,0,102774,0:0:0:0:
75,47,103374,6,0,P|95:81|143:107,1,80,2|2,0:0|0:0,0:0:0:0:
223,111,103774,2,0,P|207:155|167:191,1,80,2|10,0:0|0:0,0:0:0:0:
89,191,104174,1,2,0:0:0:0:
109,284,104374,2,0,P|141:304|197:304,1,80,2|2,0:0|0:0,0:0:0:0:
256,246,104774,2,0,P|288:258|324:294,1,80,10|2,0:0|0:0,0:0:0:0:
484,192,105374,2,0,L|504:92,2,80,0|8|0,0:0|0:0|0:0,0:0:0:0:
464,288,105974,5,0,0:0:0:0:
360,124,106374,1,8,0:0:0:0:
380,220,106574,1,2,0:0:0:0:
288,192,106774,2,0,P|252:170|208:170,1,80,0|2,0:0|0:0,0:0:0:0:
224,266,107174,2,0,P|184:264|150:243,1,80,10|2,0:0|0:0,0:0:0:0:
64,204,107574,2,0,P|24:248|4:320,2,120,2|2|0,0:0|0:0|0:0,0:0:0:0:
208,76,108574,5,2,0:2:0:0:
304,76,108774,1,10,0:2:0:0:
256,160,108974,1,2,0:2:0:0:
256,256,109174,1,2,0:2:0:0:
184,320,109374,2,0,P|256:352|328:320,1,160,2|2,0:2|0:2,0:0:0:0:
460,184,110174,6,0,P|380:136|348:52,1,160,2|2,0:2|0:2,0:0:0:0:
164,44,110974,2,0,P|136:72|80:96,1,80,2|8,0:2|0:2,0:0:0:0:
36,272,111574,2,0,P|76:284|112:316,1,80,2|2,0:2|0:2,0:0:0:0:
182,364,111974,1,8,0:2:0:0:
321,328,112174,6,0,P|334:245|278:163,1,160,2|0,0:0|0:0,0:0:0:0:
229,114,112774,2,0,P|261:91|300:83,1,80,8|0,0:2|0:2,0:0:0:0:
417,236,113374,1,2,0:0:0:0:
228,272,113774,1,2,0:0:0:0:
256,192,114174,12,4,115174,0:0:0:0:
256,100,115574,6,0,L|256:20,2,80,4|2|10,0:0|0:0|0:0,0:0:0:0:
256,196,116174,1,2,0:0:0:0:
256,292,116374,2,0,P|328:316|416:280,1,160,2|10,0:0|0:0,0:0:0:0:
256,292,116974,2,0,P|184:316|96:280,1,160,2|2,0:0|0:0,0:0:0:0:
40,220,117574,1,10,0:0:0:0:
24,125,117774,1,2,0:0:0:0:
88,52,117974,2,0,P|124:44|180:56,1,80,2|0,0:0|0:0,0:0:0:0:
200,140,118374,2,0,P|212:172|252:212,1,80,10|0,0:0|0:0,0:0:0:0:
328,160,118774,1,0,0:0:0:0:
348,256,118974,6,0,P|382:258|435:239,1,80,2|10,0:0|0:0,0:0:0:0:
480,164,119374,1,2,0:0:0:0:
444,76,119574,2,0,P|376:24|276:24,1,160,2|10,0:0|0:0,0:0:0:0:
328,160,120174,2,0,P|320:236|256:300,1,160,2|2,0:0|0:0,0:0:0:0:
168,296,120774,1,10,0:0:0:0:
120,212,120974,1,0,0:0:0:0:
152,120,121174,2,0,P|139:76|84:45,1,80,2|0,0:0|0:0,0:0:0:0:
19,65,121574,2,0,P|31:108|86:139,1,80,10|2,0:0|0:0,0:0:0:0:
192,184,121974,5,0,0:0:0:0:
274,231,122174,1,0,0:0:0:0:
322,148,122374,1,8,0:0:0:0:
239,100,122574,1,0,0:0:0:0:
376,56,122774,2,0,P|446:76|515:157,1,160,2|8,0:0|0:0,0:0:0:0:
464,276,123374,2,0,P|392:293|292:257,1,160,2|0,0:0|0:0,0:0:0:0:
240,204,123974,6,0,P|220:236|216:296,2,80,8|2|0,0:0|0:0|0:0,0:0:0:0:
336,184,124574,1,2,0:0:0:0:
392,108,124774,1,10,0:0:0:0:
300,88,124974,2,0,P|240:76|160:8,2,160,2|0|2,0:0|0:0|0:0,0:0:0:0:
108,76,126174,6,0,L|80:160,1,80,2|10,0:0|0:0,0:0:0:0:
20,224,126574,1,2,0:0:0:0:
188,312,126974,1,2,0:0:0:0:
336,192,127374,1,2,0:0:0:0:
464,336,127774,2,0,L|512:256,1,80,2|10,0:0|0:0,0:0:0:0:
448,192,128174,1,2,0:0:0:0:
388,116,128374,5,0,0:0:0:0:
484,104,128574,2,0,P|472:64|424:24,1,80,2|10,0:0|0:0,0:0:0:0:
352,20,128974,1,2,0:0:0:0:
288,92,129174,2,0,P|200:84|136:20,1,160,2|10,0:0|0:0,0:0:0:0:
205,171,129774,2,0,P|229:239|193:331,1,160,2|2,0:0|0:0,0:0:0:0:
108,338,130374,1,10,0:0:0:0:
100,242,130574,1,2,0:0:0:0:
90,146,130774,2,0,B|71:110|71:110|26:87,1,80,2|0,0:0|0:0,0:0:0:0:
122,50,131174,2,0,B|140:85|140:85|185:108,1,80,10|0,0:0|0:0,0:0:0:0:
212,14,131574,1,0,0:0:0:0:
245,153,131774,6,0,L|264:233,1,80,2|10,0:0|0:0,0:0:0:0:
287,323,132174,1,2,0:0:0:0:
336,188,132374,2,0,P|396:148|505:168,1,160,2|10,0:0|0:0,0:0:0:0:
504,296,132974,2,0,P|430:325|355:304,1,160,2|2,0:0|0:0,0:0:0:0:
276,248,133574,1,10,0:0:0:0:
192,296,133774,1,0,0:0:0:0:
96,280,133974,2,0,L|29:234,1,80,2|2,0:0|0:0,0:0:0:0:
88,160,134374,2,0,L|154:205,1,80,10|2,0:0|0:0,0:0:0:0:
232,168,134774,6,0,L|300:128,1,71.9999978027344,2|0,0:0|0:0,0:0:0:0:
236,156,135174,2,0,L|304:116,1,71.9999978027344,10|0,0:0|0:0,0:0:0:0:
240,144,135574,2,0,L|308:104,1,71.9999978027344,2|0,0:0|0:0,0:0:0:0:
388,96,135974,1,8,0:0:0:0:
448,160,136174,2,0,P|444:232|396:300,1,143.999995605469,2|2,0:0|0:0,0:0:0:0:
328,252,136774,1,10,0:0:0:0:
252,212,136974,1,2,0:0:0:0:
176,172,137174,2,0,P|137:232|134:303,1,143.999995605469,2|10,0:0|0:0,0:0:0:0:
220,312,137774,1,2,0:0:0:0:
304,300,137974,6,0,P|336:304|376:328,1,71.9999978027344,0|0,0:0|0:0,0:0:0:0:
440,372,138374,1,8,0:0:0:0:
396,248,138574,2,0,P|352:212|336:128,1,143.999995605469,2|2,0:0|0:0,0:0:0:0:
256,92,139174,1,10,0:0:0:0:
177,129,139374,1,2,0:0:0:0:
256,192,139574,12,4,141174,0:0:0:0:
