osu file format v14

[General]
AudioFilename: Be Nice 'n Easy.mp3
AudioLeadIn: 0
PreviewTime: 38774
Countdown: 0
SampleSet: Soft
StackLeniency: 0.5
Mode: 0
LetterboxInBreaks: 0
WidescreenStoryboard: 1

[Editor]
Bookmarks: 13174,25974,38774,64374,76874,77174,89974,107574,115574,141174
DistanceSpacing: 1
BeatDivisor: 4
GridSize: 32
TimelineZoom: 0.5999999

[Metadata]
Title:Be Nice 'n Easy
TitleUnicode:Be Nice 'n Easy
Artist:SoundTeMP
ArtistUnicode:SoundTeMP
Creator:ErunamoJAZZ
Version:HappyJazz's Easy
Source:Ragnarok Online
Tags:라그나로크 온라인 ラグナロクオンライン gravity mmorpg Izlude dungeon and HappyRocket88 Side OnosakiHito
BeatmapID:818547
BeatmapSetID:366807

[Difficulty]
HPDrainRate:2
CircleSize:2.5
OverallDifficulty:2
ApproachRate:3
SliderMultiplier:0.799999999999999
SliderTickRate:1

[Events]
//Background and Video events
0,0,"bg.jpg",0,0
//Break Periods
2,69374,75734
2,101174,101934
2,112374,114134
//Storyboard Layer 0 (Background)
//Storyboard Layer 1 (Fail)
//Storyboard Layer 2 (Pass)
//Storyboard Layer 3 (Foreground)
Sprite,Foreground,Centre,"happy.png",320,240 S,0,181,,0.5 M,0,181,1581,130.9091,431.4182,176.2909,431.4182 F,0,181,1581,0,1 F,0,981,36981,1 F,0,36981,38781,1,0 F,0,38781,89781,0 F,0,89781,89981,0,1 F,0,89981,112181,1 F,0,112181,112381,1,0 F,0,112381,114781,0 F,2,114781,115581,0,1 F,0,115581,133181,1 F,0,133181,133581,1,0
Sprite,Foreground,Centre,"eru.png",320,240 F,0,38581,38781,0,1 F,0,38781,64381,1 M,0,39981,,478.2546,125.2364 S,0,39981,,0.5 F,0,64381,69181,1,0 F,0,69181,77181,0 F,0,77181,77581,0,1 F,0,77581,89581,1 F,0,89581,89981,1,0 F,0,89981,133181,0 F,0,133181,133581,0,1 F,0,133581,139581,1,0.9 F,0,139581,141181,0.9,0
//Storyboard Sound Samples

[TimingPoints]
374,400,4,2,0,69,1,0
38774,-100,4,2,0,69,0,1
64374,-100,4,2,0,69,0,0

[Colours]
Combo1 : 209,12,41
Combo2 : 206,176,6
Combo3 : 13,145,172
Combo4 : 210,183,255

[HitObjects]
228,248,374,6,0,P|268:172|176:68,1,240,0|8,0:0|0:0,0:0:0:0:
168,168,1974,2,0,P|276:176|320:64,1,240,0|8,0:0|0:0,0:0:0:0:
228,92,3574,6,0,B|220:156|264:184|264:184|304:224|292:280,1,200,0|2,0:0|0:1,0:0:0:0:
236,344,4974,1,2,0:1:0:0:
200,256,5374,1,2,0:1:0:0:
268,188,5774,2,0,P|312:184|384:232,1,120,2|8,0:1|0:0,0:0:0:0:
300,276,6774,6,0,B|252:276|252:276|236:272|236:272|220:276|220:276|168:276,2,120,0|0|8,0:0|0:0|0:0,0:0:0:0:
376,332,8374,2,0,P|392:288|384:240,1,79.9999999999999,0|8,0:0|0:0,0:0:0:0:
336,176,9174,2,0,P|328:140|340:96,1,79.9999999999999,0|10,0:0|0:0,0:0:0:0:
424,140,9974,6,0,L|356:252,1,120,2|0,0:0|0:0,0:0:0:0:
312,324,10974,2,0,P|277:292|268:253,1,79.9999999999999,2|2,0:0|0:0,0:0:0:0:
361,242,11774,2,0,P|397:276|404:310,1,79.9999999999999,2|0,0:3|0:0,0:0:0:0:
196,196,13174,6,0,L|200:68,2,120,4|2|8,0:0|0:0|0:0,0:0:0:0:
120,252,14774,2,0,P|192:292|236:280,2,120,0|2|8,0:0|0:0|0:0,0:0:0:0:
196,196,16374,6,0,B|264:184|264:184|292:208|344:208,1,120,0|2,0:0|0:0,0:0:0:0:
384,268,17374,2,0,P|422:296|437:344,2,79.9999999999999,2|2|2,0:0|3:2|0:0,0:0:0:0:
240,256,18774,2,0,P|195:259|160:284,1,79.9999999999999,2|8,0:3|0:0,0:0:0:0:
228,352,19574,6,0,B|264:360|292:344|292:344|308:372|348:376,2,120,0|2|8,0:0|0:0|0:0,0:0:0:0:
136,380,21174,2,0,P|136:324|184:268,2,120,0|2|8,0:0|0:0|0:0,0:0:0:0:
228,352,22774,6,0,L|352:372,1,120,0|2,0:0|0:0,0:0:0:0:
428,324,23774,1,2,0:2:0:0:
492,252,24174,2,0,B|468:228|424:228|424:228|364:228,1,120,2|8,3:2|0:2,0:0:0:0:
288,192,25174,2,0,L|240:192,2,40,0|2|8,0:0|0:0|0:0,0:0:0:0:
300,288,25974,6,0,B|216:288|216:288|172:308,1,120,0|2,0:0|0:0,0:0:0:0:
100,348,26974,2,0,P|40:344|16:320,1,79.9999999999999,2|2,0:0|3:2,0:0:0:0:
32,188,27974,2,0,B|60:152|96:140|96:140|116:100,1,120,10|2,0:0|0:0,0:0:0:0:
184,172,28974,6,0,P|160:212|116:228,2,79.9999999999999,2|2|2,0:0|0:0|0:0,0:0:0:0:
96,139,30174,1,2,0:0:0:0:
40,216,30574,2,0,B|36:276|76:316|136:320|136:320|176:352,1,200,2|0,0:0|0:0,0:0:0:0:
256,304,31974,5,10,0:0:0:0:
340,256,32374,2,0,P|400:228|456:240,2,120,2|2|8,0:0|0:0|0:0,0:0:0:0:
408,324,33974,1,0,0:0:0:0:
450,237,34374,6,0,B|458:197|458:197|432:112,1,120,10|2,0:0|0:0,0:0:0:0:
344,92,35374,2,0,B|316:92|304:88|304:88|292:92|264:92,2,79.9999999999999,2|2|2,0:0|0:0|0:0,0:0:0:0:
428,44,36574,1,2,0:0:0:0:
460,136,36974,6,0,B|484:200|456:252|368:272|348:236|348:236|312:248|312:248|284:228|236:216|196:256,1,360,2|6,0:0|0:0,0:0:0:0:
140,320,39174,5,8,0:0:0:0:
88,240,39574,1,2,0:0:0:0:
152,172,39974,1,8,0:0:0:0:
205,247,40374,2,0,P|261:287|317:279,2,120,0|0|8,0:0|0:0|0:0,0:0:0:0:
248,160,41974,5,2,0:0:0:0:
302,81,42374,2,0,P|338:62|363:14,2,79.9999999999999,8|2|8,0:0|0:0|0:0,0:0:0:0:
206,76,43574,2,0,P|125:87|69:157,1,160,0|2,0:0|0:0,0:0:0:0:
44,233,44774,1,10,0:0:0:0:
82,320,45174,5,2,0:0:0:0:
170,356,45574,2,0,P|210:348|254:300,2,79.9999999999999,8|2|10,0:0|0:0|0:0,0:0:0:0:
170,260,46774,2,0,P|190:196|290:148,1,160,2|0,0:0|0:0,0:0:0:0:
362,153,47974,1,8,0:0:0:0:
418,230,48374,6,0,P|446:206|454:150,1,79.9999999999999,2|8,0:0|0:0,0:0:0:0:
418,73,49174,2,0,P|366:53|294:81,1,120,2|2,0:0|0:0,0:0:0:0:
228,272,51574,5,6,0:0:0:0:
140,313,51974,1,8,0:0:0:0:
64,252,52374,2,0,B|53:214|77:174|77:174|32:143,2,120,2|2|8,0:0|0:0|0:0,0:0:0:0:
158,230,53974,2,0,B|238:278,1,79.9999999999999,0|8,0:0|0:0,0:0:0:0:
305,218,54774,6,0,P|292:174|307:123,1,79.9999999999999,2|8,0:0|0:0,0:0:0:0:
351,64,55574,2,0,P|300:32|208:20,2,120,2|2|8,0:0|0:0|0:0,0:0:0:0:
416,135,57174,2,0,P|428:170|416:223,1,79.9999999999999,0|8,0:0|0:0,0:0:0:0:
361,286,57974,6,0,P|328:303|273:299,1,79.9999999999999,2|8,0:0|0:0,0:0:0:0:
210,249,58774,2,0,P|195:197|230:122,2,120,2|2|10,0:0|0:0|0:0,0:0:0:0:
164,334,60374,2,0,P|127:349|88:346,1,79.9999999999999,2|10,0:0|0:0,0:0:0:0:
32,268,61174,6,0,B|64:192|20:116|20:116|60:84|92:80|92:80|112:102|129:142,1,280,2|2,0:0|0:0,0:0:0:0:
256,192,64374,12,0,69174,0:3:0:0:
444,36,77174,6,0,P|407:51|383:83,1,79.9999999999999,0|2,0:0|0:0,0:0:0:0:
397,180,77974,2,0,P|367:207|331:221,1,79.9999999999999,2|2,0:0|0:0,0:0:0:0:
235,205,78774,2,0,P|202:227|179:260,2,79.9999999999999,2|2|2,0:0|0:0|0:0,0:0:0:0:
268,296,79974,1,2,0:0:0:0:
195,356,80374,6,0,P|96:304|111:192,1,240,2|2,0:0|0:0,0:0:0:0:
196,144,81974,2,0,B|176:108|132:96|132:96|152:64|200:40,1,160,2|2,0:0|0:0,0:0:0:0:
285,45,83174,1,2,0:0:0:0:
372,84,83574,6,0,P|406:60|432:9,2,79.9999999999999,0|2|2,0:0|0:0|0:0,0:0:0:0:
296,140,84774,1,2,0:0:0:0:
260,228,85174,2,0,P|284:260|304:296,1,79.9999999999999,2|2,0:0|0:0,0:0:0:0:
399,294,85974,2,0,P|418:259|442:227,1,79.9999999999999,2|2,0:0|0:0,0:0:0:0:
456,132,86774,6,0,P|400:72|252:92,1,240,2|2,0:0|0:0,0:0:0:0:
254,281,88774,1,2,0:0:0:0:
188,352,89174,2,0,P|144:340|116:300,1,79.9999999999999,0|0,0:0|0:0,0:0:0:0:
176,236,89974,6,0,B|208:212|208:176|208:176|208:100,2,120,4|2|10,0:0|0:0|0:0,0:0:0:0:
84,268,91574,2,0,P|120:320|188:332,2,120,0|2|10,0:0|0:0|0:0,0:0:0:0:
80,172,93174,6,0,B|96:128|132:112|132:112|176:128,1,120,2|2,0:0|0:0,0:0:0:0:
244,180,94174,1,2,0:0:0:0:
336,152,94574,2,0,P|392:164|424:152,1,79.9999999999999,2|0,0:0|0:0,0:0:0:0:
380,68,95374,2,0,P|316:60|248:116,1,120,0|10,0:0|0:0,0:0:0:0:
244,180,96374,6,0,B|232:217|189:232|189:232|202:291|156:326,1,160,2|2,0:0|0:0,0:0:0:0:
88,352,97574,1,8,0:0:0:0:
0,311,97974,2,0,P|39:266|126:264,1,120,0|2,0:0|0:0,0:0:0:0:
174,309,98974,1,2,0:0:0:0:
252,364,99374,2,0,P|292:369|336:349,2,79.9999999999999,2|0|0,0:0|0:0|0:0,0:0:0:0:
279,271,100574,1,0,0:0:0:0:
244,180,100974,1,2,0:0:0:0:
312,248,103374,6,0,P|232:296|204:172,1,240,2|2,0:0|0:0,0:0:0:0:
256,120,104974,2,0,B|282:87|282:87|308:56|302:9,1,120,2|8,0:0|0:0,0:0:0:0:
208,28,105974,6,0,B|156:88|156:88|92:124,1,120,0|2,0:0|0:0,0:0:0:0:
36,152,106974,1,2,0:0:0:0:
32,248,107374,2,0,P|72:300|152:288,1,120,2|8,0:0|0:0,0:0:0:0:
248,232,108574,6,0,B|272:236|296:224|296:224|324:236|352:224|352:224|376:236|404:232,1,160,2|2,0:2|0:2,0:0:0:0:
232,144,110174,2,0,P|188:160|164:204,2,79.9999999999999,2|2|2,0:2|0:2|0:2,0:0:0:0:
164,272,111574,2,0,P|100:244|84:180,1,120,2|2,0:2|0:2,0:0:0:0:
256,188,115574,6,0,B|308:200|336:184|336:184|372:196|372:172|416:188,2,160,4|2|0,0:0|0:0|0:0,0:0:0:0:
168,148,117574,2,0,P|160:200|172:236,1,79.9999999999999,10|2,0:0|0:0,0:0:0:0:
252,272,118374,1,10,0:0:0:0:
320,204,118774,6,0,P|380:156|472:188,2,160,0|2|0,0:0|0:0|0:0,0:0:0:0:
404,248,120774,2,0,P|448:268|496:252,1,79.9999999999999,10|2,0:0|0:0,0:0:0:0:
456,172,121574,2,0,L|476:120,1,40,10|2,0:0|0:0,0:0:0:0:
352,328,122774,6,0,B|320:304|276:316|276:316|232:304,1,120,2|2,0:0|0:0,0:0:0:0:
116,228,123974,2,0,B|89:189|84:184|80:180|40:128|88:76,1,160,8|10,0:0|0:0,0:0:0:0:
164,36,125174,2,0,B|208:48|240:104|240:104|264:48|320:36,1,200,0|2,0:0|0:0,0:0:0:0:
336,132,126574,2,0,P|312:176|268:200,2,79.9999999999999,2|2|2,0:0|0:0|0:0,0:0:0:0:
240,104,127774,2,0,P|180:112|156:96,1,79.9999999999999,2|2,0:0|0:0,0:0:0:0:
76,68,128574,6,0,P|72:128|124:192,2,120,2|2|2,0:0|0:0|0:0,0:0:0:0:
165,103,130174,2,0,P|225:99|284:152,2,120,2|2|0,0:0|0:0|0:0,0:0:0:0:
200,192,131774,2,0,P|256:228|320:212,2,120,2|2|2,0:0|0:0|0:0,0:0:0:0:
76,268,133574,6,0,L|-12:320,2,79.9999999999999,10|2|10,0:0|0:0|0:0,0:0:0:0:
164,304,134774,2,0,L|240:348,1,79.9999999999999,2|10,0:0|0:0,0:0:0:0:
312,292,135574,2,0,L|388:260,1,79.9999999999999,2|8,0:0|0:0,0:0:0:0:
480,280,136374,2,0,L|493:201,1,79.9999999999999,2|10,0:0|0:0,0:0:0:0:
444,116,137174,2,0,B|364:104|364:104|332:68,1,120,2|2,0:0|0:0,0:0:0:0:
242,83,138174,6,0,P|208:104|136:108,1,79.9999999999999,0|2,0:0|0:0,0:0:0:0:
72,104,138974,1,2,0:0:0:0:
48,196,139374,2,0,B|64:232|104:249|104:249|88:316|137:357|137:357|204:338|215:276|215:276|240:287|271:281,1,360,2|4,0:0|0:0,0:0:0:0:
