osu file format v14

[General]
AudioFilename: audio.mp3
AudioLeadIn: 0
PreviewTime: 139860
Countdown: 0
SampleSet: Soft
StackLeniency: 0.7
Mode: 3
LetterboxInBreaks: 0
SpecialStyle: 0
WidescreenStoryboard: 1

[Editor]
Bookmarks: 254082
DistanceSpacing: 0.8
BeatDivisor: 4
GridSize: 4
TimelineZoom: 3.199999

[Metadata]
Title:Hanatachi ni Kibou o
TitleUnicode:花たちに希望を
Artist:Sound piercer feat. DAZBEE
ArtistUnicode:Sound piercer feat. DAZBEE
Creator:Akasha-
Version:Dandelion Wishes
Source:BOFXV
Tags:オンゲキ ダズビー SUMMER PLUS O.N.G.E.K.I. SEGA ONGEKI Groundbreaking Disc5 BEAUTY & SHINY Epic Finale Vocal Japanese Video Game Piano Electronic Jpop J-pop Pop Rock J-Rock Jrock True Colours THE BMS OF FIGHTERS eXtreme Violence fxxh CHERISH NeLiME Jeong Heeyong Feyrlin Marathon Long Version Extended FAMoss MJH CHUNITHM NEW WACCA MUSYNC MUSYNX Muse Dash かわいいは正義 Cute Is Everyting Vol.7 Hope for the Flowers
BeatmapID:3667414
BeatmapSetID:1789857

[Difficulty]
HPDrainRate:8.5
CircleSize:5
OverallDifficulty:7.7
ApproachRate:5
SliderMultiplier:1.4
SliderTickRate:1

[Events]
//Background and Video events
0,0,"95024771_p0.jpg",0,0
//Break Periods
//Storyboard Layer 0 (Background)
//Storyboard Layer 1 (Fail)
//Storyboard Layer 2 (Pass)
//Storyboard Layer 3 (Foreground)
//Storyboard Layer 4 (Overlay)
//Storyboard Sound Samples

[TimingPoints]
4839,416.666666666667,4,2,2,40,1,0
4839,-76.9230769230769,4,2,2,40,0,0
17339,521.739130434783,4,2,2,40,1,0
17339,-61.3496932515337,4,2,2,40,0,0
17860,480,4,2,2,40,1,8
17860,-66.6666666666667,4,2,2,40,0,8
18180,377.358490566038,4,2,2,40,1,0
18180,-84.7457627118644,4,2,2,40,0,0
24217,348.837209302326,4,2,1,50,1,0
24217,-91.743119266055,4,2,1,50,0,0
24304,-91.743119266055,4,2,2,40,0,0
33984,480,4,2,1,50,1,0
33984,-66.6666666666667,4,2,1,50,0,0
35904,320.855614973262,4,2,1,50,1,0
55636,-100,4,2,1,50,0,1
56438,-100,4,2,1,50,0,0
117240,-100,4,2,1,50,0,1
118043,-100,4,2,1,50,0,0
132160,-100,4,2,1,50,0,1
133444,-100,4,2,2,40,0,0
136010,320.855614973262,6,2,2,40,1,0
139860,320.855614973262,4,2,2,40,1,0
155261,-100,4,2,1,50,0,0
155421,-100,4,2,2,40,0,0
157827,320.855614973262,3,2,2,40,1,0
159431,320.855614973262,7,2,2,40,1,0
161676,320.855614973262,4,2,2,40,1,0
181408,-100,4,2,2,40,0,1
181569,-100,4,2,1,50,0,1
182210,-100,4,2,1,50,0,0
218146,-100,4,2,2,40,0,0
222638,-100,4,2,1,50,0,0
243815,-100,4,2,1,50,0,1
253921,-100,4,2,1,50,0,0
254082,-100,4,2,1,50,0,1
261622,-100,4,2,1,50,0,0
261782,-100,4,2,1,50,0,1
264349,-100,4,2,1,50,0,0
284884,-100,4,2,1,50,0,1
299964,-100,4,2,1,50,0,0
300285,-100,4,2,1,50,0,1
304135,401.33779264214,4,2,1,50,1,0
304135,-80,4,2,1,50,0,0
308951,451.127819548872,4,2,2,40,1,0
308951,-70.9219858156028,4,2,2,40,0,0
309627,545.454545454546,4,2,2,40,1,0
309627,-58.8235294117647,4,2,2,40,0,0
310172,444.444444444444,4,2,2,40,1,0
310172,-71.9424460431655,4,2,2,40,0,0
310616,530.973451327434,4,2,2,40,1,0
310616,-60.6060606060606,4,2,2,40,0,0
311014,550.45871559633,4,2,2,40,1,0
311014,-58.1395348837209,4,2,2,40,0,0
311426,585.365853658537,4,2,2,40,1,0
311426,-54.9450549450549,4,2,2,40,0,0
311718,500,4,2,2,40,1,0
311718,-64.1025641025641,4,2,2,40,0,0
311968,540.540540540541,4,2,2,40,1,0
311968,-59.5238095238095,4,2,2,40,0,0
312238,521.739130434783,4,2,2,40,1,0
312238,-61.3496932515337,4,2,2,40,0,0
312498,545.454545454546,4,2,2,40,1,0
312498,-58.8235294117647,4,2,2,40,0,0
312770,571.428571428571,4,2,2,40,1,0
312770,-56.1797752808989,4,2,2,40,0,0
313055,512.820512820513,4,2,2,40,1,0
313055,-62.5,4,2,2,40,0,0
313311,413.793103448276,4,2,2,40,1,0
313311,-77.5193798449612,4,2,2,40,0,0
314138,422.535211267606,4,2,2,40,1,0
314138,-75.7575757575758,4,2,2,40,0,0

[HitObjects]
153,192,4005,128,0,4214:0:0:0:0:
256,192,4422,128,0,4630:0:0:0:0:
358,192,4839,128,0,5047:0:0:0:0:
460,192,5255,128,0,5672:0:0:0:0:
51,192,5255,128,0,5464:0:0:0:0:
153,192,5672,128,0,5880:0:0:0:0:
256,192,6089,128,0,6297:0:0:0:0:
460,192,6505,128,0,6714:0:0:0:0:
51,192,6505,128,0,6922:0:0:0:0:
358,192,6922,128,0,7130:0:0:0:0:
256,192,7339,128,0,7547:0:0:0:0:
153,192,7755,128,0,7964:0:0:0:0:
51,192,8172,128,0,8380:0:0:0:0:
358,192,8172,128,0,8589:0:0:0:0:
256,192,8589,128,0,8797:0:0:0:0:
358,192,8979,128,0,9109:0:0:0:0:
153,192,9005,128,0,9214:0:0:0:0:
358,192,9422,128,0,9630:0:0:0:0:
460,192,9812,128,0,9943:0:0:0:0:
256,192,9839,128,0,10047:0:0:0:0:
51,192,9839,128,0,10255:0:0:0:0:
460,192,10255,128,0,10464:0:0:0:0:
358,192,10672,128,0,10880:0:0:0:0:
256,192,11089,128,0,11297:0:0:0:0:
51,192,11505,128,0,11714:0:0:0:0:
460,192,11505,128,0,11922:0:0:0:0:
153,192,11922,128,0,12130:0:0:0:0:
256,192,12339,128,0,12547:0:0:0:0:
358,192,12755,128,0,12964:0:0:0:0:
153,192,13172,128,0,13380:0:0:0:0:
51,192,13172,128,0,13589:0:0:0:0:
256,192,13589,128,0,13797:0:0:0:0:
358,192,14005,128,0,14214:0:0:0:0:
460,192,14422,128,0,14630:0:0:0:0:
358,192,14812,128,0,14943:0:0:0:0:
153,192,14839,128,0,15047:0:0:0:0:
51,192,14839,128,0,15255:0:0:0:0:
460,192,15255,128,0,15464:0:0:0:0:
460,192,15672,128,0,15880:0:0:0:0:
256,192,16089,128,0,16297:0:0:0:0:
51,192,16505,128,0,16714:0:0:0:0:
460,192,16505,128,0,17061:0:0:0:0:
51,192,17061,1,0,0:0:0:0:
51,192,17339,128,0,17599:0:0:0:0:
460,192,17339,128,0,17599:0:0:0:0:
256,192,17860,1,0,0:0:0:0:
358,192,18020,1,0,0:0:0:0:
153,192,18180,128,0,18368:0:0:0:0:
460,192,18180,128,0,19689:0:0:0:0:
51,192,18557,128,0,18746:0:0:0:0:
256,192,18934,128,0,19123:0:0:0:0:
153,192,19312,128,0,19500:0:0:0:0:
51,192,19689,128,0,21198:0:0:0:0:
358,192,19689,128,0,19878:0:0:0:0:
256,192,20066,128,0,20255:0:0:0:0:
460,192,20444,128,0,20632:0:0:0:0:
358,192,20821,128,0,21010:0:0:0:0:
153,192,21198,128,0,21387:0:0:0:0:
460,192,21198,128,0,21953:0:0:0:0:
256,192,21576,128,0,21764:0:0:0:0:
358,192,21953,128,0,22142:0:0:0:0:
153,192,21953,128,0,22519:0:0:0:0:
51,192,22330,128,0,22519:0:0:0:0:
358,192,22519,128,0,22613:0:0:0:0:
358,192,22708,128,0,23274:0:0:0:0:
460,192,22708,128,0,22896:0:0:0:0:
51,192,23274,128,0,23368:0:0:0:0:
153,192,23274,128,0,23368:0:0:0:0:
51,192,23463,128,0,24123:0:0:0:0:
153,192,23463,128,0,24123:0:0:0:0:
51,192,24217,1,2,0:0:0:0:
256,192,24217,128,4,24333:0:0:0:0:
358,192,24217,128,0,24449:0:0:0:0:
460,192,24217,1,0,0:0:0:0:
153,192,24333,128,0,24449:0:0:0:0:
51,192,24449,128,0,24565:0:0:0:0:
358,192,24565,128,0,24682:0:0:0:0:
460,192,24565,128,0,24798:0:0:0:0:
153,192,24682,128,0,24798:0:0:0:0:
256,192,24798,128,0,24914:0:0:0:0:
51,192,24914,128,0,25147:0:0:0:0:
358,192,24914,128,0,25030:0:0:0:0:
153,192,25030,128,0,25147:0:0:0:0:
460,192,25147,128,0,25263:0:0:0:0:
153,192,25263,128,0,25496:0:0:0:0:
358,192,25263,128,0,25379:0:0:0:0:
256,192,25379,128,0,25496:0:0:0:0:
51,192,25496,128,0,25612:0:0:0:0:
153,192,25612,128,0,25728:0:0:0:0:
358,192,25612,128,0,25844:0:0:0:0:
256,192,25728,128,0,25844:0:0:0:0:
153,192,25844,128,0,25961:0:0:0:0:
51,192,25961,128,0,26077:0:0:0:0:
256,192,25961,128,0,26193:0:0:0:0:
460,192,26077,128,0,26193:0:0:0:0:
358,192,26193,128,0,26310:0:0:0:0:
153,192,26310,128,0,26542:0:0:0:0:
256,192,26310,128,0,26426:0:0:0:0:
358,192,26426,128,0,26542:0:0:0:0:
460,192,26542,128,0,26658:0:0:0:0:
51,192,26658,128,0,26891:0:0:0:0:
256,192,26658,128,0,26775:0:0:0:0:
358,192,26775,128,0,26891:0:0:0:0:
153,192,26891,128,0,27007:0:0:0:0:
256,192,27007,128,0,27123:0:0:0:0:
460,192,27007,128,0,27240:0:0:0:0:
51,192,27123,128,0,27240:0:0:0:0:
153,192,27240,128,0,27356:0:0:0:0:
256,192,27356,128,0,27472:0:0:0:0:
358,192,27356,128,0,27589:0:0:0:0:
51,192,27472,128,0,27589:0:0:0:0:
153,192,27589,128,0,27705:0:0:0:0:
256,192,27705,128,0,27937:0:0:0:0:
460,192,27705,128,0,27821:0:0:0:0:
51,192,27821,128,0,27937:0:0:0:0:
358,192,27937,128,0,28054:0:0:0:0:
153,192,28054,128,0,28286:0:0:0:0:
460,192,28054,128,0,28170:0:0:0:0:
256,192,28170,128,0,28286:0:0:0:0:
358,192,28286,128,0,28403:0:0:0:0:
51,192,28403,128,0,28984:0:0:0:0:
460,192,28403,128,0,28519:0:0:0:0:
153,192,28519,128,0,28635:0:0:0:0:
256,192,28635,128,0,28751:0:0:0:0:
358,192,28751,128,0,28868:0:0:0:0:
460,192,28868,128,0,28984:0:0:0:0:
256,192,28984,128,0,29100:0:0:0:0:
51,192,29100,128,0,29217:0:0:0:0:
460,192,29100,128,0,29682:0:0:0:0:
153,192,29217,128,0,29333:0:0:0:0:
256,192,29333,128,0,29449:0:0:0:0:
358,192,29449,128,0,29565:0:0:0:0:
51,192,29565,128,0,29682:0:0:0:0:
153,192,29682,128,0,29798:0:0:0:0:
256,192,29798,128,0,29914:0:0:0:0:
460,192,29798,128,0,30030:0:0:0:0:
51,192,29914,128,0,30030:0:0:0:0:
256,192,30030,128,0,30147:0:0:0:0:
153,192,30147,128,0,30379:0:0:0:0:
358,192,30147,128,0,30263:0:0:0:0:
460,192,30263,128,0,30379:0:0:0:0:
51,192,30379,128,0,30496:0:0:0:0:
153,192,30496,128,0,30612:0:0:0:0:
358,192,30496,128,0,30728:0:0:0:0:
256,192,30612,128,0,30728:0:0:0:0:
460,192,30728,128,0,30844:0:0:0:0:
51,192,30844,128,0,31077:0:0:0:0:
256,192,30844,128,0,30961:0:0:0:0:
358,192,30961,128,0,31077:0:0:0:0:
460,192,31077,128,0,31193:0:0:0:0:
51,192,31193,128,0,31426:0:0:0:0:
256,192,31193,128,0,31310:0:0:0:0:
358,192,31310,128,0,31426:0:0:0:0:
153,192,31426,128,0,31542:0:0:0:0:
256,192,31542,128,0,31658:0:0:0:0:
358,192,31542,128,0,31775:0:0:0:0:
51,192,31658,128,0,31775:0:0:0:0:
256,192,31775,128,0,31891:0:0:0:0:
153,192,31891,128,0,32123:0:0:0:0:
460,192,31891,128,0,32007:0:0:0:0:
256,192,32007,128,0,32123:0:0:0:0:
358,192,32123,128,0,32240:0:0:0:0:
153,192,32240,128,0,32356:0:0:0:0:
460,192,32240,128,0,32472:0:0:0:0:
256,192,32356,128,0,32472:0:0:0:0:
51,192,32472,128,0,32589:0:0:0:0:
153,192,32589,128,0,32705:0:0:0:0:
460,192,32589,128,0,32821:0:0:0:0:
256,192,32705,128,0,32821:0:0:0:0:
153,192,32821,128,0,32937:0:0:0:0:
51,192,32937,128,0,33054:0:0:0:0:
256,192,32937,128,0,33170:0:0:0:0:
460,192,33054,128,0,33170:0:0:0:0:
358,192,33170,128,0,33286:0:0:0:0:
51,192,33286,128,0,33519:0:0:0:0:
256,192,33286,128,0,33403:0:0:0:0:
153,192,33403,128,0,33519:0:0:0:0:
358,192,33519,128,0,33635:0:0:0:0:
256,192,33635,128,0,33751:0:0:0:0:
153,192,33751,128,0,33868:0:0:0:0:
51,192,33868,128,0,33984:0:0:0:0:
460,192,33984,128,0,35784:0:0:0:0:
51,192,34944,128,0,35784:0:0:0:0:
51,192,35904,1,0,0:0:0:50:LR_Chm Fast.wav
256,192,35904,128,0,36545:0:0:0:0:
460,192,35904,1,0,0:0:0:0:
51,192,36224,1,0,0:0:0:50:LR_Chm Fast.wav
51,192,36545,1,0,0:0:0:50:LR_Chm Fast.wav
460,192,36706,128,0,36866:0:0:0:0:
51,192,36866,1,0,0:0:0:50:LR_Chm Fast.wav
153,192,36866,128,0,37026:0:0:0:0:
358,192,37026,128,0,37187:0:0:0:0:
51,192,37187,1,0,0:0:0:50:LR_Chm Fast.wav
51,192,37508,1,0,0:0:0:50:LR_Chm Fast.wav
51,192,37829,1,0,0:0:0:50:LR_Chm Fast.wav
256,192,37989,128,0,38149:0:0:0:0:
51,192,38149,1,0,0:0:0:50:LR_Chm Fast.wav
460,192,38149,128,0,38310:0:0:0:0:
153,192,38310,128,0,38470:0:0:0:0:
51,192,38470,1,0,0:0:0:50:LR_Chm Fast.wav
51,192,38791,1,0,0:0:0:50:LR_Chm Fast.wav
51,192,39112,1,0,0:0:0:50:LR_Chm Fast.wav
153,192,39272,128,0,39433:0:0:0:0:
51,192,39433,1,0,0:0:0:50:LR_Chm Fast.wav
256,192,39433,128,0,39593:0:0:0:0:
358,192,39593,128,0,39754:0:0:0:0:
51,192,39754,1,0,0:0:0:50:LR_Chm Fast.wav
51,192,40075,1,0,0:0:0:50:LR_Chm Fast.wav
51,192,40395,1,0,0:0:0:50:LR_Chm Fast.wav
51,192,40716,1,0,0:0:0:50:LR_Chm Fast.wav
51,192,41037,1,0,0:0:0:50:LR_Chm Fast.wav
256,192,41037,128,0,41679:0:0:0:0:
460,192,41037,1,0,0:0:0:0:
460,192,41358,1,0,0:0:0:50:LR_Chm Fast.wav
460,192,41679,1,0,0:0:0:50:LR_Chm Fast.wav
51,192,41839,128,0,42000:0:0:0:0:
358,192,42000,128,0,42160:0:0:0:50:LR_Chm Fast.wav
460,192,42000,1,0,0:0:0:0:
153,192,42160,128,0,42321:0:0:0:0:
460,192,42321,1,0,0:0:0:50:LR_Chm Fast.wav
460,192,42641,1,0,0:0:0:50:LR_Chm Fast.wav
460,192,42962,1,0,0:0:0:50:LR_Chm Fast.wav
256,192,43123,128,0,43283:0:0:0:0:
51,192,43283,128,0,43444:0:0:0:50:LR_Chm Fast.wav
460,192,43283,1,0,0:0:0:0:
358,192,43444,128,0,43604:0:0:0:0:
460,192,43604,1,0,0:0:0:50:LR_Chm Fast.wav
460,192,43925,1,0,0:0:0:50:LR_Chm Fast.wav
460,192,44246,1,0,0:0:0:50:LR_Chm Fast.wav
358,192,44406,128,0,44567:0:0:0:0:
256,192,44567,128,0,44727:0:0:0:50:LR_Chm Fast.wav
460,192,44567,1,0,0:0:0:0:
153,192,44727,128,0,44887:0:0:0:0:
460,192,44887,1,0,0:0:0:50:LR_Chm Fast.wav
460,192,45208,1,0,0:0:0:50:LR_Chm Fast.wav
51,192,45529,128,0,46091:0:0:0:50:LR_Chm Fast.wav
460,192,45529,1,0,0:0:0:0:
460,192,45850,1,0,0:0:0:50:LR_Chm Fast.wav
256,192,46010,1,0,0:0:0:0:
358,192,46091,1,0,0:0:0:0:
51,192,46171,1,4,0:0:0:0:
153,192,46171,1,0,0:0:0:50:LR_Chm Fast.wav
256,192,46171,128,0,46813:0:0:0:0:
460,192,46171,1,0,0:0:0:0:
51,192,46492,1,0,0:0:0:50:LR_Chm Fast.wav
51,192,46813,1,0,0:0:0:50:LR_Chm Fast.wav
460,192,46973,128,0,47133:0:0:0:0:
51,192,47133,1,0,0:0:0:50:LR_Chm Fast.wav
153,192,47133,128,0,47294:0:0:0:0:
358,192,47294,128,0,47454:0:0:0:0:
51,192,47454,1,0,0:0:0:50:LR_Chm Fast.wav
51,192,47775,1,0,0:0:0:50:LR_Chm Fast.wav
51,192,48096,1,0,0:0:0:50:LR_Chm Fast.wav
256,192,48256,128,0,48417:0:0:0:0:
51,192,48417,1,0,0:0:0:50:LR_Chm Fast.wav
460,192,48417,128,0,48577:0:0:0:0:
153,192,48577,128,0,48738:0:0:0:0:
51,192,48738,1,0,0:0:0:50:LR_Chm Fast.wav
51,192,49059,1,0,0:0:0:50:LR_Chm Fast.wav
51,192,49379,1,0,0:0:0:50:LR_Chm Fast.wav
153,192,49540,128,0,49700:0:0:0:0:
51,192,49700,1,0,0:0:0:50:LR_Chm Fast.wav
256,192,49700,128,0,49861:0:0:0:0:
358,192,49861,128,0,50021:0:0:0:0:
51,192,50021,1,0,0:0:0:50:LR_Chm Fast.wav
51,192,50342,1,0,0:0:0:50:LR_Chm Fast.wav
51,192,50663,1,0,0:0:0:50:LR_Chm Fast.wav
51,192,50984,1,0,0:0:0:50:LR_Chm Fast.wav
51,192,51305,1,0,0:0:0:50:LR_Chm Fast.wav
256,192,51305,128,0,51946:0:0:0:0:
460,192,51305,1,0,0:0:0:0:
460,192,51625,1,0,0:0:0:50:LR_Chm Fast.wav
460,192,51946,1,0,0:0:0:50:LR_Chm Fast.wav
51,192,52107,128,0,52267:0:0:0:0:
358,192,52267,128,0,52428:0:0:0:50:LR_Chm Fast.wav
460,192,52267,1,0,0:0:0:0:
153,192,52428,128,0,52588:0:0:0:0:
460,192,52588,1,0,0:0:0:50:LR_Chm Fast.wav
460,192,52909,1,0,0:0:0:50:LR_Chm Fast.wav
460,192,53230,1,0,0:0:0:50:LR_Chm Fast.wav
256,192,53390,128,0,53551:0:0:0:0:
51,192,53551,128,0,53711:0:0:0:50:LR_Chm Fast.wav
460,192,53551,1,0,0:0:0:0:
358,192,53711,128,0,53871:0:0:0:0:
460,192,53871,1,0,0:0:0:50:LR_Chm Fast.wav
460,192,54192,1,0,0:0:0:50:LR_Chm Fast.wav
460,192,54513,1,0,0:0:0:50:LR_Chm Fast.wav
358,192,54674,128,0,54834:0:0:0:0:
256,192,54834,128,0,54994:0:0:0:50:LR_Chm Fast.wav
460,192,54834,1,0,0:0:0:0:
153,192,54994,128,0,55155:0:0:0:0:
460,192,55155,1,0,0:0:0:50:LR_Chm Fast.wav
460,192,55476,1,0,0:0:0:50:LR_Chm Fast.wav
460,192,55636,1,0,0:0:0:0:
358,192,55690,1,0,0:0:0:0:
256,192,55743,1,0,0:0:0:0:
153,192,55797,1,6,0:0:0:0:
51,192,55850,1,0,0:0:0:0:
358,192,55904,1,0,0:0:0:0:
256,192,55957,1,8,0:0:0:0:
460,192,56010,1,0,0:0:0:0:
51,192,56064,1,0,0:0:0:0:
256,192,56117,1,8,0:0:0:0:
153,192,56171,1,0,0:0:0:0:
460,192,56224,1,0,0:0:0:0:
358,192,56278,1,8,0:0:0:0:
256,192,56331,1,0,0:0:0:0:
153,192,56385,1,0,0:0:0:0:
51,192,56438,1,2,0:0:0:0:
256,192,56438,128,4,57080:0:0:0:0:
358,192,56438,1,0,0:0:0:0:
460,192,56438,1,0,0:0:0:0:
51,192,56759,128,8,57240:0:0:0:0:
358,192,56759,1,0,0:0:0:0:
460,192,56759,1,0,0:0:0:0:
153,192,56920,128,0,57080:0:0:0:0:
460,192,57080,1,2,0:0:0:0:
256,192,57240,128,0,57401:0:0:0:0:
153,192,57401,128,8,57561:0:0:0:0:
358,192,57401,1,0,0:0:0:0:
460,192,57401,1,0,0:0:0:0:
51,192,57561,128,2,57722:0:0:0:0:
460,192,57561,1,0,0:0:0:0:
153,192,57882,1,2,0:0:0:0:
460,192,57882,1,0,0:0:0:0:
51,192,58043,1,8,0:0:0:0:
358,192,58043,1,0,0:0:0:0:
460,192,58043,1,0,0:0:0:0:
153,192,58363,1,2,0:0:0:0:
460,192,58363,1,0,0:0:0:0:
153,192,58524,128,2,58684:0:0:0:0:
460,192,58524,1,0,0:0:0:0:
51,192,58684,128,8,58845:0:0:0:0:
358,192,58684,1,0,0:0:0:0:
460,192,58684,1,0,0:0:0:0:
256,192,58845,128,0,59005:0:0:0:0:
153,192,59005,1,2,0:0:0:0:
460,192,59005,1,0,0:0:0:0:
51,192,59326,1,8,0:0:0:0:
358,192,59326,1,0,0:0:0:0:
460,192,59326,1,0,0:0:0:0:
153,192,59647,1,2,0:0:0:0:
460,192,59647,1,0,0:0:0:0:
256,192,59807,128,0,59968:0:0:0:0:
51,192,59968,128,8,60128:0:0:0:0:
358,192,59968,1,0,0:0:0:0:
460,192,59968,1,0,0:0:0:0:
153,192,60128,128,2,60289:0:0:0:0:
460,192,60128,1,0,0:0:0:0:
153,192,60449,1,2,0:0:0:0:
460,192,60449,1,0,0:0:0:0:
51,192,60609,1,8,0:0:0:0:
358,192,60609,1,0,0:0:0:0:
460,192,60609,1,0,0:0:0:0:
153,192,60930,1,2,0:0:0:0:
460,192,60930,1,0,0:0:0:0:
153,192,61091,1,2,0:0:0:0:
460,192,61091,1,0,0:0:0:0:
51,192,61251,1,8,0:0:0:0:
358,192,61251,1,0,0:0:0:0:
460,192,61251,1,0,0:0:0:0:
51,192,61572,1,2,0:0:0:0:
256,192,61572,128,0,62214:0:0:0:0:
460,192,61572,1,0,0:0:0:0:
51,192,61893,1,8,0:0:0:0:
153,192,61893,1,0,0:0:0:0:
460,192,61893,128,0,62374:0:0:0:0:
358,192,62053,128,0,62214:0:0:0:0:
51,192,62214,1,2,0:0:0:0:
256,192,62374,128,0,62535:0:0:0:0:
51,192,62535,1,8,0:0:0:0:
153,192,62535,1,0,0:0:0:0:
358,192,62535,128,0,62695:0:0:0:0:
51,192,62695,1,2,0:0:0:0:
460,192,62695,128,0,62855:0:0:0:0:
51,192,63016,1,2,0:0:0:0:
358,192,63016,1,0,0:0:0:0:
51,192,63176,1,8,0:0:0:0:
153,192,63176,1,0,0:0:0:0:
460,192,63176,1,0,0:0:0:0:
51,192,63497,1,2,0:0:0:0:
358,192,63497,1,0,0:0:0:0:
51,192,63658,1,2,0:0:0:0:
358,192,63658,128,0,63818:0:0:0:0:
51,192,63818,1,8,0:0:0:0:
153,192,63818,1,0,0:0:0:0:
256,192,63818,128,0,63978:0:0:0:0:
358,192,63978,128,0,64139:0:0:0:0:
51,192,64139,1,2,0:0:0:0:
256,192,64139,1,0,0:0:0:0:
460,192,64139,128,0,64941:0:0:0:0:
51,192,64460,1,8,0:0:0:0:
153,192,64460,1,0,0:0:0:0:
256,192,64460,1,0,0:0:0:0:
51,192,64781,1,2,0:0:0:0:
358,192,64781,1,0,0:0:0:0:
256,192,64941,128,0,65101:0:0:0:0:
51,192,65101,1,8,0:0:0:0:
153,192,65101,1,0,0:0:0:0:
358,192,65101,128,0,65262:0:0:0:0:
51,192,65262,1,2,0:0:0:0:
460,192,65262,128,0,65422:0:0:0:0:
256,192,65422,128,0,65904:0:0:0:0:
51,192,65583,1,2,0:0:0:0:
358,192,65583,1,0,0:0:0:0:
51,192,65743,1,8,0:0:0:0:
153,192,65743,1,0,0:0:0:0:
460,192,65743,1,0,0:0:0:0:
51,192,66064,1,2,0:0:0:0:
256,192,66064,1,0,0:0:0:0:
460,192,66064,128,0,66545:0:0:0:0:
51,192,66224,1,2,0:0:0:0:
256,192,66224,1,0,0:0:0:0:
51,192,66385,1,8,0:0:0:0:
153,192,66385,1,0,0:0:0:0:
358,192,66385,1,0,0:0:0:0:
51,192,66706,1,2,0:0:0:0:
256,192,66706,128,4,67347:0:0:0:0:
358,192,66706,1,0,0:0:0:0:
460,192,66706,1,0,0:0:0:0:
51,192,67026,128,8,67508:0:0:0:0:
358,192,67026,1,0,0:0:0:0:
460,192,67026,1,0,0:0:0:0:
153,192,67187,128,0,67347:0:0:0:0:
358,192,67347,1,2,0:0:0:0:
256,192,67508,128,0,67668:0:0:0:0:
153,192,67668,128,8,67829:0:0:0:0:
358,192,67668,1,0,0:0:0:0:
460,192,67668,1,0,0:0:0:0:
51,192,67829,128,2,67989:0:0:0:0:
358,192,67829,1,0,0:0:0:0:
153,192,68149,1,2,0:0:0:0:
358,192,68149,1,0,0:0:0:0:
51,192,68310,1,8,0:0:0:0:
358,192,68310,1,0,0:0:0:0:
460,192,68310,1,0,0:0:0:0:
51,192,68631,1,2,0:0:0:0:
358,192,68631,1,0,0:0:0:0:
51,192,68791,128,2,68952:0:0:0:0:
358,192,68791,1,0,0:0:0:0:
153,192,68952,128,8,69112:0:0:0:0:
358,192,68952,1,0,0:0:0:0:
460,192,68952,1,0,0:0:0:0:
256,192,69112,128,0,69272:0:0:0:0:
153,192,69272,1,2,0:0:0:0:
358,192,69272,1,0,0:0:0:0:
51,192,69593,1,8,0:0:0:0:
358,192,69593,1,0,0:0:0:0:
460,192,69593,1,0,0:0:0:0:
153,192,69914,1,2,0:0:0:0:
358,192,69914,1,0,0:0:0:0:
256,192,70075,128,0,70235:0:0:0:0:
51,192,70235,128,8,70395:0:0:0:0:
358,192,70235,1,0,0:0:0:0:
460,192,70235,1,0,0:0:0:0:
153,192,70395,128,2,70556:0:0:0:0:
358,192,70395,1,0,0:0:0:0:
153,192,70716,1,2,0:0:0:0:
358,192,70716,1,0,0:0:0:0:
51,192,70877,1,8,0:0:0:0:
358,192,70877,1,0,0:0:0:0:
460,192,70877,1,0,0:0:0:0:
153,192,71198,1,2,0:0:0:0:
358,192,71198,1,0,0:0:0:0:
153,192,71358,1,2,0:0:0:0:
358,192,71358,1,0,0:0:0:0:
51,192,71518,1,8,0:0:0:0:
358,192,71518,1,0,0:0:0:0:
460,192,71518,1,0,0:0:0:0:
51,192,71839,1,2,0:0:0:0:
153,192,71839,1,4,0:0:0:0:
256,192,71839,128,0,72481:0:0:0:0:
460,192,71839,1,0,0:0:0:0:
51,192,72160,1,8,0:0:0:0:
153,192,72160,1,0,0:0:0:0:
460,192,72160,128,0,72641:0:0:0:0:
358,192,72321,128,0,72481:0:0:0:0:
153,192,72481,1,2,0:0:0:0:
256,192,72641,128,0,72802:0:0:0:0:
51,192,72802,1,8,0:0:0:0:
153,192,72802,1,0,0:0:0:0:
358,192,72802,128,0,72962:0:0:0:0:
153,192,72962,1,2,0:0:0:0:
460,192,72962,128,0,73123:0:0:0:0:
153,192,73283,1,2,0:0:0:0:
358,192,73283,1,0,0:0:0:0:
51,192,73444,1,8,0:0:0:0:
153,192,73444,1,0,0:0:0:0:
460,192,73444,1,0,0:0:0:0:
153,192,73764,1,2,0:0:0:0:
358,192,73764,1,0,0:0:0:0:
153,192,73925,1,2,0:0:0:0:
358,192,73925,128,0,74085:0:0:0:0:
51,192,74085,1,8,0:0:0:0:
153,192,74085,1,0,0:0:0:0:
256,192,74085,128,0,74246:0:0:0:0:
358,192,74246,128,0,74406:0:0:0:0:
51,192,74406,1,2,0:0:0:0:
153,192,74406,1,4,0:0:0:0:
256,192,74406,1,0,0:0:0:0:
460,192,74406,128,0,75208:0:0:0:0:
51,192,74727,1,8,0:0:0:0:
153,192,74727,1,0,0:0:0:0:
358,192,74727,1,0,0:0:0:0:
153,192,75048,1,2,0:0:0:0:
358,192,75048,1,0,0:0:0:0:
256,192,75208,128,0,75369:0:0:0:0:
51,192,75369,1,8,0:0:0:0:
153,192,75369,1,0,0:0:0:0:
358,192,75369,128,0,75529:0:0:0:0:
153,192,75529,1,2,0:0:0:0:
460,192,75529,128,0,75690:0:0:0:0:
51,192,75850,1,2,0:0:0:0:
256,192,75850,1,0,0:0:0:0:
51,192,76010,1,8,0:0:0:0:
358,192,76010,1,0,0:0:0:0:
358,192,76171,1,2,0:0:0:0:
153,192,76171,1,0,0:0:0:0:
51,192,76331,1,8,0:0:0:0:
460,192,76331,1,4,0:0:0:0:
153,192,76331,1,0,0:0:0:0:
256,192,76492,1,2,0:0:0:0:
460,192,76492,1,0,0:0:0:0:
51,192,76652,1,8,0:0:0:0:
256,192,76652,1,0,0:0:0:0:
153,192,76813,1,8,0:0:0:0:
358,192,76813,1,0,0:0:0:0:
256,192,76893,1,8,0:0:0:0:
51,192,76973,128,4,77454:0:0:0:0:
153,192,76973,1,2,0:0:0:0:
460,192,76973,128,0,77294:0:0:0:0:
358,192,76973,1,0,0:0:0:0:
358,192,77133,128,0,77294:0:0:0:0:
256,192,77294,1,8,0:0:0:0:
153,192,77294,1,0,0:0:0:0:
256,192,77454,128,0,77615:0:0:0:0:
51,192,77615,1,2,0:0:0:0:
460,192,77615,128,0,77775:0:0:0:0:
153,192,77775,128,2,77936:0:0:0:0:
256,192,77775,1,0,0:0:0:0:
51,192,77936,1,8,0:0:0:0:
358,192,77936,128,0,78096:0:0:0:0:
460,192,77936,1,0,0:0:0:0:
51,192,78096,128,0,78256:0:0:0:0:
256,192,78256,128,2,78577:0:0:0:0:
358,192,78256,1,0,0:0:0:0:
460,192,78256,1,0,0:0:0:0:
51,192,78577,1,8,0:0:0:0:
153,192,78577,1,0,0:0:0:0:
460,192,78577,1,0,0:0:0:0:
51,192,78738,1,2,0:0:0:0:
460,192,78738,128,0,79059:0:0:0:0:
51,192,79059,1,2,0:0:0:0:
153,192,79059,1,0,0:0:0:0:
153,192,79219,128,8,79379:0:0:0:0:
358,192,79219,1,0,0:0:0:0:
460,192,79219,1,0,0:0:0:0:
153,192,79540,128,2,79861:0:0:0:0:
358,192,79540,1,0,0:0:0:0:
460,192,79540,1,0,0:0:0:0:
51,192,79861,1,8,0:0:0:0:
256,192,79861,1,0,0:0:0:0:
460,192,79861,1,0,0:0:0:0:
358,192,80021,128,0,80342:0:0:0:0:
51,192,80182,1,2,0:0:0:0:
153,192,80182,1,0,0:0:0:0:
51,192,80342,1,2,0:0:0:0:
153,192,80342,1,0,0:0:0:0:
256,192,80502,128,8,80823:0:0:0:0:
358,192,80502,1,0,0:0:0:0:
460,192,80502,1,0,0:0:0:0:
153,192,80823,1,2,0:0:0:0:
460,192,80823,128,0,80984:0:0:0:0:
256,192,81144,1,8,0:0:0:0:
358,192,81144,128,0,81305:0:0:0:0:
460,192,81144,1,0,0:0:0:0:
51,192,81305,1,2,0:0:0:0:
153,192,81305,1,0,0:0:0:0:
256,192,81465,128,0,81625:0:0:0:0:
358,192,81625,1,2,0:0:0:0:
460,192,81625,128,0,81786:0:0:0:0:
51,192,81786,1,8,0:0:0:0:
153,192,81786,128,0,81946:0:0:0:0:
256,192,81786,1,0,0:0:0:0:
51,192,82107,128,4,82267:0:0:0:0:
256,192,82107,1,2,0:0:0:0:
358,192,82107,1,0,0:0:0:0:
460,192,82107,1,0,0:0:0:0:
51,192,82428,1,8,0:0:0:0:
256,192,82428,1,0,0:0:0:0:
358,192,82428,128,0,82588:0:0:0:0:
153,192,82748,128,2,82909:0:0:0:0:
256,192,82748,1,0,0:0:0:0:
358,192,82909,1,2,0:0:0:0:
460,192,82909,1,0,0:0:0:0:
51,192,83069,1,8,0:0:0:0:
153,192,83069,1,0,0:0:0:0:
460,192,83069,128,0,83230:0:0:0:0:
153,192,83390,1,2,0:0:0:0:
358,192,83390,128,0,83551:0:0:0:0:
460,192,83390,1,0,0:0:0:0:
51,192,83711,1,8,0:0:0:0:
153,192,83711,1,0,0:0:0:0:
256,192,83711,128,0,83871:0:0:0:0:
358,192,83871,1,2,0:0:0:0:
460,192,83871,1,0,0:0:0:0:
153,192,84032,128,0,84192:0:0:0:0:
51,192,84192,1,2,0:0:0:0:
256,192,84192,1,0,0:0:0:0:
51,192,84353,128,8,84513:0:0:0:0:
256,192,84353,1,0,0:0:0:0:
460,192,84353,1,0,0:0:0:0:
51,192,84674,1,2,0:0:0:0:
153,192,84674,1,4,0:0:0:0:
256,192,84674,1,0,0:0:0:0:
460,192,84674,128,0,85155:0:0:0:0:
358,192,84834,128,0,84994:0:0:0:0:
51,192,84994,1,8,0:0:0:0:
153,192,84994,1,0,0:0:0:0:
256,192,84994,1,0,0:0:0:0:
153,192,85155,128,2,85797:0:0:0:0:
358,192,85155,1,0,0:0:0:0:
51,192,85476,1,2,0:0:0:0:
460,192,85476,1,0,0:0:0:0:
51,192,85636,1,8,0:0:0:0:
256,192,85636,128,0,85797:0:0:0:0:
460,192,85636,128,0,85797:0:0:0:0:
153,192,85957,1,4,0:0:0:0:
358,192,85957,128,2,86117:0:0:0:0:
460,192,85957,128,0,86117:0:0:0:0:
153,192,86117,1,2,0:0:0:0:
256,192,86117,1,0,0:0:0:0:
51,192,86278,1,8,0:0:0:0:
256,192,86278,128,0,86438:0:0:0:0:
358,192,86278,128,0,86438:0:0:0:0:
51,192,86438,1,2,0:0:0:0:
153,192,86438,1,0,0:0:0:0:
153,192,86599,128,8,86759:0:0:0:0:
256,192,86599,128,0,86759:0:0:0:0:
358,192,86599,1,0,0:0:0:0:
358,192,86759,1,2,0:0:0:0:
460,192,86759,1,0,0:0:0:0:
51,192,86920,128,8,87080:0:0:0:0:
153,192,86920,128,0,87080:0:0:0:0:
256,192,86920,1,0,0:0:0:0:
256,192,87080,1,8,0:0:0:0:
153,192,87160,1,8,0:0:0:0:
51,192,87240,1,4,0:0:0:0:
256,192,87240,128,2,87401:0:0:0:0:
358,192,87240,1,0,0:0:0:0:
460,192,87240,1,0,0:0:0:0:
51,192,87561,128,8,87722:0:0:0:0:
358,192,87561,1,0,0:0:0:0:
460,192,87561,1,0,0:0:0:0:
51,192,87882,1,2,0:0:0:0:
256,192,87882,128,0,88043:0:0:0:0:
358,192,88043,1,2,0:0:0:0:
460,192,88043,1,0,0:0:0:0:
51,192,88203,1,8,0:0:0:0:
153,192,88203,1,0,0:0:0:0:
460,192,88203,128,0,88363:0:0:0:0:
153,192,88524,1,2,0:0:0:0:
358,192,88524,1,0,0:0:0:0:
460,192,88524,128,0,88684:0:0:0:0:
153,192,88845,128,8,88925:0:0:0:0:
358,192,88845,1,0,0:0:0:0:
460,192,88845,1,0,0:0:0:0:
153,192,89005,128,2,89326:0:0:0:0:
358,192,89005,1,0,0:0:0:0:
358,192,89326,1,2,0:0:0:0:
460,192,89326,1,0,0:0:0:0:
51,192,89486,1,8,0:0:0:0:
153,192,89486,1,0,0:0:0:0:
358,192,89486,128,0,89647:0:0:0:0:
153,192,89807,128,2,90128:0:0:0:0:
256,192,89807,1,0,0:0:0:0:
460,192,89807,1,0,0:0:0:0:
256,192,90128,1,8,0:0:0:0:
358,192,90128,1,0,0:0:0:0:
460,192,90128,1,0,0:0:0:0:
256,192,90449,1,2,0:0:0:0:
358,192,90449,128,0,90609:0:0:0:0:
51,192,90609,1,2,0:0:0:0:
153,192,90609,1,0,0:0:0:0:
153,192,90770,128,8,90930:0:0:0:0:
358,192,90770,1,0,0:0:0:0:
460,192,90770,1,0,0:0:0:0:
51,192,91091,1,2,0:0:0:0:
153,192,91091,128,0,91412:0:0:0:0:
460,192,91091,128,0,91572:0:0:0:0:
358,192,91251,128,0,91412:0:0:0:0:
51,192,91412,1,8,0:0:0:0:
256,192,91412,1,0,0:0:0:0:
51,192,91572,1,2,0:0:0:0:
256,192,91572,128,0,91652:0:0:0:0:
256,192,91732,128,0,92053:0:0:0:0:
358,192,91893,1,2,0:0:0:0:
460,192,91893,1,0,0:0:0:0:
51,192,92053,128,8,92214:0:0:0:0:
358,192,92053,1,0,0:0:0:0:
460,192,92053,1,0,0:0:0:0:
153,192,92214,128,0,92374:0:0:0:0:
51,192,92374,1,4,0:0:0:0:
256,192,92374,128,2,92695:0:0:0:0:
358,192,92374,1,0,0:0:0:0:
460,192,92374,1,0,0:0:0:0:
51,192,92695,1,8,0:0:0:0:
153,192,92695,1,0,0:0:0:0:
460,192,92695,1,0,0:0:0:0:
153,192,93016,1,2,0:0:0:0:
460,192,93016,128,0,93096:0:0:0:0:
358,192,93176,128,0,93256:0:0:0:0:
51,192,93337,1,8,0:0:0:0:
256,192,93337,128,0,93417:0:0:0:0:
460,192,93337,1,0,0:0:0:0:
153,192,93497,128,2,93577:0:0:0:0:
358,192,93497,1,0,0:0:0:0:
460,192,93658,128,0,93738:0:0:0:0:
153,192,93818,1,2,0:0:0:0:
358,192,93818,128,0,93898:0:0:0:0:
51,192,93978,1,8,0:0:0:0:
256,192,93978,128,0,94059:0:0:0:0:
460,192,93978,1,0,0:0:0:0:
153,192,94139,128,0,94219:0:0:0:0:
51,192,94299,128,2,94379:0:0:0:0:
460,192,94299,1,0,0:0:0:0:
256,192,94460,1,2,0:0:0:0:
358,192,94460,128,0,94540:0:0:0:0:
51,192,94620,1,8,0:0:0:0:
256,192,94620,128,0,94700:0:0:0:0:
460,192,94620,1,0,0:0:0:0:
153,192,94781,128,0,94861:0:0:0:0:
51,192,94941,128,2,95262:0:0:0:0:
460,192,94941,1,4,0:0:0:0:
256,192,94941,1,0,0:0:0:0:
358,192,94941,128,0,95262:0:0:0:0:
153,192,95262,1,8,0:0:0:0:
256,192,95262,1,0,0:0:0:0:
460,192,95262,1,0,0:0:0:0:
153,192,95422,128,2,95743:0:0:0:0:
256,192,95422,1,0,0:0:0:0:
460,192,95422,128,0,95743:0:0:0:0:
256,192,95743,1,2,0:0:0:0:
358,192,95743,1,0,0:0:0:0:
51,192,95904,1,8,0:0:0:0:
153,192,95904,1,0,0:0:0:0:
256,192,95904,1,0,0:0:0:0:
51,192,96224,128,4,96385:0:0:0:0:
256,192,96224,1,2,0:0:0:0:
358,192,96224,128,0,96385:0:0:0:0:
460,192,96224,128,0,96545:0:0:0:0:
51,192,96545,128,8,96706:0:0:0:0:
153,192,96545,128,0,96706:0:0:0:0:
256,192,96545,1,0,0:0:0:0:
51,192,96866,128,2,97026:0:0:0:0:
153,192,96866,128,4,97026:0:0:0:0:
256,192,96866,128,0,97026:0:0:0:0:
358,192,97026,1,8,0:0:0:0:
460,192,97026,1,0,0:0:0:0:
256,192,97107,1,8,0:0:0:0:
51,192,97187,1,8,0:0:0:0:
153,192,97187,1,0,0:0:0:0:
358,192,97267,1,8,0:0:0:0:
153,192,97347,1,8,0:0:0:0:
256,192,97347,1,0,0:0:0:0:
460,192,97428,1,8,0:0:0:0:
51,192,97508,128,2,97989:0:0:0:0:
153,192,97508,128,4,97989:0:0:0:0:
256,192,97508,1,0,0:0:0:0:
358,192,97508,1,0,0:0:0:0:
256,192,97829,1,8,0:0:0:0:
358,192,97829,128,0,98310:0:0:0:0:
460,192,97829,1,0,0:0:0:0:
51,192,98149,128,2,98310:0:0:0:0:
153,192,98149,128,0,98310:0:0:0:0:
256,192,98310,128,2,98470:0:0:0:0:
460,192,98310,128,0,98470:0:0:0:0:
153,192,98470,128,8,98631:0:0:0:0:
358,192,98470,128,0,98631:0:0:0:0:
51,192,98631,128,0,98791:0:0:0:0:
256,192,98631,128,0,98791:0:0:0:0:
358,192,98791,128,2,99272:0:0:0:0:
460,192,98791,128,0,99272:0:0:0:0:
51,192,99112,1,8,0:0:0:0:
153,192,99112,1,0,0:0:0:0:
256,192,99112,1,0,0:0:0:0:
51,192,99272,128,2,99593:0:0:0:0:
153,192,99272,128,0,99593:0:0:0:0:
358,192,99593,1,2,0:0:0:0:
460,192,99593,1,0,0:0:0:0:
153,192,99754,128,8,99914:0:0:0:0:
256,192,99754,1,0,0:0:0:0:
358,192,99754,128,0,99914:0:0:0:0:
153,192,100075,128,2,100395:0:0:0:0:
256,192,100075,1,0,0:0:0:0:
358,192,100075,128,0,100395:0:0:0:0:
51,192,100395,1,8,0:0:0:0:
256,192,100395,1,0,0:0:0:0:
460,192,100395,1,0,0:0:0:0:
256,192,100556,128,0,100877:0:0:0:0:
460,192,100556,128,0,100877:0:0:0:0:
51,192,100716,1,2,0:0:0:0:
153,192,100716,1,0,0:0:0:0:
51,192,100877,128,2,101037:0:0:0:0:
153,192,100877,1,0,0:0:0:0:
256,192,101037,128,8,101198:0:0:0:0:
358,192,101037,1,0,0:0:0:0:
460,192,101037,1,0,0:0:0:0:
460,192,101198,128,0,102160:0:0:0:0:
51,192,101358,128,2,101518:0:0:0:0:
153,192,101358,128,0,101518:0:0:0:0:
51,192,101679,1,8,0:0:0:0:
153,192,101679,128,0,101839:0:0:0:0:
256,192,101679,128,0,101839:0:0:0:0:
51,192,101839,1,2,0:0:0:0:
358,192,101839,1,0,0:0:0:0:
256,192,102000,128,0,102160:0:0:0:0:
358,192,102000,128,0,102160:0:0:0:0:
51,192,102160,1,2,0:0:0:0:
153,192,102160,1,0,0:0:0:0:
51,192,102321,1,8,0:0:0:0:
358,192,102321,128,0,102481:0:0:0:0:
460,192,102321,128,0,102481:0:0:0:0:
256,192,102481,1,8,0:0:0:0:
358,192,102561,1,8,0:0:0:0:
51,192,102641,128,2,103123:0:0:0:0:
153,192,102641,1,4,0:0:0:0:
256,192,102641,128,0,102802:0:0:0:0:
460,192,102641,1,0,0:0:0:0:
153,192,102962,128,8,103123:0:0:0:0:
256,192,102962,128,0,103123:0:0:0:0:
460,192,102962,1,0,0:0:0:0:
256,192,103283,128,2,103444:0:0:0:0:
460,192,103283,128,0,103764:0:0:0:0:
51,192,103604,1,8,0:0:0:0:
256,192,103604,128,0,103764:0:0:0:0:
358,192,103604,128,0,103764:0:0:0:0:
51,192,103925,128,2,104085:0:0:0:0:
256,192,103925,128,0,104406:0:0:0:0:
460,192,103925,1,0,0:0:0:0:
51,192,104246,128,8,104406:0:0:0:0:
153,192,104246,128,0,104406:0:0:0:0:
460,192,104246,1,0,0:0:0:0:
256,192,104567,128,2,105048:0:0:0:0:
460,192,104567,128,0,104727:0:0:0:0:
51,192,104727,1,2,0:0:0:0:
153,192,104727,1,0,0:0:0:0:
51,192,104887,1,8,0:0:0:0:
358,192,104887,128,0,105048:0:0:0:0:
460,192,104887,128,0,105048:0:0:0:0:
51,192,105208,1,4,0:0:0:0:
256,192,105208,1,2,0:0:0:0:
358,192,105208,128,0,105850:0:0:0:0:
460,192,105208,128,0,105850:0:0:0:0:
51,192,105529,1,8,0:0:0:0:
153,192,105529,1,0,0:0:0:0:
256,192,105529,1,0,0:0:0:0:
51,192,105690,128,0,107294:0:0:0:0:
153,192,105690,128,0,105850:0:0:0:0:
256,192,105690,128,0,105850:0:0:0:0:
153,192,106171,128,8,106331:0:0:0:0:
358,192,106171,1,0,0:0:0:0:
460,192,106171,1,0,0:0:0:0:
256,192,106331,128,0,106492:0:0:0:0:
153,192,106492,1,2,0:0:0:0:
358,192,106492,128,4,106652:0:0:0:0:
460,192,106492,128,8,106652:0:0:0:0:
153,192,106813,1,4,0:0:0:0:
256,192,106813,128,8,106973:0:0:0:0:
358,192,106813,128,2,106973:0:0:0:0:
153,192,107133,128,2,107294:0:0:0:0:
256,192,107133,128,8,107294:0:0:0:0:
460,192,107133,1,4,0:0:0:0:
460,192,107294,1,2,0:0:0:0:
51,192,107454,128,4,107615:0:0:0:0:
153,192,107454,128,8,107615:0:0:0:0:
358,192,107454,1,2,0:0:0:0:
358,192,107615,1,8,0:0:0:0:
256,192,107695,1,8,0:0:0:0:
51,192,107775,128,2,107936:0:0:0:0:
153,192,107775,1,4,0:0:0:0:
358,192,107775,128,0,108256:0:0:0:0:
460,192,107775,1,0,0:0:0:0:
51,192,108096,128,8,108256:0:0:0:0:
153,192,108096,128,0,108256:0:0:0:0:
256,192,108096,1,0,0:0:0:0:
153,192,108417,128,2,108898:0:0:0:0:
460,192,108417,128,0,108577:0:0:0:0:
256,192,108738,1,8,0:0:0:0:
358,192,108738,128,0,108898:0:0:0:0:
460,192,108738,128,0,108898:0:0:0:0:
256,192,109059,1,2,0:0:0:0:
358,192,109059,128,0,109379:0:0:0:0:
460,192,109059,128,0,109379:0:0:0:0:
51,192,109379,128,8,109460:0:0:0:0:
153,192,109379,128,0,109460:0:0:0:0:
256,192,109379,1,0,0:0:0:0:
51,192,109540,128,2,109861:0:0:0:0:
153,192,109540,128,0,109861:0:0:0:0:
358,192,109861,1,2,0:0:0:0:
460,192,109861,1,0,0:0:0:0:
153,192,110021,128,8,110182:0:0:0:0:
358,192,110021,1,0,0:0:0:0:
460,192,110021,1,0,0:0:0:0:
256,192,110182,128,0,110342:0:0:0:0:
51,192,110342,1,2,0:0:0:0:
153,192,110342,1,4,0:0:0:0:
358,192,110342,128,0,110502:0:0:0:0:
460,192,110342,128,0,110984:0:0:0:0:
51,192,110663,1,8,0:0:0:0:
153,192,110663,1,0,0:0:0:0:
358,192,110663,1,0,0:0:0:0:
51,192,110984,128,2,111465:0:0:0:0:
256,192,110984,1,0,0:0:0:0:
153,192,111305,128,8,111465:0:0:0:0:
256,192,111305,128,0,111465:0:0:0:0:
460,192,111305,1,0,0:0:0:0:
153,192,111625,128,2,111946:0:0:0:0:
256,192,111625,128,0,111946:0:0:0:0:
460,192,111625,1,0,0:0:0:0:
51,192,111946,1,8,0:0:0:0:
358,192,111946,1,0,0:0:0:0:
460,192,111946,128,0,112428:0:0:0:0:
51,192,112107,128,2,112428:0:0:0:0:
256,192,112107,128,0,112428:0:0:0:0:
153,192,112428,1,2,0:0:0:0:
358,192,112428,1,0,0:0:0:0:
153,192,112588,128,8,112748:0:0:0:0:
358,192,112588,1,0,0:0:0:0:
460,192,112588,1,0,0:0:0:0:
256,192,112748,128,0,112909:0:0:0:0:
51,192,112909,1,2,0:0:0:0:
153,192,112909,1,4,0:0:0:0:
358,192,112909,128,0,113470:0:0:0:0:
460,192,112909,128,0,113470:0:0:0:0:
51,192,113230,1,8,0:0:0:0:
153,192,113230,1,0,0:0:0:0:
256,192,113230,1,0,0:0:0:0:
51,192,113390,128,0,113470:0:0:0:0:
51,192,113551,128,2,114674:0:0:0:0:
256,192,113551,1,0,0:0:0:0:
153,192,113871,1,8,0:0:0:0:
256,192,113871,1,0,0:0:0:0:
460,192,113871,128,0,113952:0:0:0:0:
153,192,114032,1,2,0:0:0:0:
358,192,114032,128,0,114112:0:0:0:0:
256,192,114192,128,0,114272:0:0:0:0:
153,192,114353,128,2,114433:0:0:0:0:
460,192,114353,1,0,0:0:0:0:
153,192,114513,1,8,0:0:0:0:
358,192,114513,128,0,114593:0:0:0:0:
460,192,114513,1,0,0:0:0:0:
256,192,114674,128,0,114754:0:0:0:0:
153,192,114834,128,2,114914:0:0:0:0:
358,192,114834,1,0,0:0:0:0:
51,192,114994,128,2,115075:0:0:0:0:
358,192,114994,1,0,0:0:0:0:
51,192,115155,1,8,0:0:0:0:
153,192,115155,1,4,0:0:0:0:
256,192,115155,128,0,115315:0:0:0:0:
358,192,115315,128,0,115476:0:0:0:0:
51,192,115476,1,4,0:0:0:0:
153,192,115476,1,2,0:0:0:0:
256,192,115476,1,0,0:0:0:0:
460,192,115476,128,0,115957:0:0:0:0:
51,192,115797,1,8,0:0:0:0:
358,192,115797,1,0,0:0:0:0:
153,192,115797,1,0,0:0:0:0:
51,192,115957,128,2,116759:0:0:0:0:
256,192,115957,1,0,0:0:0:0:
358,192,116278,1,2,0:0:0:0:
460,192,116278,1,0,0:0:0:0:
153,192,116438,1,8,0:0:0:0:
358,192,116438,1,0,0:0:0:0:
460,192,116438,1,0,0:0:0:0:
153,192,116599,1,2,0:0:0:0:
256,192,116599,1,0,0:0:0:0:
256,192,116759,1,2,0:0:0:0:
358,192,116759,1,4,0:0:0:0:
460,192,116759,1,8,0:0:0:0:
153,192,116839,1,8,0:0:0:0:
51,192,116920,1,8,0:0:0:0:
460,192,116920,1,0,0:0:0:0:
256,192,117000,1,8,0:0:0:0:
51,192,117080,1,4,0:0:0:0:
358,192,117080,1,2,0:0:0:0:
460,192,117080,1,8,0:0:0:0:
153,192,117160,1,8,0:0:0:0:
256,192,117240,1,8,0:0:0:0:
460,192,117240,1,0,0:0:0:0:
153,192,117321,1,8,0:0:0:0:
51,192,117401,1,6,0:0:0:0:
460,192,117401,1,8,0:0:0:0:
358,192,117454,1,0,0:0:0:0:
256,192,117508,1,0,0:0:0:0:
153,192,117561,1,8,0:0:0:0:
460,192,117615,1,0,0:0:0:0:
358,192,117668,1,0,0:0:0:0:
256,192,117722,1,12,0:0:0:0:
153,192,117775,1,0,0:0:0:0:
51,192,117829,1,0,0:0:0:0:
358,192,117882,1,8,0:0:0:0:
256,192,117936,1,0,0:0:0:0:
153,192,117989,1,0,0:0:0:0:
51,192,118043,128,2,118256:0:0:0:0:
256,192,118043,128,4,118256:0:0:0:0:
358,192,118043,128,0,118256:0:0:0:0:
460,192,118043,128,0,118256:0:0:0:0:
51,192,118363,1,8,0:0:0:0:
153,192,118363,1,0,0:0:0:0:
358,192,118363,1,0,0:0:0:0:
51,192,118470,128,0,118577:0:0:0:0:
153,192,118470,128,0,118577:0:0:0:0:
256,192,118577,1,0,0:0:0:0:
358,192,118577,1,0,0:0:0:0:
256,192,118684,128,2,118898:0:0:0:0:
358,192,118684,128,0,118898:0:0:0:0:
153,192,119005,1,8,0:0:0:0:
256,192,119005,1,0,0:0:0:0:
460,192,119005,1,0,0:0:0:0:
153,192,119112,128,0,119219:0:0:0:0:
256,192,119112,128,0,119219:0:0:0:0:
358,192,119219,1,0,0:0:0:0:
460,192,119219,1,0,0:0:0:0:
358,192,119326,128,2,119540:0:0:0:0:
460,192,119326,128,0,119540:0:0:0:0:
51,192,119647,1,8,0:0:0:0:
153,192,119647,1,0,0:0:0:0:
256,192,119647,1,0,0:0:0:0:
51,192,119754,128,0,119861:0:0:0:0:
256,192,119754,128,0,119861:0:0:0:0:
358,192,119861,1,0,0:0:0:0:
460,192,119861,1,0,0:0:0:0:
358,192,119968,128,2,120075:0:0:0:0:
460,192,119968,128,0,120075:0:0:0:0:
51,192,120075,1,0,0:0:0:0:
153,192,120075,1,0,0:0:0:0:
51,192,120182,128,0,120289:0:0:0:0:
153,192,120182,128,0,120289:0:0:0:0:
256,192,120289,1,8,0:0:0:0:
358,192,120289,1,0,0:0:0:0:
460,192,120289,1,0,0:0:0:0:
256,192,120395,128,0,120502:0:0:0:0:
460,192,120395,128,0,120502:0:0:0:0:
153,192,120502,1,0,0:0:0:0:
358,192,120502,1,0,0:0:0:0:
51,192,120609,128,4,120823:0:0:0:0:
153,192,120609,128,2,120823:0:0:0:0:
358,192,120609,128,0,120823:0:0:0:0:
460,192,120609,128,0,120823:0:0:0:0:
51,192,120930,1,8,0:0:0:0:
153,192,120930,1,0,0:0:0:0:
256,192,120930,1,0,0:0:0:0:
153,192,121037,128,0,121144:0:0:0:0:
256,192,121037,128,0,121144:0:0:0:0:
358,192,121144,1,0,0:0:0:0:
460,192,121144,1,0,0:0:0:0:
358,192,121251,128,2,121465:0:0:0:0:
460,192,121251,128,0,121465:0:0:0:0:
51,192,121572,1,8,0:0:0:0:
153,192,121572,1,0,0:0:0:0:
358,192,121572,1,0,0:0:0:0:
51,192,121679,128,0,121786:0:0:0:0:
153,192,121679,128,0,121786:0:0:0:0:
256,192,121786,1,0,0:0:0:0:
358,192,121786,1,0,0:0:0:0:
256,192,121893,128,2,122107:0:0:0:0:
358,192,121893,128,0,122107:0:0:0:0:
256,192,122214,1,8,0:0:0:0:
358,192,122214,1,0,0:0:0:0:
460,192,122214,1,0,0:0:0:0:
256,192,122321,128,0,122428:0:0:0:0:
460,192,122321,128,0,122428:0:0:0:0:
51,192,122428,1,0,0:0:0:0:
153,192,122428,1,0,0:0:0:0:
51,192,122535,128,2,122641:0:0:0:0:
153,192,122535,128,0,122641:0:0:0:0:
358,192,122641,1,0,0:0:0:0:
460,192,122641,1,0,0:0:0:0:
358,192,122748,128,0,122855:0:0:0:0:
460,192,122748,128,0,122855:0:0:0:0:
51,192,122855,1,8,0:0:0:0:
153,192,122855,1,0,0:0:0:0:
256,192,122855,1,0,0:0:0:0:
51,192,122962,128,0,123069:0:0:0:0:
256,192,122962,128,0,123069:0:0:0:0:
153,192,123069,1,0,0:0:0:0:
358,192,123069,1,0,0:0:0:0:
51,192,123176,128,2,123390:0:0:0:0:
153,192,123176,128,4,123390:0:0:0:0:
358,192,123176,128,0,123390:0:0:0:0:
460,192,123176,128,0,123390:0:0:0:0:
256,192,123497,1,8,0:0:0:0:
358,192,123497,1,0,0:0:0:0:
460,192,123497,1,0,0:0:0:0:
358,192,123604,128,0,123711:0:0:0:0:
460,192,123604,128,0,123711:0:0:0:0:
51,192,123711,1,0,0:0:0:0:
153,192,123711,1,0,0:0:0:0:
51,192,123818,128,2,124032:0:0:0:0:
153,192,123818,128,0,124032:0:0:0:0:
153,192,124139,1,8,0:0:0:0:
256,192,124139,1,0,0:0:0:0:
460,192,124139,1,0,0:0:0:0:
153,192,124246,128,0,124353:0:0:0:0:
460,192,124246,128,0,124353:0:0:0:0:
51,192,124353,1,0,0:0:0:0:
358,192,124353,1,0,0:0:0:0:
51,192,124460,128,2,124674:0:0:0:0:
358,192,124460,128,0,124674:0:0:0:0:
51,192,124781,1,8,0:0:0:0:
153,192,124781,1,0,0:0:0:0:
256,192,124781,1,0,0:0:0:0:
153,192,124887,128,0,124994:0:0:0:0:
256,192,124887,128,0,124994:0:0:0:0:
358,192,124994,1,0,0:0:0:0:
460,192,124994,1,0,0:0:0:0:
358,192,125101,128,2,125208:0:0:0:0:
460,192,125101,128,0,125208:0:0:0:0:
51,192,125208,1,0,0:0:0:0:
153,192,125208,1,0,0:0:0:0:
51,192,125315,128,0,125422:0:0:0:0:
153,192,125315,128,0,125422:0:0:0:0:
256,192,125422,1,8,0:0:0:0:
358,192,125422,1,0,0:0:0:0:
460,192,125422,1,0,0:0:0:0:
256,192,125529,128,0,125636:0:0:0:0:
358,192,125529,128,0,125636:0:0:0:0:
51,192,125636,1,0,0:0:0:0:
460,192,125636,1,0,0:0:0:0:
51,192,125743,128,4,125957:0:0:0:0:
153,192,125743,128,2,125957:0:0:0:0:
256,192,125743,128,0,125957:0:0:0:0:
460,192,125743,128,0,125957:0:0:0:0:
51,192,126064,1,8,0:0:0:0:
256,192,126064,1,0,0:0:0:0:
358,192,126064,1,0,0:0:0:0:
51,192,126171,128,0,126278:0:0:0:0:
358,192,126171,128,0,126278:0:0:0:0:
153,192,126278,1,0,0:0:0:0:
460,192,126278,1,0,0:0:0:0:
153,192,126385,128,2,126599:0:0:0:0:
460,192,126385,128,0,126599:0:0:0:0:
51,192,126706,1,8,0:0:0:0:
153,192,126706,1,0,0:0:0:0:
256,192,126706,1,0,0:0:0:0:
51,192,126813,128,0,126920:0:0:0:0:
153,192,126813,128,0,126920:0:0:0:0:
358,192,126920,1,0,0:0:0:0:
460,192,126920,1,0,0:0:0:0:
51,192,127026,128,2,127240:0:0:0:0:
153,192,127026,128,4,127240:0:0:0:0:
358,192,127026,128,0,127240:0:0:0:0:
460,192,127026,128,0,127240:0:0:0:0:
256,192,127347,1,8,0:0:0:0:
358,192,127347,1,0,0:0:0:0:
460,192,127347,1,0,0:0:0:0:
256,192,127454,128,0,127561:0:0:0:0:
358,192,127454,128,0,127561:0:0:0:0:
51,192,127561,1,0,0:0:0:0:
153,192,127561,1,0,0:0:0:0:
51,192,127668,128,8,127775:0:0:0:0:
153,192,127668,128,2,127775:0:0:0:0:
256,192,127668,1,0,0:0:0:0:
358,192,127775,1,0,0:0:0:0:
460,192,127775,1,0,0:0:0:0:
358,192,127882,128,0,127989:0:0:0:0:
460,192,127882,128,0,127989:0:0:0:0:
51,192,127989,1,8,0:0:0:0:
153,192,127989,1,2,0:0:0:0:
256,192,127989,1,0,0:0:0:0:
153,192,128096,128,0,128203:0:0:0:0:
256,192,128096,128,0,128203:0:0:0:0:
51,192,128203,1,0,0:0:0:0:
460,192,128203,1,0,0:0:0:0:
51,192,128310,1,4,0:0:0:0:
256,192,128310,128,2,128390:0:0:0:0:
358,192,128310,128,0,128470:0:0:0:0:
460,192,128310,1,0,0:0:0:0:
153,192,128470,1,2,0:0:0:0:
51,192,128631,128,8,128791:0:0:0:0:
256,192,128631,1,2,0:0:0:0:
460,192,128631,1,0,0:0:0:0:
358,192,128791,1,2,0:0:0:0:
51,192,128952,1,2,0:0:0:0:
358,192,128952,128,0,129112:0:0:0:0:
460,192,128952,1,0,0:0:0:0:
153,192,129112,1,2,0:0:0:0:
51,192,129272,128,8,129433:0:0:0:0:
256,192,129272,1,2,0:0:0:0:
460,192,129272,1,0,0:0:0:0:
358,192,129433,1,2,0:0:0:0:
51,192,129593,1,2,0:0:0:0:
153,192,129593,1,0,0:0:0:0:
256,192,129593,128,0,129674:0:0:0:0:
460,192,129593,128,0,129754:0:0:0:0:
153,192,129754,1,2,0:0:0:0:
51,192,129914,1,8,0:0:0:0:
256,192,129914,1,2,0:0:0:0:
358,192,129914,128,0,130075:0:0:0:0:
51,192,130075,1,2,0:0:0:0:
256,192,130235,128,2,130395:0:0:0:0:
460,192,130235,1,0,0:0:0:0:
358,192,130235,1,0,0:0:0:0:
460,192,130395,1,2,0:0:0:0:
51,192,130556,1,8,0:0:0:0:
153,192,130556,128,2,130716:0:0:0:0:
358,192,130556,1,0,0:0:0:0:
358,192,130716,1,2,0:0:0:0:
51,192,130877,128,2,131037:0:0:0:0:
153,192,130877,128,0,131037:0:0:0:0:
256,192,130877,1,0,0:0:0:0:
460,192,130877,128,0,130957:0:0:0:0:
256,192,131037,1,2,0:0:0:0:
256,192,131198,128,8,131358:0:0:0:0:
358,192,131198,128,2,131358:0:0:0:0:
460,192,131198,1,0,0:0:0:0:
460,192,131358,1,2,0:0:0:0:
51,192,131518,1,2,0:0:0:0:
153,192,131518,128,0,131679:0:0:0:0:
256,192,131518,128,0,131679:0:0:0:0:
51,192,131679,1,2,0:0:0:0:
256,192,131839,1,8,0:0:0:0:
358,192,131839,128,2,132000:0:0:0:0:
460,192,131839,128,0,132000:0:0:0:0:
256,192,132000,1,2,0:0:0:0:
51,192,132160,1,2,0:0:0:0:
153,192,132160,1,8,0:0:0:0:
460,192,132160,1,0,0:0:0:0:
256,192,132240,1,2,0:0:0:0:
358,192,132321,1,2,0:0:0:0:
460,192,132401,1,2,0:0:0:0:
51,192,132481,128,8,132641:0:0:0:0:
153,192,132481,128,2,132641:0:0:0:0:
256,192,132481,128,0,132641:0:0:0:0:
358,192,132561,1,2,0:0:0:0:
460,192,132641,1,2,0:0:0:0:
51,192,132722,1,2,0:0:0:0:
153,192,132802,128,2,132962:0:0:0:0:
256,192,132802,128,8,132962:0:0:0:0:
358,192,132802,128,0,132962:0:0:0:0:
460,192,132882,1,2,0:0:0:0:
51,192,132962,1,2,0:0:0:0:
153,192,133043,1,2,0:0:0:0:
256,192,133123,128,8,133283:0:0:0:0:
358,192,133123,128,2,133283:0:0:0:0:
460,192,133123,128,0,133283:0:0:0:0:
51,192,133203,1,2,0:0:0:0:
153,192,133283,1,2,0:0:0:0:
256,192,133363,1,2,0:0:0:0:
358,192,133444,1,0,0:0:0:0:
51,192,133484,128,0,133564:0:0:0:0:
153,192,133524,128,0,133624:0:0:0:0:
256,192,133564,128,0,133704:0:0:0:0:
460,192,133604,128,0,133805:0:0:0:0:
358,192,136010,128,0,136090:0:0:0:0:
51,192,136090,128,0,136170:0:0:0:0:
256,192,136170,128,0,136250:0:0:0:0:
460,192,136250,128,0,136330:0:0:0:0:
358,192,137507,128,0,137614:0:0:0:0:
460,192,137560,128,0,137667:0:0:0:0:
51,192,137614,128,0,137721:0:0:0:0:
153,192,137667,128,0,137774:0:0:0:0:
460,192,139833,128,0,139913:0:0:0:0:
51,192,139860,128,0,139940:0:0:0:50:LR_Chm Fast.wav
358,192,139860,128,0,139940:0:0:0:0:
153,192,140020,128,0,140100:0:0:0:0:
51,192,140180,128,0,140261:0:0:0:50:LR_Chm Fast.wav
256,192,140180,128,0,140261:0:0:0:0:
358,192,140341,128,0,140421:0:0:0:0:
460,192,140501,128,0,140581:0:0:0:0:
51,192,140501,128,0,140581:0:0:0:50:LR_Chm Fast.wav
256,192,140662,128,0,140742:0:0:0:0:
51,192,140822,128,0,140902:0:0:0:50:LR_Chm Fast.wav
256,192,140822,128,0,140902:0:0:0:0:
358,192,140982,128,0,141063:0:0:0:0:
51,192,141143,128,0,141223:0:0:0:50:LR_Chm Fast.wav
358,192,141143,128,0,141223:0:0:0:0:
460,192,141170,128,0,141250:0:0:0:0:
153,192,141303,128,0,141384:0:0:0:0:
51,192,141464,128,0,141544:0:0:0:50:LR_Chm Fast.wav
358,192,141464,128,0,141704:0:0:0:0:
51,192,141785,128,0,141865:0:0:0:50:LR_Chm Fast.wav
256,192,141785,128,0,142025:0:0:0:0:
51,192,142105,128,0,142186:0:0:0:50:LR_Chm Fast.wav
153,192,142105,128,0,142346:0:0:0:0:
51,192,142426,128,0,142507:0:0:0:50:LR_Chm Fast.wav
256,192,142426,128,0,142507:0:0:0:0:
358,192,142587,128,0,142667:0:0:0:0:
51,192,142747,128,0,142827:0:0:0:50:LR_Chm Fast.wav
460,192,142747,128,0,142827:0:0:0:0:
153,192,142908,128,0,142988:0:0:0:0:
51,192,143068,128,0,143148:0:0:0:50:LR_Chm Fast.wav
256,192,143068,128,0,143148:0:0:0:0:
51,192,143389,128,0,143469:0:0:0:50:LR_Chm Fast.wav
460,192,143389,128,0,143469:0:0:0:0:
256,192,143416,128,0,143496:0:0:0:0:
51,192,143710,128,0,143790:0:0:0:50:LR_Chm Fast.wav
460,192,143710,128,0,143790:0:0:0:0:
256,192,143737,128,0,143817:0:0:0:0:
51,192,144031,128,0,144111:0:0:0:50:LR_Chm Fast.wav
358,192,144031,128,0,144271:0:0:0:0:
51,192,144351,128,0,144432:0:0:0:50:LR_Chm Fast.wav
256,192,144351,128,0,144592:0:0:0:0:
51,192,144672,128,0,144753:0:0:0:50:LR_Chm Fast.wav
153,192,144672,128,0,144913:0:0:0:0:
51,192,144993,128,0,145073:0:0:0:50:LR_Chm Fast.wav
460,192,144993,128,0,145073:0:0:0:0:
358,192,145020,128,0,145100:0:0:0:0:
153,192,145154,128,0,145234:0:0:0:0:
256,192,145314,128,0,145394:0:0:0:50:LR_Chm Fast.wav
460,192,145314,128,0,145394:0:0:0:0:
51,192,145635,128,0,145715:0:0:0:50:LR_Chm Fast.wav
460,192,145635,128,0,145715:0:0:0:0:
256,192,145795,128,0,145876:0:0:0:0:
153,192,145956,128,0,146036:0:0:0:50:LR_Chm Fast.wav
460,192,145956,128,0,146036:0:0:0:0:
358,192,146116,128,0,146196:0:0:0:0:
51,192,146277,128,0,146357:0:0:0:50:LR_Chm Fast.wav
256,192,146277,128,0,146357:0:0:0:0:
460,192,146277,128,0,146357:0:0:0:0:
153,192,146437,128,0,146517:0:0:0:0:
51,192,146597,128,0,146838:0:0:0:50:LR_Chm Fast.wav
460,192,146597,128,0,146678:0:0:0:0:
256,192,146918,128,0,147159:0:0:0:50:LR_Chm Fast.wav
460,192,146918,128,0,146999:0:0:0:0:
153,192,147239,128,0,147480:0:0:0:50:LR_Chm Fast.wav
460,192,147239,128,0,147319:0:0:0:0:
153,192,147560,128,0,147801:0:0:0:50:LR_Chm Fast.wav
256,192,147560,128,0,147640:0:0:0:0:
460,192,147560,128,0,147640:0:0:0:0:
460,192,147881,128,0,147961:0:0:0:50:LR_Chm Fast.wav
51,192,148041,128,0,148122:0:0:0:0:
51,192,148202,128,0,148282:0:0:0:50:LR_Chm Fast.wav
460,192,148202,128,0,148282:0:0:0:0:
51,192,148523,128,0,148763:0:0:0:50:LR_Chm Fast.wav
460,192,148523,128,0,148603:0:0:0:0:
256,192,148843,128,0,149084:0:0:0:50:LR_Chm Fast.wav
460,192,148843,128,0,148924:0:0:0:0:
153,192,149164,128,0,149405:0:0:0:50:LR_Chm Fast.wav
460,192,149164,128,0,149245:0:0:0:0:
358,192,149485,128,0,149726:0:0:0:50:LR_Chm Fast.wav
460,192,149485,128,0,149565:0:0:0:0:
256,192,149806,128,0,150047:0:0:0:50:LR_Chm Fast.wav
460,192,149806,128,0,149886:0:0:0:0:
460,192,150100,128,0,150180:0:0:0:0:
51,192,150127,128,0,150207:0:0:0:50:LR_Chm Fast.wav
358,192,150127,128,0,150207:0:0:0:0:
153,192,150287,128,0,150368:0:0:0:0:
51,192,150448,128,0,150528:0:0:0:50:LR_Chm Fast.wav
256,192,150448,128,0,150528:0:0:0:0:
358,192,150608,128,0,150688:0:0:0:0:
51,192,150769,128,0,150849:0:0:0:50:LR_Chm Fast.wav
460,192,150769,128,0,150849:0:0:0:0:
256,192,150929,128,0,151009:0:0:0:0:
256,192,151089,128,0,151170:0:0:0:0:
51,192,151089,128,0,151170:0:0:0:50:LR_Chm Fast.wav
358,192,151250,128,0,151330:0:0:0:0:
51,192,151410,128,0,151491:0:0:0:50:LR_Chm Fast.wav
358,192,151410,128,0,151491:0:0:0:0:
460,192,151437,128,0,151517:0:0:0:0:
153,192,151571,128,0,151651:0:0:0:0:
51,192,151731,128,0,151811:0:0:0:50:LR_Chm Fast.wav
358,192,151731,128,0,151972:0:0:0:0:
51,192,152052,128,0,152132:0:0:0:50:LR_Chm Fast.wav
256,192,152052,128,0,152293:0:0:0:0:
51,192,152373,128,0,152453:0:0:0:50:LR_Chm Fast.wav
153,192,152373,128,0,152614:0:0:0:0:
51,192,152694,128,0,152774:0:0:0:50:LR_Chm Fast.wav
256,192,152694,128,0,152774:0:0:0:0:
460,192,152694,128,0,152774:0:0:0:0:
358,192,152854,128,0,152934:0:0:0:0:
51,192,153015,128,0,153095:0:0:0:50:LR_Chm Fast.wav
460,192,153015,128,0,153095:0:0:0:0:
153,192,153175,128,0,153255:0:0:0:0:
51,192,153335,128,0,153416:0:0:0:50:LR_Chm Fast.wav
256,192,153335,128,0,153416:0:0:0:0:
460,192,153656,128,0,153737:0:0:0:50:LR_Chm Fast.wav
51,192,153656,128,0,153737:0:0:0:0:
256,192,153683,128,0,153763:0:0:0:0:
51,192,153977,128,0,154057:0:0:0:50:LR_Chm Fast.wav
460,192,153977,128,0,154057:0:0:0:0:
256,192,154004,128,0,154084:0:0:0:0:
51,192,154298,128,0,154378:0:0:0:50:LR_Chm Fast.wav
358,192,154298,128,0,154539:0:0:0:0:
51,192,154619,128,0,154699:0:0:0:50:LR_Chm Fast.wav
256,192,154619,128,0,154860:0:0:0:0:
51,192,154940,128,0,155100:0:0:0:50:LR_Chm Fast.wav
153,192,155020,128,0,155180:0:0:0:0:
256,192,155100,128,0,155261:0:0:0:0:
358,192,155180,128,0,155341:0:0:0:0:
51,192,155261,128,4,156330:0:0:0:0:
153,192,155261,128,2,155341:0:0:0:0:
460,192,155261,128,0,157507:0:0:0:0:
153,192,155795,128,0,156116:0:0:0:0:
256,192,155902,128,0,156009:0:0:0:0:
358,192,156009,128,0,156330:0:0:0:0:
256,192,156116,128,0,156330:0:0:0:0:
153,192,156223,128,0,156330:0:0:0:0:
358,192,156544,128,0,157293:0:0:0:0:
256,192,156651,128,0,156972:0:0:0:0:
153,192,156758,128,0,156865:0:0:0:0:
51,192,156865,128,0,157507:0:0:0:0:
153,192,156972,128,0,157079:0:0:0:0:
256,192,157079,128,0,157186:0:0:0:0:
153,192,157186,128,0,157507:0:0:0:0:
256,192,157293,128,0,157507:0:0:0:0:
358,192,157400,128,0,157507:0:0:0:0:
51,192,157827,1,0,0:0:0:0:
256,192,157827,128,0,158709:0:0:0:0:
358,192,157907,128,0,158789:0:0:0:0:
460,192,157987,128,0,158869:0:0:0:0:
51,192,158789,1,0,0:0:0:0:
153,192,158843,1,0,0:0:0:0:
256,192,158896,1,0,0:0:0:0:
358,192,158949,1,0,0:0:0:0:
153,192,159003,1,0,0:0:0:0:
256,192,159056,1,0,0:0:0:0:
358,192,159110,1,0,0:0:0:0:
460,192,159163,1,0,0:0:0:0:
51,192,159217,1,0,0:0:0:0:
153,192,159270,1,0,0:0:0:0:
358,192,159324,1,0,0:0:0:0:
460,192,159377,1,0,0:0:0:0:
153,192,159431,1,0,0:0:0:0:
256,192,159484,1,0,0:0:0:0:
460,192,159537,1,0,0:0:0:0:
51,192,159591,1,0,0:0:0:0:
256,192,159644,1,0,0:0:0:0:
358,192,159698,1,0,0:0:0:0:
51,192,159751,1,0,0:0:0:0:
153,192,159805,1,0,0:0:0:0:
358,192,159858,1,0,0:0:0:0:
460,192,159912,1,0,0:0:0:0:
256,192,159965,1,0,0:0:0:0:
51,192,160019,1,0,0:0:0:0:
153,192,160072,1,0,0:0:0:0:
256,192,160126,1,0,0:0:0:0:
358,192,160179,1,0,0:0:0:0:
460,192,160233,1,0,0:0:0:0:
51,192,161676,1,0,0:0:0:50:LR_Drum EDge.wav
256,192,161676,128,0,161836:0:0:0:0:
460,192,161676,1,0,0:0:0:0:
358,192,161836,128,0,161996:0:0:0:0:
51,192,161996,1,0,0:0:0:50:LR_Drum EDge.wav
460,192,161996,128,0,162157:0:0:0:0:
153,192,162157,128,0,162317:0:0:0:0:
256,192,162317,1,0,0:0:0:50:LR_Drum EDge.wav
358,192,162478,128,0,162638:0:0:0:0:
460,192,162638,128,0,162959:0:0:0:0:
256,192,162638,1,0,0:0:0:50:LR_Drum EDge.wav
153,192,162798,128,0,162959:0:0:0:0:
51,192,162959,128,0,163280:0:0:0:50:LR_Drum EDge.wav
256,192,162959,128,0,163119:0:0:0:0:
358,192,162959,1,0,0:0:0:0:
153,192,163280,1,0,0:0:0:50:LR_Drum EDge.wav
256,192,163280,128,0,163440:0:0:0:0:
358,192,163280,128,0,163601:0:0:0:0:
153,192,163601,128,0,163921:0:0:0:50:LR_Drum EDge.wav
256,192,163601,128,0,163761:0:0:0:0:
460,192,163601,1,0,0:0:0:0:
51,192,163921,1,0,0:0:0:50:LR_Drum EDge.wav
256,192,163921,128,0,164082:0:0:0:0:
460,192,163921,128,0,164242:0:0:0:0:
51,192,164242,128,0,164563:0:0:0:50:LR_Drum EDge.wav
153,192,164242,1,0,0:0:0:0:
256,192,164242,128,0,164403:0:0:0:0:
358,192,164403,128,0,164563:0:0:0:0:
153,192,164563,1,0,0:0:0:50:LR_Drum EDge.wav
460,192,164563,128,0,164724:0:0:0:0:
51,192,164724,128,0,164804:0:0:0:0:
256,192,164724,128,0,164884:0:0:0:0:
51,192,164884,128,0,165686:0:0:0:50:LR_Drum EDge.wav
358,192,164884,1,0,0:0:0:0:
153,192,165044,128,0,165205:0:0:0:0:
358,192,165205,1,0,0:0:0:50:LR_Drum EDge.wav
358,192,165365,128,0,165526:0:0:0:0:
460,192,165526,1,0,0:0:0:50:LR_Drum EDge.wav
256,192,165847,128,0,166007:0:0:0:50:LR_Drum EDge.wav
358,192,165847,1,0,0:0:0:0:
153,192,166167,128,0,166328:0:0:0:50:LR_Drum EDge.wav
256,192,166167,1,0,0:0:0:0:
460,192,166167,128,0,166488:0:0:0:0:
51,192,166488,128,0,166649:0:0:0:50:LR_Drum EDge.wav
153,192,166488,1,0,0:0:0:0:
256,192,166488,128,0,166809:0:0:0:0:
51,192,166809,128,0,167130:0:0:0:50:LR_Drum EDge.wav
358,192,166809,1,0,0:0:0:0:
460,192,166809,128,0,166970:0:0:0:0:
153,192,166970,128,0,167130:0:0:0:0:
256,192,167130,128,0,167290:0:0:0:50:LR_Drum EDge.wav
358,192,167130,1,0,0:0:0:0:
358,192,167290,128,0,167451:0:0:0:0:
460,192,167290,128,0,167772:0:0:0:0:
51,192,167451,1,0,0:0:0:50:LR_Drum EDge.wav
256,192,167611,128,0,167772:0:0:0:0:
51,192,167772,1,0,0:0:0:50:LR_Drum EDge.wav
153,192,167932,128,0,168093:0:0:0:0:
460,192,168093,128,0,168413:0:0:0:50:LR_Drum EDge.wav
358,192,168093,128,0,168253:0:0:0:0:
256,192,168093,1,0,0:0:0:0:
256,192,168413,1,0,0:0:0:50:LR_Drum EDge.wav
153,192,168413,128,0,168734:0:0:0:0:
51,192,168413,128,0,168574:0:0:0:0:
460,192,168734,128,0,168895:0:0:0:50:LR_Drum EDge.wav
358,192,168734,128,0,169055:0:0:0:0:
256,192,168734,1,0,0:0:0:0:
256,192,169055,1,0,0:0:0:50:LR_Drum EDge.wav
153,192,169055,128,0,169216:0:0:0:0:
51,192,169055,128,0,169376:0:0:0:0:
460,192,169376,128,0,170178:0:0:0:50:LR_Drum EDge.wav
358,192,169376,128,0,169536:0:0:0:0:
256,192,169376,1,0,0:0:0:0:
358,192,169697,128,0,169857:0:0:0:50:LR_Drum EDge.wav
256,192,169697,1,0,0:0:0:0:
153,192,169857,128,0,170018:0:0:0:0:
256,192,170018,1,0,0:0:0:50:LR_Drum EDge.wav
256,192,170339,1,0,0:0:0:50:LR_Drum EDge.wav
51,192,170339,128,0,170419:0:0:0:0:
51,192,170499,128,0,171782:0:0:0:0:
256,192,170659,1,0,0:0:0:50:LR_Drum EDge.wav
460,192,170980,128,0,171141:0:0:0:50:LR_Drum EDge.wav
256,192,170980,1,0,0:0:0:0:
460,192,171301,128,0,171462:0:0:0:50:LR_Drum EDge.wav
256,192,171301,1,0,0:0:0:0:
256,192,171622,1,0,0:0:0:50:LR_Drum EDge.wav
51,192,171943,1,0,0:0:0:50:LR_Drum EDge.wav
256,192,171943,128,0,172103:0:0:0:0:
460,192,171943,1,0,0:0:0:0:
153,192,172103,128,0,172264:0:0:0:0:
51,192,172264,128,0,172424:0:0:0:50:LR_Drum EDge.wav
460,192,172264,1,0,0:0:0:0:
358,192,172424,128,0,172585:0:0:0:0:
256,192,172585,1,0,0:0:0:50:LR_Drum EDge.wav
153,192,172745,128,0,172905:0:0:0:0:
51,192,172905,128,0,173226:0:0:0:50:LR_Drum EDge.wav
256,192,172905,1,0,0:0:0:0:
460,192,172905,1,0,0:0:0:0:
358,192,173066,128,0,173226:0:0:0:0:
153,192,173226,1,0,0:0:0:50:LR_Drum EDge.wav
256,192,173226,128,0,173387:0:0:0:0:
460,192,173226,128,0,173547:0:0:0:0:
153,192,173547,128,0,173868:0:0:0:50:LR_Drum EDge.wav
256,192,173547,128,0,173708:0:0:0:0:
358,192,173547,1,0,0:0:0:0:
51,192,173868,1,0,0:0:0:50:LR_Drum EDge.wav
256,192,173868,128,0,174028:0:0:0:0:
358,192,173868,128,0,174189:0:0:0:0:
51,192,174189,128,0,174510:0:0:0:50:LR_Drum EDge.wav
256,192,174189,128,0,174349:0:0:0:0:
460,192,174189,1,0,0:0:0:0:
256,192,174510,128,0,174670:0:0:0:50:LR_Drum EDge.wav
358,192,174510,1,0,0:0:0:0:
460,192,174510,128,0,174831:0:0:0:0:
153,192,174670,128,0,174831:0:0:0:0:
51,192,174831,128,0,174991:0:0:0:50:LR_Drum EDge.wav
358,192,174831,1,0,0:0:0:0:
256,192,174991,128,0,175151:0:0:0:0:
460,192,174991,128,0,175071:0:0:0:0:
153,192,175151,1,0,0:0:0:50:LR_Drum EDge.wav
460,192,175151,128,0,175954:0:0:0:0:
358,192,175312,128,0,175472:0:0:0:0:
153,192,175472,1,0,0:0:0:50:LR_Drum EDge.wav
153,192,175633,128,0,175793:0:0:0:0:
51,192,175793,1,0,0:0:0:50:LR_Drum EDge.wav
153,192,176114,1,0,0:0:0:50:LR_Drum EDge.wav
256,192,176114,128,0,176274:0:0:0:0:
51,192,176435,128,0,176756:0:0:0:50:LR_Drum EDge.wav
256,192,176435,1,0,0:0:0:0:
358,192,176435,128,0,176595:0:0:0:0:
256,192,176756,128,0,177077:0:0:0:50:LR_Drum EDge.wav
358,192,176756,1,0,0:0:0:0:
460,192,176756,128,0,176916:0:0:0:0:
51,192,177077,128,0,177237:0:0:0:50:LR_Drum EDge.wav
153,192,177077,1,0,0:0:0:0:
460,192,177077,128,0,177397:0:0:0:0:
358,192,177237,128,0,177397:0:0:0:0:
153,192,177397,1,0,0:0:0:50:LR_Drum EDge.wav
256,192,177397,128,0,177558:0:0:0:0:
51,192,177558,128,0,178681:0:0:0:0:
153,192,177558,128,0,177718:0:0:0:0:
358,192,177718,1,0,0:0:0:50:LR_Drum EDge.wav
256,192,177879,128,0,178039:0:0:0:0:
153,192,178039,1,0,0:0:0:50:LR_Drum EDge.wav
358,192,178200,128,0,178360:0:0:0:0:
460,192,178360,128,0,178520:0:0:0:50:LR_Drum EDge.wav
153,192,178360,1,0,0:0:0:0:
256,192,178520,128,0,178681:0:0:0:0:
358,192,178681,128,0,178841:0:0:0:50:LR_Drum EDge.wav
460,192,178681,1,0,0:0:0:0:
153,192,178841,128,0,179002:0:0:0:0:
256,192,179002,128,0,179162:0:0:0:50:LR_Drum EDge.wav
358,192,179002,1,0,0:0:0:0:
460,192,179002,128,0,179483:0:0:0:0:
51,192,179162,128,0,179323:0:0:0:0:
153,192,179323,128,0,179483:0:0:0:50:LR_Drum EDge.wav
256,192,179323,1,0,0:0:0:0:
358,192,179483,128,0,179563:0:0:0:0:
256,192,179643,1,0,0:0:0:50:LR_Drum EDge.wav
358,192,179643,128,0,181408:0:0:0:0:
460,192,179643,128,0,181408:0:0:0:0:
51,192,179964,128,0,180044:0:0:0:50:LR_Drum EDge.wav
256,192,179964,1,0,0:0:0:0:
51,192,180125,128,0,180205:0:0:0:0:
256,192,180285,1,0,0:0:0:50:LR_Drum EDge.wav
153,192,180446,128,0,180526:0:0:0:0:
51,192,180606,1,0,0:0:0:50:LR_Drum EDge.wav
256,192,180766,128,0,180847:0:0:0:0:
51,192,180927,128,0,181408:0:0:0:0:
153,192,180927,128,0,181408:0:0:0:0:
256,192,181462,1,0,0:0:0:0:
358,192,181515,1,0,0:0:0:0:
460,192,181569,1,6,0:0:0:0:
256,192,181622,1,0,0:0:0:0:
153,192,181676,1,0,0:0:0:0:
51,192,181729,1,8,0:0:0:0:
358,192,181782,1,0,0:0:0:0:
256,192,181836,1,0,0:0:0:0:
153,192,181889,1,8,0:0:0:0:
460,192,181943,1,0,0:0:0:0:
358,192,181996,1,0,0:0:0:0:
256,192,182050,1,8,0:0:0:0:
51,192,182103,1,0,0:0:0:0:
153,192,182157,1,0,0:0:0:0:
51,192,182210,128,2,182290:0:0:0:0:
256,192,182210,1,4,0:0:0:0:
358,192,182210,1,0,0:0:0:0:
460,192,182210,1,0,0:0:0:0:
358,192,182371,128,0,182451:0:0:0:0:
51,192,182531,1,8,0:0:0:0:
153,192,182531,128,0,182611:0:0:0:0:
256,192,182531,1,0,0:0:0:0:
460,192,182692,128,0,182772:0:0:0:0:
51,192,182852,1,2,0:0:0:0:
153,192,182852,1,0,0:0:0:0:
358,192,183012,1,2,0:0:0:0:
460,192,183012,1,0,0:0:0:0:
51,192,183173,128,8,183654:0:0:0:0:
256,192,183173,1,0,0:0:0:0:
358,192,183173,128,0,183333:0:0:0:0:
358,192,183494,128,2,183654:0:0:0:0:
460,192,183494,128,0,183654:0:0:0:0:
153,192,183815,128,8,183975:0:0:0:0:
51,192,183815,1,0,0:0:0:0:
460,192,183815,128,0,184296:0:0:0:0:
256,192,183975,1,2,0:0:0:0:
358,192,183975,1,0,0:0:0:0:
51,192,184135,128,0,184296:0:0:0:0:
153,192,184135,128,0,184296:0:0:0:0:
256,192,184296,1,2,0:0:0:0:
358,192,184296,1,0,0:0:0:0:
153,192,184456,128,8,184938:0:0:0:0:
256,192,184456,1,0,0:0:0:0:
358,192,184456,128,0,184617:0:0:0:0:
256,192,184777,1,2,0:0:0:0:
358,192,184777,128,0,185098:0:0:0:0:
460,192,184777,128,0,185098:0:0:0:0:
51,192,185098,1,8,0:0:0:0:
153,192,185098,1,0,0:0:0:0:
256,192,185098,1,0,0:0:0:0:
51,192,185258,128,0,185339:0:0:0:0:
153,192,185258,128,0,185339:0:0:0:0:
51,192,185419,128,2,186221:0:0:0:0:
153,192,185419,128,0,186221:0:0:0:0:
256,192,185579,1,2,0:0:0:0:
460,192,185579,1,0,0:0:0:0:
256,192,185740,1,8,0:0:0:0:
358,192,185740,1,0,0:0:0:0:
460,192,185740,1,0,0:0:0:0:
256,192,186061,1,2,0:0:0:0:
460,192,186061,1,0,0:0:0:0:
51,192,186381,1,8,0:0:0:0:
256,192,186381,1,0,0:0:0:0:
460,192,186381,1,0,0:0:0:0:
153,192,186542,1,2,0:0:0:0:
358,192,186542,1,0,0:0:0:0:
51,192,186702,128,0,186863:0:0:0:0:
256,192,186702,128,0,186863:0:0:0:0:
358,192,186863,1,2,0:0:0:0:
460,192,186863,1,0,0:0:0:0:
153,192,187023,128,8,187184:0:0:0:0:
358,192,187023,128,0,187184:0:0:0:0:
460,192,187023,1,0,0:0:0:0:
256,192,187184,1,8,0:0:0:0:
153,192,187264,1,8,0:0:0:0:
51,192,187344,1,2,0:0:0:0:
256,192,187344,128,0,187504:0:0:0:0:
460,192,187344,128,0,187504:0:0:0:0:
51,192,187665,128,8,187825:0:0:0:0:
256,192,187665,1,0,0:0:0:0:
460,192,187665,128,0,187825:0:0:0:0:
256,192,187825,128,0,187986:0:0:0:0:
51,192,187986,1,2,0:0:0:0:
460,192,187986,1,0,0:0:0:0:
153,192,188146,128,2,188467:0:0:0:0:
358,192,188146,128,0,188467:0:0:0:0:
51,192,188307,1,8,0:0:0:0:
256,192,188307,1,0,0:0:0:0:
460,192,188307,1,0,0:0:0:0:
256,192,188627,1,2,0:0:0:0:
358,192,188627,128,0,188788:0:0:0:0:
460,192,188627,128,0,188788:0:0:0:0:
256,192,188948,1,8,0:0:0:0:
358,192,188948,128,0,189109:0:0:0:0:
460,192,188948,128,0,189109:0:0:0:0:
51,192,189109,128,2,189269:0:0:0:0:
153,192,189109,128,0,189269:0:0:0:0:
51,192,189430,128,2,189750:0:0:0:0:
153,192,189430,128,0,189750:0:0:0:0:
256,192,189590,1,8,0:0:0:0:
358,192,189590,1,0,0:0:0:0:
460,192,189590,1,0,0:0:0:0:
153,192,189911,128,2,190071:0:0:0:0:
358,192,189911,128,0,190071:0:0:0:0:
51,192,190232,128,8,190312:0:0:0:0:
256,192,190232,1,0,0:0:0:0:
460,192,190232,128,0,190312:0:0:0:0:
51,192,190392,128,0,191676:0:0:0:0:
460,192,190392,128,0,191676:0:0:0:0:
153,192,190553,1,2,0:0:0:0:
153,192,190713,128,2,190873:0:0:0:0:
358,192,190713,1,0,0:0:0:0:
256,192,190873,128,8,191034:0:0:0:0:
358,192,190873,1,0,0:0:0:0:
153,192,191034,1,2,0:0:0:0:
358,192,191034,128,0,191194:0:0:0:0:
256,192,191355,1,2,0:0:0:0:
153,192,191515,1,8,0:0:0:0:
256,192,191515,1,0,0:0:0:0:
358,192,191515,1,0,0:0:0:0:
256,192,191676,1,2,0:0:0:0:
153,192,191836,1,8,0:0:0:0:
358,192,191836,1,0,0:0:0:0:
460,192,191836,128,0,191996:0:0:0:0:
51,192,191996,1,2,0:0:0:0:
153,192,191996,1,0,0:0:0:0:
358,192,192157,1,8,0:0:0:0:
460,192,192157,1,0,0:0:0:0:
153,192,192317,1,8,0:0:0:0:
358,192,192317,1,0,0:0:0:0:
256,192,192397,1,8,0:0:0:0:
153,192,192478,1,4,0:0:0:0:
358,192,192478,1,0,0:0:0:0:
460,192,192478,128,0,192558:0:0:0:0:
51,192,192478,128,2,192638:0:0:0:0:
153,192,192638,128,0,192718:0:0:0:0:
256,192,192798,1,8,0:0:0:0:
358,192,192798,128,0,192879:0:0:0:0:
460,192,192798,1,0,0:0:0:0:
51,192,192959,128,0,193039:0:0:0:0:
358,192,193119,1,2,0:0:0:0:
460,192,193119,1,0,0:0:0:0:
51,192,193280,1,2,0:0:0:0:
153,192,193280,1,0,0:0:0:0:
153,192,193440,128,8,193601:0:0:0:0:
256,192,193440,1,0,0:0:0:0:
460,192,193440,128,0,193921:0:0:0:0:
51,192,193761,128,2,193921:0:0:0:0:
153,192,193761,128,0,193921:0:0:0:0:
51,192,194082,128,8,194563:0:0:0:0:
460,192,194082,1,0,0:0:0:0:
358,192,194082,128,0,194242:0:0:0:0:
153,192,194242,1,2,0:0:0:0:
256,192,194242,1,0,0:0:0:0:
358,192,194403,128,0,194563:0:0:0:0:
460,192,194403,128,0,194563:0:0:0:0:
153,192,194563,1,2,0:0:0:0:
256,192,194563,1,0,0:0:0:0:
153,192,194724,128,8,194884:0:0:0:0:
256,192,194724,1,0,0:0:0:0:
358,192,194724,128,0,195205:0:0:0:0:
51,192,195044,128,2,195365:0:0:0:0:
153,192,195044,128,0,195365:0:0:0:0:
256,192,195044,1,0,0:0:0:0:
256,192,195365,1,8,0:0:0:0:
358,192,195365,1,0,0:0:0:0:
460,192,195365,1,0,0:0:0:0:
358,192,195526,128,0,195606:0:0:0:0:
460,192,195526,128,0,195606:0:0:0:0:
358,192,195686,128,2,196488:0:0:0:0:
460,192,195686,128,0,196488:0:0:0:0:
51,192,196007,1,8,0:0:0:0:
153,192,196007,1,0,0:0:0:0:
256,192,196007,1,0,0:0:0:0:
51,192,196167,1,2,0:0:0:0:
256,192,196167,1,0,0:0:0:0:
51,192,196488,1,2,0:0:0:0:
256,192,196488,1,0,0:0:0:0:
256,192,196649,1,8,0:0:0:0:
358,192,196649,1,0,0:0:0:0:
460,192,196649,1,0,0:0:0:0:
51,192,196970,128,2,197130:0:0:0:0:
256,192,196970,128,0,197130:0:0:0:0:
358,192,197130,1,2,0:0:0:0:
460,192,197130,1,0,0:0:0:0:
153,192,197290,128,8,197451:0:0:0:0:
358,192,197290,128,0,197451:0:0:0:0:
460,192,197290,1,0,0:0:0:0:
256,192,197451,1,8,0:0:0:0:
153,192,197531,1,8,0:0:0:0:
51,192,197611,1,2,0:0:0:0:
256,192,197611,128,4,197932:0:0:0:0:
358,192,197611,1,0,0:0:0:0:
460,192,197611,128,0,197932:0:0:0:0:
51,192,197932,1,8,0:0:0:0:
153,192,197932,1,0,0:0:0:0:
358,192,197932,1,0,0:0:0:0:
51,192,198093,128,0,198173:0:0:0:0:
256,192,198093,128,0,198173:0:0:0:0:
51,192,198253,128,2,199456:0:0:0:0:
153,192,198253,128,0,198815:0:0:0:0:
256,192,198253,128,0,198815:0:0:0:0:
460,192,198413,1,2,0:0:0:0:
358,192,198574,1,8,0:0:0:0:
460,192,198574,1,0,0:0:0:0:
256,192,198895,128,2,199456:0:0:0:0:
358,192,198895,1,4,0:0:0:0:
460,192,198895,1,0,0:0:0:0:
153,192,198895,128,0,199456:0:0:0:0:
358,192,199216,1,8,0:0:0:0:
460,192,199216,1,0,0:0:0:0:
358,192,199376,1,2,0:0:0:0:
51,192,199536,128,0,200098:0:0:0:0:
256,192,199536,128,0,199938:0:0:0:0:
358,192,199536,128,0,200098:0:0:0:0:
460,192,199536,128,0,200098:0:0:0:0:
153,192,199697,1,2,0:0:0:0:
153,192,199857,1,8,0:0:0:0:
256,192,200018,128,0,200098:0:0:0:0:
51,192,200178,128,2,201061:0:0:0:0:
153,192,200178,128,4,200740:0:0:0:0:
256,192,200178,128,0,201221:0:0:0:0:
358,192,200178,128,0,200419:0:0:0:0:
460,192,200178,128,0,200419:0:0:0:0:
358,192,200499,128,8,200740:0:0:0:0:
460,192,200499,128,0,201221:0:0:0:0:
153,192,200820,128,2,201061:0:0:0:0:
358,192,200820,128,0,200900:0:0:0:0:
358,192,200980,128,2,201221:0:0:0:0:
51,192,201141,128,8,201542:0:0:0:0:
153,192,201141,128,0,201542:0:0:0:0:
256,192,201301,128,2,201542:0:0:0:0:
358,192,201301,128,4,201702:0:0:0:0:
460,192,201301,128,0,201702:0:0:0:0:
51,192,201622,128,2,201702:0:0:0:0:
153,192,201622,128,4,201702:0:0:0:0:
256,192,201622,128,0,201702:0:0:0:0:
153,192,201782,128,4,202023:0:0:0:0:
256,192,201782,128,0,202023:0:0:0:0:
358,192,201782,128,0,202023:0:0:0:0:
460,192,201782,128,0,202023:0:0:0:0:
51,192,201782,128,8,202023:0:0:0:0:
460,192,202103,128,0,202264:0:0:0:0:
153,192,202103,128,0,202184:0:0:0:0:
51,192,202184,128,0,202264:0:0:0:0:
256,192,202264,128,2,202344:0:0:0:0:
153,192,202344,128,0,202424:0:0:0:0:
358,192,202424,128,0,202504:0:0:0:0:
51,192,202424,128,8,202585:0:0:0:0:
460,192,202424,1,0,0:0:0:0:
256,192,202504,128,0,202585:0:0:0:0:
460,192,202585,128,8,202665:0:0:0:0:
153,192,202585,1,0,0:0:0:0:
358,192,202665,128,8,202745:0:0:0:0:
51,192,202745,128,2,203066:0:0:0:0:
153,192,202745,1,4,0:0:0:0:
256,192,202745,1,0,0:0:0:0:
153,192,203066,1,8,0:0:0:0:
256,192,203066,1,0,0:0:0:0:
358,192,203226,128,0,203307:0:0:0:0:
153,192,203387,1,2,0:0:0:0:
358,192,203387,128,0,204028:0:0:0:0:
153,192,203547,1,2,0:0:0:0:
51,192,203708,1,8,0:0:0:0:
256,192,203708,1,0,0:0:0:0:
153,192,203868,1,2,0:0:0:0:
153,192,204189,1,2,0:0:0:0:
51,192,204349,1,8,0:0:0:0:
256,192,204349,1,0,0:0:0:0:
153,192,204510,1,2,0:0:0:0:
358,192,204670,128,0,204831:0:0:0:0:
153,192,204831,1,2,0:0:0:0:
153,192,204991,128,8,205151:0:0:0:0:
256,192,204991,1,0,0:0:0:0:
460,192,204991,1,0,0:0:0:0:
153,192,205312,128,2,205633:0:0:0:0:
358,192,205312,1,0,0:0:0:0:
256,192,205633,1,8,0:0:0:0:
358,192,205633,1,0,0:0:0:0:
460,192,205793,128,0,205873:0:0:0:0:
153,192,205954,1,2,0:0:0:0:
460,192,205954,128,0,206435:0:0:0:0:
153,192,206114,1,2,0:0:0:0:
51,192,206274,1,8,0:0:0:0:
256,192,206274,1,0,0:0:0:0:
153,192,206435,1,2,0:0:0:0:
460,192,206595,128,0,206916:0:0:0:0:
153,192,206756,1,2,0:0:0:0:
256,192,206916,1,8,0:0:0:0:
358,192,206916,1,0,0:0:0:0:
51,192,207077,128,2,207157:0:0:0:0:
153,192,207077,1,0,0:0:0:0:
51,192,207237,128,0,207558:0:0:0:0:
153,192,207397,1,2,0:0:0:0:
256,192,207558,1,8,0:0:0:0:
358,192,207558,1,0,0:0:0:0:
153,192,207718,1,2,0:0:0:0:
153,192,207879,1,2,0:0:0:0:
358,192,207879,128,0,208039:0:0:0:0:
460,192,207879,1,0,0:0:0:0:
51,192,208200,1,8,0:0:0:0:
256,192,208200,1,0,0:0:0:0:
358,192,208200,128,0,208360:0:0:0:0:
153,192,208360,128,0,208841:0:0:0:0:
358,192,208520,1,2,0:0:0:0:
358,192,208681,1,2,0:0:0:0:
51,192,208841,1,8,0:0:0:0:
256,192,208841,1,0,0:0:0:0:
460,192,208841,128,0,209162:0:0:0:0:
358,192,209002,1,2,0:0:0:0:
51,192,209162,128,0,209483:0:0:0:0:
153,192,209323,1,2,0:0:0:0:
256,192,209483,1,8,0:0:0:0:
358,192,209483,128,0,209563:0:0:0:0:
460,192,209483,1,0,0:0:0:0:
153,192,209643,1,2,0:0:0:0:
358,192,209643,128,0,210125:0:0:0:0:
153,192,209964,1,2,0:0:0:0:
51,192,210125,128,8,210285:0:0:0:0:
256,192,210125,1,0,0:0:0:0:
460,192,210125,1,0,0:0:0:0:
51,192,210446,128,2,210606:0:0:0:0:
153,192,210446,1,0,0:0:0:0:
256,192,210446,128,0,210606:0:0:0:0:
256,192,210766,1,8,0:0:0:0:
460,192,210766,1,0,0:0:0:0:
153,192,210927,128,0,211087:0:0:0:0:
358,192,210927,128,0,211087:0:0:0:0:
256,192,211087,1,2,0:0:0:0:
358,192,211248,1,2,0:0:0:0:
51,192,211408,1,8,0:0:0:0:
256,192,211408,128,0,211569:0:0:0:0:
460,192,211408,128,0,211569:0:0:0:0:
153,192,211569,1,2,0:0:0:0:
51,192,211729,128,0,212531:0:0:0:0:
256,192,211729,1,0,0:0:0:0:
460,192,211729,128,0,212531:0:0:0:0:
256,192,211889,1,2,0:0:0:0:
153,192,212050,1,8,0:0:0:0:
358,192,212050,1,0,0:0:0:0:
153,192,212210,128,2,212290:0:0:0:0:
358,192,212210,128,0,212290:0:0:0:0:
153,192,212371,128,0,212531:0:0:0:0:
358,192,212371,128,0,212531:0:0:0:0:
256,192,212531,1,2,0:0:0:0:
51,192,212692,1,8,0:0:0:0:
256,192,212692,1,0,0:0:0:0:
460,192,212692,1,0,0:0:0:0:
153,192,212852,1,8,0:0:0:0:
358,192,212852,1,0,0:0:0:0:
256,192,212932,1,8,0:0:0:0:
51,192,213012,128,2,213654:0:0:0:0:
153,192,213012,1,4,0:0:0:0:
358,192,213012,1,0,0:0:0:0:
460,192,213012,128,0,213654:0:0:0:0:
153,192,213333,1,8,0:0:0:0:
256,192,213333,1,0,0:0:0:0:
358,192,213333,1,0,0:0:0:0:
256,192,213654,1,2,0:0:0:0:
358,192,213654,1,0,0:0:0:0:
51,192,213815,1,2,0:0:0:0:
153,192,213815,1,0,0:0:0:0:
153,192,213975,128,8,214055:0:0:0:0:
256,192,213975,1,0,0:0:0:0:
358,192,213975,128,0,214055:0:0:0:0:
153,192,214135,128,0,214216:0:0:0:0:
358,192,214135,128,0,214216:0:0:0:0:
153,192,214296,128,2,214938:0:0:0:0:
256,192,214296,1,0,0:0:0:0:
358,192,214296,128,0,214938:0:0:0:0:
51,192,214617,1,8,0:0:0:0:
256,192,214617,1,0,0:0:0:0:
460,192,214617,1,0,0:0:0:0:
51,192,214777,1,2,0:0:0:0:
460,192,214777,1,0,0:0:0:0:
153,192,215098,1,2,0:0:0:0:
358,192,215098,1,0,0:0:0:0:
51,192,215258,128,8,215339:0:0:0:0:
256,192,215258,1,0,0:0:0:0:
460,192,215258,128,0,215339:0:0:0:0:
51,192,215419,128,0,215499:0:0:0:0:
460,192,215419,128,0,215499:0:0:0:0:
51,192,215579,128,2,216061:0:0:0:0:
256,192,215579,1,0,0:0:0:0:
460,192,215579,128,0,216061:0:0:0:0:
153,192,215900,1,8,0:0:0:0:
256,192,215900,1,0,0:0:0:0:
358,192,215900,1,0,0:0:0:0:
51,192,216221,128,2,216381:0:0:0:0:
256,192,216221,128,0,216381:0:0:0:0:
358,192,216381,1,2,0:0:0:0:
460,192,216381,1,0,0:0:0:0:
256,192,216542,128,8,216702:0:0:0:0:
358,192,216542,1,0,0:0:0:0:
460,192,216542,128,0,216702:0:0:0:0:
51,192,216702,1,2,0:0:0:0:
153,192,216702,1,0,0:0:0:0:
51,192,216863,128,2,217023:0:0:0:0:
256,192,216863,1,4,0:0:0:0:
358,192,216863,1,8,0:0:0:0:
460,192,216863,1,0,0:0:0:0:
153,192,217023,1,2,0:0:0:0:
256,192,217023,1,0,0:0:0:0:
51,192,217184,128,8,217344:0:0:0:0:
153,192,217184,128,2,217344:0:0:0:0:
358,192,217184,1,4,0:0:0:0:
460,192,217184,1,0,0:0:0:0:
256,192,217344,1,2,0:0:0:0:
358,192,217344,1,0,0:0:0:0:
51,192,217504,128,8,217665:0:0:0:0:
153,192,217504,128,4,217665:0:0:0:0:
256,192,217504,128,2,217665:0:0:0:0:
460,192,217504,1,0,0:0:0:0:
358,192,217665,1,2,0:0:0:0:
460,192,217665,1,0,0:0:0:0:
51,192,217825,128,8,217986:0:0:0:0:
153,192,217825,128,2,217986:0:0:0:0:
256,192,217825,128,4,217986:0:0:0:0:
358,192,217825,128,0,217986:0:0:0:0:
460,192,217986,1,8,0:0:0:0:
256,192,218066,1,8,0:0:0:0:
51,192,218146,128,0,218226:0:0:0:0:
460,192,218146,128,0,218467:0:0:0:0:
51,192,218387,128,0,218467:0:0:0:0:
256,192,218627,128,0,219109:0:0:0:0:
153,192,218788,128,0,219109:0:0:0:0:
51,192,218948,128,0,219109:0:0:0:0:
460,192,219109,128,0,219590:0:0:0:0:
358,192,219269,128,0,219590:0:0:0:0:
51,192,219430,128,0,219510:0:0:0:0:
256,192,219430,128,0,219590:0:0:0:0:
51,192,219670,128,0,219750:0:0:0:0:
358,192,219750,128,0,219911:0:0:0:0:
460,192,219750,128,0,219911:0:0:0:0:
51,192,220071,128,0,220232:0:0:0:0:
460,192,220071,128,0,220232:0:0:0:0:
51,192,220392,128,0,220553:0:0:0:0:
153,192,220392,128,0,220553:0:0:0:0:
51,192,220713,128,0,220873:0:0:0:0:
256,192,220713,128,0,220873:0:0:0:0:
460,192,220713,128,0,220793:0:0:0:0:
460,192,220954,128,0,221034:0:0:0:0:
153,192,221355,128,0,221515:0:0:0:0:
358,192,221355,128,0,221515:0:0:0:0:
51,192,221676,128,0,221836:0:0:0:0:
153,192,221676,128,0,221836:0:0:0:0:
51,192,221996,128,0,222157:0:0:0:0:
153,192,221996,128,0,222157:0:0:0:0:
358,192,222317,128,0,222478:0:0:0:0:
460,192,222317,128,0,222478:0:0:0:0:
51,192,222638,128,0,223119:0:0:0:0:
153,192,222638,128,0,223119:0:0:0:0:
358,192,222638,128,0,222798:0:0:0:0:
460,192,222638,128,0,222798:0:0:0:0:
256,192,222959,128,0,223119:0:0:0:0:
460,192,222959,128,0,223119:0:0:0:0:
51,192,223280,128,2,223494:0:0:0:0:
256,192,223280,128,4,223494:0:0:0:0:
358,192,223280,128,0,223494:0:0:0:0:
460,192,223280,128,0,223494:0:0:0:0:
51,192,223601,1,8,0:0:0:0:
153,192,223601,1,0,0:0:0:0:
358,192,223601,1,0,0:0:0:0:
51,192,223708,128,8,223815:0:0:0:0:
153,192,223708,128,0,223815:0:0:0:0:
256,192,223815,1,8,0:0:0:0:
358,192,223815,1,0,0:0:0:0:
51,192,223921,1,2,0:0:0:0:
256,192,223921,128,0,224135:0:0:0:0:
358,192,223921,128,0,224135:0:0:0:0:
153,192,224242,1,8,0:0:0:0:
256,192,224242,1,0,0:0:0:0:
460,192,224242,1,0,0:0:0:0:
153,192,224349,128,8,224456:0:0:0:0:
256,192,224349,128,0,224456:0:0:0:0:
358,192,224456,1,8,0:0:0:0:
460,192,224456,1,0,0:0:0:0:
153,192,224563,1,2,0:0:0:0:
358,192,224563,128,0,224777:0:0:0:0:
460,192,224563,128,0,224777:0:0:0:0:
51,192,224884,1,8,0:0:0:0:
153,192,224884,1,0,0:0:0:0:
256,192,224884,1,0,0:0:0:0:
51,192,224991,128,8,225098:0:0:0:0:
256,192,224991,128,0,225098:0:0:0:0:
358,192,225098,1,8,0:0:0:0:
460,192,225098,1,0,0:0:0:0:
256,192,225205,1,2,0:0:0:0:
358,192,225205,128,0,225312:0:0:0:0:
460,192,225205,128,0,225312:0:0:0:0:
51,192,225312,1,8,0:0:0:0:
153,192,225312,1,0,0:0:0:0:
51,192,225419,128,8,225526:0:0:0:0:
153,192,225419,128,0,225526:0:0:0:0:
256,192,225526,1,2,0:0:0:0:
358,192,225526,1,0,0:0:0:0:
460,192,225526,1,0,0:0:0:0:
256,192,225633,128,8,225740:0:0:0:0:
460,192,225633,128,0,225740:0:0:0:0:
153,192,225740,1,8,0:0:0:0:
358,192,225740,1,0,0:0:0:0:
51,192,225847,128,2,226061:0:0:0:0:
153,192,225847,128,4,226061:0:0:0:0:
358,192,225847,128,0,226061:0:0:0:0:
460,192,225847,128,0,226061:0:0:0:0:
51,192,226167,1,8,0:0:0:0:
153,192,226167,1,0,0:0:0:0:
256,192,226167,1,0,0:0:0:0:
153,192,226274,128,8,226381:0:0:0:0:
256,192,226274,128,0,226381:0:0:0:0:
358,192,226381,1,8,0:0:0:0:
460,192,226381,1,0,0:0:0:0:
153,192,226488,1,2,0:0:0:0:
358,192,226488,128,0,226702:0:0:0:0:
460,192,226488,128,0,226702:0:0:0:0:
51,192,226809,1,8,0:0:0:0:
153,192,226809,1,0,0:0:0:0:
358,192,226809,1,0,0:0:0:0:
51,192,226916,128,8,227023:0:0:0:0:
153,192,226916,128,0,227023:0:0:0:0:
256,192,227023,1,8,0:0:0:0:
358,192,227023,1,0,0:0:0:0:
51,192,227130,1,2,0:0:0:0:
256,192,227130,128,0,227344:0:0:0:0:
358,192,227130,128,0,227344:0:0:0:0:
256,192,227451,1,8,0:0:0:0:
358,192,227451,1,0,0:0:0:0:
460,192,227451,1,0,0:0:0:0:
256,192,227558,128,8,227665:0:0:0:0:
460,192,227558,128,0,227665:0:0:0:0:
51,192,227665,1,8,0:0:0:0:
153,192,227665,1,0,0:0:0:0:
51,192,227772,128,2,227879:0:0:0:0:
153,192,227772,128,0,227879:0:0:0:0:
256,192,227772,1,0,0:0:0:0:
358,192,227879,1,8,0:0:0:0:
460,192,227879,1,0,0:0:0:0:
358,192,227986,128,8,228093:0:0:0:0:
460,192,227986,128,0,228093:0:0:0:0:
51,192,228093,1,2,0:0:0:0:
153,192,228093,1,0,0:0:0:0:
256,192,228093,1,0,0:0:0:0:
51,192,228200,128,8,228307:0:0:0:0:
256,192,228200,128,0,228307:0:0:0:0:
153,192,228307,1,8,0:0:0:0:
358,192,228307,1,0,0:0:0:0:
153,192,228413,1,2,0:0:0:0:
256,192,228413,1,4,0:0:0:0:
358,192,228413,1,0,0:0:0:0:
460,192,228413,1,0,0:0:0:0:
51,192,228520,1,0,0:0:0:0:
256,192,228627,1,0,0:0:0:0:
51,192,228734,1,8,0:0:0:0:
153,192,228734,1,0,0:0:0:0:
460,192,228734,1,0,0:0:0:0:
51,192,228841,128,8,228948:0:0:0:0:
153,192,228841,128,0,228948:0:0:0:0:
358,192,228948,1,8,0:0:0:0:
460,192,228948,1,0,0:0:0:0:
51,192,229055,1,2,0:0:0:0:
358,192,229055,128,0,229162:0:0:0:0:
460,192,229055,128,0,229162:0:0:0:0:
153,192,229162,1,0,0:0:0:0:
256,192,229269,1,0,0:0:0:0:
51,192,229376,1,8,0:0:0:0:
153,192,229376,1,0,0:0:0:0:
358,192,229376,1,0,0:0:0:0:
51,192,229483,128,8,229590:0:0:0:0:
358,192,229483,128,0,229590:0:0:0:0:
153,192,229590,1,8,0:0:0:0:
460,192,229590,1,0,0:0:0:0:
153,192,229697,128,2,229804:0:0:0:0:
358,192,229697,1,0,0:0:0:0:
460,192,229697,128,0,229804:0:0:0:0:
256,192,229804,1,0,0:0:0:0:
153,192,229911,1,0,0:0:0:0:
51,192,230018,1,8,0:0:0:0:
256,192,230018,1,0,0:0:0:0:
358,192,230018,1,0,0:0:0:0:
256,192,230125,128,8,230232:0:0:0:0:
358,192,230125,128,0,230232:0:0:0:0:
51,192,230232,1,8,0:0:0:0:
153,192,230232,1,0,0:0:0:0:
51,192,230339,128,2,230446:0:0:0:0:
153,192,230339,128,0,230446:0:0:0:0:
256,192,230339,1,0,0:0:0:0:
358,192,230446,1,8,0:0:0:0:
460,192,230446,1,0,0:0:0:0:
358,192,230553,128,8,230659:0:0:0:0:
460,192,230553,128,0,230659:0:0:0:0:
51,192,230659,1,2,0:0:0:0:
153,192,230659,1,0,0:0:0:0:
256,192,230659,1,0,0:0:0:0:
153,192,230766,128,8,230873:0:0:0:0:
256,192,230766,128,0,230873:0:0:0:0:
51,192,230873,1,8,0:0:0:0:
460,192,230873,1,0,0:0:0:0:
51,192,230980,1,2,0:0:0:0:
153,192,230980,1,4,0:0:0:0:
256,192,230980,1,0,0:0:0:0:
460,192,230980,1,0,0:0:0:0:
358,192,231087,1,0,0:0:0:0:
256,192,231194,1,0,0:0:0:0:
358,192,231301,1,8,0:0:0:0:
153,192,231301,1,0,0:0:0:0:
460,192,231301,1,0,0:0:0:0:
153,192,231408,128,8,231515:0:0:0:0:
460,192,231408,128,0,231515:0:0:0:0:
51,192,231515,1,8,0:0:0:0:
358,192,231515,1,0,0:0:0:0:
153,192,231622,1,2,0:0:0:0:
358,192,231622,128,0,231729:0:0:0:0:
51,192,231622,128,0,231729:0:0:0:0:
256,192,231729,1,0,0:0:0:0:
358,192,231836,1,0,0:0:0:0:
51,192,231943,1,8,0:0:0:0:
153,192,231943,1,0,0:0:0:0:
460,192,231943,1,0,0:0:0:0:
51,192,232050,128,8,232157:0:0:0:0:
153,192,232050,128,0,232157:0:0:0:0:
460,192,232157,1,8,0:0:0:0:
358,192,232157,1,0,0:0:0:0:
460,192,232264,128,2,232371:0:0:0:0:
358,192,232264,128,0,232371:0:0:0:0:
256,192,232264,1,0,0:0:0:0:
153,192,232371,1,0,0:0:0:0:
51,192,232478,1,0,0:0:0:0:
256,192,232585,1,8,0:0:0:0:
358,192,232585,1,0,0:0:0:0:
460,192,232585,1,0,0:0:0:0:
460,192,232692,128,8,232798:0:0:0:0:
256,192,232692,128,0,232798:0:0:0:0:
153,192,232798,1,8,0:0:0:0:
358,192,232798,1,0,0:0:0:0:
153,192,232905,128,2,233012:0:0:0:0:
358,192,232905,128,0,233012:0:0:0:0:
256,192,233012,1,0,0:0:0:0:
51,192,233012,1,0,0:0:0:0:
256,192,233119,128,0,233226:0:0:0:0:
51,192,233119,128,0,233226:0:0:0:0:
358,192,233226,1,2,0:0:0:0:
460,192,233226,1,8,0:0:0:0:
256,192,233307,1,8,0:0:0:0:
51,192,233387,1,8,0:0:0:0:
153,192,233387,1,0,0:0:0:0:
256,192,233467,1,8,0:0:0:0:
51,192,233547,1,4,0:0:0:0:
153,192,233547,1,2,0:0:0:0:
358,192,233547,1,0,0:0:0:0:
460,192,233547,1,0,0:0:0:0:
358,192,233708,1,2,0:0:0:0:
460,192,233708,1,0,0:0:0:0:
51,192,233868,128,8,233948:0:0:0:0:
256,192,233868,1,2,0:0:0:0:
153,192,233948,128,0,234028:0:0:0:0:
256,192,234028,128,2,234109:0:0:0:0:
460,192,234028,1,0,0:0:0:0:
51,192,234109,128,0,234189:0:0:0:0:
256,192,234189,128,2,234269:0:0:0:0:
460,192,234189,1,0,0:0:0:0:
51,192,234349,1,2,0:0:0:0:
153,192,234349,1,0,0:0:0:0:
153,192,234510,128,8,234590:0:0:0:0:
358,192,234510,1,2,0:0:0:0:
460,192,234510,1,0,0:0:0:0:
256,192,234590,128,0,234670:0:0:0:0:
51,192,234670,1,2,0:0:0:0:
358,192,234670,128,0,234750:0:0:0:0:
153,192,234750,128,0,234831:0:0:0:0:
51,192,234831,1,2,0:0:0:0:
358,192,234831,128,0,234911:0:0:0:0:
256,192,234991,1,2,0:0:0:0:
460,192,234991,1,0,0:0:0:0:
51,192,235151,1,8,0:0:0:0:
153,192,235151,1,2,0:0:0:0:
256,192,235151,128,0,235232:0:0:0:0:
358,192,235232,128,0,235312:0:0:0:0:
51,192,235312,1,2,0:0:0:0:
460,192,235312,128,0,235392:0:0:0:0:
256,192,235392,128,0,235472:0:0:0:0:
153,192,235472,1,2,0:0:0:0:
460,192,235472,128,0,235553:0:0:0:0:
153,192,235633,1,2,0:0:0:0:
358,192,235633,1,0,0:0:0:0:
51,192,235793,128,8,235873:0:0:0:0:
256,192,235793,1,2,0:0:0:0:
460,192,235793,1,0,0:0:0:0:
153,192,235873,128,0,235954:0:0:0:0:
256,192,235954,128,2,236034:0:0:0:0:
358,192,236034,128,0,236114:0:0:0:0:
51,192,236114,1,4,0:0:0:0:
153,192,236114,1,2,0:0:0:0:
460,192,236114,128,0,236194:0:0:0:0:
51,192,236274,1,2,0:0:0:0:
153,192,236274,1,0,0:0:0:0:
256,192,236435,128,8,236515:0:0:0:0:
358,192,236435,1,2,0:0:0:0:
460,192,236435,1,0,0:0:0:0:
51,192,236515,128,0,236595:0:0:0:0:
153,192,236595,128,2,236676:0:0:0:0:
460,192,236595,1,0,0:0:0:0:
256,192,236676,128,0,236756:0:0:0:0:
51,192,236756,1,2,0:0:0:0:
358,192,236756,128,0,236836:0:0:0:0:
256,192,236916,1,2,0:0:0:0:
460,192,236916,1,0,0:0:0:0:
51,192,237077,1,8,0:0:0:0:
358,192,237077,128,2,237157:0:0:0:0:
460,192,237077,1,0,0:0:0:0:
153,192,237157,128,0,237237:0:0:0:0:
51,192,237237,1,2,0:0:0:0:
256,192,237237,128,0,237317:0:0:0:0:
358,192,237317,128,0,237397:0:0:0:0:
51,192,237397,1,2,0:0:0:0:
153,192,237397,1,8,0:0:0:0:
460,192,237397,128,4,237478:0:0:0:0:
256,192,237478,1,2,0:0:0:0:
358,192,237558,1,2,0:0:0:0:
460,192,237638,1,2,0:0:0:0:
51,192,237718,128,8,237879:0:0:0:0:
153,192,237718,128,2,237879:0:0:0:0:
256,192,237718,128,4,237879:0:0:0:0:
358,192,237798,1,2,0:0:0:0:
460,192,237879,1,2,0:0:0:0:
51,192,237959,1,2,0:0:0:0:
153,192,238039,128,2,238200:0:0:0:0:
256,192,238039,128,8,238200:0:0:0:0:
358,192,238039,128,4,238200:0:0:0:0:
460,192,238119,1,2,0:0:0:0:
51,192,238200,1,2,0:0:0:0:
153,192,238280,1,2,0:0:0:0:
256,192,238360,128,8,238520:0:0:0:0:
358,192,238360,128,2,238520:0:0:0:0:
460,192,238360,128,4,238520:0:0:0:0:
51,192,238440,1,2,0:0:0:0:
153,192,238520,1,2,0:0:0:0:
256,192,238601,1,2,0:0:0:0:
358,192,238681,1,0,0:0:0:0:
51,192,238761,1,0,0:0:0:0:
256,192,238801,1,0,0:0:0:0:
460,192,238841,1,0,0:0:0:0:
256,192,239323,1,0,0:0:0:0:
153,192,239376,1,0,0:0:0:0:
51,192,239430,1,0,0:0:0:0:
256,192,239483,1,0,0:0:0:0:
358,192,239536,1,0,0:0:0:0:
460,192,239590,1,0,0:0:0:0:
153,192,239643,1,0,0:0:0:0:
256,192,239697,1,0,0:0:0:0:
358,192,239750,1,0,0:0:0:0:
51,192,239804,1,0,0:0:0:0:
153,192,239857,1,0,0:0:0:0:
256,192,239911,1,0,0:0:0:0:
460,192,239964,1,0,0:0:0:0:
358,192,240018,1,0,0:0:0:0:
256,192,240071,1,0,0:0:0:0:
51,192,240125,1,0,0:0:0:0:
153,192,240178,1,0,0:0:0:0:
256,192,240232,1,0,0:0:0:0:
358,192,240285,1,0,0:0:0:0:
51,192,240339,1,0,0:0:0:0:
256,192,240392,1,0,0:0:0:0:
460,192,240446,1,0,0:0:0:0:
153,192,240499,1,0,0:0:0:0:
256,192,240553,1,0,0:0:0:0:
358,192,240606,1,0,0:0:0:0:
460,192,240659,1,0,0:0:0:0:
51,192,240713,1,0,0:0:0:0:
153,192,240766,1,0,0:0:0:0:
256,192,240820,1,0,0:0:0:0:
358,192,240873,1,0,0:0:0:0:
460,192,240927,1,0,0:0:0:0:
51,192,241248,128,2,241328:0:0:0:0:
256,192,241248,1,4,0:0:0:0:
358,192,241248,128,8,241328:0:0:0:0:
460,192,241248,128,0,241408:0:0:0:0:
153,192,241328,128,8,241408:0:0:0:0:
256,192,241408,128,8,241488:0:0:0:0:
358,192,241488,128,8,241569:0:0:0:0:
51,192,241569,128,2,241649:0:0:0:0:
460,192,241569,1,8,0:0:0:0:
153,192,241649,128,8,241729:0:0:0:0:
358,192,241729,128,8,241809:0:0:0:0:
460,192,241809,128,8,241889:0:0:0:0:
51,192,241889,1,2,0:0:0:0:
153,192,241889,128,8,241970:0:0:0:0:
256,192,241970,128,8,242050:0:0:0:0:
358,192,242050,128,8,242130:0:0:0:0:
460,192,242130,128,8,242210:0:0:0:0:
51,192,242210,128,2,242290:0:0:0:0:
256,192,242210,1,8,0:0:0:0:
153,192,242290,128,8,242371:0:0:0:0:
256,192,242371,128,8,242451:0:0:0:0:
358,192,242451,128,8,242531:0:0:0:0:
153,192,242531,128,2,242611:0:0:0:0:
256,192,242531,128,8,242611:0:0:0:0:
460,192,242531,128,4,242611:0:0:0:0:
51,192,242611,128,8,242692:0:0:0:0:
256,192,242692,128,8,242772:0:0:0:0:
358,192,242692,128,0,242772:0:0:0:0:
153,192,242772,128,8,242852:0:0:0:0:
358,192,242852,128,2,242932:0:0:0:0:
460,192,242852,128,8,242932:0:0:0:0:
256,192,242932,128,8,243012:0:0:0:0:
51,192,243012,128,8,243093:0:0:0:0:
460,192,243012,128,0,243093:0:0:0:0:
358,192,243093,128,8,243173:0:0:0:0:
51,192,243173,128,2,243734:0:0:0:0:
153,192,243173,128,0,243734:0:0:0:0:
460,192,243253,128,0,243734:0:0:0:0:
358,192,243494,128,0,243734:0:0:0:0:
51,192,243815,1,2,0:0:0:0:
153,192,243815,128,4,244135:0:0:0:0:
256,192,243815,1,0,0:0:0:0:
358,192,243815,128,0,244135:0:0:0:0:
460,192,243815,1,0,0:0:0:0:
51,192,244135,1,8,0:0:0:0:
256,192,244135,1,0,0:0:0:0:
460,192,244135,1,0,0:0:0:0:
51,192,244296,128,0,245258:0:0:0:0:
153,192,244296,128,0,245258:0:0:0:0:
358,192,244456,1,2,0:0:0:0:
460,192,244456,1,0,0:0:0:0:
256,192,244617,128,0,244697:0:0:0:0:
460,192,244777,1,8,0:0:0:0:
358,192,244777,128,0,244857:0:0:0:0:
256,192,244938,1,2,0:0:0:0:
460,192,244938,128,0,245258:0:0:0:0:
256,192,245258,1,2,0:0:0:0:
358,192,245258,1,0,0:0:0:0:
51,192,245419,1,8,0:0:0:0:
153,192,245419,1,0,0:0:0:0:
256,192,245419,1,0,0:0:0:0:
51,192,245740,128,2,245900:0:0:0:0:
153,192,245740,128,0,245900:0:0:0:0:
256,192,245900,1,2,0:0:0:0:
460,192,245900,1,0,0:0:0:0:
256,192,246061,1,8,0:0:0:0:
358,192,246061,128,0,246221:0:0:0:0:
460,192,246061,128,0,246221:0:0:0:0:
153,192,246381,128,2,246702:0:0:0:0:
358,192,246381,128,0,246702:0:0:0:0:
51,192,246702,1,8,0:0:0:0:
256,192,246702,1,0,0:0:0:0:
460,192,246702,1,0,0:0:0:0:
358,192,246863,128,0,247825:0:0:0:0:
51,192,247023,1,2,0:0:0:0:
153,192,247023,1,0,0:0:0:0:
460,192,247023,128,0,247825:0:0:0:0:
153,192,247184,1,2,0:0:0:0:
256,192,247184,128,0,247264:0:0:0:0:
51,192,247344,1,8,0:0:0:0:
153,192,247344,128,0,247424:0:0:0:0:
51,192,247504,128,2,247825:0:0:0:0:
256,192,247504,1,0,0:0:0:0:
153,192,247825,1,2,0:0:0:0:
256,192,247825,1,0,0:0:0:0:
256,192,247986,1,8,0:0:0:0:
358,192,247986,1,0,0:0:0:0:
460,192,247986,1,0,0:0:0:0:
51,192,248307,128,2,248467:0:0:0:0:
153,192,248307,128,0,248467:0:0:0:0:
256,192,248467,1,2,0:0:0:0:
460,192,248467,1,0,0:0:0:0:
51,192,248627,128,8,248788:0:0:0:0:
256,192,248627,1,0,0:0:0:0:
460,192,248627,128,0,248788:0:0:0:0:
51,192,248948,1,2,0:0:0:0:
153,192,248948,1,4,0:0:0:0:
358,192,248948,128,0,249430:0:0:0:0:
460,192,248948,128,0,249430:0:0:0:0:
51,192,249269,128,8,249430:0:0:0:0:
153,192,249269,128,0,249430:0:0:0:0:
256,192,249269,1,0,0:0:0:0:
256,192,249590,1,2,0:0:0:0:
460,192,249590,128,0,249911:0:0:0:0:
51,192,249750,128,2,249911:0:0:0:0:
256,192,249750,1,0,0:0:0:0:
153,192,249911,1,8,0:0:0:0:
358,192,249911,1,0,0:0:0:0:
51,192,250071,128,2,250232:0:0:0:0:
256,192,250071,128,4,250232:0:0:0:0:
358,192,250071,1,0,0:0:0:0:
460,192,250071,1,0,0:0:0:0:
153,192,250392,128,2,250553:0:0:0:0:
358,192,250392,128,0,250553:0:0:0:0:
51,192,250553,1,8,0:0:0:0:
256,192,250553,1,0,0:0:0:0:
460,192,250553,1,0,0:0:0:0:
256,192,250713,128,2,250873:0:0:0:0:
460,192,250713,128,0,250873:0:0:0:0:
51,192,251034,1,2,0:0:0:0:
153,192,251034,1,0,0:0:0:0:
51,192,251194,1,8,0:0:0:0:
153,192,251194,1,0,0:0:0:0:
256,192,251194,128,0,251355:0:0:0:0:
358,192,251355,1,8,0:0:0:0:
460,192,251355,1,0,0:0:0:0:
256,192,251435,1,8,0:0:0:0:
51,192,251515,128,2,251676:0:0:0:0:
153,192,251515,1,4,0:0:0:0:
358,192,251515,1,0,0:0:0:0:
460,192,251515,128,0,251676:0:0:0:0:
51,192,251836,128,8,251916:0:0:0:0:
153,192,251836,1,0,0:0:0:0:
256,192,251836,128,0,251916:0:0:0:0:
358,192,251916,128,0,251996:0:0:0:0:
51,192,251996,128,0,253119:0:0:0:0:
460,192,251996,128,0,252077:0:0:0:0:
256,192,252077,128,0,252157:0:0:0:0:
153,192,252157,128,2,252237:0:0:0:0:
460,192,252157,1,0,0:0:0:0:
358,192,252237,128,0,252317:0:0:0:0:
256,192,252317,128,0,252397:0:0:0:0:
460,192,252397,128,0,252478:0:0:0:0:
153,192,252478,1,8,0:0:0:0:
358,192,252478,128,0,252558:0:0:0:0:
153,192,252638,1,2,0:0:0:0:
256,192,252638,1,4,0:0:0:0:
460,192,252638,128,0,252718:0:0:0:0:
358,192,252718,128,0,252798:0:0:0:0:
256,192,252798,128,0,252879:0:0:0:0:
460,192,252879,128,0,252959:0:0:0:0:
358,192,252959,128,2,253039:0:0:0:0:
256,192,252959,1,0,0:0:0:0:
153,192,253039,128,0,253119:0:0:0:0:
460,192,253119,128,8,253200:0:0:0:0:
358,192,253119,1,0,0:0:0:0:
256,192,253200,128,0,253280:0:0:0:0:
51,192,253280,128,4,253360:0:0:0:0:
153,192,253280,1,2,0:0:0:0:
460,192,253280,1,0,0:0:0:0:
358,192,253360,128,0,253440:0:0:0:0:
51,192,253440,128,8,253601:0:0:0:0:
153,192,253440,128,0,253520:0:0:0:0:
256,192,253440,1,0,0:0:0:0:
460,192,253520,128,0,253601:0:0:0:0:
256,192,253601,128,2,253681:0:0:0:0:
358,192,253601,1,4,0:0:0:0:
51,192,253761,1,8,0:0:0:0:
153,192,253761,1,0,0:0:0:0:
460,192,253761,128,0,253921:0:0:0:0:
51,192,253921,1,8,0:0:0:0:
153,192,253921,1,0,0:0:0:0:
256,192,254002,1,8,0:0:0:0:
51,192,254082,128,2,254563:0:0:0:0:
153,192,254082,128,4,254242:0:0:0:0:
358,192,254082,1,0,0:0:0:0:
460,192,254082,1,0,0:0:0:0:
153,192,254403,128,8,254563:0:0:0:0:
358,192,254403,128,0,254884:0:0:0:0:
460,192,254403,1,0,0:0:0:0:
51,192,254724,1,2,0:0:0:0:
153,192,254724,128,0,255205:0:0:0:0:
256,192,254724,128,0,254884:0:0:0:0:
51,192,255044,1,8,0:0:0:0:
256,192,255044,128,0,255205:0:0:0:0:
460,192,255044,128,0,255526:0:0:0:0:
153,192,255365,128,2,255526:0:0:0:0:
256,192,255365,1,0,0:0:0:0:
358,192,255365,128,0,255526:0:0:0:0:
51,192,255686,128,8,255847:0:0:0:0:
153,192,255686,1,0,0:0:0:0:
256,192,255686,128,0,256007:0:0:0:0:
358,192,255847,1,2,0:0:0:0:
460,192,255847,128,0,256007:0:0:0:0:
153,192,256167,1,2,0:0:0:0:
358,192,256167,1,0,0:0:0:0:
51,192,256328,128,8,256488:0:0:0:0:
256,192,256328,1,0,0:0:0:0:
460,192,256328,128,0,256488:0:0:0:0:
51,192,256649,1,2,0:0:0:0:
153,192,256649,1,4,0:0:0:0:
358,192,256649,128,0,256809:0:0:0:0:
460,192,256649,128,0,257130:0:0:0:0:
51,192,256970,1,8,0:0:0:0:
153,192,256970,128,0,257451:0:0:0:0:
358,192,256970,128,0,257130:0:0:0:0:
256,192,257290,128,2,257451:0:0:0:0:
358,192,257290,128,0,257772:0:0:0:0:
460,192,257290,1,0,0:0:0:0:
51,192,257451,1,2,0:0:0:0:
51,192,257611,128,8,258093:0:0:0:0:
256,192,257611,128,0,257772:0:0:0:0:
460,192,257611,1,0,0:0:0:0:
153,192,257932,128,2,258093:0:0:0:0:
358,192,257932,128,4,258093:0:0:0:0:
460,192,257932,1,0,0:0:0:0:
153,192,258253,1,8,0:0:0:0:
256,192,258253,128,0,258574:0:0:0:0:
460,192,258253,128,0,258413:0:0:0:0:
51,192,258413,128,2,258574:0:0:0:0:
358,192,258413,1,0,0:0:0:0:
153,192,258734,1,2,0:0:0:0:
358,192,258734,1,0,0:0:0:0:
51,192,258895,128,8,259055:0:0:0:0:
153,192,258895,1,0,0:0:0:0:
358,192,258895,1,0,0:0:0:0:
256,192,259055,128,0,259216:0:0:0:0:
51,192,259216,1,2,0:0:0:0:
153,192,259216,1,4,0:0:0:0:
358,192,259216,1,0,0:0:0:0:
460,192,259216,128,0,259536:0:0:0:0:
51,192,259536,128,8,259617:0:0:0:0:
153,192,259536,128,0,259617:0:0:0:0:
358,192,259536,128,0,259617:0:0:0:0:
256,192,259617,128,0,259697:0:0:0:0:
153,192,259697,128,2,259777:0:0:0:0:
358,192,259697,128,0,259777:0:0:0:0:
51,192,259777,128,0,259857:0:0:0:0:
460,192,259857,128,0,259938:0:0:0:0:
256,192,259938,128,0,260018:0:0:0:0:
51,192,260018,128,2,260098:0:0:0:0:
358,192,260018,128,0,260098:0:0:0:0:
460,192,260098,128,0,260178:0:0:0:0:
51,192,260178,128,8,260258:0:0:0:0:
153,192,260178,128,0,260258:0:0:0:0:
256,192,260258,128,0,260339:0:0:0:0:
153,192,260339,1,2,0:0:0:0:
358,192,260339,128,4,260419:0:0:0:0:
460,192,260339,128,0,260419:0:0:0:0:
51,192,260419,128,0,260499:0:0:0:0:
153,192,260499,128,0,260579:0:0:0:0:
256,192,260579,128,0,260659:0:0:0:0:
51,192,260659,128,2,260740:0:0:0:0:
460,192,260659,128,0,260740:0:0:0:0:
358,192,260740,128,0,260820:0:0:0:0:
153,192,260820,128,8,260900:0:0:0:0:
256,192,260820,128,0,260900:0:0:0:0:
358,192,260900,128,0,260980:0:0:0:0:
51,192,260980,128,2,261061:0:0:0:0:
256,192,260980,1,4,0:0:0:0:
460,192,260980,128,0,261061:0:0:0:0:
153,192,261061,128,0,261141:0:0:0:0:
256,192,261141,128,0,261221:0:0:0:0:
153,192,261221,128,0,261301:0:0:0:0:
51,192,261301,128,2,261381:0:0:0:0:
358,192,261301,1,4,0:0:0:0:
460,192,261301,128,0,261381:0:0:0:0:
256,192,261381,128,0,261462:0:0:0:0:
51,192,261462,128,8,261542:0:0:0:0:
358,192,261462,1,0,0:0:0:0:
460,192,261462,128,0,261542:0:0:0:0:
153,192,261542,128,0,261622:0:0:0:0:
256,192,261622,128,0,261702:0:0:0:0:
358,192,261702,128,0,261782:0:0:0:0:
153,192,261782,128,4,261943:0:0:0:0:
256,192,261782,1,2,0:0:0:0:
460,192,261782,128,8,261863:0:0:0:0:
51,192,261863,128,8,262023:0:0:0:0:
256,192,261943,128,8,262103:0:0:0:0:
153,192,262023,128,8,262184:0:0:0:0:
51,192,262103,1,2,0:0:0:0:
358,192,262103,128,8,262264:0:0:0:0:
256,192,262184,128,8,262344:0:0:0:0:
460,192,262264,128,8,262424:0:0:0:0:
358,192,262344,128,8,262504:0:0:0:0:
51,192,262424,128,2,262585:0:0:0:0:
256,192,262424,1,8,0:0:0:0:
460,192,262504,128,8,262665:0:0:0:0:
153,192,262585,128,8,262745:0:0:0:0:
51,192,262665,128,8,262825:0:0:0:0:
256,192,262745,128,2,262905:0:0:0:0:
460,192,262745,1,8,0:0:0:0:
153,192,262825,128,8,262986:0:0:0:0:
358,192,262905,128,8,263066:0:0:0:0:
256,192,262986,128,8,263146:0:0:0:0:
51,192,263066,1,4,0:0:0:0:
153,192,263066,1,2,0:0:0:0:
460,192,263066,128,8,263226:0:0:0:0:
358,192,263146,128,0,263307:0:0:0:0:
51,192,263226,128,0,263387:0:0:0:0:
153,192,263307,128,0,263467:0:0:0:0:
256,192,263387,128,2,263547:0:0:0:0:
460,192,263387,1,0,0:0:0:0:
358,192,263467,128,0,263627:0:0:0:0:
51,192,263547,128,0,263708:0:0:0:0:
460,192,263547,128,0,263708:0:0:0:0:
153,192,263627,128,0,263788:0:0:0:0:
256,192,263708,128,4,264109:0:0:0:0:
256,192,264189,128,0,264269:0:0:0:0:
51,192,264349,128,2,266756:0:0:0:0:
153,192,264349,1,4,0:0:0:0:
358,192,264349,1,0,0:0:0:0:
460,192,264349,128,0,266756:0:0:0:0:
256,192,264349,128,0,264510:0:0:0:0:
153,192,264670,1,8,0:0:0:0:
256,192,264670,1,0,0:0:0:0:
358,192,264670,1,0,0:0:0:0:
153,192,264831,128,0,264911:0:0:0:0:
256,192,264991,128,2,265071:0:0:0:0:
358,192,264991,1,0,0:0:0:0:
153,192,265151,1,0,0:0:0:0:
358,192,265151,128,0,265232:0:0:0:0:
153,192,265312,1,8,0:0:0:0:
256,192,265312,1,0,0:0:0:0:
358,192,265312,1,0,0:0:0:0:
153,192,265472,1,2,0:0:0:0:
256,192,265472,128,0,265553:0:0:0:0:
153,192,265793,128,2,265873:0:0:0:0:
358,192,265793,1,0,0:0:0:0:
153,192,265954,1,8,0:0:0:0:
256,192,265954,1,0,0:0:0:0:
358,192,265954,128,0,266034:0:0:0:0:
153,192,266274,1,2,0:0:0:0:
358,192,266274,128,0,266435:0:0:0:0:
153,192,266435,1,2,0:0:0:0:
256,192,266435,1,0,0:0:0:0:
153,192,266595,1,8,0:0:0:0:
256,192,266595,128,0,266756:0:0:0:0:
358,192,266595,1,0,0:0:0:0:
51,192,266916,1,2,0:0:0:0:
153,192,266916,128,0,267077:0:0:0:0:
256,192,266916,1,0,0:0:0:0:
256,192,267237,1,8,0:0:0:0:
358,192,267237,1,0,0:0:0:0:
460,192,267237,1,0,0:0:0:0:
51,192,267397,128,0,267478:0:0:0:0:
256,192,267558,128,2,267638:0:0:0:0:
460,192,267558,1,0,0:0:0:0:
51,192,267718,1,2,0:0:0:0:
460,192,267718,128,0,267798:0:0:0:0:
153,192,267879,1,8,0:0:0:0:
358,192,267879,1,0,0:0:0:0:
460,192,267879,1,0,0:0:0:0:
51,192,268039,1,2,0:0:0:0:
256,192,268039,128,0,268119:0:0:0:0:
51,192,268360,128,2,268440:0:0:0:0:
256,192,268360,1,0,0:0:0:0:
153,192,268520,1,8,0:0:0:0:
358,192,268520,1,0,0:0:0:0:
460,192,268520,128,0,268601:0:0:0:0:
256,192,268841,1,2,0:0:0:0:
460,192,268841,128,0,269002:0:0:0:0:
51,192,269002,1,2,0:0:0:0:
153,192,269002,1,0,0:0:0:0:
256,192,269162,128,8,269323:0:0:0:0:
358,192,269162,1,0,0:0:0:0:
460,192,269162,1,0,0:0:0:0:
51,192,269483,128,2,269964:0:0:0:0:
153,192,269483,128,4,269964:0:0:0:0:
358,192,269483,1,0,0:0:0:0:
460,192,269483,1,0,0:0:0:0:
256,192,269804,1,8,0:0:0:0:
358,192,269804,128,0,269964:0:0:0:0:
460,192,269804,128,0,269964:0:0:0:0:
153,192,270125,128,2,270446:0:0:0:0:
358,192,270125,1,0,0:0:0:0:
256,192,270285,128,2,270606:0:0:0:0:
460,192,270285,1,0,0:0:0:0:
51,192,270446,1,8,0:0:0:0:
358,192,270446,128,0,270766:0:0:0:0:
51,192,270606,128,2,271408:0:0:0:0:
153,192,270606,1,4,0:0:0:0:
460,192,270606,128,0,271087:0:0:0:0:
153,192,270927,1,2,0:0:0:0:
256,192,270927,1,0,0:0:0:0:
358,192,271087,1,8,0:0:0:0:
153,192,271087,1,0,0:0:0:0:
358,192,271248,128,2,271408:0:0:0:0:
460,192,271248,128,0,271889:0:0:0:0:
153,192,271569,128,2,271889:0:0:0:0:
51,192,271569,128,0,271889:0:0:0:0:
256,192,271729,1,8,0:0:0:0:
358,192,271729,1,0,0:0:0:0:
51,192,272050,1,2,0:0:0:0:
256,192,272050,1,4,0:0:0:0:
358,192,272050,128,0,272371:0:0:0:0:
460,192,272050,128,0,272371:0:0:0:0:
51,192,272371,128,8,273012:0:0:0:0:
153,192,272371,1,0,0:0:0:0:
256,192,272371,1,0,0:0:0:0:
153,192,272531,128,0,273012:0:0:0:0:
358,192,272692,1,2,0:0:0:0:
460,192,272692,1,0,0:0:0:0:
358,192,272852,1,2,0:0:0:0:
460,192,272852,128,0,273654:0:0:0:0:
256,192,273012,1,8,0:0:0:0:
358,192,273012,128,0,273494:0:0:0:0:
51,192,273173,1,4,0:0:0:0:
153,192,273173,1,2,0:0:0:0:
256,192,273173,128,0,273333:0:0:0:0:
51,192,273494,128,2,273975:0:0:0:0:
153,192,273494,1,0,0:0:0:0:
153,192,273654,128,8,273975:0:0:0:0:
256,192,273654,1,0,0:0:0:0:
256,192,273815,128,4,273975:0:0:0:0:
358,192,273815,1,2,0:0:0:0:
460,192,273815,1,0,0:0:0:0:
460,192,273975,1,8,0:0:0:0:
51,192,274135,1,2,0:0:0:0:
256,192,274135,1,4,0:0:0:0:
51,192,274296,1,8,0:0:0:0:
256,192,274296,1,0,0:0:0:0:
460,192,274296,1,0,0:0:0:0:
153,192,274456,1,8,0:0:0:0:
358,192,274456,1,0,0:0:0:0:
256,192,274536,1,8,0:0:0:0:
51,192,274617,1,2,0:0:0:0:
153,192,274617,128,4,274938:0:0:0:0:
358,192,274617,1,0,0:0:0:0:
460,192,274617,1,0,0:0:0:0:
51,192,274938,128,8,275018:0:0:0:0:
358,192,274938,128,0,275018:0:0:0:0:
460,192,274938,128,0,275018:0:0:0:0:
153,192,275018,128,0,275098:0:0:0:0:
256,192,275098,128,0,275178:0:0:0:0:
51,192,275178,128,0,275258:0:0:0:0:
256,192,275258,128,2,275339:0:0:0:0:
460,192,275258,128,0,275339:0:0:0:0:
358,192,275339,128,0,275419:0:0:0:0:
51,192,275419,128,2,275499:0:0:0:0:
460,192,275419,128,0,275499:0:0:0:0:
153,192,275499,128,0,275579:0:0:0:0:
256,192,275579,128,8,275659:0:0:0:0:
358,192,275579,128,0,275659:0:0:0:0:
460,192,275579,128,0,275659:0:0:0:0:
153,192,275659,128,0,275740:0:0:0:0:
51,192,275740,128,2,275820:0:0:0:0:
358,192,275740,128,0,275820:0:0:0:0:
256,192,275820,128,0,275900:0:0:0:0:
51,192,275900,128,2,275980:0:0:0:0:
460,192,275900,128,0,275980:0:0:0:0:
51,192,276221,1,8,0:0:0:0:
256,192,276221,1,0,0:0:0:0:
460,192,276221,1,0,0:0:0:0:
153,192,276381,128,2,276462:0:0:0:0:
358,192,276381,128,0,276462:0:0:0:0:
256,192,276462,128,0,276542:0:0:0:0:
153,192,276542,128,0,276622:0:0:0:0:
358,192,276542,128,0,276622:0:0:0:0:
51,192,276702,1,2,0:0:0:0:
460,192,276702,1,0,0:0:0:0:
51,192,276863,1,8,0:0:0:0:
256,192,276863,1,0,0:0:0:0:
460,192,276863,1,0,0:0:0:0:
358,192,276943,1,0,0:0:0:0:
256,192,277023,1,0,0:0:0:0:
153,192,277103,1,0,0:0:0:0:
51,192,277184,1,2,0:0:0:0:
256,192,277184,128,4,277504:0:0:0:0:
358,192,277184,1,0,0:0:0:0:
460,192,277184,1,0,0:0:0:0:
51,192,277504,128,8,277585:0:0:0:0:
153,192,277504,128,0,277585:0:0:0:0:
460,192,277504,128,0,277585:0:0:0:0:
358,192,277585,128,0,277665:0:0:0:0:
256,192,277665,128,0,277745:0:0:0:0:
460,192,277745,128,0,277825:0:0:0:0:
51,192,277825,128,2,277905:0:0:0:0:
256,192,277825,128,0,277905:0:0:0:0:
153,192,277905,128,0,277986:0:0:0:0:
51,192,277986,128,2,278066:0:0:0:0:
460,192,277986,128,0,278066:0:0:0:0:
358,192,278066,128,0,278146:0:0:0:0:
51,192,278146,128,8,278226:0:0:0:0:
153,192,278146,128,0,278226:0:0:0:0:
256,192,278146,128,0,278226:0:0:0:0:
358,192,278226,128,0,278307:0:0:0:0:
153,192,278307,128,2,278387:0:0:0:0:
460,192,278307,128,0,278387:0:0:0:0:
256,192,278387,128,0,278467:0:0:0:0:
51,192,278467,128,2,278547:0:0:0:0:
358,192,278467,128,4,278547:0:0:0:0:
460,192,278467,128,0,278547:0:0:0:0:
51,192,278788,1,8,0:0:0:0:
256,192,278788,1,0,0:0:0:0:
460,192,278788,1,0,0:0:0:0:
153,192,278948,128,2,279028:0:0:0:0:
358,192,278948,128,0,279028:0:0:0:0:
256,192,279028,128,0,279109:0:0:0:0:
51,192,279109,128,4,279349:0:0:0:0:
153,192,279109,128,0,279189:0:0:0:0:
358,192,279109,128,0,279189:0:0:0:0:
256,192,279269,1,2,0:0:0:0:
460,192,279269,1,0,0:0:0:0:
51,192,279430,1,8,0:0:0:0:
256,192,279430,1,0,0:0:0:0:
460,192,279430,128,0,279670:0:0:0:0:
51,192,279750,1,2,0:0:0:0:
153,192,279750,128,4,279911:0:0:0:0:
358,192,279750,1,0,0:0:0:0:
460,192,279750,1,0,0:0:0:0:
256,192,279911,1,2,0:0:0:0:
358,192,279911,1,0,0:0:0:0:
153,192,280071,1,8,0:0:0:0:
256,192,280071,1,0,0:0:0:0:
460,192,280071,1,0,0:0:0:0:
51,192,280232,1,2,0:0:0:0:
153,192,280232,1,0,0:0:0:0:
358,192,280232,128,0,280392:0:0:0:0:
358,192,280553,1,2,0:0:0:0:
460,192,280553,1,0,0:0:0:0:
51,192,280713,1,8,0:0:0:0:
153,192,280713,1,0,0:0:0:0:
358,192,280713,128,0,280873:0:0:0:0:
51,192,280873,1,2,0:0:0:0:
256,192,280873,1,4,0:0:0:0:
460,192,280873,1,0,0:0:0:0:
153,192,281034,1,2,0:0:0:0:
256,192,281034,1,0,0:0:0:0:
51,192,281194,128,2,281355:0:0:0:0:
153,192,281194,1,4,0:0:0:0:
460,192,281194,1,0,0:0:0:0:
358,192,281355,1,8,0:0:0:0:
256,192,281355,1,0,0:0:0:0:
256,192,281515,1,2,0:0:0:0:
153,192,281515,1,0,0:0:0:0:
51,192,281676,128,4,281916:0:0:0:0:
460,192,281676,1,2,0:0:0:0:
358,192,281676,1,0,0:0:0:0:
358,192,281836,1,2,0:0:0:0:
256,192,281836,1,4,0:0:0:0:
256,192,281996,1,8,0:0:0:0:
51,192,281996,1,0,0:0:0:0:
460,192,281996,128,0,282237:0:0:0:0:
51,192,282317,1,4,0:0:0:0:
153,192,282317,1,2,0:0:0:0:
256,192,282317,128,0,282638:0:0:0:0:
460,192,282317,1,0,0:0:0:0:
358,192,282478,1,2,0:0:0:0:
51,192,282638,128,8,282798:0:0:0:0:
153,192,282638,1,0,0:0:0:0:
460,192,282638,1,0,0:0:0:0:
256,192,282798,128,2,282959:0:0:0:0:
358,192,282798,1,0,0:0:0:0:
51,192,282959,1,8,0:0:0:0:
153,192,282959,1,0,0:0:0:0:
460,192,282959,1,0,0:0:0:0:
256,192,283119,128,2,283280:0:0:0:0:
358,192,283119,1,0,0:0:0:0:
51,192,283280,1,8,0:0:0:0:
460,192,283280,128,0,283440:0:0:0:0:
51,192,283440,128,2,284082:0:0:0:0:
153,192,283440,128,4,283921:0:0:0:0:
256,192,283440,128,0,283761:0:0:0:0:
358,192,283440,1,0,0:0:0:0:
460,192,283761,128,2,284323:0:0:0:0:
358,192,283921,128,8,284323:0:0:0:0:
256,192,284082,128,2,284323:0:0:0:0:
51,192,284242,128,4,284323:0:0:0:0:
153,192,284242,128,2,284323:0:0:0:0:
51,192,284403,128,2,284483:0:0:0:0:
153,192,284403,128,4,284483:0:0:0:0:
358,192,284403,128,0,284483:0:0:0:0:
460,192,284403,128,0,284483:0:0:0:0:
51,192,284563,128,8,284643:0:0:0:0:
256,192,284563,1,0,0:0:0:0:
460,192,284563,1,0,0:0:0:0:
153,192,284643,128,8,284724:0:0:0:0:
256,192,284724,128,8,284804:0:0:0:0:
460,192,284724,1,0,0:0:0:0:
358,192,284804,128,8,284884:0:0:0:0:
51,192,284884,1,4,0:0:0:0:
153,192,284884,1,2,0:0:0:0:
256,192,284884,1,0,0:0:0:0:
460,192,284884,128,0,286649:0:0:0:0:
51,192,285205,128,8,285285:0:0:0:0:
153,192,285205,1,0,0:0:0:0:
256,192,285205,1,0,0:0:0:0:
256,192,285365,1,2,0:0:0:0:
51,192,285526,1,8,0:0:0:0:
153,192,285526,128,0,285606:0:0:0:0:
358,192,285526,1,0,0:0:0:0:
358,192,285686,1,2,0:0:0:0:
51,192,285847,1,8,0:0:0:0:
153,192,285847,1,0,0:0:0:0:
256,192,285847,128,0,285927:0:0:0:0:
51,192,286007,1,2,0:0:0:0:
153,192,286167,1,8,0:0:0:0:
256,192,286167,1,0,0:0:0:0:
358,192,286167,128,0,286248:0:0:0:0:
153,192,286328,1,2,0:0:0:0:
51,192,286488,128,8,286569:0:0:0:0:
256,192,286488,1,0,0:0:0:0:
358,192,286488,1,0,0:0:0:0:
256,192,286649,1,2,0:0:0:0:
51,192,286809,128,8,286970:0:0:0:0:
153,192,286809,128,0,286889:0:0:0:0:
358,192,286809,1,0,0:0:0:0:
460,192,286809,1,0,0:0:0:0:
358,192,286970,1,2,0:0:0:0:
51,192,287130,1,8,0:0:0:0:
153,192,287130,1,0,0:0:0:0:
256,192,287130,128,0,287210:0:0:0:0:
460,192,287130,128,0,287290:0:0:0:0:
51,192,287290,1,2,0:0:0:0:
153,192,287451,1,8,0:0:0:0:
256,192,287451,1,0,0:0:0:0:
358,192,287451,128,0,287531:0:0:0:0:
460,192,287451,128,0,287611:0:0:0:0:
153,192,287611,1,2,0:0:0:0:
51,192,287772,1,8,0:0:0:0:
256,192,287772,1,0,0:0:0:0:
358,192,287772,128,0,287932:0:0:0:0:
460,192,287772,128,0,287852:0:0:0:0:
51,192,287932,128,2,289216:0:0:0:0:
256,192,287932,1,0,0:0:0:0:
153,192,288093,128,8,288173:0:0:0:0:
358,192,288093,1,0,0:0:0:0:
460,192,288093,1,0,0:0:0:0:
358,192,288253,1,2,0:0:0:0:
153,192,288413,1,8,0:0:0:0:
256,192,288413,128,0,288494:0:0:0:0:
460,192,288413,1,0,0:0:0:0:
460,192,288574,1,2,0:0:0:0:
153,192,288734,1,8,0:0:0:0:
256,192,288734,1,0,0:0:0:0:
358,192,288734,128,0,288815:0:0:0:0:
153,192,288895,1,2,0:0:0:0:
256,192,289055,1,8,0:0:0:0:
358,192,289055,1,0,0:0:0:0:
460,192,289055,128,0,289135:0:0:0:0:
256,192,289216,1,2,0:0:0:0:
51,192,289376,128,8,289536:0:0:0:0:
153,192,289376,128,0,289456:0:0:0:0:
358,192,289376,1,0,0:0:0:0:
460,192,289376,1,0,0:0:0:0:
358,192,289536,1,2,0:0:0:0:
153,192,289697,128,8,289857:0:0:0:0:
256,192,289697,128,0,289777:0:0:0:0:
460,192,289697,1,0,0:0:0:0:
51,192,289777,1,8,0:0:0:0:
460,192,289857,1,2,0:0:0:0:
51,192,290018,1,4,0:0:0:0:
153,192,290018,1,2,0:0:0:0:
256,192,290018,128,0,290499:0:0:0:0:
358,192,290018,128,0,290098:0:0:0:0:
51,192,290339,1,8,0:0:0:0:
153,192,290339,1,0,0:0:0:0:
460,192,290339,1,0,0:0:0:0:
51,192,290659,128,2,290820:0:0:0:0:
256,192,290659,1,0,0:0:0:0:
256,192,290820,1,2,0:0:0:0:
460,192,290820,128,0,290980:0:0:0:0:
51,192,290980,1,8,0:0:0:0:
153,192,290980,1,0,0:0:0:0:
358,192,290980,1,0,0:0:0:0:
153,192,291141,1,2,0:0:0:0:
256,192,291141,128,4,291462:0:0:0:0:
358,192,291141,1,0,0:0:0:0:
460,192,291141,1,0,0:0:0:0:
51,192,291462,1,2,0:0:0:0:
153,192,291462,1,0,0:0:0:0:
256,192,291622,1,8,0:0:0:0:
358,192,291622,128,0,291782:0:0:0:0:
460,192,291622,1,0,0:0:0:0:
51,192,291943,1,2,0:0:0:0:
153,192,291943,128,4,292103:0:0:0:0:
256,192,291943,1,0,0:0:0:0:
51,192,292264,1,8,0:0:0:0:
256,192,292264,128,0,294028:0:0:0:0:
460,192,292264,1,0,0:0:0:0:
51,192,292585,1,2,0:0:0:0:
153,192,292585,1,4,0:0:0:0:
358,192,292585,1,0,0:0:0:0:
460,192,292585,1,0,0:0:0:0:
51,192,292905,1,8,0:0:0:0:
153,192,292905,1,0,0:0:0:0:
460,192,292905,128,0,293226:0:0:0:0:
51,192,293226,1,2,0:0:0:0:
153,192,293226,1,0,0:0:0:0:
51,192,293387,1,2,0:0:0:0:
153,192,293387,1,0,0:0:0:0:
358,192,293547,1,8,0:0:0:0:
460,192,293547,1,0,0:0:0:0:
51,192,293708,128,4,294028:0:0:0:0:
153,192,293708,1,2,0:0:0:0:
358,192,293708,1,0,0:0:0:0:
460,192,293708,128,0,294028:0:0:0:0:
153,192,294028,1,2,0:0:0:0:
358,192,294028,1,0,0:0:0:0:
153,192,294189,128,8,294349:0:0:0:0:
256,192,294189,1,0,0:0:0:0:
358,192,294189,1,0,0:0:0:0:
51,192,294349,1,2,0:0:0:0:
460,192,294349,1,0,0:0:0:0:
51,192,294510,1,8,0:0:0:0:
358,192,294510,128,4,294670:0:0:0:0:
460,192,294510,1,0,0:0:0:0:
153,192,294590,1,0,0:0:0:0:
256,192,294670,1,2,0:0:0:0:
358,192,294750,1,0,0:0:0:0:
153,192,294831,1,8,0:0:0:0:
460,192,294831,1,0,0:0:0:0:
51,192,294911,1,8,0:0:0:0:
358,192,294911,1,0,0:0:0:0:
256,192,294991,1,2,0:0:0:0:
153,192,295071,1,0,0:0:0:0:
460,192,295071,1,0,0:0:0:0:
51,192,295151,128,4,295312:0:0:0:0:
256,192,295151,1,2,0:0:0:0:
358,192,295151,1,0,0:0:0:0:
256,192,295312,1,2,0:0:0:0:
358,192,295312,1,0,0:0:0:0:
51,192,295472,1,8,0:0:0:0:
153,192,295472,128,0,295633:0:0:0:0:
460,192,295472,1,0,0:0:0:0:
256,192,295633,1,2,0:0:0:0:
358,192,295713,1,2,0:0:0:0:
51,192,295793,1,2,0:0:0:0:
256,192,295793,128,0,295954:0:0:0:0:
460,192,295793,1,0,0:0:0:0:
51,192,295954,1,2,0:0:0:0:
460,192,295954,1,0,0:0:0:0:
153,192,296114,1,8,0:0:0:0:
256,192,296114,1,0,0:0:0:0:
358,192,296114,128,0,296274:0:0:0:0:
153,192,296274,1,2,0:0:0:0:
51,192,296274,1,0,0:0:0:0:
153,192,296435,128,4,296595:0:0:0:0:
358,192,296435,1,2,0:0:0:0:
460,192,296435,1,0,0:0:0:0:
358,192,296595,1,2,0:0:0:0:
460,192,296595,1,0,0:0:0:0:
51,192,296756,1,8,0:0:0:0:
153,192,296756,1,0,0:0:0:0:
256,192,296756,128,0,296916:0:0:0:0:
358,192,296916,1,2,0:0:0:0:
256,192,296996,1,2,0:0:0:0:
51,192,297077,1,2,0:0:0:0:
153,192,297077,1,0,0:0:0:0:
358,192,297077,128,0,297237:0:0:0:0:
460,192,297237,1,2,0:0:0:0:
51,192,297237,1,0,0:0:0:0:
153,192,297397,1,8,0:0:0:0:
256,192,297397,1,0,0:0:0:0:
460,192,297397,128,0,297558:0:0:0:0:
153,192,297558,1,2,0:0:0:0:
51,192,297558,1,0,0:0:0:0:
51,192,297718,128,2,298200:0:0:0:0:
256,192,297718,1,4,0:0:0:0:
358,192,297718,1,0,0:0:0:0:
256,192,297879,1,2,0:0:0:0:
153,192,298039,1,8,0:0:0:0:
358,192,298039,1,0,0:0:0:0:
460,192,298039,1,0,0:0:0:0:
358,192,298200,1,2,0:0:0:0:
256,192,298280,1,8,0:0:0:0:
51,192,298360,1,2,0:0:0:0:
153,192,298360,1,4,0:0:0:0:
460,192,298360,128,0,298841:0:0:0:0:
153,192,298520,1,2,0:0:0:0:
51,192,298681,1,8,0:0:0:0:
256,192,298681,1,0,0:0:0:0:
358,192,298681,1,0,0:0:0:0:
256,192,298841,1,2,0:0:0:0:
358,192,298921,1,2,0:0:0:0:
51,192,299002,128,4,299162:0:0:0:0:
153,192,299002,128,2,299162:0:0:0:0:
460,192,299002,1,0,0:0:0:0:
256,192,299162,1,2,0:0:0:0:
358,192,299162,1,0,0:0:0:0:
153,192,299323,128,8,299483:0:0:0:0:
256,192,299323,128,0,299483:0:0:0:0:
460,192,299323,1,0,0:0:0:0:
51,192,299483,1,2,0:0:0:0:
153,192,299563,1,2,0:0:0:0:
256,192,299643,128,8,299804:0:0:0:0:
358,192,299643,128,4,299804:0:0:0:0:
460,192,299643,1,0,0:0:0:0:
51,192,299804,1,2,0:0:0:0:
153,192,299804,1,0,0:0:0:0:
153,192,299964,1,8,0:0:0:0:
358,192,299964,128,0,300125:0:0:0:0:
460,192,299964,128,0,300125:0:0:0:0:
51,192,300125,1,8,0:0:0:0:
153,192,300205,1,8,0:0:0:0:
256,192,300285,128,2,300365:0:0:0:0:
358,192,300285,128,4,300365:0:0:0:0:
460,192,300285,128,0,300365:0:0:0:0:
153,192,300365,128,2,300446:0:0:0:0:
51,192,300446,128,2,300526:0:0:0:0:
460,192,300446,128,8,300526:0:0:0:0:
358,192,300526,128,2,300606:0:0:0:0:
51,192,300606,128,2,300686:0:0:0:0:
153,192,300606,128,4,300686:0:0:0:0:
256,192,300606,128,0,300686:0:0:0:0:
358,192,300686,128,2,300766:0:0:0:0:
153,192,300766,128,2,300847:0:0:0:0:
460,192,300766,128,8,300847:0:0:0:0:
51,192,300847,128,2,300927:0:0:0:0:
256,192,300847,128,0,300927:0:0:0:0:
358,192,300927,128,2,301007:0:0:0:0:
460,192,300927,128,4,301007:0:0:0:0:
153,192,301007,128,2,301087:0:0:0:0:
51,192,301087,128,2,301167:0:0:0:0:
358,192,301087,128,8,301167:0:0:0:0:
256,192,301167,128,2,301248:0:0:0:0:
51,192,301248,128,2,301328:0:0:0:0:
153,192,301248,128,4,301328:0:0:0:0:
460,192,301248,128,0,301328:0:0:0:0:
358,192,301328,128,2,301408:0:0:0:0:
51,192,301408,128,2,301488:0:0:0:0:
153,192,301408,128,8,301488:0:0:0:0:
358,192,301488,128,2,301569:0:0:0:0:
460,192,301488,128,0,301569:0:0:0:0:
51,192,301569,128,2,301649:0:0:0:0:
153,192,301569,128,4,301649:0:0:0:0:
256,192,301569,128,0,301649:0:0:0:0:
358,192,301649,128,2,301729:0:0:0:0:
51,192,301729,128,2,301809:0:0:0:0:
460,192,301729,128,8,301809:0:0:0:0:
153,192,301809,128,2,301889:0:0:0:0:
256,192,301889,128,2,301970:0:0:0:0:
358,192,301889,128,4,301970:0:0:0:0:
460,192,301889,128,0,301970:0:0:0:0:
153,192,301970,128,2,302050:0:0:0:0:
51,192,302050,128,2,302130:0:0:0:0:
358,192,302050,128,8,302130:0:0:0:0:
256,192,302130,128,2,302210:0:0:0:0:
460,192,302130,128,0,302210:0:0:0:0:
51,192,302210,128,2,302290:0:0:0:0:
153,192,302210,128,4,302290:0:0:0:0:
358,192,302290,128,2,302371:0:0:0:0:
51,192,302371,128,2,302451:0:0:0:0:
256,192,302371,128,8,302451:0:0:0:0:
460,192,302451,128,2,302531:0:0:0:0:
358,192,302531,128,2,302611:0:0:0:0:
153,192,302531,128,4,302611:0:0:0:0:
51,192,302611,128,2,302692:0:0:0:0:
460,192,302692,128,2,302772:0:0:0:0:
256,192,302692,128,8,302772:0:0:0:0:
153,192,302772,128,2,302852:0:0:0:0:
460,192,302852,128,6,302932:0:0:0:0:
51,192,302852,128,0,302932:0:0:0:0:
358,192,302905,128,0,302986:0:0:0:0:
256,192,302959,128,0,303039:0:0:0:0:
153,192,303012,128,0,303093:0:0:0:0:
51,192,303066,128,0,303146:0:0:0:0:
358,192,303119,128,0,303200:0:0:0:0:
256,192,303173,128,6,303253:0:0:0:0:
153,192,303226,128,0,303307:0:0:0:0:
460,192,303280,128,0,303360:0:0:0:0:
358,192,303333,128,0,303413:0:0:0:0:
256,192,303387,128,0,303467:0:0:0:0:
51,192,303440,128,0,303520:0:0:0:0:
153,192,303494,128,6,303574:0:0:0:0:
256,192,303547,128,0,303627:0:0:0:0:
358,192,303601,128,0,303681:0:0:0:0:
460,192,303654,128,0,303734:0:0:0:0:
153,192,303708,128,0,303788:0:0:0:0:
256,192,303761,128,0,303841:0:0:0:0:
358,192,303815,128,6,303895:0:0:0:0:
51,192,303868,128,0,303948:0:0:0:0:
153,192,303921,128,0,304002:0:0:0:0:
256,192,303975,128,0,304055:0:0:0:0:
358,192,304028,128,0,304109:0:0:0:0:
460,192,304082,128,0,304168:0:0:0:0:
51,192,304135,128,2,307345:0:0:0:0:
153,192,304135,128,4,307345:0:0:0:0:
256,192,304135,128,0,307345:0:0:0:0:
51,192,308951,1,0,0:0:0:0:
256,192,308979,1,0,0:0:0:0:
256,192,309627,1,0,0:0:0:0:
358,192,309695,1,0,0:0:0:0:
358,192,310127,1,0,0:0:0:0:
460,192,310172,1,0,0:0:0:0:
358,192,310616,1,0,0:0:0:0:
256,192,311014,1,0,0:0:0:0:
153,192,311426,1,0,0:0:0:0:
358,192,311718,1,0,0:0:0:0:
256,192,311968,1,0,0:0:0:0:
153,192,312238,1,0,0:0:0:0:
51,192,312498,1,0,0:0:0:0:
460,192,312770,1,0,0:0:0:0:
256,192,313055,1,0,0:0:0:0:
51,192,313311,1,0,0:0:0:0:
153,192,314000,1,0,0:0:0:0:
256,192,314138,1,0,0:0:0:0:
358,192,314184,1,0,0:0:0:0:
460,192,314231,1,0,0:0:0:0:
