osu file format v14

[General]
AudioFilename: audio.mp3
AudioLeadIn: 0
PreviewTime: 77715
Countdown: 0
SampleSet: None
StackLeniency: 0.7
Mode: 3
LetterboxInBreaks: 0
SpecialStyle: 0
WidescreenStoryboard: 1

[Editor]
DistanceSpacing: 0.8
BeatDivisor: 2
GridSize: 16
TimelineZoom: 1.6

[Metadata]
Title:Codename:Yuria
TitleUnicode:Codename:Yuria
Artist:Sound piercer
ArtistUnicode:Sound piercer
Creator:SeonRae
Version:Normal
Source:RIDE ZERO
Tags:
BeatmapID:1671714
BeatmapSetID:796093

[Difficulty]
HPDrainRate:6
CircleSize:4
OverallDifficulty:6
ApproachRate:5
SliderMultiplier:1.4
SliderTickRate:1

[Events]
//Background and Video events
0,0,"maxresdefault (1).jpg",0,0
//Break Periods
2,9046,11622
//Storyboard Layer 0 (Background)
//Storyboard Layer 1 (Fail)
//Storyboard Layer 2 (Pass)
//Storyboard Layer 3 (Foreground)
//Storyboard Sound Samples

[TimingPoints]
891,331.491712707182,4,2,2,30,1,0
30062,-100,4,1,2,30,0,0
35366,-100,4,2,2,30,0,0
73819,-100,4,1,2,30,0,0
75145,-100,4,2,2,30,0,0
93708,-100,4,1,2,30,0,0
96360,-100,4,2,2,30,0,0
101664,-100,4,1,2,30,0,0
109620,-100,4,1,2,15,0,0
109951,-100,4,1,2,10,0,0
110283,-100,4,1,2,5,0,0
110531,-100,4,2,2,30,0,0

[HitObjects]
64,192,2216,128,4,5200:0:0:0:0:
448,192,2216,128,0,5200:1:0:0:0:
448,192,6194,1,4,0:0:0:0:
64,192,6194,1,0,1:0:0:0:
448,192,6443,1,4,0:0:0:0:
64,192,6443,1,0,1:0:0:0:
320,192,6692,128,0,7023:1:0:0:0:
192,192,7023,1,0,1:0:0:0:
320,192,7189,1,0,1:0:0:0:
192,192,7355,1,0,1:0:0:0:
448,192,7520,1,0,1:0:0:0:
64,192,7686,1,0,1:0:0:0:
448,192,7852,1,0,1:0:0:0:
64,192,8018,1,0,1:0:0:0:
448,192,8183,1,0,1:0:0:0:
64,192,8349,1,0,1:0:0:0:
448,192,8515,1,0,1:0:0:0:
192,192,8846,1,0,1:0:0:0:
320,192,8846,1,4,0:0:0:0:
320,192,12824,5,0,0:0:0:0:
192,192,13321,5,0,0:0:0:0:
64,192,13487,1,0,0:0:0:0:
192,192,13653,1,0,0:0:0:0:
320,192,13819,1,0,0:0:0:0:
448,192,13984,1,0,0:0:0:0:
192,192,14150,1,4,0:0:0:0:
64,192,14150,1,0,1:0:0:0:
448,192,14316,1,0,0:0:0:0:
64,192,14482,1,0,1:0:0:0:
320,192,14647,1,0,0:0:0:0:
64,192,14813,1,0,1:0:0:0:
448,192,14979,1,0,0:0:0:0:
64,192,15145,1,0,1:0:0:0:
320,192,15310,1,0,0:0:0:0:
64,192,15476,1,0,1:0:0:0:
448,192,15642,1,0,0:0:0:0:
64,192,15808,1,0,1:0:0:0:
320,192,15973,1,0,0:0:0:0:
64,192,16139,1,0,1:0:0:0:
448,192,16305,1,0,0:0:0:0:
64,192,16471,1,0,1:0:0:0:
320,192,16636,1,0,0:0:0:0:
64,192,16802,1,0,1:0:0:0:
448,192,16968,1,0,0:0:0:0:
64,192,17134,1,0,1:0:0:0:
320,192,17299,1,0,0:0:0:0:
64,192,17465,1,0,1:0:0:0:
448,192,17631,1,0,0:0:0:0:
64,192,17797,1,0,1:0:0:0:
320,192,17962,1,0,0:0:0:0:
64,192,18128,1,0,1:0:0:0:
192,192,18128,1,0,0:0:0:0:
448,192,18294,1,0,0:0:0:0:
64,192,18460,1,0,1:0:0:0:
320,192,18625,1,0,0:0:0:0:
448,192,18625,1,0,0:0:0:0:
192,192,18957,1,0,0:0:0:0:
320,192,19288,1,0,0:0:0:0:
448,192,19454,1,0,1:0:0:0:
64,192,19454,1,0,0:0:0:0:
192,192,19620,1,0,0:0:0:0:
448,192,19786,1,0,1:0:0:0:
64,192,19951,1,0,0:0:0:0:
448,192,20117,1,0,1:0:0:0:
192,192,20283,1,0,0:0:0:0:
448,192,20449,1,0,1:0:0:0:
64,192,20614,1,0,0:0:0:0:
448,192,20780,1,0,1:0:0:0:
192,192,20946,1,0,0:0:0:0:
448,192,21111,1,0,1:0:0:0:
64,192,21277,1,0,0:0:0:0:
448,192,21443,1,0,1:0:0:0:
192,192,21609,1,0,0:0:0:0:
448,192,21774,1,0,1:0:0:0:
64,192,21940,1,0,0:0:0:0:
448,192,22106,1,0,1:0:0:0:
192,192,22272,1,0,0:0:0:0:
448,192,22437,1,0,1:0:0:0:
64,192,22603,1,0,0:0:0:0:
448,192,22769,1,0,1:0:0:0:
192,192,22935,1,0,0:0:0:0:
448,192,23100,1,0,1:0:0:0:
64,192,23266,1,0,0:0:0:0:
320,192,23432,1,0,0:0:0:0:
448,192,23432,1,0,1:0:0:0:
64,192,23598,1,0,0:0:0:0:
448,192,23763,1,0,1:0:0:0:
64,192,23929,1,0,0:0:0:0:
192,192,23929,1,0,0:0:0:0:
320,192,24095,1,4,0:0:0:0:
448,192,24095,1,0,1:0:0:0:
192,192,24261,1,0,0:0:0:0:
448,192,24426,128,0,24758:1:0:0:0:
64,192,24426,1,0,0:0:0:0:
192,192,24592,1,0,0:0:0:0:
64,192,24758,1,4,0:0:0:0:
320,192,24924,1,0,0:0:0:0:
192,192,25089,1,0,1:0:0:0:
320,192,25255,1,0,0:0:0:0:
64,192,25421,1,0,1:0:0:0:
320,192,25587,1,0,0:0:0:0:
192,192,25752,1,0,1:0:0:0:
320,192,25918,1,0,0:0:0:0:
64,192,26084,1,0,1:0:0:0:
320,192,26250,1,0,0:0:0:0:
192,192,26415,1,0,1:0:0:0:
320,192,26581,1,0,0:0:0:0:
64,192,26747,1,0,1:0:0:0:
320,192,26913,1,0,0:0:0:0:
192,192,27078,1,0,1:0:0:0:
320,192,27244,1,0,0:0:0:0:
64,192,27410,1,0,1:0:0:0:
320,192,27576,1,0,0:0:0:0:
192,192,27741,1,0,1:0:0:0:
320,192,27907,1,0,0:0:0:0:
64,192,28073,1,0,1:0:0:0:
320,192,28239,1,0,0:0:0:0:
192,192,28404,1,0,1:0:0:0:
320,192,28570,1,0,0:0:0:0:
64,192,28736,1,0,1:0:0:0:
320,192,28902,1,0,0:0:0:0:
192,192,29067,1,0,1:0:0:0:
320,192,29233,1,0,0:0:0:0:
448,192,29399,1,0,1:0:0:0:
192,192,29399,1,4,0:0:0:0:
64,192,29730,1,0,1:0:0:0:
320,192,29730,1,4,0:0:0:0:
448,192,30062,1,0,0:0:0:0:
64,192,30062,1,4,2:0:0:0:
192,192,30228,1,0,2:0:0:0:
320,192,30393,1,0,0:0:0:0:
192,192,30559,1,0,2:0:0:0:
448,192,30725,1,0,0:0:0:0:
192,192,30890,1,0,2:0:0:0:
320,192,31056,1,0,0:0:0:0:
192,192,31222,1,0,2:0:0:0:
448,192,31388,1,0,0:0:0:0:
192,192,31553,1,0,2:0:0:0:
320,192,31719,1,0,0:0:0:0:
192,192,31885,1,0,2:0:0:0:
448,192,32051,1,0,0:0:0:0:
192,192,32216,1,0,2:0:0:0:
320,192,32382,1,0,0:0:0:0:
192,192,32548,1,0,2:0:0:0:
448,192,32714,1,0,0:0:0:0:
192,192,32879,1,0,2:0:0:0:
320,192,33045,1,0,0:0:0:0:
64,192,33211,1,0,2:0:0:0:
448,192,33377,1,0,0:0:0:0:
192,192,33542,1,0,2:0:0:0:
320,192,33708,1,0,0:0:0:0:
64,192,33874,1,0,2:0:0:0:
448,192,34040,1,0,0:0:0:0:
320,192,34205,1,0,2:0:0:0:
192,192,34371,1,0,0:0:0:0:
64,192,34537,1,0,2:0:0:0:
192,192,34703,128,8,35366:0:0:0:0:
448,192,34786,128,0,35366:2:0:0:0:
320,192,35366,1,0,1:0:0:0:
64,192,35366,1,4,0:0:0:0:
448,192,35863,1,4,0:0:0:0:
192,192,35863,1,0,1:0:0:0:
192,192,36360,1,0,1:0:0:0:
64,192,36360,1,4,0:0:0:0:
448,192,36857,1,4,0:0:0:0:
320,192,36857,1,0,1:0:0:0:
320,192,37355,1,8,1:0:0:0:
448,192,37355,1,0,1:0:0:0:
64,192,37520,1,0,1:0:0:0:
448,192,37686,1,0,1:0:0:0:
320,192,37686,1,8,1:0:0:0:
192,192,37852,1,0,1:0:0:0:
64,192,38018,1,4,0:0:0:0:
320,192,38018,1,0,1:0:0:0:
192,192,38515,1,0,1:0:0:0:
64,192,38515,1,4,0:0:0:0:
448,192,39012,1,4,0:0:0:0:
192,192,39012,1,0,1:0:0:0:
448,192,39509,1,4,0:0:0:0:
320,192,39509,1,0,1:0:0:0:
192,192,40007,1,8,1:0:0:0:
64,192,40007,1,0,1:0:0:0:
448,192,40172,1,8,1:0:0:0:
64,192,40338,1,0,1:0:0:0:
192,192,40338,1,8,1:0:0:0:
320,192,40504,1,0,1:0:0:0:
64,192,40670,1,4,0:0:0:0:
448,192,40670,1,0,1:0:0:0:
192,192,41001,1,0,0:0:0:0:
192,192,41167,1,0,0:0:0:0:
320,192,41498,1,0,0:0:0:0:
64,192,41830,1,0,0:0:0:0:
448,192,41995,1,4,0:0:0:0:
192,192,42327,1,0,0:0:0:0:
320,192,42658,1,0,0:0:0:0:
448,192,42990,1,0,0:0:0:0:
64,192,43321,1,0,0:0:0:0:
192,192,43321,1,4,0:0:0:0:
448,192,43819,1,0,0:0:0:0:
192,192,44316,1,0,0:0:0:0:
64,192,44647,1,4,0:0:0:0:
448,192,44647,1,0,0:0:0:0:
320,192,44813,1,0,0:0:0:0:
192,192,44979,1,0,0:0:0:0:
64,192,45145,1,0,0:0:0:0:
448,192,45310,1,0,1:0:0:0:
320,192,45310,1,8,1:0:0:0:
64,192,45476,1,0,1:0:0:0:
320,192,45642,1,0,1:0:0:0:
192,192,45642,1,8,1:0:0:0:
448,192,45808,1,0,1:0:0:0:
192,192,45973,1,4,0:0:0:0:
64,192,45973,1,0,1:0:0:0:
192,192,46305,1,8,1:0:0:0:
320,192,46471,1,4,0:0:0:0:
448,192,46471,1,0,1:0:0:0:
448,192,46802,1,8,1:0:0:0:
64,192,46968,1,0,1:0:0:0:
320,192,46968,1,4,0:0:0:0:
64,192,47299,1,8,1:0:0:0:
192,192,47465,1,4,0:0:0:0:
448,192,47465,1,0,1:0:0:0:
64,192,47797,1,0,1:0:0:0:
320,192,47962,1,8,1:0:0:0:
448,192,47962,1,0,1:0:0:0:
192,192,48128,1,0,1:0:0:0:
320,192,48294,1,8,1:0:0:0:
448,192,48294,1,0,1:0:0:0:
64,192,48460,1,0,1:0:0:0:
192,192,48625,1,0,1:0:0:0:
448,192,48625,1,4,0:0:0:0:
192,192,48957,1,8,1:0:0:0:
320,192,49123,1,0,1:0:0:0:
448,192,49123,1,4,0:0:0:0:
448,192,49454,1,8,1:0:0:0:
64,192,49620,1,4,0:0:0:0:
320,192,49620,1,0,1:0:0:0:
320,192,49951,1,8,1:0:0:0:
192,192,50117,1,0,1:0:0:0:
64,192,50117,1,4,0:0:0:0:
448,192,50449,1,0,1:0:0:0:
64,192,50614,1,8,1:0:0:0:
192,192,50614,1,0,1:0:0:0:
320,192,50780,1,0,1:0:0:0:
64,192,50946,1,8,1:0:0:0:
192,192,50946,1,0,1:0:0:0:
448,192,51111,1,0,1:0:0:0:
192,192,51277,1,4,0:0:0:0:
320,192,51277,128,0,51940:0:0:0:0:
448,192,51940,128,0,52437:0:0:0:0:
64,192,52437,128,0,52769:0:0:0:0:
192,192,52437,1,4,0:0:0:0:
192,192,52769,128,0,53266:0:0:0:0:
320,192,53266,128,0,53929:0:0:0:0:
64,192,53929,128,0,55255:0:0:0:0:
448,192,53929,128,0,55255:0:0:0:0:
448,192,55918,128,8,56581:1:0:0:0:
192,192,56001,128,0,56581:0:0:0:0:
320,192,56581,1,0,0:0:0:0:
64,192,56581,1,4,0:0:0:0:
192,192,56913,1,0,0:0:0:0:
448,192,57244,1,8,1:0:0:0:
320,192,57410,1,0,1:0:0:0:
64,192,57576,1,0,0:0:0:0:
192,192,57741,1,0,1:0:0:0:
448,192,58073,1,8,1:0:0:0:
192,192,58239,1,0,0:0:0:0:
64,192,58404,1,0,0:0:0:0:
448,192,58570,1,8,1:0:0:0:
320,192,58736,1,0,1:0:0:0:
192,192,58902,1,8,1:0:0:0:
64,192,59067,1,8,1:0:0:0:
320,192,59233,1,0,0:0:0:0:
448,192,59233,1,0,1:0:0:0:
192,192,59565,1,0,0:0:0:0:
64,192,59896,1,8,1:0:0:0:
192,192,60062,1,0,1:0:0:0:
448,192,60228,1,0,0:0:0:0:
320,192,60393,1,0,1:0:0:0:
64,192,60725,1,8,1:0:0:0:
320,192,60890,1,0,0:0:0:0:
448,192,61056,1,0,0:0:0:0:
64,192,61222,1,8,1:0:0:0:
192,192,61388,1,0,1:0:0:0:
320,192,61553,1,8,1:0:0:0:
448,192,61719,1,8,1:0:0:0:
192,192,61885,1,0,0:0:0:0:
64,192,61885,1,0,1:0:0:0:
320,192,62216,1,0,0:0:0:0:
448,192,62548,1,8,1:0:0:0:
64,192,62714,1,0,1:0:0:0:
192,192,63045,1,0,1:0:0:0:
448,192,63377,1,0,0:0:0:0:
320,192,63708,1,0,0:0:0:0:
64,192,64040,1,0,1:0:0:0:
448,192,64537,1,4,0:0:0:0:
320,192,64537,1,0,1:0:0:0:
320,192,65034,1,4,0:0:0:0:
192,192,65034,1,0,1:0:0:0:
64,192,65531,128,0,66857:1:0:0:0:
192,192,65531,1,4,0:0:0:0:
448,192,65863,1,8,1:0:0:0:
448,192,66194,1,8,1:0:0:0:
448,192,66526,1,8,1:0:0:0:
448,192,66857,128,8,67189:1:0:0:0:
64,192,67189,128,4,69178:0:0:0:0:
192,192,67189,1,0,1:0:0:0:
320,192,67520,1,0,1:0:0:0:
448,192,67852,1,0,1:0:0:0:
192,192,68183,1,0,1:0:0:0:
320,192,68515,1,0,1:0:0:0:
448,192,68846,1,0,1:0:0:0:
192,192,69178,128,0,69509:0:0:0:0:
320,192,69178,1,0,1:0:0:0:
448,192,69509,128,0,69841:0:0:0:0:
64,192,69509,1,0,1:0:0:0:
320,192,69841,128,0,71830:0:0:0:0:
192,192,69841,1,0,1:0:0:0:
64,192,70172,1,0,1:0:0:0:
448,192,70504,1,0,1:0:0:0:
192,192,70835,1,0,1:0:0:0:
64,192,71167,1,0,1:0:0:0:
448,192,71498,1,0,1:0:0:0:
448,192,71830,128,0,72161:0:0:0:0:
192,192,71830,1,0,1:0:0:0:
192,192,72161,128,0,72493:0:0:0:0:
64,192,72161,1,0,1:0:0:0:
448,192,72493,1,4,0:0:0:0:
320,192,72658,1,0,1:0:0:0:
192,192,72824,1,0,1:0:0:0:
64,192,72990,1,0,1:0:0:0:
448,192,73156,1,0,1:0:0:0:
320,192,73321,1,0,1:0:0:0:
192,192,73487,1,0,1:0:0:0:
64,192,73653,1,0,1:0:0:0:
192,192,73819,1,0,0:0:0:0:
320,192,73984,1,0,0:0:0:0:
192,192,74150,1,0,0:0:0:0:
320,192,74316,1,0,0:0:0:0:
192,192,74482,1,0,0:0:0:0:
320,192,74647,1,0,0:0:0:0:
192,192,74813,128,0,75145:0:0:0:0:
320,192,75145,1,0,1:0:0:0:
64,192,75145,1,4,0:0:0:0:
192,192,75642,1,0,1:0:0:0:
64,192,75642,1,4,0:0:0:0:
192,192,76139,1,0,1:0:0:0:
448,192,76139,1,4,0:0:0:0:
320,192,76636,1,0,1:0:0:0:
448,192,76636,1,4,0:0:0:0:
64,192,77134,1,0,1:0:0:0:
192,192,77299,1,0,0:0:0:0:
320,192,77465,1,0,1:0:0:0:
448,192,77631,1,0,0:0:0:0:
64,192,77797,1,4,0:0:0:0:
192,192,77797,1,0,1:0:0:0:
320,192,78128,1,0,1:0:0:0:
448,192,78128,1,8,1:0:0:0:
192,192,78460,1,0,0:0:0:0:
320,192,78625,1,0,0:0:0:0:
64,192,78791,1,0,0:0:0:0:
448,192,78957,1,0,0:0:0:0:
320,192,79288,1,0,0:0:0:0:
192,192,79454,1,0,0:0:0:0:
64,192,79620,1,0,0:0:0:0:
448,192,79786,1,0,0:0:0:0:
320,192,79951,1,0,0:0:0:0:
192,192,80117,1,0,0:0:0:0:
64,192,80283,1,0,0:0:0:0:
448,192,80449,1,0,1:0:0:0:
64,192,80780,1,0,1:0:0:0:
192,192,80780,1,8,1:0:0:0:
320,192,81111,1,0,0:0:0:0:
192,192,81277,1,0,0:0:0:0:
448,192,81443,1,0,0:0:0:0:
64,192,81609,1,0,0:0:0:0:
192,192,81940,1,0,0:0:0:0:
320,192,82106,1,0,0:0:0:0:
448,192,82272,1,0,0:0:0:0:
64,192,82437,1,0,0:0:0:0:
192,192,82603,1,0,0:0:0:0:
320,192,82769,1,0,0:0:0:0:
448,192,82935,1,0,0:0:0:0:
64,192,83100,1,0,1:0:0:0:
448,192,83432,1,0,1:0:0:0:
320,192,83432,1,8,1:0:0:0:
192,192,83763,1,0,0:0:0:0:
64,192,83929,1,0,0:0:0:0:
448,192,84261,1,0,0:0:0:0:
64,192,84592,1,0,0:0:0:0:
320,192,84924,1,0,0:0:0:0:
192,192,85255,1,0,0:0:0:0:
64,192,85752,1,0,1:0:0:0:
320,192,85752,1,4,0:0:0:0:
64,192,86084,1,8,1:0:0:0:
192,192,86250,1,4,0:0:0:0:
448,192,86250,1,0,1:0:0:0:
448,192,86747,128,8,87741:1:0:0:0:
64,192,86747,1,0,1:0:0:0:
64,192,87078,1,8,1:0:0:0:
64,192,87410,1,8,1:0:0:0:
64,192,87741,1,8,1:0:0:0:
64,192,88073,128,0,88404:1:0:0:0:
192,192,88404,1,0,0:0:0:0:
320,192,88570,1,0,0:0:0:0:
448,192,88736,1,0,0:0:0:0:
64,192,88902,1,0,0:0:0:0:
448,192,89067,1,0,0:0:0:0:
320,192,89233,1,0,0:0:0:0:
192,192,89399,1,0,0:0:0:0:
64,192,89565,1,0,0:0:0:0:
448,192,89896,1,0,0:0:0:0:
448,192,90145,1,0,0:0:0:0:
448,192,90393,1,0,0:0:0:0:
64,192,90642,1,0,0:0:0:0:
448,192,90890,1,0,0:0:0:0:
320,192,91056,1,0,0:0:0:0:
192,192,91222,1,0,0:0:0:0:
64,192,91388,1,0,0:0:0:0:
448,192,91553,1,0,0:0:0:0:
320,192,91719,1,0,0:0:0:0:
192,192,91885,1,0,0:0:0:0:
64,192,92051,1,0,0:0:0:0:
448,192,92216,1,0,0:0:0:0:
64,192,92382,1,0,0:0:0:0:
192,192,92548,1,0,0:0:0:0:
320,192,92714,1,0,0:0:0:0:
448,192,92879,1,0,0:0:0:0:
64,192,93045,1,0,0:0:0:0:
192,192,93211,1,0,0:0:0:0:
320,192,93377,1,0,0:0:0:0:
448,192,93542,1,0,0:0:0:0:
320,192,93708,1,0,0:0:0:0:
192,192,93874,1,0,0:0:0:0:
320,192,94040,1,0,0:0:0:0:
192,192,94205,1,0,0:0:0:0:
320,192,94371,1,0,0:0:0:0:
192,192,94537,1,0,0:0:0:0:
320,192,94703,1,0,0:0:0:0:
192,192,94868,1,0,0:0:0:0:
448,192,95034,1,0,0:0:0:0:
64,192,95200,1,0,0:0:0:0:
448,192,95366,1,0,0:0:0:0:
64,192,95531,1,0,0:0:0:0:
448,192,95697,1,0,0:0:0:0:
64,192,95863,1,0,0:0:0:0:
448,192,96029,128,0,96360:0:0:0:0:
320,192,96360,1,4,0:0:0:0:
64,192,96360,1,0,1:0:0:0:
64,192,96692,1,8,1:0:0:0:
192,192,96857,1,4,0:0:0:0:
448,192,96857,1,0,1:0:0:0:
448,192,97189,1,8,1:0:0:0:
64,192,97355,1,0,1:0:0:0:
320,192,97355,1,4,0:0:0:0:
64,192,97686,1,8,1:0:0:0:
448,192,97852,1,0,1:0:0:0:
192,192,97852,1,4,0:0:0:0:
448,192,98183,1,8,1:0:0:0:
64,192,98349,1,0,1:0:0:0:
320,192,98349,1,4,0:0:0:0:
192,192,98681,128,8,99012:1:0:0:0:
448,192,99012,1,4,0:0:0:0:
64,192,99012,1,8,1:0:0:0:
320,192,99178,1,0,1:0:0:0:
448,192,99509,1,8,1:0:0:0:
64,192,99509,1,4,0:0:0:0:
192,192,99675,1,0,1:0:0:0:
448,192,100007,1,4,0:0:0:0:
64,192,100007,1,8,1:0:0:0:
320,192,100172,1,0,1:0:0:0:
64,192,100504,1,4,0:0:0:0:
448,192,100670,1,0,0:0:0:0:
64,192,101001,1,0,0:0:0:0:
448,192,101001,1,4,0:0:0:0:
192,192,101664,1,0,0:0:0:0:
64,192,101664,1,4,2:0:0:0:
448,192,101830,1,0,0:0:0:0:
320,192,101995,1,0,0:0:0:0:
448,192,102161,1,0,0:0:0:0:
192,192,102327,1,0,0:0:0:0:
320,192,102493,1,0,0:0:0:0:
64,192,102658,1,0,0:0:0:0:
192,192,102824,1,0,0:0:0:0:
64,192,102990,1,0,0:0:0:0:
320,192,103156,1,0,0:0:0:0:
192,192,103321,1,0,0:0:0:0:
448,192,103487,1,0,0:0:0:0:
320,192,103653,1,0,0:0:0:0:
448,192,103819,1,0,0:0:0:0:
192,192,103984,1,0,0:0:0:0:
320,192,104150,1,0,0:0:0:0:
64,192,104316,128,0,104647:0:0:0:0:
320,192,104647,1,0,0:0:0:0:
192,192,104813,1,0,0:0:0:0:
448,192,104979,128,0,105310:0:0:0:0:
320,192,105310,1,0,0:0:0:0:
192,192,105476,1,0,0:0:0:0:
448,192,105642,1,0,0:0:0:0:
320,192,105808,1,0,0:0:0:0:
448,192,105973,1,0,0:0:0:0:
192,192,106139,1,0,0:0:0:0:
320,192,106305,1,0,0:0:0:0:
64,192,106471,1,0,0:0:0:0:
192,192,106636,128,0,106968:0:0:0:0:
448,192,106968,1,4,2:0:0:0:
320,192,107134,1,0,0:0:0:0:
64,192,107299,1,0,0:0:0:0:
192,192,107465,1,0,0:0:0:0:
448,192,107631,1,0,0:0:0:0:
320,192,107797,1,0,0:0:0:0:
64,192,107962,1,0,0:0:0:0:
192,192,108128,1,0,0:0:0:0:
320,192,108294,1,4,2:0:0:0:
448,192,108460,1,0,0:0:0:0:
192,192,108625,1,0,0:0:0:0:
64,192,108791,1,0,0:0:0:0:
320,192,108957,1,0,0:0:0:0:
448,192,109123,5,0,0:0:0:0:
192,192,109288,1,0,0:0:0:0:
64,192,109454,1,0,0:0:0:0:
448,192,109620,1,4,2:0:0:0:
320,192,109786,1,0,0:0:0:0:
192,192,109951,1,0,0:0:0:0:
64,192,110117,1,0,0:0:0:0:
448,192,110283,1,0,0:0:0:0:
320,192,110449,1,0,0:0:0:0:
192,192,110614,1,0,0:0:0:0:
64,192,110780,1,0,0:0:0:0:
320,192,110946,1,0,0:0:0:0:
448,192,111111,1,0,0:0:0:0:
64,192,111277,1,0,0:0:0:0:
192,192,111443,1,0,0:0:0:0:
320,192,111609,1,0,0:0:0:0:
448,192,111774,1,0,0:0:0:0:
448,192,111940,1,4,0:0:0:0:
64,192,111940,1,4,0:0:0:0:
