osu file format v14

[General]
AudioFilename: audio.mp3
AudioLeadIn: 0
PreviewTime: 77715
Countdown: 0
SampleSet: None
StackLeniency: 0.7
Mode: 3
LetterboxInBreaks: 0
SpecialStyle: 0
WidescreenStoryboard: 1

[Editor]
DistanceSpacing: 0.8
BeatDivisor: 2
GridSize: 16
TimelineZoom: 1.6

[Metadata]
Title:Codename:Yuria
TitleUnicode:Codename:Yuria
Artist:Sound piercer
ArtistUnicode:Sound piercer
Creator:SeonRae
Version:Easy
Source:RIDE ZERO
Tags:
BeatmapID:1671711
BeatmapSetID:796093

[Difficulty]
HPDrainRate:5
CircleSize:4
OverallDifficulty:5
ApproachRate:5
SliderMultiplier:1.4
SliderTickRate:1

[Events]
//Background and Video events
0,0,"maxresdefault (1).jpg",0,0
//Break Periods
2,9046,11622
//Storyboard Layer 0 (Background)
//Storyboard Layer 1 (Fail)
//Storyboard Layer 2 (Pass)
//Storyboard Layer 3 (Foreground)
//Storyboard Sound Samples

[TimingPoints]
891,331.491712707182,4,2,2,30,1,0
30062,-100,4,1,2,30,0,0
35366,-100,4,2,2,30,0,0
73819,-100,4,1,2,30,0,0
75145,-100,4,2,2,30,0,0
93708,-100,4,1,2,30,0,0
96360,-100,4,2,2,30,0,0
101664,-100,4,1,2,30,0,0
109620,-100,4,1,2,15,0,0
109951,-100,4,1,2,10,0,0
110283,-100,4,1,2,5,0,0
110531,-100,4,2,2,30,0,0

[HitObjects]
448,192,2216,5,0,1:0:0:0:
64,192,2216,1,4,0:0:0:0:
192,192,6194,1,4,0:0:0:0:
192,192,6443,1,4,0:0:0:0:
320,192,6692,128,0,7023:1:0:0:0:
64,192,7023,1,0,1:0:0:0:
448,192,7189,1,0,1:0:0:0:
320,192,7520,1,0,1:0:0:0:
192,192,7852,1,0,1:0:0:0:
320,192,8183,1,0,1:0:0:0:
192,192,8515,1,0,1:0:0:0:
64,192,8846,5,4,0:0:0:0:
448,192,8846,1,0,1:0:0:0:
448,192,13487,132,0,14150:0:0:0:0:
64,192,14150,1,4,0:0:0:0:
64,192,14482,1,0,1:0:0:0:
64,192,14813,1,0,1:0:0:0:
64,192,15145,1,0,1:0:0:0:
64,192,15476,1,0,1:0:0:0:
64,192,15808,1,0,1:0:0:0:
64,192,16139,1,0,1:0:0:0:
64,192,16471,1,0,1:0:0:0:
64,192,16802,1,0,1:0:0:0:
64,192,17134,1,0,1:0:0:0:
64,192,17465,1,0,1:0:0:0:
64,192,17797,1,0,1:0:0:0:
192,192,18128,1,0,0:0:0:0:
320,192,18625,1,0,0:0:0:0:
448,192,19454,1,0,1:0:0:0:
448,192,19786,1,0,1:0:0:0:
448,192,20117,1,0,1:0:0:0:
448,192,20449,1,0,1:0:0:0:
448,192,20780,1,0,1:0:0:0:
448,192,21111,1,0,1:0:0:0:
448,192,21443,1,0,1:0:0:0:
448,192,21774,1,0,1:0:0:0:
448,192,22106,1,0,1:0:0:0:
448,192,22437,1,0,1:0:0:0:
448,192,22769,1,0,1:0:0:0:
448,192,23100,1,0,1:0:0:0:
320,192,23432,1,0,0:0:0:0:
192,192,23929,1,0,0:0:0:0:
320,192,24426,128,0,24758:1:0:0:0:
192,192,24758,1,4,0:0:0:0:
192,192,25089,1,0,1:0:0:0:
192,192,25421,1,0,1:0:0:0:
192,192,25752,1,0,1:0:0:0:
192,192,26084,1,0,1:0:0:0:
192,192,26415,1,0,1:0:0:0:
192,192,26747,1,0,1:0:0:0:
192,192,27078,1,0,1:0:0:0:
192,192,27410,1,0,1:0:0:0:
192,192,27741,1,0,1:0:0:0:
192,192,28073,1,0,1:0:0:0:
192,192,28404,1,0,1:0:0:0:
64,192,28736,1,0,0:0:0:0:
448,192,29233,1,0,0:0:0:0:
320,192,29399,1,4,0:0:0:0:
192,192,29730,1,4,0:0:0:0:
320,192,30062,1,4,2:0:0:0:
320,192,30393,1,0,1:0:0:0:
320,192,30725,1,0,1:0:0:0:
320,192,31056,1,0,1:0:0:0:
320,192,31388,1,0,1:0:0:0:
320,192,31719,1,0,1:0:0:0:
320,192,32051,1,0,1:0:0:0:
320,192,32382,1,0,1:0:0:0:
64,192,32714,1,0,1:0:0:0:
64,192,33045,1,0,1:0:0:0:
64,192,33377,1,0,1:0:0:0:
64,192,33708,1,0,1:0:0:0:
448,192,34040,1,0,0:0:0:0:
448,192,34371,1,0,0:0:0:0:
448,192,34703,128,0,35366:0:0:0:0:
64,192,35366,1,4,0:0:0:0:
448,192,35863,1,4,0:0:0:0:
192,192,36360,1,4,0:0:0:0:
320,192,36857,1,4,0:0:0:0:
64,192,37355,1,8,1:0:0:0:
64,192,37686,1,8,1:0:0:0:
448,192,38018,1,4,0:0:0:0:
64,192,38515,1,4,0:0:0:0:
320,192,39012,1,4,0:0:0:0:
192,192,39509,1,4,0:0:0:0:
448,192,40007,1,8,1:0:0:0:
448,192,40338,1,8,1:0:0:0:
64,192,40670,1,4,0:0:0:0:
320,192,41001,1,0,1:0:0:0:
64,192,41332,1,0,1:0:0:0:
320,192,41664,1,0,1:0:0:0:
192,192,41995,1,4,0:0:0:0:
448,192,42327,1,0,1:0:0:0:
192,192,42658,1,0,1:0:0:0:
448,192,42990,1,0,1:0:0:0:
64,192,43321,1,4,0:0:0:0:
448,192,43653,1,0,1:0:0:0:
64,192,43984,1,0,1:0:0:0:
448,192,44316,1,0,1:0:0:0:
64,192,44647,1,4,0:0:0:0:
192,192,44979,1,0,0:0:0:0:
320,192,45310,1,8,1:0:0:0:
448,192,45642,1,8,1:0:0:0:
320,192,45973,1,4,0:0:0:0:
64,192,46471,1,4,0:0:0:0:
448,192,46968,1,4,0:0:0:0:
192,192,47465,1,4,0:0:0:0:
448,192,47962,1,8,1:0:0:0:
448,192,48294,1,8,1:0:0:0:
192,192,48625,1,4,0:0:0:0:
448,192,49123,1,4,0:0:0:0:
64,192,49620,1,4,0:0:0:0:
320,192,50117,1,4,0:0:0:0:
64,192,50614,1,8,1:0:0:0:
64,192,50946,1,8,1:0:0:0:
448,192,51277,1,0,0:0:0:0:
320,192,51940,1,0,0:0:0:0:
64,192,52437,1,0,0:0:0:0:
192,192,52769,1,0,0:0:0:0:
320,192,53266,1,0,0:0:0:0:
448,192,53929,128,0,55255:0:0:0:0:
64,192,55918,128,8,56581:1:0:0:0:
448,192,56581,1,4,0:0:0:0:
64,192,57244,1,0,0:0:0:0:
192,192,57741,1,0,0:0:0:0:
448,192,58073,1,0,0:0:0:0:
320,192,58570,1,0,0:0:0:0:
192,192,58902,1,0,0:0:0:0:
64,192,59233,1,0,1:0:0:0:
448,192,59896,1,0,0:0:0:0:
320,192,60393,1,0,0:0:0:0:
64,192,60725,1,0,0:0:0:0:
192,192,61222,1,0,0:0:0:0:
320,192,61553,1,0,0:0:0:0:
448,192,61885,1,0,0:0:0:0:
64,192,62548,1,0,0:0:0:0:
448,192,63045,1,0,0:0:0:0:
320,192,63377,1,0,0:0:0:0:
64,192,63708,1,0,0:0:0:0:
192,192,64040,1,0,0:0:0:0:
320,192,64537,1,4,0:0:0:0:
192,192,65034,1,4,0:0:0:0:
64,192,65531,128,4,66857:0:0:0:0:
448,192,66857,128,0,67189:1:0:0:0:
192,192,67189,1,4,0:0:0:0:
320,192,67520,1,0,1:0:0:0:
448,192,67852,1,0,1:0:0:0:
64,192,68183,1,0,1:0:0:0:
192,192,68515,1,0,1:0:0:0:
320,192,68846,1,0,1:0:0:0:
448,192,69178,1,0,1:0:0:0:
64,192,69509,1,0,1:0:0:0:
320,192,69841,1,0,1:0:0:0:
192,192,70172,1,0,1:0:0:0:
64,192,70504,1,0,1:0:0:0:
448,192,70835,1,0,1:0:0:0:
320,192,71167,1,0,1:0:0:0:
192,192,71498,1,0,1:0:0:0:
64,192,71830,1,0,1:0:0:0:
448,192,72161,1,0,1:0:0:0:
192,192,72493,1,0,1:0:0:0:
320,192,72824,5,0,1:0:0:0:
192,192,73156,1,0,1:0:0:0:
320,192,73487,1,0,1:0:0:0:
64,192,73819,1,0,1:0:0:0:
448,192,74150,1,0,1:0:0:0:
64,192,74482,1,0,1:0:0:0:
448,192,74813,1,0,1:0:0:0:
64,192,75145,1,4,0:0:0:0:
192,192,75642,1,4,0:0:0:0:
320,192,76139,1,4,0:0:0:0:
448,192,76636,1,4,0:0:0:0:
320,192,77134,128,4,77797:0:0:0:0:
64,192,77797,1,4,0:0:0:0:
320,192,78460,1,0,0:0:0:0:
192,192,78957,128,0,80449:0:0:0:0:
448,192,80449,1,0,0:0:0:0:
192,192,81111,1,0,0:0:0:0:
320,192,81609,128,0,83100:0:0:0:0:
64,192,83100,1,0,0:0:0:0:
320,192,83763,1,0,0:0:0:0:
192,192,84261,1,0,0:0:0:0:
64,192,84592,1,0,0:0:0:0:
320,192,84924,1,0,0:0:0:0:
448,192,85255,1,0,0:0:0:0:
320,192,85752,1,4,0:0:0:0:
192,192,86250,1,4,0:0:0:0:
448,192,86747,128,4,88073:0:0:0:0:
64,192,88073,128,0,88404:1:0:0:0:
448,192,88404,1,4,0:0:0:0:
320,192,88736,1,8,1:0:0:0:
64,192,89067,1,0,1:0:0:0:
192,192,89399,1,8,1:0:0:0:
320,192,89896,1,0,0:0:0:0:
320,192,90145,1,0,0:0:0:0:
320,192,90393,1,0,0:0:0:0:
192,192,90642,1,0,0:0:0:0:
320,192,90890,1,0,0:0:0:0:
64,192,91056,1,0,1:0:0:0:
192,192,91388,1,8,1:0:0:0:
448,192,91719,1,0,1:0:0:0:
320,192,92051,1,8,1:0:0:0:
192,192,92382,1,0,1:0:0:0:
64,192,92714,1,8,1:0:0:0:
320,192,93045,1,0,1:0:0:0:
448,192,93377,1,8,1:0:0:0:
192,192,93708,1,0,0:0:0:0:
320,192,94040,1,0,0:0:0:0:
192,192,94371,1,0,0:0:0:0:
320,192,94703,1,0,0:0:0:0:
64,192,95034,1,0,0:0:0:0:
448,192,95366,1,0,0:0:0:0:
64,192,95697,1,0,0:0:0:0:
448,192,96029,128,0,96360:0:0:0:0:
192,192,96360,1,4,0:0:0:0:
320,192,96857,1,4,0:0:0:0:
192,192,97355,1,4,0:0:0:0:
320,192,97852,1,4,0:0:0:0:
192,192,98349,1,4,0:0:0:0:
448,192,98681,1,4,0:0:0:0:
64,192,99012,1,4,0:0:0:0:
448,192,99509,1,4,0:0:0:0:
64,192,100007,1,4,0:0:0:0:
448,192,100504,1,4,0:0:0:0:
64,192,101001,128,4,101664:0:0:0:0:
448,192,101664,1,4,2:0:0:0:
320,192,101995,1,0,0:0:0:0:
192,192,102327,1,0,0:0:0:0:
64,192,102658,1,0,0:0:0:0:
448,192,102990,1,0,0:0:0:0:
320,192,103321,1,0,0:0:0:0:
192,192,103653,1,0,0:0:0:0:
64,192,103984,1,0,0:0:0:0:
192,192,104316,128,0,104647:0:0:0:0:
320,192,104647,1,0,0:0:0:0:
448,192,104979,128,0,105310:0:0:0:0:
64,192,105310,1,0,0:0:0:0:
192,192,105642,1,0,0:0:0:0:
320,192,105973,1,0,0:0:0:0:
448,192,106305,1,0,0:0:0:0:
192,192,106636,128,0,106968:0:0:0:0:
64,192,106968,1,0,0:0:0:0:
192,192,107299,1,0,0:0:0:0:
320,192,107631,1,0,0:0:0:0:
448,192,107962,1,0,0:0:0:0:
64,192,108294,1,0,0:0:0:0:
192,192,108625,1,0,0:0:0:0:
320,192,108957,1,0,0:0:0:0:
448,192,109288,1,0,0:0:0:0:
320,192,109620,1,0,0:0:0:0:
192,192,109951,1,0,0:0:0:0:
64,192,110283,1,0,0:0:0:0:
448,192,110614,1,0,0:0:0:0:
320,192,110946,1,0,0:0:0:0:
192,192,111277,1,0,0:0:0:0:
64,192,111609,1,0,0:0:0:0:
320,192,111940,1,4,0:0:0:0:
192,192,111940,1,4,0:0:0:0:
