osu file format v14

[General]
AudioFilename: audio.mp3
AudioLeadIn: 0
PreviewTime: 62885
Countdown: 0
SampleSet: Soft
StackLeniency: 0.4
Mode: 0
LetterboxInBreaks: 0
WidescreenStoryboard: 1

[Editor]
Bookmarks: 9552,17171,32409,47647,62885,78123,82409,85742,93361,100980,108599,123837,139075
DistanceSpacing: 1.2
BeatDivisor: 12
GridSize: 16
TimelineZoom: 6.799995

[Metadata]
Title:Paradise
TitleUnicode:Paradise
Artist:Sound Souler
ArtistUnicode:Sound Souler
Creator:kwk
Version:Tsumia's Extra
Source:Arcaea
Tags:Hobbes2 Mir Asaiga Tsumia 紅 Kou Crimson Solace
BeatmapID:1519914
BeatmapSetID:686777

[Difficulty]
HPDrainRate:5
CircleSize:4.5
OverallDifficulty:7
ApproachRate:9.2
SliderMultiplier:2.4
SliderTickRate:1

[Events]
//Background and Video events
0,0,"55064306_p0.jpg",0,0
//Break Periods
//Storyboard Layer 0 (Background)
//Storyboard Layer 1 (Fail)
//Storyboard Layer 2 (Pass)
//Storyboard Layer 3 (Foreground)
//Storyboard Sound Samples

[TimingPoints]
1933,476.190476190476,4,2,91,30,1,0
9313,-100,4,2,1,60,0,0
9552,-100,4,2,1,60,0,0
16932,-117.647058823529,4,2,1,60,0,0
17091,-117.647058823529,4,2,1,5,0,0
17171,-100,4,2,1,60,0,0
45980,-90.9090909090909,4,2,1,60,0,0
46456,-83.3333333333333,4,2,1,60,0,0
46694,-90.9090909090909,4,2,1,60,0,0
47171,-83.3333333333333,4,2,1,60,0,0
47409,-80,4,2,1,60,0,0
47647,-76.9230769230769,4,2,1,60,0,1
57528,-76.9230769230769,4,2,1,5,0,1
57568,-76.9230769230769,4,2,1,60,0,1
57766,-76.9230769230769,4,2,1,5,0,1
57806,-76.9230769230769,4,2,1,60,0,1
58004,-76.9230769230769,4,2,1,5,0,1
58044,-76.9230769230769,4,2,1,60,0,1
58242,-76.9230769230769,4,2,1,5,0,1
58282,-76.9230769230769,4,2,1,60,0,1
58480,-76.9230769230769,4,2,1,5,0,1
58520,-76.9230769230769,4,2,1,60,0,1
58718,-76.9230769230769,4,2,1,5,0,1
58758,-76.9230769230769,4,2,1,60,0,1
59075,-76.9230769230769,4,2,1,25,0,1
59155,-76.9230769230769,4,2,1,28,0,1
59234,-76.9230769230769,4,2,1,31,0,1
59313,-76.9230769230769,4,2,1,34,0,1
59393,-76.9230769230769,4,2,1,37,0,1
59472,-76.9230769230769,4,2,1,40,0,1
59552,-76.9230769230769,4,2,1,43,0,1
59631,-76.9230769230769,4,2,1,46,0,1
59710,-76.9230769230769,4,2,1,49,0,1
59790,-76.9230769230769,4,2,1,52,0,1
59869,-76.9230769230769,4,2,1,55,0,1
59948,-76.9230769230769,4,2,1,57,0,1
60028,-76.9230769230769,4,2,1,60,0,1
62885,-86.9565217391304,4,2,1,60,0,0
71456,-83.3333333333333,4,2,1,60,0,0
72409,-76.9230769230769,4,2,1,60,0,0
73361,-71.4285714285714,4,2,1,60,0,0
73956,-76.9230769230769,4,2,1,60,0,0
78917,-76.9230769230769,4,2,1,5,0,0
79075,-76.9230769230769,4,2,1,60,0,0
80425,-76.9230769230769,4,2,1,5,0,0
80504,-76.9230769230769,4,2,1,60,0,0
81932,-76.9230769230769,4,2,1,60,0,0
83044,-76.9230769230769,4,2,1,5,0,0
83123,-66.6666666666667,4,2,1,60,0,0
83282,-76.9230769230769,4,2,1,5,0,0
83361,-76.9230769230769,4,2,1,60,0,0
83520,-76.9230769230769,4,2,1,5,0,0
83599,-90.9090909090909,4,2,1,60,0,0
83758,-76.9230769230769,4,2,1,5,0,0
83837,-76.9230769230769,4,2,1,60,0,0
85742,-66.6666666666667,4,2,1,60,0,0
88599,-83.3333333333333,4,2,1,60,0,0
89075,-80,4,2,1,60,0,0
89313,-74.0740740740741,4,2,1,60,0,0
89552,-83.3333333333333,4,2,1,60,0,0
89671,-83.3333333333333,4,2,1,5,0,0
89790,-83.3333333333333,4,2,1,60,0,0
90028,-71.4285714285714,4,2,1,60,0,0
90147,-71.4285714285714,4,2,1,5,0,0
90266,-71.4285714285714,4,2,1,60,0,0
90503,-76.9230769230769,4,2,1,60,0,0
90623,-76.9230769230769,4,2,1,5,0,0
90742,-76.9230769230769,4,2,1,60,0,0
90980,-66.6666666666667,4,2,1,60,0,0
91099,-66.6666666666667,4,2,1,5,0,0
91218,-66.6666666666667,4,2,1,60,0,0
93599,-100,4,2,1,60,0,0
100861,-100,4,2,1,5,0,0
100980,-100,4,2,1,60,0,0
108599,-76.9230769230769,4,2,1,60,0,0
119046,-76.9230769230769,4,2,1,5,0,0
119075,-76.9230769230769,4,2,1,60,0,0
123837,-100,4,2,1,60,0,0
139552,-100,4,2,1,55,0,0
140028,-100,4,2,1,50,0,0
140504,-100,4,2,1,45,0,0
140980,-100,4,2,1,40,0,0
141456,-100,4,2,1,35,0,0
141932,-100,4,2,1,30,0,0
142409,-100,4,2,1,25,0,0
142885,-100,4,2,1,20,0,0
143361,-100,4,2,1,15,0,0
143837,-100,4,2,1,10,0,0
144313,-100,4,2,1,5,0,0
144790,-100,4,2,1,5,0,0

[Colours]
Combo1 : 255,255,166
Combo2 : 255,128,128
Combo3 : 0,255,255
Combo4 : 0,255,128

[HitObjects]
62,267,9552,6,0,L|195:252,1,120,4|2,0:0|0:3,0:0:0:0:
296,160,10028,1,8,0:1:0:0:
102,182,10147,2,0,L|222:169,1,120,2|2,0:3|0:3,0:0:0:0:
263,298,10623,1,0,0:0:0:0:
212,94,10742,2,0,P|271:112|297:170,1,120,2|8,0:3|0:1,0:0:0:0:
263,298,11099,2,0,L|250:366,2,60,0|2|2,0:0|0:3|0:3,0:0:0:0:
221,169,11456,1,0,0:0:0:0:
176,310,11694,6,0,L|187:251,1,60,2|0,0:3|0:0,0:0:0:0:
211,94,11932,1,8,0:1:0:0:
296,160,12052,2,0,P|268:109|212:94,1,120,2|2,0:3|0:3,0:0:0:0:
176,310,12528,1,0,0:0:0:0:
183,234,12647,2,0,B|161:218|161:218|177:318,1,120,2|8,0:3|0:1,0:0:0:0:
340,267,13004,2,0,L|407:250,2,60,0|2|2,0:0|0:3|0:3,0:0:0:0:
102,327,13361,1,0,0:0:0:0:
334,371,13599,6,0,B|363:343|363:343|340:267,1,120,2|8,0:3|0:1,0:0:0:0:
334,61,13956,2,0,L|355:131,1,60,2|0,0:3|0:0,0:0:0:0:
377,205,14194,2,0,P|322:196|274:237,1,120,2|0,0:3|0:0,0:0:0:0:
175,309,14552,2,0,L|189:184,1,120,2|8,0:3|0:1,0:0:0:0:
334,61,14909,2,0,L|355:131,2,60,2|0|0,0:3|0:0|0:0,0:0:0:0:
275,234,15266,1,0,0:0:0:0:
496,215,15504,6,0,L|376:204,1,120,2|8,0:3|0:1,0:0:0:0:
188,189,15861,2,0,L|195:126,1,60,2|0,0:3|0:0,0:0:0:0:
175,309,16099,5,2,0:3:0:0:
202,59,16337,1,2,0:3:0:0:
175,309,16575,6,0,L|168:368,1,60,2|8,0:3|0:1,0:0:0:0:
187,202,16813,1,2,0:3:0:0:
107,313,16932,6,0,L|184:308,1,68.0000012969971,2|0,0:3|0:0,0:0:0:0:
256,282,17171,6,0,L|382:301,1,120,4|2,1:2|0:0,0:0:0:0:
492,175,17528,2,0,P|450:215|392:210,1,120,2|2,0:0|0:0,0:0:0:0:
330,111,17885,2,0,L|322:52,1,60
214,131,18123,2,0,L|206:190,1,60,0|2,1:0|0:0,0:0:0:0:
130,366,18361,5,2,0:0:0:0:
80,294,18480,1,2,0:0:0:0:
140,377,18599,1,10,1:2:0:0:
164,253,18718,1,2,0:2:0:0:
20,285,18837,2,0,L|80:294,1,60,2|0,0:0|0:0,0:0:0:0:
206,191,19075,6,0,P|147:178|99:210,1,120,2|0,1:2|0:0,0:0:0:0:
130,366,19432,1,0,0:0:0:0:
209,351,19552,2,0,L|269:342,1,60,8|0,1:0|0:0,0:0:0:0:
365,261,19790,2,0,L|305:251,1,60
424,75,19988,5,0,0:0:0:0:
424,75,20028,2,0,P|423:109|408:135,1,60,2|0,1:2|0:0,0:0:0:0:
469,178,20266,2,0,P|442:199|413:205,1,60,2|0,0:2|0:0,0:0:0:0:
418,282,20504,2,0,P|384:276|361:256,1,60,10|0,1:2|0:0,0:0:0:0:
308,310,20743,2,0,P|291:280|290:250,1,60,2|0,0:2|0:0,0:0:0:0:
306,62,20980,6,0,L|227:77,1,60,2|0,1:2|0:0,0:0:0:0:
142,141,21218,2,0,L|241:158,1,60,2|0,0:2|0:0,0:0:0:0:
313,169,21456,1,8,1:0:0:0:
188,17,21694,6,0,L|128:28,1,60,2|0,0:2|0:0,0:0:0:0:
0,88,21932,2,0,L|59:99,1,60,2|0,1:2|0:0,0:0:0:0:
201,151,22171,2,0,L|141:161,1,60,2|0,0:2|0:0,0:0:0:0:
28,225,22409,2,0,L|87:235,1,60,10|0,1:2|0:0,0:0:0:0:
236,303,22647,1,2,0:2:0:0:
236,303,22766,1,0,0:0:0:0:
191,238,22885,6,0,P|160:286|175:345,1,120,2|2,1:2|0:2,0:0:0:0:
296,260,23242,2,0,P|247:227|190:238,1,120,2|2,0:2|0:2,0:0:0:0:
297,362,23599,2,0,L|358:355,1,60,2|0,0:2|0:0,0:0:0:0:
512,238,23837,5,2,1:2:0:0:
434,246,23956,1,2,0:2:0:0:
356,253,24075,2,0,L|297:259,1,60,0|0,0:2|0:0,0:0:0:0:
446,360,24313,2,0,P|465:339|476:296,1,60,10|0,1:2|0:0,0:0:0:0:
512,238,24552,2,0,P|504:211|472:180,1,60,2|0,0:2|0:0,0:0:0:0:
346,144,24790,1,2,1:2:0:0:
473,23,25028,6,0,L|467:83,1,60,2|0,0:2|0:0,0:0:0:0:
281,193,25266,1,10,1:2:0:0:
276,114,25385,2,0,P|319:72|387:80,1,120,2|2,0:2|0:2,0:0:0:0:
483,187,25742,2,0,L|423:193,1,60,2|0,1:2|0:0,0:0:0:0:
197,97,25980,5,2,0:0:0:0:
206,226,26099,1,2,0:0:0:0:
276,114,26218,1,10,1:2:0:0:
153,162,26337,1,2,0:0:0:0:
281,193,26456,2,0,L|341:187,1,60,2|0,0:2|0:0,0:0:0:0:
463,81,26694,6,0,L|338:68,1,120,2|0,1:2|0:0,0:0:0:0:
117,87,27052,1,0,0:0:0:0:
197,97,27171,2,0,L|257:103,1,60,8|0,1:2|0:0,0:0:0:0:
340,187,27409,2,0,L|280:193,1,60,2|0,0:2|0:0,0:0:0:0:
127,294,27607,5,0,0:0:0:0:
127,294,27647,2,0,P|105:266|100:237,1,60,2|0,1:2|0:0,0:0:0:0:
27,240,27885,2,0,P|33:206|53:183,1,60,2|0,0:2|0:0,0:0:0:0:
4,127,28123,2,0,P|33:111|63:111,1,60,10|0,1:2|0:0,0:0:0:0:
72,37,28362,2,0,P|102:49|121:72,1,60,2|0,0:2|0:0,0:0:0:0:
100,242,28599,5,2,1:2:0:0:
323,124,28837,2,0,L|196:133,1,120,2|8,0:2|1:0,0:0:0:0:
178,234,29194,2,0,L|237:229,1,60,2|0,0:2|0:0,0:0:0:0:
310,206,29432,2,0,P|308:259|253:303,1,120,2|0,0:2|0:0,0:0:0:0:
203,132,29790,5,0,0:0:0:0:
280,127,29909,2,0,L|339:122,1,60,2|8,0:2|1:0,0:0:0:0:
436,80,30147,2,0,B|418:63|418:63|436:157,1,120,2|0,0:2|0:0,0:0:0:0:
484,302,30504,5,0,1:2:0:0:
407,307,30623,2,0,L|347:311,1,60,2|0,0:2|0:0,0:0:0:0:
260,301,30861,2,0,B|359:294|359:294|347:311,1,120,2|0,0:0|0:0,0:0:0:0:
191,354,31218,6,0,L|131:358,2,60,0|2|0,0:0|0:0|1:0,0:0:0:0:
192,166,31575,2,0,P|165:220|199:276,1,120,2|0,0:0|0:0,0:0:0:0:
260,301,31932,5,8,1:0:0:0:
322,255,32052,1,2,0:2:0:0:
327,178,32171,1,2,0:2:0:0:
396,143,32290,1,2,0:0:0:0:
460,185,32409,5,4,1:0:0:0:
221,0,32647,5,2,0:0:0:0:
314,65,32766,2,0,L|254:70,1,60,0|8,0:0|1:0,0:0:0:0:
123,71,33004,5,2,0:0:0:0:
207,151,33123,2,0,L|147:145,1,60
94,254,33361,2,0,L|153:248,1,60,2|0,1:2|0:0,0:0:0:0:
280,378,33599,2,0,P|296:353|296:313,1,60,0|0,0:0|0:0,0:0:0:0:
40,202,33837,2,0,P|24:227|22:267,1,60,10|0,1:2|0:0,0:0:0:0:
227,329,34075,2,0,L|168:335,1,60,2|0,0:2|0:0,0:0:0:0:
61,384,34313,5,0,1:0:0:0:
242,128,34552,5,2,0:0:0:0:
229,259,34671,2,0,P|216:231|218:202,1,60,0|8,0:0|1:0,0:0:0:0:
242,128,34909,5,2,0:2:0:0:
338,250,35028,2,0,P|310:240|291:218,1,60,0|2,0:0|0:0,0:0:0:0:
310,58,35266,2,0,L|374:59,1,60,2|0,1:2|0:0,0:0:0:0:
413,177,35504,2,0,L|354:177,1,60,2|0,0:2|0:0,0:0:0:0:
241,89,35742,2,0,P|234:61|239:32,1,60,10|0,1:2|0:0,0:0:0:0:
481,146,35980,2,0,P|489:174|483:203,1,60,2|0,0:2|0:0,0:0:0:0:
410,309,36218,5,0,1:0:0:0:
109,92,36456,5,2,0:0:0:0:
37,177,36575,2,0,L|96:171,1,60,0|8,0:0|1:0,0:0:0:0:
209,197,36813,5,2,0:0:0:0:
116,266,36932,2,0,L|175:272,1,60,0|0,0:0|0:0,0:0:0:0:
313,214,37171,2,0,P|329:188|332:158,1,60,2|0,1:2|0:0,0:0:0:0:
396,124,37409,2,0,P|377:101|349:88,1,60,2|0,0:2|0:0,0:0:0:0:
336,18,37647,2,0,P|307:29|285:56,1,60,10|0,1:2|0:0,0:0:0:0:
216,42,37885,2,0,P|218:72|237:102,1,60,2|0,0:2|0:0,0:0:0:0:
332,159,38123,1,0,1:0:0:0:
436,384,38361,5,2,0:0:0:0:
483,321,38480,2,0,P|491:294|479:257,1,60,0|8,0:0|1:0,0:0:0:0:
332,159,38718,2,0,P|324:183|336:221,1,60,2|0,0:2|0:0,0:0:0:0:
415,291,38956,1,2,0:0:0:0:
460,181,39075,2,0,L|402:185,1,60,2|0,1:2|0:0,0:0:0:0:
286,290,39313,5,0,0:0:0:0:
300,311,39432,1,2,0:0:0:0:
323,325,39551,1,8,1:0:0:0:
349,330,39670,1,2,0:2:0:0:
375,328,39790,1,2,0:2:0:0:
398,314,39908,1,2,0:2:0:0:
415,291,40028,1,0,1:0:0:0:
223,60,40266,5,2,0:0:0:0:
209,196,40385,2,0,L|215:137,1,60,0|8,0:0|1:0,0:0:0:0:
127,0,40623,5,2,0:0:0:0:
112,136,40742,2,0,L|118:76,1,60,0|0,0:0|0:0,0:0:0:0:
209,196,40980,2,0,P|213:231|203:255,1,60,2|0,1:2|0:0,0:0:0:0:
49,313,41218,2,0,P|66:282|88:268,1,60,2|0,0:2|0:0,0:0:0:0:
248,313,41456,2,0,P|215:327|190:325,1,60,10|0,1:2|0:0,0:0:0:0:
84,195,41694,2,0,P|118:202|138:218,1,60,2|0,0:2|0:0,0:0:0:0:
150,382,41932,2,0,P|129:362|120:334,1,60,2|0,1:2|0:0,0:0:0:0:
262,178,42171,5,2,0:2:0:0:
248,313,42290,2,0,L|254:254,1,60,2|8,0:2|1:0,0:0:0:0:
390,211,42528,2,0,L|383:273,1,60,2|0,0:2|0:0,0:0:0:0:
373,364,42766,1,2,0:2:0:0:
247,313,42885,6,0,L|307:306,1,60,2|0,1:2|0:0,0:0:0:0:
457,328,43123,2,0,L|464:263,1,60,2|0,0:2|0:0,0:0:0:0:
427,150,43361,2,0,P|395:139|358:148,1,60,10|0,1:2|0:0,0:0:0:0:
244,186,43599,2,0,L|252:115,1,60,2|0,1:2|0:0,0:0:0:0:
261,36,43837,1,2,0:2:0:0:
55,302,44075,5,2,0:2:0:0:
62,260,44194,1,2,0:2:0:0:
89,228,44313,1,10,0:2:0:0:
128,214,44432,1,2,0:2:0:0:
169,221,44551,1,2,0:2:0:0:
201,247,44670,1,2,0:2:0:0:
216,286,44789,1,2,0:2:0:0:
210,327,44908,1,2,0:2:0:0:
183,360,45027,1,2,0:2:0:0:
145,376,45146,1,2,0:2:0:0:
104,369,45266,5,10,0:2:0:0:
116,342,45385,1,0,0:2:0:0:
97,318,45504,1,2,0:2:0:0:
112,291,45623,1,2,0:2:0:0:
99,263,45742,1,4,0:2:0:0:
294,278,45980,6,0,L|342:272,2,44.0000013427735,0|2|2,0:0|0:0|0:2,0:0:0:0:
216,286,46218,1,10,0:2:0:0:
235,119,46456,6,0,L|186:112,2,47.9999985351563,0|2|2,0:0|0:0|0:2,0:0:0:0:
332,133,46694,1,2,0:2:0:0:
332,133,46932,1,0,0:0:0:0:
483,236,47171,6,0,P|460:247|409:238,1,71.9999978027344,10|2,0:2|0:2,0:0:0:0:
350,310,47409,2,0,P|327:299|275:306,1,75,2|2,0:2|0:2,0:0:0:0:
184,381,47647,5,4,1:2:0:0:
135,217,47806,5,2,0:3:0:0:
184,381,47885,2,0,P|202:337|170:278,1,103.999995239258,2|2,0:3|0:3,0:0:0:0:
180,145,48123,1,8,1:0:0:0:
104,292,48282,5,2,0:0:0:0:
31,212,48361,2,0,L|133:216,1,103.999995239258,2|2,0:0|0:0,0:0:0:0:
298,222,48599,1,2,1:2:0:0:
390,100,48758,5,2,0:3:0:0:
355,262,48837,2,0,P|368:214|345:169,1,103.999995239258,2|2,0:3|0:3,0:0:0:0:
233,76,49075,1,8,1:0:0:0:
286,316,49234,5,2,0:2:0:0:
457,277,49313,2,0,L|355:262,1,103.999995239258,2|2,0:2|0:2,0:0:0:0:
220,233,49552,6,0,L|298:222,2,77.9999964294435,2|0|2,1:2|0:0|0:2,0:0:0:0:
165,294,49909,1,2,0:2:0:0:
277,377,50028,2,0,L|288:299,1,77.9999964294435,10|2,1:2|0:0,0:0:0:0:
209,156,50266,2,0,L|220:233,1,77.9999964294435,0|2,0:0|0:0,0:0:0:0:
361,337,50504,5,0,1:0:0:0:
298,222,50623,1,2,0:2:0:0:
415,275,50742,1,2,0:2:0:0:
288,300,50861,1,2,0:2:0:0:
375,207,50980,5,8,1:0:0:0:
280,309,51099,1,2,0:2:0:0:
383,198,51218,1,2,0:2:0:0:
276,122,51337,1,2,0:2:0:0:
467,167,51456,6,0,L|462:223,2,51.999997619629,0|2|0,1:3|0:0|0:3,0:0:0:0:
500,104,51694,2,0,P|469:95|424:110,1,77.9999964294435,2|0,0:0|0:0,0:0:0:0:
375,207,51932,1,8,1:0:0:0:
358,219,52011,1,0,0:0:0:0:
338,225,52090,1,2,0:0:0:0:
318,226,52170,1,2,0:2:0:0:
298,222,52249,1,2,0:2:0:0:
280,211,52328,1,2,0:2:0:0:
263,197,52409,6,0,L|272:139,2,51.999997619629,0|2|0,1:0|0:0|0:0,0:0:0:0:
184,77,52647,2,0,L|191:128,2,51.999997619629,2|0|2,0:0|0:0|0:0,0:0:0:0:
242,9,52885,2,0,L|343:21,1,77.9999964294435,8|2,1:0|0:0,0:0:0:0:
422,89,53123,2,0,L|321:101,1,77.9999964294435,2|0,0:0|0:0,0:0:0:0:
493,63,53361,6,0,P|498:90|493:115,2,51.999997619629,2|2|2,1:2|0:2|0:2,0:0:0:0:
512,182,53599,2,0,P|492:201|469:211,2,51.999997619629,2|2|2,0:2|0:2|0:2,0:0:0:0:
438,277,53837,2,0,P|411:270|390:255,2,51.999997619629,10|2|2,1:2|0:2|0:2,0:0:0:0:
322,229,54075,2,0,P|296:238|276:255,2,51.999997619629,2|2|2,0:2|0:2|0:2,0:0:0:0:
449,354,54313,6,0,L|434:256,1,77.9999964294435,0|2,1:0|0:0,0:0:0:0:
352,149,54552,2,0,L|344:97,2,51.999997619629,2|0|2,0:0|0:0|0:0,0:0:0:0:
277,253,54790,2,0,L|283:293,7,38.9999982147218,8|2|0|2|0|2|0|2,1:0|0:0|0:0|0:0|0:0|0:0|0:0|0:0,0:0:0:0:
175,180,55266,5,0,1:0:0:0:
279,174,55425,5,2,0:3:0:0:
123,229,55504,2,0,P|103:181|127:127,1,103.999995239258,2|2,0:3|0:3,0:0:0:0:
183,56,55742,1,8,1:0:0:0:
175,180,55901,5,2,0:2:0:0:
236,7,55980,2,0,P|255:54|232:109,1,103.999995239258,2|2,0:2|0:2,0:0:0:0:
241,253,56218,1,2,1:2:0:0:
183,56,56377,5,2,0:3:0:0:
279,174,56456,2,0,B|175:181,1,103.999995239258,2|2,0:3|0:3,0:0:0:0:
19,191,56694,1,8,1:0:0:0:
175,288,56853,5,2,0:2:0:0:
119,134,56932,2,0,P|103:182|123:229,1,103.999995239258,2|2,0:2|0:2,0:0:0:0:
82,373,57171,1,2,1:2:0:0:
175,288,57329,5,2,0:3:0:0:
184,282,57409,2,0,P|232:267|261:278,1,77.9999964294435,2|0,0:3|0:0,0:0:0:0:
323,326,57567,5,2,0:3:0:0:
335,336,57647,2,0,P|383:351|412:340,1,77.9999964294435,8|0,1:0|0:0,0:0:0:0:
470,264,57806,5,2,0:3:0:0:
467,243,57886,2,0,L|458:166,1,77.9999964294435,2|0,0:3|0:0,0:0:0:0:
326,88,58044,5,2,0:3:0:0:
329,113,58124,2,0,L|338:190,1,77.9999964294435,0|0,1:0|0:0,0:0:0:0:
512,119,58282,5,2,0:3:0:0:
486,100,58362,2,0,P|448:94|403:122,1,77.9999964294435,2|0,0:3|0:0,0:0:0:0:
338,190,58520,5,2,0:3:0:0:
312,215,58600,2,0,P|274:221|229:193,1,77.9999964294435,8|0,1:0|0:0,0:0:0:0:
127,31,58758,5,2,0:3:0:0:
133,73,58838,2,0,L|148:196,1,103.999995239258,2|2,0:3|0:3,0:0:0:0:
257,335,59075,1,2,1:2:0:0:
240,322,59154,1,2,0:2:0:0:
219,315,59233,1,2,0:2:0:0:
198,314,59313,1,2,0:2:0:0:
176,319,59392,1,2,0:2:0:0:
158,330,59471,1,2,0:2:0:0:
138,342,59552,5,8,1:0:0:0:
120,353,59631,1,2,0:3:0:0:
98,359,59710,1,2,0:3:0:0:
77,358,59790,1,2,0:3:0:0:
56,350,59869,1,2,0:3:0:0:
38,338,59948,1,2,0:3:0:0:
24,321,60028,5,0,1:0:0:0:
24,196,60186,1,0,1:0:0:0:
7,214,60266,2,0,L|84:220,1,77.9999964294435,2|0,1:2|0:0,0:0:0:0:
222,127,60504,2,0,L|145:133,1,77.9999964294435,10|2,1:2|0:2,0:0:0:0:
14,45,60742,2,0,L|91:51,1,77.9999964294435,0|2,1:0|0:2,0:0:0:0:
244,125,60980,5,6,0:1:0:0:
195,277,61139,5,2,0:1:0:0:
195,277,61218,2,0,P|177:225|208:171,1,103.999995239258,2|2,0:1|0:1,0:0:0:0:
245,30,61456,2,0,P|263:82|232:136,1,103.999995239258,10|0,0:1|0:1,0:0:0:0:
252,229,61694,1,2,0:1:0:0:
421,114,61853,1,2,0:1:0:0:
421,114,61932,2,0,L|323:123,1,97.4999955368044,2|0,0:1|0:0,0:0:0:0:
252,229,62171,6,0,L|329:223,1,77.9999964294435,2|0,0:1|0:0,0:0:0:0:
319,372,62409,2,0,P|303:337|309:299,1,77.9999964294435,10|0,0:1|0:0,0:0:0:0:
453,322,62647,2,0,L|375:329,1,77.9999964294435,2|0,0:1|0:0,0:0:0:0:
195,344,62885,5,6,1:2:0:0:
115,213,63123,1,2,0:0:0:0:
176,171,63242,2,0,B|200:152|200:152|194:272,1,138.000002632141,2|2,0:0|0:2,0:0:0:0:
195,344,63599,2,0,L|115:348,1,69.0000013160706,2|2,0:0|0:2,0:0:0:0:
58,165,63837,2,0,P|114:137|180:179,1,138.000002632141,2|2,1:2|0:0,0:0:0:0:
194,259,64313,1,10,1:2:0:0:
169,71,64552,1,2,0:2:0:0:
306,179,64790,6,0,B|254:185|254:185|223:164|223:164|168:171,2,138.000002632141,2|2|8,1:2|0:2|1:0,0:0:0:0:
501,88,65385,1,2,0:0:0:0:
419,99,65504,2,0,L|346:108,1,69.0000013160706,2|2,0:0|0:2,0:0:0:0:
498,184,65742,2,0,B|520:198|520:198|499:77,1,138.000002632141,2|2,1:2|0:0,0:0:0:0:
306,179,66218,2,0,P|359:152|426:215,1,138.000002632141,8|2,1:0|0:2,0:0:0:0:
434,334,66575,1,0,0:0:0:0:
359,227,66694,1,0,1:0:0:0:
434,334,66853,5,2,0:0:0:0:
427,342,66932,2,0,L|324:355,1,92.0000017547608,0|2,0:0|0:0,0:0:0:0:
232,368,67171,1,10,1:2:0:0:
159,237,67329,5,2,0:2:0:0:
172,248,67409,2,0,L|275:261,1,92.0000017547608,2|2,0:2|0:0,0:0:0:0:
336,354,67647,1,0,1:0:0:0:
263,259,67806,5,2,0:0:0:0:
281,240,67885,2,0,P|292:196|272:156,1,92.0000017547608,0|2,0:0|0:2,0:0:0:0:
177,21,68123,1,10,1:2:0:0:
328,115,68282,5,2,0:2:0:0:
308,95,68361,2,0,P|266:85|219:109,1,92.0000017547608,2|2,0:2|0:2,0:0:0:0:
172,248,68599,1,0,1:0:0:0:
12,24,68837,6,0,L|9:102,1,69.0000013160706,2|0,0:2|0:0,0:0:0:0:
92,162,69075,2,0,L|94:93,1,69.0000013160706,10|0,1:2|0:0,0:0:0:0:
176,165,69313,2,0,L|173:233,1,69.0000013160706,2|0,0:2|0:0,0:0:0:0:
121,329,69552,6,0,P|88:338|55:330,1,69.0000013160706,2|0,1:2|0:0,0:0:0:0:
33,258,69790,2,0,P|8:233|0:201,1,69.0000013160706,2|0,0:2|0:0,0:0:0:0:
196,349,70028,6,0,P|219:324|228:291,1,69.0000013160706,10|0,1:2|0:0,0:0:0:0:
280,236,70266,2,0,P|270:203|246:179,1,69.0000013160706,2|0,0:2|0:0,0:0:0:0:
301,311,70504,6,0,L|439:321,1,138.000002632141,2|0,1:2|0:0,0:0:0:0:
454,108,70861,2,0,B|402:92|402:92|422:184,1,138.000002632141,2|0,0:2|0:0,0:0:0:0:
438,321,71218,2,0,L|369:316,1,69.0000013160706,0|0,0:0|0:0,0:0:0:0:
100,245,71456,6,0,P|130:183|199:175,1,143.999995605469,2|0,1:2|0:0,0:0:0:0:
202,384,71813,2,0,L|173:243,1,143.999995605469,2|0,0:2|0:0,0:0:0:0:
257,51,72171,2,0,L|271:122,1,71.9999978027344,0|0,0:0|0:0,0:0:0:0:
100,245,72409,6,0,B|80:269|80:269|55:146,1,155.999992858887,2|0,1:2|0:0,0:0:0:0:
204,0,72766,2,0,P|269:-23|328:36,1,155.999992858887,2|0,0:2|0:0,0:0:0:0:
272,215,73123,2,0,P|269:257|296:293,1,77.9999964294435,0|0,0:0|0:0,0:0:0:0:
431,231,73361,6,0,B|389:257|339:233|355:213|306:192|261:222,1,167.999994873047,2|0,1:2|0:0,0:0:0:0:
402,82,73718,2,0,L|395:176,1,83.9999974365235,2|8,0:2|1:0,0:0:0:0:
384,329,73956,1,2,0:2:0:0:
273,216,74075,1,2,0:2:0:0:
231,369,74194,1,2,0:2:0:0:
215,264,74313,6,0,P|204:185|273:140,1,155.999992858887,2|0,1:2|0:0,0:0:0:0:
396,166,74671,1,0,0:0:0:0:
402,82,74790,2,0,L|408:-1,2,77.9999964294435,8|0|0,1:0|0:0|0:0,0:0:0:0:
389,243,75147,1,0,0:0:0:0:
473,156,75266,2,0,L|381:167,1,77.9999964294435,0|0,1:0|0:0,0:0:0:0:
311,233,75504,2,0,L|388:242,1,77.9999964294435,0|0,0:0|0:0,0:0:0:0:
402,82,75742,5,10,1:2:0:0:
247,155,75861,1,2,0:2:0:0:
395,165,75980,1,2,0:2:0:0:
289,84,76099,1,2,0:2:0:0:
311,233,76218,2,0,L|324:318,1,77.9999964294435,2|0,0:2|0:0,0:0:0:0:
189,310,76456,2,0,L|201:233,1,77.9999964294435,2|0,0:2|0:0,0:0:0:0:
395,165,76694,2,0,L|311:143,1,77.9999964294435,10|0,0:2|0:0,0:0:0:0:
117,165,76932,2,0,L|192:145,1,77.9999964294435,2|0,0:2|0:0,0:0:0:0:
372,94,77171,6,0,P|393:126|395:165,1,77.9999964294435,2|0,0:2|0:0,0:0:0:0:
117,165,77409,2,0,P|122:116|153:85,1,77.9999964294435,2|0,0:2|1:0,0:0:0:0:
256,23,77647,2,0,L|256:101,1,77.9999964294435,10|0,1:2|0:0,0:0:0:0:
256,258,77885,1,2,1:2:0:0:
192,145,78004,1,2,0:2:0:0:
319,145,78123,1,4,1:0:0:0:
319,145,78361,5,0,0:0:0:0:
315,301,78520,1,2,0:0:0:0:
256,258,78599,2,0,P|302:228|354:239,1,103.999995239258,10|2,1:2|0:0,0:0:0:0:
411,276,78837,2,0,P|457:305|509:295,1,103.999995239258,0|0,0:0|0:0,0:0:0:0:
319,145,79075,5,2,1:2:0:0:
315,301,79313,1,2,0:2:0:0:
470,233,79552,1,10,1:2:0:0:
309,133,79790,1,2,0:2:0:0:
315,301,80028,1,0,1:0:0:0:
283,112,80206,1,2,0:0:0:0:
283,112,80266,2,0,L|386:123,1,103.999995239258,2|2,0:2|0:2,0:0:0:0:
464,150,80504,6,0,L|297:131,1,155.999992858887,10|2,1:2|0:2,0:0:0:0:
89,106,80980,1,2,1:2:0:0:
247,23,81218,1,2,0:2:0:0:
161,124,81456,1,10,1:2:0:0:
169,23,81694,1,2,0:2:0:0:
154,200,81932,5,2,1:2:0:0:
319,224,82091,5,0,0:0:0:0:
338,212,82171,2,0,L|210:202,1,103.999995239258,2|2,0:0|0:0,0:0:0:0:
77,196,82409,1,10,1:2:0:0:
234,203,82647,5,2,0:2:0:0:
100,305,82806,1,2,0:2:0:0:
80,290,82885,2,0,P|60:246|78:193,1,103.999995239258,2|0,1:2|0:0,0:0:0:0:
162,125,83123,2,0,P|182:81|149:11,1,120.000004577637,2|0,0:2|0:0,0:0:0:0:
3,65,83361,2,0,L|107:74,1,103.999995239258,10|0,1:2|0:0,0:0:0:0:
249,118,83599,2,0,L|145:126,1,88.000002685547,2|0,0:2|0:0,0:0:0:0:
140,239,83837,6,0,L|217:232,1,77.9999964294435,2|0,1:2|0:0,0:0:0:0:
442,184,84075,2,0,P|442:231|404:272,1,77.9999964294435,0|0,0:0|0:0,0:0:0:0:
355,281,84313,1,8,1:0:0:0:
298,230,84432,2,0,P|328:207|367:205,2,77.9999964294435,0|0|0,0:0|0:0|0:0,0:0:0:0:
368,357,84790,6,0,L|353:273,1,77.9999964294435,0|0,1:0|0:0,0:0:0:0:
442,184,85028,2,0,P|442:231|404:272,1,77.9999964294435,0|0,0:0|0:0,0:0:0:0:
196,155,85266,1,8,1:0:0:0:
272,141,85385,2,0,L|356:126,1,77.9999964294435,0|0,0:0|0:0,0:0:0:0:
424,112,85623,1,0,0:0:0:0:
418,28,85742,6,0,P|434:69|425:112,1,90.0000034332277,2|0,1:2|0:0,0:0:0:0:
498,120,85980,2,0,P|481:160|444:184,1,90.0000034332277,2|0,0:2|0:0,0:0:0:0:
287,67,86218,2,0,P|304:27|341:3,1,90.0000034332277,8|0,1:2|0:0,0:0:0:0:
368,160,86456,2,0,P|351:119|360:76,1,90.0000034332277,2|0,0:2|0:0,0:0:0:0:
307,205,86694,6,0,P|342:231|386:233,1,90.0000034332277,2|0,1:2|0:0,0:0:0:0:
374,307,86932,2,0,P|417:301|450:270,1,90.0000034332277,2|0,0:2|0:0,0:0:0:0:
300,57,87171,2,0,P|257:63|224:94,1,90.0000034332277,10|0,1:2|0:0,0:0:0:0:
368,160,87409,2,0,P|333:134|289:132,1,90.0000034332277,2|0,0:2|0:0,0:0:0:0:
109,201,87647,6,0,P|122:243|157:270,1,90.0000034332277,2|0,1:2|0:0,0:0:0:0:
56,149,87885,2,0,P|35:187|40:231,1,90.0000034332277,2|0,0:2|0:0,0:0:0:0:
224,93,88123,2,0,P|200:55|160:37,1,90.0000034332277,10|0,1:2|0:0,0:0:0:0:
288,132,88361,2,0,P|297:89|282:47,1,90.0000034332277,2|0,0:2|0:0,0:0:0:0:
109,201,88599,6,0,L|265:210,1,143.999995605469,2|2,1:2|0:2,0:0:0:0:
367,366,88956,1,0,0:0:0:0:
411,300,89075,2,0,P|413:263|394:231,1,75,10|0,1:2|0:0,0:0:0:0:
452,186,89313,2,0,P|422:161|382:156,1,81.0000003089905,0|0,0:0|0:0,0:0:0:0:
187,300,89552,6,0,L|270:291,1,71.9999978027344,2|0,1:2|0:0,0:0:0:0:
340,282,89790,1,0,0:0:0:0:
321,124,90028,6,0,L|236:115,1,83.9999974365235,10|0,1:2|0:0,0:0:0:0:
116,103,90266,1,0,0:0:0:0:
401,384,90504,6,0,L|410:301,1,77.9999964294435,2|0,1:2|0:0,0:0:0:0:
421,204,90742,1,0,0:0:0:0:
119,13,90980,6,0,L|115:119,1,90.0000034332277,10|0,1:2|0:0,0:0:0:0:
107,302,91218,1,0,0:0:0:0:
409,306,91456,5,2,1:1:0:0:
305,296,91615,5,2,0:1:0:0:
327,294,91694,1,2,0:1:0:0:
205,277,91853,5,2,0:1:0:0:
227,275,91932,1,10,1:1:0:0:
227,275,92171,5,2,0:1:0:0:
107,302,92329,5,2,0:1:0:0:
127,294,92409,1,2,1:1:0:0:
46,220,92567,5,2,0:1:0:0:
59,235,92647,1,2,0:1:0:0:
109,138,92806,5,2,0:1:0:0:
98,155,92886,1,10,1:1:0:0:
207,174,93044,5,2,0:1:0:0:
187,168,93124,1,2,0:1:0:0:
205,277,93282,5,2,0:1:0:0:
202,256,93362,1,4,1:2:0:0:
202,256,93599,6,0,L|321:248,1,120,2|8,0:3|0:0,0:0:0:0:
399,241,93956,1,2,0:3:0:0:
399,241,94194,1,2,0:3:0:0:
311,325,94432,1,0,0:0:0:0:
318,169,94552,2,0,P|373:188|399:241,1,120,2|8,0:3|0:0,0:0:0:0:
311,325,94909,2,0,L|301:393,2,60,0|0|0,0:0|0:0|0:0,0:0:0:0:
321,247,95266,1,0,0:0:0:0:
307,31,95504,6,0,L|311:93,1,60,2|0,0:3|0:0,0:0:0:0:
321,247,95742,1,8,0:0:0:0:
222,120,95861,2,0,B|210:106|210:106|311:91,1,120,2|2,0:3|0:3,0:0:0:0:
321,247,96337,1,0,0:0:0:0:
435,150,96456,2,0,L|304:169,1,120,2|8,0:3|0:0,0:0:0:0:
162,128,96813,2,0,L|221:119,2,60,0|2|2,0:0|0:3|0:3,0:0:0:0:
142,285,97171,1,0,0:0:0:0:
83,61,97409,6,0,P|120:63|160:138,1,120,2|8,0:3|0:0,0:0:0:0:
142,285,97766,2,0,L|72:290,1,60,2|0,0:3|0:0,0:0:0:0:
2,213,98004,2,0,L|129:203,1,120,2|0,0:3|0:0,0:0:0:0:
219,278,98361,2,0,P|210:323|149:363,1,120,2|8,0:3|0:0,0:0:0:0:
121,204,98718,2,0,L|180:199,2,60,2|0|0,0:3|0:0|0:0,0:0:0:0:
2,213,99075,1,0,0:0:0:0:
151,362,99313,6,0,P|202:334|219:278,1,120,2|8,0:3|0:0,0:0:0:0:
180,199,99671,1,2,0:3:0:0:
338,270,99909,1,2,0:3:0:0:
180,199,100147,1,0,0:0:0:0:
219,278,100266,2,0,L|348:270,1,120,2|8,0:3|0:0,0:0:0:0:
418,318,100623,1,2,0:3:0:0:
463,186,100742,2,0,P|421:180|378:231,1,90,0|0,1:0|0:0,0:0:0:0:
338,270,100980,6,0,L|219:278,1,120,2|2,1:2|0:2,0:0:0:0:
247,88,101337,2,0,P|290:125|272:195,1,120,2|0,0:2|0:0,0:0:0:0:
84,228,101694,2,0,L|74:154,1,60,0|0,0:0|0:0,0:0:0:0:
158,123,101932,2,0,L|166:182,1,60,0|0,1:0|0:0,0:0:0:0:
97,308,102171,5,0,0:0:0:0:
177,256,102290,1,0,0:0:0:0:
80,318,102409,1,8,1:0:0:0:
166,182,102528,1,2,0:2:0:0:
241,350,102647,2,0,L|175:342,1,60,2|0,0:2|0:0,0:0:0:0:
63,328,102885,5,2,1:2:0:0:
241,350,103123,2,0,L|360:335,1,120,0|8,0:0|1:0,0:0:0:0:
431,357,103480,2,0,P|425:299|380:263,1,120,0|0,0:0|0:0,0:0:0:0:
258,69,103798,5,0,0:0:0:0:
258,69,103837,2,0,P|265:98|258:131,1,60,2|0,1:2|0:0,0:0:0:0:
309,183,104075,2,0,P|283:198|250:202,1,60,2|0,0:2|0:0,0:0:0:0:
217,267,104313,2,0,P|194:247|180:216,1,60,10|0,1:2|0:0,0:0:0:0:
109,205,104552,2,0,P|120:177|145:154,1,60,2|0,0:2|0:0,0:0:0:0:
259,127,104790,5,0,1:2:0:0:
181,220,105028,1,2,0:2:0:0:
134,82,105266,2,0,P|163:85|189:99,2,60,8|2|0,1:0|0:2|0:0,0:0:0:0:
86,19,105623,1,0,0:0:0:0:
82,165,105742,6,0,L|147:156,1,60,2|0,1:2|0:0,0:0:0:0:
318,135,105980,2,0,L|253:126,1,60,2|0,0:2|0:0,0:0:0:0:
181,220,106218,2,0,L|240:228,1,60,10|0,1:2|0:0,0:0:0:0:
364,46,106456,2,0,L|304:54,1,60,2|0,0:2|0:0,0:0:0:0:
258,345,106694,5,6,1:2:0:0:
338,245,106932,1,0,1:0:0:0:
125,134,107171,5,10,1:2:0:0:
240,228,107409,1,0,1:0:0:0:
358,3,107647,5,2,1:2:0:0:
256,130,107885,1,0,1:0:0:0:
507,273,108123,5,10,1:2:0:0:
354,147,108361,1,0,1:0:0:0:
395,367,108599,6,0,B|399:311|399:311|378:285|378:285|384:213,1,155.999992858887,6|2,1:2|0:2,0:0:0:0:
485,95,108956,2,0,L|477:173,2,77.9999964294435,2|8|2,0:2|1:0|0:2,0:0:0:0:
398,63,109313,2,0,P|359:64|328:86,1,77.9999964294435,2|2,0:2|0:2,0:0:0:0:
383,219,109552,2,0,L|398:63,1,155.999992858887,2|0,1:2|0:0,0:0:0:0:
301,256,110028,1,10,1:2:0:0:
477,172,110266,1,2,0:2:0:0:
328,325,110504,6,0,B|288:347|245:324|259:308|214:284|167:312,2,155.999992858887,2|2|8,1:2|0:2|1:0,0:0:0:0:
344,117,111099,1,2,0:2:0:0:
303,184,111218,2,0,P|290:221|302:257,1,77.9999964294435,2|2,0:2|0:2,0:0:0:0:
499,108,111456,2,0,L|338:117,1,155.999992858887,2|2,1:2|0:2,0:0:0:0:
147,175,111932,2,0,L|308:184,1,155.999992858887,10|2,1:2|0:2,0:0:0:0:
343,116,112290,1,0,0:0:0:0:
377,223,112409,5,2,1:2:0:0:
377,51,112567,5,2,0:2:0:0:
367,47,112647,2,0,P|316:48|279:83,1,103.999995239258,0|2,0:0|0:2,0:0:0:0:
302,183,112885,1,10,1:2:0:0:
111,194,113044,5,2,0:2:0:0:
130,187,113123,2,0,P|180:188|217:223,1,103.999995239258,0|2,0:2|0:2,0:0:0:0:
299,358,113361,1,2,1:2:0:0:
123,332,113520,5,2,0:2:0:0:
147,340,113599,2,0,B|162:348|162:348|151:253,1,103.999995239258,0|2,0:2|0:2,0:0:0:0:
138,90,113837,1,10,1:2:0:0:
7,250,113996,5,2,0:2:0:0:
48,253,114075,2,0,L|169:262,1,103.999995239258,0|0,0:0|0:0,0:0:0:0:
322,279,114313,1,2,1:2:0:0:
389,73,114552,6,0,P|407:106|405:145,1,77.9999964294435,2|0,0:2|0:0,0:0:0:0:
422,219,114790,2,0,P|383:218|351:197,1,77.9999964294435,8|0,1:2|0:0,0:0:0:0:
279,175,115028,2,0,P|299:142|333:124,1,77.9999964294435,2|0,0:2|0:0,0:0:0:0:
496,245,115266,6,0,P|475:277|441:295,1,77.9999964294435,2|0,1:2|0:0,0:0:0:0:
414,368,115504,2,0,P|375:367|343:346,1,77.9999964294435,2|0,0:2|0:0,0:0:0:0:
423,218,115742,6,0,P|425:179|407:145,1,77.9999964294435,10|0,1:2|0:0,0:0:0:0:
416,69,115980,2,0,P|383:47|345:46,1,77.9999964294435,2|0,0:2|0:0,0:0:0:0:
191,226,116218,6,0,B|317:216|317:216|289:252,1,155.999992858887,2|2,1:2|0:2,0:0:0:0:
238,310,116575,2,0,L|134:317,2,77.9999964294435,2|8|2,0:2|1:0|0:2,0:0:0:0:
191,226,116932,1,2,0:2:0:0:
112,233,117052,1,2,0:2:0:0:
34,242,117171,2,0,L|35:164,1,77.9999964294435,2|0,1:2|0:0,0:0:0:0:
126,70,117409,2,0,L|124:147,1,77.9999964294435,2|0,0:2|0:0,0:0:0:0:
73,306,117647,2,0,P|37:318|0:309,1,77.9999964294435,10|0,1:2|0:0,0:0:0:0:
126,70,117885,2,0,P|162:57|199:67,1,77.9999964294435,2|0,0:2|0:0,0:0:0:0:
309,188,118123,6,0,P|381:222|442:174,2,155.999992858887,2|2|8,1:2|0:2|1:0,0:0:0:0:
380,68,118718,2,0,L|372:146,2,77.9999964294435,2|0|0,0:2|0:0|0:0,0:0:0:0:
263,74,119016,6,0,L|265:50,1,19.4999991073609
263,74,119075,6,0,B|244:53|244:53|231:186,1,155.999992858887,2|2,1:2|0:2,0:0:0:0:
221,277,119432,1,0,0:0:0:0:
309,188,119552,2,0,P|232:211|223:281,1,155.999992858887,10|2,1:2|0:2,0:0:0:0:
466,336,120028,6,0,L|437:177,1,155.999992858887,2|2,1:2|0:2,0:0:0:0:
412,27,120385,1,0,0:0:0:0:
425,104,120504,2,0,L|502:98,2,77.9999964294435,8|2|0,1:0|0:2|0:0,0:0:0:0:
208,186,120861,1,0,0:2:0:0:
251,42,120980,6,0,B|200:12|200:12|206:122,1,155.999992858887,0|0,1:0|0:0,0:0:0:0:
216,269,121337,1,0,0:0:0:0:
208,186,121456,2,0,P|247:192|278:215,1,77.9999964294435,10|0,1:2|0:0,0:0:0:0:
223,351,121694,2,0,P|184:345|153:322,1,77.9999964294435,2|0,0:2|0:0,0:0:0:0:
73,154,121932,5,2,1:1:0:0:
176,131,122091,5,2,0:1:0:0:
153,129,122171,1,2,1:1:0:0:
284,125,122329,5,2,0:1:0:0:
261,123,122409,1,10,1:1:0:0:
261,123,122647,5,2,1:1:0:0:
440,158,122806,5,2,0:1:0:0:
425,176,122885,1,2,1:1:0:0:
364,72,123044,5,2,0:1:0:0:
377,91,123123,1,2,1:1:0:0:
261,123,123282,5,2,0:1:0:0:
282,115,123361,1,10,1:1:0:0:
279,235,123520,5,2,0:1:0:0:
276,213,123599,1,2,1:1:0:0:
389,257,123758,5,2,0:1:0:0:
367,249,123837,1,4,1:2:0:0:
483,268,124075,5,2,0:3:0:0:
346,322,124313,1,8,1:0:0:0:
418,343,124432,2,0,P|412:285|367:249,2,120,2|2|0,0:3|0:3|0:0,0:0:0:0:
346,322,125028,2,0,L|226:343,1,120,2|8,0:3|1:0,0:0:0:0:
105,360,125385,1,0,0:0:0:0:
108,330,125504,2,0,L|117:261,1,60,2|0,0:3|0:0,0:0:0:0:
124,82,125742,5,0,1:0:0:0:
29,202,125980,1,2,0:3:0:0:
186,219,126218,1,8,1:0:0:0:
100,151,126337,2,0,L|115:269,2,120,2|2|0,0:3|0:3|0:0,0:0:0:0:
124,82,126932,2,0,P|66:86|30:132,1,120,2|8,0:3|1:0,0:0:0:0:
98,229,127290,1,0,0:0:0:0:
127,226,127409,2,0,L|195:219,1,60,2|0,0:3|0:0,0:0:0:0:
366,205,127647,5,0,1:0:0:0:
289,71,127885,1,2,0:3:0:0:
313,272,128123,1,8,1:0:0:0:
360,129,128242,2,0,P|408:142|441:212,2,120,2|2|0,0:3|0:3|0:0,0:0:0:0:
237,276,128837,2,0,P|262:328|318:347,1,120,2|8,0:3|1:0,0:0:0:0:
366,205,129194,1,2,0:3:0:0:
336,206,129313,2,0,L|264:209,1,60,0|0,0:0|0:0,0:0:0:0:
198,352,129552,6,0,L|317:347,2,120,0|0|8,1:0|0:0|1:0,0:0:0:0:
88,356,130147,1,2,0:3:0:0:
188,255,130385,1,2,0:3:0:0:
52,213,130623,1,0,0:0:0:0:
198,352,130742,2,0,B|201:247|201:247|183:259,1,120,2|8,0:3|1:0,0:0:0:0:
52,213,131099,1,2,0:3:0:0:
63,185,131218,1,0,1:0:0:0:
139,118,131337,1,2,0:3:0:0:
128,90,131456,5,4,1:2:0:0:
128,90,131694,2,0,L|252:98,1,120,2|8,0:3|0:0,0:0:0:0:
377,188,132052,1,2,0:3:0:0:
179,176,132290,2,0,L|303:184,1,120,2|0,0:3|0:0,0:0:0:0:
370,262,132647,2,0,P|426:245|452:193,1,120,2|8,0:3|0:0,0:0:0:0:
307,101,133004,2,0,L|247:97,2,60,0|2|2,0:0|0:3|0:3,0:0:0:0:
377,188,133361,5,0,0:0:0:0:
366,337,133599,2,0,P|315:313|300:237,1,120,2|8,0:3|0:0,0:0:0:0:
387,114,133956,1,2,0:3:0:0:
433,303,134194,2,0,P|386:335|313:311,1,120,2|0,0:3|0:0,0:0:0:0:
295,255,134552,2,0,L|172:274,1,120,2|8,0:3|0:0,0:0:0:0:
71,241,134909,1,2,0:3:0:0:
106,372,135028,2,0,P|113:344|101:307,1,60,0|0,0:3|0:0,0:0:0:0:
37,156,135266,2,0,L|155:174,1,120,2|0,0:3|0:0,0:0:0:0:
314,176,135742,5,8,0:0:0:0:
176,273,135980,1,0,0:0:0:0:
333,159,136218,5,0,0:0:0:0:
193,78,136456,1,0,0:0:0:0:
353,143,136694,5,8,0:0:0:0:
155,174,136932,1,0,0:0:0:0:
373,126,137171,5,0,1:0:0:0:
335,251,137409,1,0,1:0:0:0:
373,126,137647,1,8,1:0:0:0:
335,251,137885,1,0,1:0:0:0:
485,235,138361,6,0,L|420:241,2,60,0|2|8,1:0|0:3|0:0,0:0:0:0:
335,251,138758,1,0,1:0:0:0:
343,268,138837,1,0,1:0:0:0:
256,192,139075,12,0,144790,0:0:0:0:
