osu file format v14

[General]
AudioFilename: audio.mp3
AudioLeadIn: 0
PreviewTime: 62885
Countdown: 0
SampleSet: Soft
StackLeniency: 0.4
Mode: 0
LetterboxInBreaks: 0
WidescreenStoryboard: 1

[Editor]
Bookmarks: 9552,17171,32409,47647,58123,62885,78123,82409,85742,93361,100980,108599,123837
DistanceSpacing: 1
BeatDivisor: 4
GridSize: 4
TimelineZoom: 1.199999

[Metadata]
Title:Paradise
TitleUnicode:Paradise
Artist:Sound Souler
ArtistUnicode:Sound Souler
Creator:kwk
Version:Normal
Source:Arcaea
Tags:Hobbes2 Mir Asaiga Tsumia 紅 Kou Crimson Solace
BeatmapID:1526016
BeatmapSetID:686777

[Difficulty]
HPDrainRate:2
CircleSize:4
OverallDifficulty:3
ApproachRate:5.5
SliderMultiplier:1.4
SliderTickRate:1

[Events]
//Background and Video events
0,0,"55064306_p0.jpg",0,0
//Break Periods
2,93561,99790
//Storyboard Layer 0 (Background)
//Storyboard Layer 1 (Fail)
//Storyboard Layer 2 (Pass)
//Storyboard Layer 3 (Foreground)
//Storyboard Sound Samples

[TimingPoints]
1933,476.190476190476,4,2,91,30,1,0
3837,-100,4,2,92,30,0,0
5742,-100,4,2,93,30,0,0
7647,-100,4,2,94,30,0,0
9313,-100,4,2,1,60,0,0
9552,-100,4,2,1,60,0,0
47647,-100,4,2,1,60,0,1
62885,-100,4,2,1,60,0,0
72409,-100,4,2,1,60,0,0
73956,-100,4,2,1,60,0,0
85742,-100,4,2,1,60,0,0
88599,-100,4,2,1,60,0,0
93837,-100,4,2,1,60,0,0
108599,-100,4,2,1,60,0,0
123837,-100,4,2,1,60,0,0
139552,-100,4,2,1,55,0,0
140028,-100,4,2,1,50,0,0
140504,-100,4,2,1,45,0,0
140980,-100,4,2,1,40,0,0
141456,-100,4,2,1,35,0,0
141932,-100,4,2,1,30,0,0
142409,-100,4,2,1,25,0,0
142885,-100,4,2,1,20,0,0
143361,-100,4,2,1,15,0,0
143837,-100,4,2,1,10,0,0
144313,-100,4,2,1,5,0,0

[Colours]
Combo1 : 255,255,166
Combo2 : 255,128,128
Combo3 : 0,255,255
Combo4 : 0,255,128

[HitObjects]
124,140,9552,6,0,P|185:123|265:148,1,140,4|8,0:0|0:1,0:0:0:0:
339,255,10504,1,0,0:0:0:0:
234,348,10980,2,0,L|127:363,1,105,8|2,0:1|0:3,0:0:0:0:
99,379,11456,6,0,P|85:326|106:238,1,140,0|8,0:0|0:1,0:0:0:0:
222,171,12409,1,0,0:0:0:0:
325,264,12885,2,0,L|409:178,1,105,8|2,0:1|0:3,0:0:0:0:
384,159,13361,6,0,P|343:117|253:127,1,140,0|8,0:0|0:1,0:0:0:0:
135,169,14313,1,0,0:0:0:0:
24,83,14790,2,0,L|16:194,1,105,8|0,0:1|0:0,0:0:0:0:
18,222,15266,6,0,P|70:272|143:264,1,140,0|8,0:0|0:1,0:0:0:0:
259,206,16218,1,0,0:0:0:0:
389,258,16694,2,0,P|410:303|371:365,1,105,8|0,0:1|0:0,0:0:0:0:
355,354,17171,6,0,L|251:338,1,105,4|2,1:2|0:0,0:0:0:0:
216,334,17647,1,8,1:2:0:0:
161,214,18123,2,0,L|87:222,2,70,0|2|10,1:0|0:0|1:2,0:0:0:0:
227,236,18837,1,2,0:0:0:0:
287,200,19075,6,0,P|288:135|247:76,1,140,2|8,1:2|1:0,0:0:0:0:
127,0,20028,2,0,L|0:72,1,140,2|10,1:2|1:2,0:0:0:0:
2,138,20742,1,2,0:2:0:0:
42,195,20980,6,0,L|188:203,1,140,2|8,1:2|1:0,0:0:0:0:
245,232,21694,1,2,0:2:0:0:
303,193,21932,2,0,L|386:177,2,70,2|2|10,1:2|0:2|1:2,0:0:0:0:
199,289,22885,6,0,L|88:298,1,105,2|2,1:2|0:2,0:0:0:0:
64,316,23361,2,0,L|81:389,2,70,8|2|2,1:0|0:2|1:2,0:0:0:0:
40,249,24075,1,0,0:2:0:0:
41,179,24313,2,0,L|52:89,1,70,10|2,1:2|0:2,0:0:0:0:
62,40,24790,5,2,1:2:0:0:
196,4,25266,2,0,P|243:10|300:53,1,105,10|2,1:2|0:2,0:0:0:0:
286,75,25742,2,0,L|222:205,1,140,0|10,0:0|1:2,0:0:0:0:
183,257,26456,1,2,0:2:0:0:
221,315,26694,6,0,P|279:323|322:298,1,105,2|0,1:2|0:0,0:0:0:0:
338,272,27171,1,8,1:2:0:0:
472,310,27647,2,0,L|474:235,1,70,2|2,1:2|0:2,0:0:0:0:
416,200,28123,2,0,L|417:129,1,70,10|2,1:2|0:2,0:0:0:0:
368,78,28599,5,2,1:2:0:0:
309,115,28837,1,2,0:2:0:0:
243,90,29075,2,0,P|243:37|285:-7,2,105,8|2|0,1:0|0:2|0:0,0:0:0:0:
207,150,30028,1,8,1:0:0:0:
222,289,30504,6,0,P|274:290|326:259,1,105,0|2,1:2|0:0,0:0:0:0:
356,166,31218,2,0,P|403:137|468:141,1,105,0|2,0:0|0:0,0:0:0:0:
505,225,31932,2,0,L|426:240,1,70,8|2,1:0|0:2,0:0:0:0:
368,258,32409,6,0,P|355:302|405:378,1,140,4|8,1:0|1:0,0:0:0:0:
472,380,33123,1,0,0:0:0:0:
503,317,33361,2,0,L|497:238,1,70,2|0,1:2|0:0,0:0:0:0:
493,177,33837,2,0,L|470:95,1,70,10|2,1:2|0:2,0:0:0:0:
421,63,34313,6,0,P|377:50|301:100,1,140,0|8,1:0|1:0,0:0:0:0:
274,161,35027,1,0,0:0:0:0:
312,220,35265,2,0,L|398:217,1,70,2|2,1:2|0:2,0:0:0:0:
452,219,35742,1,10,1:2:0:0:
485,280,35980,1,2,0:2:0:0:
454,343,36218,6,0,L|308:351,1,140,0|8,1:0|1:0,0:0:0:0:
249,376,36932,1,0,0:0:0:0:
190,337,37170,2,0,P|173:285|180:265,1,70,2|2,1:2|0:2,0:0:0:0:
198,204,37647,2,0,L|252:144,1,70,10|2,1:2|0:2,0:0:0:0:
314,157,38123,6,0,L|392:175,2,70,0|2|8,1:0|0:0|1:0,0:0:0:0:
288,132,38718,2,0,L|257:58,1,70,2|2,0:2|0:0,0:0:0:0:
248,34,39075,1,2,1:2:0:0:
182,10,39313,2,0,L|42:38,1,140,0|2,0:0|0:2,0:0:0:0:
13,66,40028,6,0,P|-2:124|13:174,1,105,0|0,1:0|0:0,0:0:0:0:
34,190,40504,1,8,1:0:0:0:
38,329,40980,2,0,L|111:299,1,70,2|2,1:2|0:2,0:0:0:0:
169,281,41456,2,0,L|241:309,1,70,10|2,1:2|0:2,0:0:0:0:
302,292,41932,6,0,P|366:300|425:251,2,140,2|8|2,1:2|1:0|1:2,0:0:0:0:
252,241,43123,1,2,0:2:0:0:
244,171,43361,2,0,L|249:92,1,70,10|2,1:2|1:2,0:0:0:0:
260,32,43837,5,2,0:2:0:0:
327,13,44075,2,0,P|421:27|316:158,1,350,2|10,0:2|0:2,0:0:0:0:
255,128,45504,1,2,0:2:0:0:
193,160,45742,6,0,P|163:201|180:291,1,140,4|10,0:2|0:2,0:0:0:0:
221,337,46456,1,0,0:0:0:0:
290,348,46694,2,0,L|441:363,1,140,2|10,0:2|0:2,0:0:0:0:
495,238,47647,6,0,L|483:90,1,140,4|8,1:2|1:0,0:0:0:0:
437,45,48361,1,2,0:0:0:0:
374,75,48599,2,0,L|386:149,1,70,2|2,1:2|0:3,0:0:0:0:
327,184,49075,2,0,L|337:258,1,70,8|2,1:0|0:2,0:0:0:0:
310,318,49552,5,2,1:2:0:0:
243,340,49790,1,2,0:2:0:0:
190,294,50028,2,0,P|177:239|194:182,1,105,10|2,1:2|0:0,0:0:0:0:
212,167,50504,2,0,P|212:104|145:54,1,140,0|8,1:0|1:0,0:0:0:0:
28,112,51456,6,0,L|27:236,1,105,0|0,1:3|0:0,0:0:0:0:
42,248,51932,2,0,P|85:253|143:220,1,105,8|0,1:0|0:0,0:0:0:0:
163,201,52409,1,0,1:0:0:0:
256,303,52885,2,0,P|295:319|360:303,1,105,8|0,1:0|0:0,0:0:0:0:
384,288,53361,5,2,1:2:0:0:
454,167,53837,2,0,L|352:159,1,70,10|2,1:2|0:2,0:0:0:0:
314,157,54313,1,0,1:0:0:0:
201,238,54790,2,0,L|149:144,1,105,8|0,1:0|0:0,0:0:0:0:
133,115,55266,6,0,P|174:81|259:102,1,140,0|8,1:0|1:0,0:0:0:0:
296,152,55980,1,2,0:2:0:0:
330,212,56218,2,0,P|378:223|452:165,1,140,2|8,1:2|1:0,0:0:0:0:
441,104,56932,1,2,0:2:0:0:
430,34,57171,6,0,L|495:-2,2,70,2|2|8,1:2|0:3|1:0,0:0:0:0:
371,72,57885,1,2,0:3:0:0:
303,52,58123,2,0,L|214:18,2,70,0|2|8,1:0|0:3|1:0,0:0:0:0:
366,175,59075,6,0,P|243:188|265:290,1,245,2|0,1:2|0:0,0:0:0:0:
235,310,60028,2,0,P|275:294|336:310,1,105,0|0,1:0|0:0,0:0:0:0:
356,334,60504,1,10,1:2:0:0:
492,363,60980,5,6,0:1:0:0:
495,293,61218,1,2,0:1:0:0:
495,223,61456,1,10,0:1:0:0:
501,153,61694,1,2,0:1:0:0:
502,83,61932,2,0,P|455:36|379:22,1,140,2|10,0:1|0:1,0:0:0:0:
315,28,62647,1,2,0:1:0:0:
270,81,62885,6,0,L|277:193,1,105,6|2,1:2|0:0,0:0:0:0:
280,220,63361,1,8,1:0:0:0:
239,354,63837,2,0,P|172:373|103:338,1,140,2|10,1:2|1:2,0:0:0:0:
82,280,64552,1,2,0:2:0:0:
103,213,64790,2,0,L|183:216,2,70,2|2|8,1:2|0:2|1:0,0:0:0:0:
19,100,65742,2,0,L|163:104,1,140,2|8,1:2|1:0,0:0:0:0:
228,107,66456,1,2,0:2:0:0:
297,110,66694,6,0,P|344:147|352:227,1,140,0|10,1:0|1:2,0:0:0:0:
311,279,67409,1,2,0:2:0:0:
341,341,67647,2,0,P|390:364|481:326,1,140,0|10,1:0|1:2,0:0:0:0:
484,271,68361,1,2,0:2:0:0:
468,202,68599,6,0,L|401:183,1,70,0|2,1:0|0:2,0:0:0:0:
380,115,69075,2,0,L|311:94,1,70,10|2,1:2|0:2,0:0:0:0:
266,146,69552,2,0,L|194:127,1,70,2|2,1:2|0:2,0:0:0:0:
198,58,70028,2,0,L|125:39,1,70,10|2,1:2|0:2,0:0:0:0:
63,60,70504,6,0,P|51:105|66:168,1,105,2|2,1:2|0:2,0:0:0:0:
94,174,70980,1,8,1:0:0:0:
219,183,71456,2,0,P|231:228|221:287,1,105,2|2,1:2|0:2,0:0:0:0:
196,308,71932,1,8,1:0:0:0:
326,365,72409,6,0,P|358:332|416:311,1,105,2|2,1:2|0:2,0:0:0:0:
447,315,72885,1,8,1:0:0:0:
409,180,73361,2,0,P|364:167|317:129,1,105,2|2,1:2|0:2,0:0:0:0:
297,103,73837,2,0,L|271:-12,1,105,8|2,1:0|0:2,0:0:0:0:
239,7,74313,6,0,P|147:8|107:43,2,140,2|8|0,1:2|1:0|1:0,0:0:0:0:
366,93,75742,2,0,L|392:207,1,105,10|2,1:2|0:2,0:0:0:0:
396,229,76218,6,0,P|344:258|267:240,1,140,2|10,0:2|0:2,0:0:0:0:
234,180,76932,1,2,0:2:0:0:
177,137,77171,2,0,P|141:123|101:127,1,70,2|2,0:2|0:2,0:0:0:0:
67,179,77647,2,0,L|50:255,1,70,10|2,1:2|1:2,0:0:0:0:
57,317,78123,6,0,L|169:342,1,105,4|0,1:0|0:0,0:0:0:0:
193,349,78599,1,10,1:2:0:0:
332,361,79075,1,2,1:2:0:0:
320,291,79313,1,2,0:2:0:0:
348,226,79552,1,10,1:2:0:0:
405,186,79790,1,2,0:2:0:0:
474,188,80028,6,0,P|503:130|495:83,1,105,0|0,1:0|0:0,0:0:0:0:
469,71,80504,1,10,1:2:0:0:
331,46,80980,2,0,L|260:51,2,70,2|2|10,1:2|0:2|1:2,0:0:0:0:
369,104,81694,1,2,0:2:0:0:
329,161,81932,6,0,P|279:168|227:141,1,105,2|0,1:2|0:0,0:0:0:0:
203,123,82409,1,10,1:2:0:0:
66,92,82885,2,0,P|44:156|66:231,1,140,2|10,1:2|1:2,0:0:0:0:
100,282,83599,1,2,0:2:0:0:
166,304,83837,6,0,L|311:282,1,140,2|8,1:2|1:0,0:0:0:0:
357,236,84552,1,0,0:0:0:0:
305,188,84790,2,0,L|220:166,1,70,0|0,1:0|0:0,0:0:0:0:
200,111,85266,2,0,L|124:90,1,70,8|0,1:0|0:0,0:0:0:0:
64,109,85742,6,0,P|39:155|56:242,1,140,2|8,1:2|1:2,0:0:0:0:
102,288,86456,1,2,0:2:0:0:
161,251,86694,2,0,P|207:226|294:243,1,140,2|10,1:2|1:2,0:0:0:0:
334,294,87408,1,2,0:2:0:0:
305,358,87647,6,0,L|157:383,1,140,2|10,1:2|1:2,0:0:0:0:
98,366,88361,1,2,0:2:0:0:
30,348,88599,1,2,1:2:0:0:
6,210,89075,1,10,1:2:0:0:
84,94,89552,6,0,P|128:76|194:83,1,105,2|0,1:2|0:0,0:0:0:0:
215,95,90028,1,10,1:2:0:0:
331,172,90504,2,0,P|375:154|441:161,1,105,2|0,1:2|0:0,0:0:0:0:
459,178,90980,1,10,1:2:0:0:
256,192,91456,12,4,93361,1:2:0:0:
48,247,100980,6,0,L|158:258,1,105,2|2,1:2|0:2,0:0:0:0:
187,261,101456,1,8,1:0:0:0:
308,191,101932,2,0,L|389:174,2,70,0|0|8,1:0|0:0|1:0,0:0:0:0:
239,206,102647,1,2,0:2:0:0:
181,167,102884,6,0,P|173:99|199:28,1,140,2|8,1:2|1:0,0:0:0:0:
308,115,103837,2,0,P|370:128|428:82,1,140,2|10,1:2|1:2,0:0:0:0:
488,49,104551,1,2,0:2:0:0:
494,118,104789,6,0,L|495:232,1,105,0|0,1:2|0:0,0:0:0:0:
493,258,105266,1,8,1:0:0:0:
401,363,105741,2,0,P|328:376|257:339,1,140,2|10,1:2|1:2,0:0:0:0:
246,284,106456,1,2,0:2:0:0:
262,216,106694,5,6,1:2:0:0:
179,329,107171,1,10,1:2:0:0:
44,288,107647,1,2,1:2:0:0:
34,218,107885,1,0,1:0:0:0:
23,148,108123,1,10,1:2:0:0:
12,78,108361,1,0,1:0:0:0:
45,16,108599,6,0,L|159:26,1,105,6|2,1:2|0:2,0:0:0:0:
184,30,109075,1,8,1:0:0:0:
298,110,109551,2,0,P|320:164|286:240,1,140,2|10,1:2|1:2,0:0:0:0:
228,268,110266,1,2,0:2:0:0:
161,245,110504,6,0,L|106:193,2,70,2|2|8,1:2|0:2|1:0,0:0:0:0:
260,341,111456,2,0,L|406:324,1,140,2|10,1:2|1:2,0:0:0:0:
468,317,112171,1,2,0:2:0:0:
501,255,112408,6,0,P|486:197|420:158,1,140,2|10,1:2|1:2,0:0:0:0:
349,158,113123,1,0,0:2:0:0:
299,207,113361,2,0,L|218:216,1,70,2|0,1:2|0:2,0:0:0:0:
198,277,113837,2,0,L|120:284,1,70,10|0,1:2|0:0,0:0:0:0:
72,240,114313,6,0,P|65:174|104:108,1,140,2|8,1:2|1:2,0:0:0:0:
163,83,115027,1,2,0:2:0:0:
232,72,115266,2,0,L|302:88,1,70,2|2,1:2|0:2,0:0:0:0:
302,157,115742,2,0,L|375:173,1,70,10|2,1:2|0:2,0:0:0:0:
427,131,116218,6,0,L|500:115,2,70,2|2|8,1:2|0:2|1:0,0:0:0:0:
402,196,116932,1,2,0:2:0:0:
443,252,117171,2,0,L|527:236,2,70,2|2|10,1:2|0:2|1:2,0:0:0:0:
326,329,118123,6,0,P|282:313|197:345,1,140,2|8,1:2|1:0,0:0:0:0:
134,372,118837,1,0,0:0:0:0:
66,353,119075,2,0,P|53:301|61:271,1,70,2|2,1:2|0:2,0:0:0:0:
104,235,119552,2,0,L|146:173,1,70,10|2,1:2|0:2,0:0:0:0:
132,108,120027,6,0,P|51:92|-8:138,2,140,2|8|0,1:2|1:0|1:0,0:0:0:0:
252,179,121456,1,10,1:2:0:0:
320,194,121694,1,2,0:2:0:0:
376,153,121932,6,0,P|374:89|356:46,1,105,2|0,1:1|0:0,0:0:0:0:
328,34,122409,1,10,1:1:0:0:
188,18,122885,2,0,L|105:39,1,70,2|2,1:1|1:1,0:0:0:0:
99,102,123361,2,0,L|24:123,1,70,10|2,1:1|1:1,0:0:0:0:
3,184,123837,6,0,P|-11:237|11:321,1,140,4|8,1:2|1:0,0:0:0:0:
141,362,124789,1,0,0:0:0:0:
256,282,125265,2,0,L|363:303,1,105,8|2,1:0|0:3,0:0:0:0:
355,337,125741,6,0,L|495:309,1,140,0|8,1:0|1:0,0:0:0:0:
509,170,126694,1,0,1:0:0:0:
437,46,127170,2,0,L|340:8,1,105,8|2,1:0|0:3,0:0:0:0:
306,19,127646,6,0,P|264:60|272:141,1,140,0|8,1:0|1:0,0:0:0:0:
373,230,128598,1,0,0:0:0:0:
312,356,129075,2,0,L|203:363,1,105,8|0,1:0|0:0,0:0:0:0:
172,364,129551,6,0,P|122:312|122:245,1,140,0|8,1:0|1:0,0:0:0:0:
221,150,130503,1,0,0:0:0:0:
350,202,130979,2,0,P|360:158|349:115,1,70,8|0,1:0|1:0,0:0:0:0:
313,77,131456,5,4,1:2:0:0:
178,39,131932,1,8,0:0:0:0:
142,174,132409,1,0,0:0:0:0:
277,212,132885,1,8,0:0:0:0:
411,249,133361,5,0,0:0:0:0:
375,384,133837,1,8,0:0:0:0:
240,346,134314,1,0,0:0:0:0:
276,211,134790,1,8,0:0:0:0:
313,77,135266,2,0,P|478:43|440:184,1,350,2|0,0:3|0:0,0:0:0:0:
253,165,137171,5,0,1:0:0:0:
209,219,137409,1,0,1:0:0:0:
212,288,137647,1,8,1:0:0:0:
251,345,137885,1,0,1:0:0:0:
379,290,138361,6,0,L|439:148,1,140,0|0,1:0|1:0,0:0:0:0:
256,192,139075,12,0,144790,0:0:0:0:
